osu file format v14

[General]
AudioFilename: dRAPER- JoYrIDEs.mp3
AudioLeadIn: 0
PreviewTime: 44908
Countdown: 0
SampleSet: Soft
StackLeniency: 0.4
Mode: 0
LetterboxInBreaks: 0
WidescreenStoryboard: 0

[Editor]
Bookmarks: 11389,22683,33977,38212,45271,67859,84805,90452,113041,135629
DistanceSpacing: 1.2
BeatDivisor: 4
GridSize: 8
TimelineZoom: 0.6999998

[Metadata]
Title:Joyride
TitleUnicode:Joyride
Artist:Draper
ArtistUnicode:Draper
Creator:Rohit6
Version:Light Insane
Source:
Tags:drum and bass dnb liquid perspectives ep monstercat electronic dance edm Log Off Now Side BOUYAAA Come[Back]Home CBH
BeatmapID:858558
BeatmapSetID:392188

[Difficulty]
HPDrainRate:5.5
CircleSize:4
OverallDifficulty:8
ApproachRate:8.5
SliderMultiplier:1.6
SliderTickRate:2

[Events]
//Background and Video events
0,0,"o1.jpg",0,0
//Break Periods
2,34167,38212
//Storyboard Layer 0 (Background)
//Storyboard Layer 1 (Fail)
//Storyboard Layer 2 (Pass)
//Storyboard Layer 3 (Foreground)
//Storyboard Sound Samples

[TimingPoints]
85,352.941176470588,4,2,5,60,1,0
2820,-100,4,2,5,20,0,0
2908,-100,4,2,5,60,0,0
5643,-100,4,2,5,20,0,0
5732,-100,4,2,5,60,0,0
8467,-100,4,2,5,20,0,0
8555,-100,4,2,3,60,0,0
11026,-80,4,2,0,60,0,0
11290,-80,4,2,7,20,0,0
11379,-100,4,2,5,70,0,0
14114,-100,4,2,5,50,0,0
14202,-100,4,2,5,70,0,0
16937,-100,4,2,5,20,0,0
17026,-100,4,2,5,70,0,0
19761,-100,4,2,5,20,0,0
19849,-100,4,2,3,70,0,0
22320,-80,4,2,0,70,0,0
22584,-80,4,2,0,20,0,0
22673,-100,4,2,6,70,0,0
33614,-80,4,2,0,70,0,0
33879,-80,4,2,0,10,0,0
33967,-80,4,2,0,80,0,0
39967,-100,4,2,0,60,0,0
40320,-100,4,2,0,65,0,0
40673,-100,4,2,0,70,0,0
41026,-100,4,2,0,75,0,0
41379,-100,4,2,0,85,0,0
41732,-100,4,2,0,90,0,0
42084,-100,4,2,6,95,0,0
42437,-100,4,2,6,80,0,0
45261,-83.3333333333333,4,2,8,100,0,1
56202,-71.4285714285714,4,2,0,100,0,0
56467,-71.4285714285714,4,2,0,10,0,0
56555,-83.3333333333333,4,2,8,100,0,1
59290,-83.3333333333333,4,2,8,20,0,1
59379,-83.3333333333333,4,2,6,100,0,1
61849,-83.3333333333333,4,2,6,50,0,1
62202,-83.3333333333333,4,2,8,100,0,1
65026,-83.3333333333333,4,2,6,100,0,1
65379,-83.3333333333333,4,2,7,100,0,1
66437,-83.3333333333333,4,2,8,100,0,1
67496,-71.4285714285714,4,2,0,100,0,1
67761,-71.4285714285714,4,2,0,10,0,1
67849,-100,4,2,8,60,0,0
70584,-100,4,2,8,20,0,0
70673,-100,4,2,8,60,0,0
73408,-100,4,2,8,20,0,0
73496,-100,4,2,8,60,0,0
76232,-100,4,2,8,20,0,0
76320,-100,4,2,8,60,0,0
78790,-83.3333333333333,4,2,0,60,0,0
79055,-83.3333333333333,4,2,0,10,0,0
79143,-100,4,2,8,60,0,0
81879,-100,4,2,8,20,0,0
81967,-100,4,2,8,60,0,0
84790,-100,4,2,6,70,0,0
87614,-100,4,2,6,80,0,0
90437,-83.3333333333333,4,2,8,100,0,1
101379,-90.9090909090909,4,2,0,100,0,0
101643,-90.9090909090909,4,2,0,10,0,0
101732,-83.3333333333333,4,2,8,100,0,1
104467,-83.3333333333333,4,2,8,20,0,1
104555,-83.3333333333333,4,2,6,100,0,1
107026,-83.3333333333333,4,2,6,50,0,1
107379,-83.3333333333333,4,2,8,100,0,1
110202,-83.3333333333333,4,2,8,100,0,1
110555,-83.3333333333333,4,2,7,100,0,1
111614,-83.3333333333333,4,2,8,100,0,1
112673,-71.4285714285714,4,2,0,100,0,1
112937,-71.4285714285714,4,2,7,10,0,1
113026,-100,4,2,8,60,0,0
115761,-100,4,2,8,20,0,0
115849,-100,4,2,8,60,0,0
118584,-100,4,2,8,20,0,0
118673,-100,4,2,8,60,0,0
121408,-100,4,2,8,20,0,0
121496,-100,4,2,8,60,0,0
124232,-100,4,2,8,20,0,0
124320,-100,4,2,8,60,0,0
127055,-100,4,2,8,20,0,0
127143,-100,4,2,8,60,0,0
129879,-100,4,2,8,20,0,0
129967,-100,4,2,8,60,0,0
132702,-100,4,2,8,20,0,0
132790,-100,4,2,8,80,0,0
135261,-100,4,2,8,100,0,0
135614,-100,4,2,8,50,0,0

[Colours]
Combo1 : 155,251,11
Combo2 : 255,209,26
Combo3 : 255,128,0
Combo4 : 182,182,182

[HitObjects]
177,82,85,5,8,0:3:0:0:
265,46,261,1,8,0:3:0:0:
262,142,438,1,8,0:0:0:0:
184,88,614,1,0,0:0:0:0:
184,88,702,1,0,0:0:0:0:
184,88,790,1,0,0:0:0:0:
176,183,967,1,0,0:0:0:0:
253,238,1143,2,0,P|301:230|355:245,1,80,8|0,0:0|0:0,0:0:0:0:
431,334,1496,6,0,P|392:342|353:337,1,80
259,311,1849,1,8,0:0:0:0:
175,360,2026,1,0,0:0:0:0:
159,359,2114,1,0,0:0:0:0:
143,358,2202,1,0,0:0:0:0:
127,357,2290,1,0,0:0:0:0:
110,356,2379,1,0,0:0:0:0:
43,286,2555,2,0,B|34:251|34:251|46:159,1,120,8|0,0:0|0:0,0:0:0:0:
50,136,2908,5,8,0:3:0:0:
132,184,3084,1,8,0:3:0:0:
224,157,3261,1,8,0:0:0:0:
161,97,3437,1,0,0:0:0:0:
161,97,3526,1,0,0:0:0:0:
161,97,3614,1,0,0:0:0:0:
224,157,3790,1,0,0:0:0:0:
312,119,3967,2,0,P|343:87|354:34,1,80,8|0,0:0|0:0,0:0:0:0:
161,97,4320,6,0,P|132:124|119:162,1,80
140,252,4673,1,8,0:0:0:0:
226,210,4849,1,0,0:0:0:0:
241,205,4937,1,0,0:0:0:0:
257,203,5026,1,0,0:0:0:0:
272,203,5114,1,0,0:0:0:0:
287,206,5202,1,0,0:0:0:0:
361,266,5379,2,0,B|454:259|454:259|426:241,1,120,8|0,0:0|0:0,0:0:0:0:
371,177,5732,5,8,0:3:0:0:
457,164,5908,1,8,0:3:0:0:
400,96,6085,1,8,0:0:0:0:
315,107,6261,1,0,0:0:0:0:
315,107,6349,1,0,0:0:0:0:
315,107,6437,2,0,P|319:69|342:34,1,80
233,69,6790,2,0,P|230:118|246:159,1,80,8|0,0:0|0:0,0:0:0:0:
279,257,7143,5,0,0:0:0:0:
203,303,7320,1,0,0:0:0:0:
115,293,7496,2,0,B|101:264|101:264|106:213,1,80,8|0,0:0|0:0,0:0:0:0:
108,200,7761,1,0,0:0:0:0:
110,184,7849,1,0,0:0:0:0:
113,168,7937,1,0,0:0:0:0:
116,152,8026,1,0,0:0:0:0:
190,92,8202,2,0,P|234:108|323:77,1,120,8|0,0:0|0:0,0:0:0:0:
331,76,8555,5,0,0:0:0:0:
390,151,8732,2,0,L|482:161,1,80,8|0,0:3|0:0,0:0:0:0:
292,140,9084,5,0,0:0:0:0:
233,215,9261,2,0,L|141:225,1,80,8|0,0:3|0:0,0:0:0:0:
361,185,9614,5,0,0:0:0:0:
420,260,9791,2,0,L|512:270,1,80,8|0,0:3|0:0,0:0:0:0:
309,254,10143,5,0,0:0:0:0:
250,329,10320,2,0,L|158:339,1,80,8|0,0:3|0:0,0:0:0:0:
404,348,10673,2,0,L|496:358,1,80,8|0,0:3|0:0,0:0:0:0:
284,183,11026,6,0,B|246:186|224:170|224:170|208:183|208:183|172:161|127:175,1,150,2|0,0:1|0:0,0:0:0:0:
116,187,11379,6,0,P|105:158|116:77,1,80,8|8,0:3|0:3,0:0:0:0:
147,23,11732,1,8,0:0:0:0:
196,99,11908,2,0,P|194:126|176:153,2,40
279,51,12261,1,0,0:0:0:0:
349,112,12437,2,0,P|387:106|446:74,1,80,8|0,0:0|0:0,0:0:0:0:
300,188,12790,6,0,P|262:194|203:226,1,80
374,258,13143,1,8,0:0:0:0:
390,163,13320,1,0,0:0:0:0:
384,147,13408,1,0,0:0:0:0:
376,132,13496,1,0,0:0:0:0:
364,120,13584,1,0,0:0:0:0:
349,112,13673,1,0,0:0:0:0:
260,78,13849,2,0,B|223:79|223:79|202:86|202:86|182:79|182:79|136:77,1,120,8|0,0:0|0:0,0:0:0:0:
109,78,14202,6,0,P|106:118|120:165,1,80,8|8,0:3|0:3,0:0:0:0:
158,242,14555,1,8,0:0:0:0:
242,195,14732,1,0,0:0:0:0:
242,195,14820,1,0,0:0:0:0:
242,195,14908,2,0,P|285:173|334:175,1,80
407,202,15261,2,0,P|446:197|481:178,1,80,8|0,0:0|0:0,0:0:0:0:
489,35,15614,5,0,0:0:0:0:
407,86,15790,1,0,0:0:0:0:
320,43,15967,1,8,0:0:0:0:
242,99,16143,1,0,0:0:0:0:
234,113,16232,1,0,0:0:0:0:
232,127,16320,1,0,0:0:0:0:
233,143,16408,1,0,0:0:0:0:
239,158,16496,1,0,0:0:0:0:
324,202,16673,2,0,B|363:213|363:213|426:183,1,80,8|0,0:0|0:0,0:0:0:0:
480,156,17026,6,0,P|489:208|461:264,1,80,8|8,0:3|0:3,0:0:0:0:
413,301,17379,1,8,0:0:0:0:
317,298,17555,2,0,P|302:326|281:340,2,40
324,202,17908,1,0,0:0:0:0:
234,166,18084,2,0,P|179:168|124:151,1,80,8|0,0:0|0:0,0:0:0:0:
288,91,18437,6,0,P|343:93|398:76,1,80
222,20,18790,1,8,0:0:0:0:
198,113,18967,1,0,0:0:0:0:
198,128,19055,1,0,0:0:0:0:
198,143,19143,1,0,0:0:0:0:
198,159,19232,1,0,0:0:0:0:
198,174,19320,1,0,0:0:0:0:
113,210,19496,2,0,P|135:249|184:268,1,80,8|0,0:0|0:0,0:0:0:0:
279,254,19849,5,0,0:0:0:0:
397,229,20026,2,0,P|413:191|401:149,1,80,8|0,0:3|0:0,0:0:0:0:
232,219,20379,5,0,0:0:0:0:
342,186,20556,2,0,P|370:155|373:112,1,80,8|0,0:3|0:0,0:0:0:0:
202,172,20908,5,0,0:0:0:0:
304,127,21084,2,0,P|340:108|358:68,1,80,8|0,0:3|0:0,0:0:0:0:
188,115,21438,5,0,0:0:0:0:
287,59,21614,2,0,P|327:53|358:22,1,80,8|0,0:3|0:0,0:0:0:0:
200,20,21967,2,0,P|159:25|128:56,1,80,8|0,0:3|0:0,0:0:0:0:
257,136,22320,6,0,B|295:145|295:145|401:100,1,150,2|0,0:1|0:0,0:0:0:0:
421,96,22673,6,0,P|463:103|494:145,1,80,0|0,0:0|1:0,0:0:0:0:
464,221,23026,1,8,0:0:0:0:
360,238,23202,2,0,L|348:187,2,40
273,297,23555,1,0,1:0:0:0:
173,266,23732,2,0,P|163:234|190:161,1,80,8|0,0:0|0:0,0:0:0:0:
245,41,24084,6,0,P|255:73|228:146,1,80,0|0,0:0|1:0,0:0:0:0:
242,225,24437,1,8,0:0:0:0:
138,190,24614,1,0,0:0:0:0:
122,190,24702,1,0,0:0:0:0:
106,192,24790,1,0,0:0:0:0:
90,196,24879,1,0,0:0:0:0:
75,203,24967,1,0,1:0:0:0:
36,317,25144,1,2,0:1:0:0:
155,297,25320,1,2,0:1:0:0:
75,203,25496,6,0,P|75:154|101:98,1,80,2|0,0:1|0:0,0:0:0:0:
151,24,25849,1,2,0:1:0:0:
228,123,26026,2,0,P|238:161|237:201,1,80,2|0,0:1|0:0,0:0:0:0:
155,297,26379,1,2,0:1:0:0:
156,180,26555,2,0,B|157:147|157:147|152:138|152:138|156:81,1,80,2|0,0:1|0:0,0:0:0:0:
259,50,26908,6,0,P|312:62|364:49,1,80,0|0,0:0|1:0,0:0:0:0:
426,24,27261,1,8,0:0:0:0:
442,118,27437,1,0,0:0:0:0:
445,133,27526,1,0,0:0:0:0:
448,148,27614,1,0,0:0:0:0:
451,163,27702,1,0,0:0:0:0:
454,178,27790,1,0,1:1:0:0:
385,246,27967,2,0,L|299:240,1,80,8|0,0:0|0:0,0:0:0:0:
170,347,28320,6,0,L|218:275,1,80,0|0,1:0|1:0,0:0:0:0:
223,184,28673,2,0,L|187:112,1,80,8|0,0:0|0:0,0:0:0:0:
175,92,28937,1,0,0:0:0:0:
172,96,29026,1,0,0:0:0:0:
112,170,29202,1,0,1:0:0:0:
139,264,29379,2,0,P|202:277|239:261,1,80,8|0,0:0|0:0,0:0:0:0:
336,190,29732,6,0,B|345:220|345:220|336:300,1,80,0|0,0:0|1:0,0:0:0:0:
283,346,30084,1,8,0:0:0:0:
215,273,30261,1,0,0:0:0:0:
213,257,30349,1,0,0:0:0:0:
210,241,30437,2,0,L|160:235,2,40
336,190,30790,1,2,0:1:0:0:
216,146,30967,1,2,0:1:0:0:
352,79,31143,6,0,P|392:89|438:63,1,80,2|0,1:1|0:0,0:0:0:0:
280,29,31496,1,2,0:1:0:0:
208,163,31673,6,0,P|168:173|122:147,1,80,2|0,0:1|0:0,0:0:0:0:
280,113,32026,1,2,0:1:0:0:
302,230,32202,2,0,B|338:245|338:245|379:234,1,80,2|0,0:1|0:0,0:0:0:0:
208,163,32555,6,0,B|172:148|172:148|131:159,1,80,0|0,0:0|1:0,0:0:0:0:
40,263,32908,1,8,0:0:0:0:
167,232,33084,1,8,0:3:0:0:
56,183,33261,2,0,L|9:151,2,40,8|0|8,0:3|0:0|0:3,0:0:0:0:
117,298,33614,6,0,P|190:313|252:242,1,150,2|0,0:1|0:0,0:0:0:0:
244,267,33967,5,4,0:1:0:0:
256,192,39614,12,0,42084,0:0:0:0:
208,192,42437,5,0,1:0:0:0:
179,102,42614,1,8,0:0:0:0:
179,102,42790,1,8,0:0:0:0:
304,192,42967,5,0,1:0:0:0:
333,102,43144,1,8,0:0:0:0:
333,102,43320,1,8,0:0:0:0:
256,184,43496,5,0,1:0:0:0:
256,80,43673,1,8,0:0:0:0:
310,242,43849,5,0,1:0:0:0:
206,242,44026,1,8,0:0:0:0:
206,242,44202,1,0,0:0:0:0:
363,318,44379,5,0,1:0:0:0:
411,241,44555,1,8,0:3:0:0:
411,241,44732,1,8,0:3:0:0:
488,300,44908,1,12,0:3:0:0:
488,300,45084,1,12,0:3:0:0:
458,169,45261,6,0,P|470:124|451:40,1,95.9999970703126,4|4,1:3|1:3,0:0:0:0:
355,16,45614,1,8,0:0:0:0:
255,118,45790,1,0,0:0:0:0:
279,122,45878,1,0,0:0:0:0:
304,123,45967,1,0,0:0:0:0:
328,119,46055,1,0,0:0:0:0:
350,110,46143,1,0,1:0:0:0:
453,44,46320,2,0,B|466:72|466:72|470:160,1,95.9999970703126,8|0,0:0|0:0,0:0:0:0:
497,264,46673,6,0,B|464:256|464:256|380:264,1,95.9999970703126,0|0,0:0|1:0,0:0:0:0:
279,283,47026,1,8,0:0:0:0:
317,164,47202,1,0,0:0:0:0:
309,141,47290,1,0,0:0:0:0:
301,117,47379,2,0,L|316:57,2,47.9999985351563,0|0|0,0:0|0:0|1:0,0:0:0:0:
355,242,47732,2,0,P|401:254|460:229,1,95.9999970703126,8|0,0:0|0:0,0:0:0:0:
315,322,48084,6,0,P|269:334|210:309,1,95.9999970703126,4|4,1:3|1:3,0:0:0:0:
134,232,48437,1,8,0:0:0:0:
213,135,48614,2,0,L|276:130,1,47.9999985351563
285,206,48790,2,0,L|348:201,1,47.9999985351563
363,119,48967,1,0,1:0:0:0:
452,195,49143,2,0,P|473:163|471:98,1,95.9999970703126,8|0,0:0|0:0,0:0:0:0:
306,32,49496,6,0,L|241:25,2,47.9999985351563,2|0|2,0:0|0:0|1:2,0:0:0:0:
375,136,49849,2,0,L|366:242,1,95.9999970703126,10|0,0:0|0:0,0:0:0:0:
270,258,50202,2,0,L|262:163,1,95.9999970703126,2|0,0:0|0:0,0:0:0:0:
397,186,50555,2,0,L|388:292,1,95.9999970703126,10|0,0:0|0:0,0:0:0:0:
267,355,50908,5,4,1:3:0:0:
169,282,51084,1,4,1:3:0:0:
64,347,51261,2,0,P|75:302|64:246,1,95.9999970703126,8|0,0:0|0:0,0:0:0:0:
56,232,51526,1,0,0:0:0:0:
52,208,51614,1,0,0:0:0:0:
56,184,51702,1,0,0:0:0:0:
66,162,51790,1,0,1:0:0:0:
158,69,51967,2,0,P|112:80|66:66,1,95.9999970703126,8|0,0:0|0:0,0:0:0:0:
256,37,52320,6,0,P|301:25|347:39,1,95.9999970703126,0|0,0:0|1:0,0:0:0:0:
448,112,52673,1,8,0:0:0:0:
384,219,52849,1,0,0:0:0:0:
360,215,52937,1,0,0:0:0:0:
335,214,53026,1,0,0:0:0:0:
311,218,53114,1,0,0:0:0:0:
289,227,53202,1,0,1:0:0:0:
192,307,53379,2,0,B|179:275|179:275|188:178,1,95.9999970703126,8|0,0:0|0:0,0:0:0:0:
338,116,53732,6,0,B|306:129|306:129|209:120,1,95.9999970703126,4|4,1:3|1:3,0:0:0:0:
120,114,54084,1,8,0:0:0:0:
191,11,54261,1,2,0:0:0:0:
203,31,54349,1,0,0:0:0:0:
209,53,54437,1,2,0:0:0:0:
86,29,54614,1,0,1:0:0:0:
54,149,54790,1,8,0:0:0:0:
175,177,54967,1,2,0:0:0:0:
323,115,55143,6,0,L|333:68,2,47.9999985351563
380,226,55496,2,0,P|351:254|277:266,1,95.9999970703126,8|0,0:0|0:0,0:0:0:0:
225,148,55849,2,0,P|254:176|328:188,1,95.9999970703126,2|0,0:0|0:0,0:0:0:0:
426,36,56202,6,0,B|394:76|359:66|359:66|356:88|356:88|313:79|294:123,1,167.999994873047,2|0,0:1|0:0,0:0:0:0:
279,146,56555,6,0,B|217:161|217:161|169:143,1,95.9999970703126,4|4,1:3|1:3,0:0:0:0:
73,97,56908,1,8,0:0:0:0:
26,211,57084,2,0,L|30:279,1,47.9999985351563
106,243,57261,2,0,L|110:311,1,47.9999985351563
64,356,57437,1,0,0:0:0:0:
198,345,57614,2,0,P|237:335|320:351,1,95.9999970703126,8|0,0:0|0:0,0:0:0:0:
450,351,57967,6,0,P|421:322|394:242,1,95.9999970703126,0|0,0:0|1:0,0:0:0:0:
385,147,58320,1,8,0:0:0:0:
284,220,58496,1,0,0:0:0:0:
260,224,58584,1,0,0:0:0:0:
235,223,58673,1,0,0:0:0:0:
211,217,58761,1,0,0:0:0:0:
189,206,58849,1,0,1:0:0:0:
106,111,59026,2,0,P|66:183|84:259,1,143.999995605469,8|0,0:0|0:0,0:0:0:0:
88,281,59379,5,0,1:0:0:0:
189,206,59555,2,0,L|306:222,1,95.9999970703126,2|0,0:1|0:0,0:0:0:0:
74,241,59908,5,0,1:0:0:0:
175,166,60084,2,0,L|292:182,1,95.9999970703126,2|0,0:1|0:0,0:0:0:0:
60,205,60437,5,0,1:0:0:0:
161,130,60613,2,0,L|278:146,1,95.9999970703126,2|0,0:1|0:0,0:0:0:0:
45,168,60967,5,0,1:0:0:0:
146,93,61143,2,0,L|263:109,1,95.9999970703126,2|0,0:1|0:0,0:0:0:0:
26,132,61496,5,0,1:0:0:0:
127,57,61673,1,2,0:1:0:0:
161,176,61849,1,2,0:1:0:0:
194,195,61937,1,2,0:1:0:0:
232,198,62026,1,2,0:1:0:0:
269,191,62114,1,2,0:1:0:0:
303,174,62202,6,0,B|338:162|338:162|423:172,1,95.9999970703126,4|4,1:3|1:3,0:0:0:0:
244,223,62555,2,0,P|228:182|249:121,1,95.9999970703126,8|0,0:0|0:0,0:0:0:0:
253,112,62820,1,0,0:0:0:0:
274,101,62908,1,0,0:0:0:0:
297,97,62996,1,0,0:0:0:0:
320,99,63084,1,0,1:0:0:0:
440,142,63261,2,0,B|445:203|445:203|431:251,1,95.9999970703126,8|0,0:0|0:0,0:0:0:0:
301,363,63614,6,0,B|296:302|296:302|313:258,1,95.9999970703126,0|0,0:0|1:0,0:0:0:0:
336,149,63967,1,8,0:0:0:0:
212,163,64143,1,0,0:0:0:0:
187,162,64232,1,0,0:0:0:0:
163,161,64320,1,0,0:0:0:0:
139,160,64408,1,0,0:0:0:0:
115,159,64496,1,0,1:0:0:0:
60,271,64673,2,0,L|177:275,1,95.9999970703126,8|0,0:0|0:0,0:0:0:0:
232,175,65026,5,4,1:3:0:0:
183,60,65202,1,4,1:3:0:0:
308,65,65379,2,0,P|355:71|398:52,1,95.9999970703126,2|0,0:1|0:0,0:0:0:0:
277,175,65732,2,0,P|229:181|170:147,1,95.9999970703126,2|0,0:1|0:0,0:0:0:0:
312,275,66084,2,0,P|360:281|419:247,1,95.9999970703126,2|0,0:1|0:0,0:0:0:0:
243,350,66437,5,0,0:0:0:0:
139,279,66614,1,2,0:0:0:0:
186,163,66790,1,8,0:0:0:0:
291,237,66967,1,0,0:0:0:0:
295,250,67055,1,0,0:0:0:0:
300,262,67143,1,2,0:0:0:0:
324,246,67232,1,0,0:0:0:0:
351,238,67320,1,2,1:2:0:0:
379,242,67408,1,0,0:0:0:0:
397,269,67496,6,0,B|453:260|502:294|502:294|479:284|458:235,1,167.999994873047,2|0,0:1|0:0,0:0:0:0:
450,231,67849,6,0,P|441:194|446:143,1,80,4|4,1:3|1:3,0:0:0:0:
455,50,68202,1,8,0:0:0:0:
366,84,68379,1,0,0:0:0:0:
350,85,68467,1,0,0:0:0:0:
334,85,68555,1,0,0:0:0:0:
318,83,68643,1,0,0:0:0:0:
302,79,68732,1,0,1:0:0:0:
202,91,68908,2,0,P|149:97|111:122,1,80,8|0,0:0|0:0,0:0:0:0:
326,209,69261,6,0,P|320:156|295:118,1,80,0|0,0:0|1:0,0:0:0:0:
280,24,69614,1,8,0:0:0:0:
231,115,69790,1,0,0:0:0:0:
218,124,69879,1,0,0:0:0:0:
203,130,69967,1,0,0:0:0:0:
187,135,70055,1,0,0:0:0:0:
171,137,70143,1,0,1:0:0:0:
68,115,70320,2,0,B|56:210|56:210|77:191,1,120,8|0,0:0|0:0,0:0:0:0:
99,178,70673,6,0,P|146:173|196:189,1,80,4|4,1:3|1:3,0:0:0:0:
268,231,71026,1,8,0:0:0:0:
323,143,71202,2,0,L|366:137,1,40
356,214,71379,2,0,L|399:208,1,40
432,131,71555,1,0,1:0:0:0:
470,231,71732,1,8,0:0:0:0:
387,287,71908,1,0,0:0:0:0:
268,231,72084,6,0,L|165:225,1,80,0|0,0:0|1:0,0:0:0:0:
138,150,72437,1,8,0:0:0:0:
74,232,72614,1,0,0:0:0:0:
69,247,72702,1,0,0:0:0:0:
68,262,72790,1,0,0:0:0:0:
70,277,72879,1,0,0:0:0:0:
75,292,72967,1,0,1:0:0:0:
159,351,73143,2,0,P|211:332|287:342,1,120,8|0,0:0|0:0,0:0:0:0:
302,353,73496,6,0,B|318:317|318:317|316:253,1,80,4|4,1:3|1:3,0:0:0:0:
285,176,73849,1,8,0:0:0:0:
389,179,74026,1,0,0:0:0:0:
404,176,74114,1,0,0:0:0:0:
419,171,74202,1,0,0:0:0:0:
433,163,74290,1,0,0:0:0:0:
445,153,74379,1,0,1:0:0:0:
451,49,74555,2,0,P|392:54|357:87,1,80,8|0,0:0|0:0,0:0:0:0:
285,146,74908,6,0,L|195:162,1,80,0|0,0:0|1:0,0:0:0:0:
103,175,75261,1,8,0:0:0:0:
69,273,75437,1,0,0:0:0:0:
72,288,75526,1,0,0:0:0:0:
75,303,75614,2,0,L|61:359,2,40
185,361,75967,2,0,P|220:323|207:245,1,120,8|0,0:0|0:0,0:0:0:0:
198,229,76320,6,0,P|244:226|277:196,1,80,4|4,1:3|1:3,0:0:0:0:
333,123,76673,1,8,0:0:0:0:
243,70,76849,1,0,0:0:0:0:
240,85,76937,1,0,0:0:0:0:
239,101,77026,1,0,0:0:0:0:
243,116,77114,1,0,0:0:0:0:
251,129,77202,1,0,1:0:0:0:
348,203,77379,2,0,P|409:194|428:196,1,80,8|0,0:0|0:0,0:0:0:0:
308,294,77732,6,0,P|268:295|229:286,1,80,0|0,0:0|1:0,0:0:0:0:
171,196,78084,1,8,0:0:0:0:
251,129,78261,2,0,L|288:147,1,40,8|0,0:3|0:0,0:0:0:0:
172,88,78437,2,0,L|136:70,1,40,8|0,0:3|0:0,0:0:0:0:
247,46,78614,1,8,0:3:0:0:
185,169,78790,2,0,B|138:259|138:259|188:241,1,143.999995605469,2|0,0:1|0:0,0:0:0:0:
201,242,79143,6,0,P|231:237|293:248,1,80,4|4,1:3|1:3,0:0:0:0:
373,288,79496,1,8,0:0:0:0:
363,184,79673,1,0,0:0:0:0:
366,168,79761,1,0,0:0:0:0:
369,151,79849,2,0,L|355:84,2,40,0|0|0,0:0|0:0|1:0,0:0:0:0:
274,195,80202,1,8,0:0:0:0:
178,153,80379,1,0,0:0:0:0:
100,222,80555,6,0,P|76:180|88:116,1,80,0|0,0:0|1:0,0:0:0:0:
119,54,80908,1,8,0:0:0:0:
206,109,81084,1,0,0:0:0:0:
221,113,81173,1,0,0:0:0:0:
236,114,81261,1,0,0:0:0:0:
251,113,81349,1,0,0:0:0:0:
266,110,81437,1,0,1:0:0:0:
337,34,81614,2,0,B|417:17|368:50|462:29,1,120,8|0,0:0|0:0,0:0:0:0:
487,19,81967,6,0,B|477:54|477:54|486:122,1,80,4|4,1:3|1:3,0:3:0:0:
505,198,82320,1,8,0:0:0:0:
409,238,82496,1,0,0:0:0:0:
393,238,82584,1,0,0:0:0:0:
377,234,82673,1,0,0:0:0:0:
362,227,82761,1,0,0:0:0:0:
349,217,82849,1,0,1:0:0:0:
271,147,83026,2,0,P|215:151|183:130,1,80,8|0,0:0|0:0,0:0:0:0:
326,70,83379,6,0,P|364:62|401:76,1,80,0|0,0:0|1:0,0:0:0:0:
466,158,83732,1,8,0:0:0:0:
390,229,83908,2,0,L|333:218,1,40
371,149,84084,2,0,L|314:138,1,40
282,200,84261,1,0,1:0:0:0:
194,171,84437,2,0,B|190:122|190:122|207:102|207:102|202:38,1,120,8|0,0:0|0:0,0:0:0:0:
199,27,84790,5,0,1:0:0:0:
291,74,84967,2,0,L|385:63,1,80,8|0,0:0|0:0,0:0:0:0:
207,102,85320,5,0,1:0:0:0:
299,149,85497,2,0,L|393:138,1,80,8|0,0:0|0:0,0:0:0:0:
215,178,85849,5,0,1:0:0:0:
307,225,86026,1,8,0:0:0:0:
224,257,86202,5,0,1:0:0:0:
132,210,86379,2,0,L|38:221,1,80,8|0,0:0|0:0,0:0:0:0:
233,334,86732,5,0,1:0:0:0:
141,287,86909,2,0,L|47:298,1,80,8|0,0:0|0:0,0:0:0:0:
224,257,87261,5,0,1:0:0:0:
322,288,87437,1,8,0:0:0:0:
302,185,87614,5,0,1:0:0:0:
276,285,87790,1,8,0:0:0:0:
276,285,87967,1,8,0:0:0:0:
216,148,88143,5,0,1:0:0:0:
164,250,88320,1,8,0:0:0:0:
164,250,88496,1,8,0:0:0:0:
140,98,88673,5,0,1:0:0:0:
68,198,88849,1,8,0:0:0:0:
216,148,89026,5,0,1:0:0:0:
162,262,89203,1,8,0:0:0:0:
162,262,89379,1,8,0:0:0:0:
302,185,89555,5,0,1:0:0:0:
271,315,89732,1,8,0:3:0:0:
363,267,89908,1,8,0:3:0:0:
212,231,90084,1,12,0:3:0:0:
302,185,90261,1,12,0:3:0:0:
192,334,90437,6,0,P|131:334|93:293,1,95.9999970703126,4|4,1:3|1:3,0:0:0:0:
78,191,90790,1,8,0:0:0:0:
192,248,90967,1,0,0:0:0:0:
216,252,91055,1,0,0:0:0:0:
241,253,91144,1,0,0:0:0:0:
265,249,91232,1,0,0:0:0:0:
287,240,91320,1,0,1:0:0:0:
375,151,91496,2,0,B|380:89|380:89|372:56,1,95.9999970703126,8|0,0:0|0:0,0:0:0:0:
210,98,91849,6,0,B|271:103|271:103|304:95,1,95.9999970703126,0|0,0:0|1:0,0:0:0:0:
417,59,92202,1,8,0:0:0:0:
405,159,92378,1,0,0:0:0:0:
413,181,92467,1,0,0:0:0:0:
420,203,92555,2,0,L|412:269,2,47.9999985351563
278,143,92908,2,0,P|232:155|173:130,1,95.9999970703126,8|0,0:0|0:0,0:0:0:0:
326,58,93260,6,0,P|372:46|431:71,1,95.9999970703126,4|4,1:3|1:3,0:0:0:0:
345,161,93613,1,8,0:0:0:0:
235,78,93790,2,0,L|187:81,1,47.9999985351563
163,154,93966,2,0,L|115:157,1,47.9999985351563
77,88,94143,1,0,1:0:0:0:
60,210,94319,2,0,P|92:244|138:256,1,95.9999970703126,8|0,0:0|0:0,0:0:0:0:
235,159,94672,6,0,L|242:94,2,47.9999985351563,2|0|2,0:0|0:0|1:2,0:0:0:0:
320,244,95025,2,0,L|426:253,1,95.9999970703126,10|0,0:0|0:0,0:0:0:0:
375,142,95378,2,0,L|280:151,1,95.9999970703126,2|0,0:0|0:0,0:0:0:0:
221,266,95731,2,0,L|327:275,1,95.9999970703126,10|0,0:0|0:0,0:0:0:0:
177,152,96084,6,0,B|115:137|115:137|54:148,1,95.9999970703126,4|4,1:3|1:3,0:0:0:0:
58,294,96437,2,0,B|92:278|92:278|122:189,1,95.9999970703126,8|0,0:0|0:0,0:0:0:0:
120,194,96702,1,0,0:0:0:0:
125,170,96790,1,0,0:0:0:0:
119,146,96878,1,0,0:0:0:0:
110,123,96966,1,0,1:0:0:0:
42,33,97143,2,0,P|124:40|151:22,1,95.9999970703126,8|0,0:0|0:0,0:0:0:0:
231,138,97496,6,0,P|276:126|322:140,1,95.9999970703126,0|0,0:0|1:0,0:0:0:0:
382,249,97849,1,8,0:0:0:0:
467,154,98025,1,0,0:0:0:0:
471,130,98113,1,0,0:0:0:0:
472,105,98202,1,0,0:0:0:0:
468,81,98290,1,0,0:0:0:0:
459,59,98378,1,0,1:0:0:0:
341,3,98555,2,0,B|328:35|328:35|337:132,1,95.9999970703126,8|0,0:0|0:0,0:0:0:0:
439,227,98908,6,0,P|392:211|332:232,1,95.9999970703126,4|4,1:3|1:3,0:0:0:0:
252,306,99260,1,8,0:0:0:0:
197,189,99437,2,0,L|130:202,2,47.9999985351563,2|0|2,0:0|0:0|0:0,0:0:0:0:
267,82,99790,1,0,1:0:0:0:
161,15,99966,1,8,0:0:0:0:
93,120,100143,1,2,0:0:0:0:
205,196,100320,5,2,0:0:0:0:
205,196,100408,1,0,0:0:0:0:
205,196,100496,1,2,0:0:0:0:
315,109,100672,2,0,P|343:138|355:212,1,95.9999970703126,8|0,0:0|0:0,0:0:0:0:
238,265,101025,2,0,P|266:236|278:162,1,95.9999970703126,2|0,0:0|0:0,0:0:0:0:
93,120,101379,6,0,B|129:151|129:151|167:159|167:159|218:207,1,132.00000402832,2|0,0:1|0:0,0:0:0:0:
223,206,101731,6,0,B|245:215|245:215|307:200,1,88.000002685547,4|4,1:3|1:3,0:0:0:0:
424,164,102084,1,8,0:0:0:0:
439,65,102260,2,0,L|380:78,1,47.9999985351563
354,5,102437,2,0,L|295:18,1,47.9999985351563
280,88,102613,1,0,0:0:0:0:
160,78,102790,2,0,P|120:60|38:84,1,95.9999970703126,8|0,0:0|0:0,0:0:0:0:
217,129,103143,6,0,P|234:93|201:12,1,95.9999970703126,0|0,0:0|1:0,0:0:0:0:
106,131,103496,1,8,0:0:0:0:
176,202,103672,1,0,0:0:0:0:
198,210,103760,1,0,0:0:0:0:
221,213,103849,1,0,0:0:0:0:
244,210,103937,1,0,0:0:0:0:
267,204,104025,1,0,1:0:0:0:
243,78,104202,2,0,B|216:113|216:113|221:226,1,143.999995605469,8|0,0:0|0:0,0:0:0:0:
223,253,104555,5,0,1:0:0:0:
327,206,104731,2,0,L|444:222,1,95.9999970703126,2|0,0:1|0:0,0:0:0:0:
218,176,105084,5,0,1:0:0:0:
333,120,105260,2,0,L|450:136,1,95.9999970703126,2|0,0:1|0:0,0:0:0:0:
211,96,105614,5,0,1:0:0:0:
336,31,105790,1,2,0:1:0:0:
218,176,105967,5,0,1:0:0:0:
333,120,106143,2,0,L|450:136,1,95.9999970703126,2|0,0:1|0:0,0:0:0:0:
223,253,106496,5,0,1:0:0:0:
327,206,106672,2,0,L|444:222,1,95.9999970703126,2|0,0:1|0:0,0:0:0:0:
184,321,107025,1,2,0:1:0:0:
157,293,107113,1,2,0:1:0:0:
147,255,107202,1,2,0:1:0:0:
156,217,107290,1,2,0:1:0:0:
184,191,107378,6,0,B|219:179|219:179|304:189,1,95.9999970703126,4|4,1:3|1:3,0:0:0:0:
367,234,107731,2,0,P|377:190|362:132,1,95.9999970703126,8|0,0:0|0:0,0:0:0:0:
356,118,107996,1,0,0:0:0:0:
337,103,108084,1,0,0:0:0:0:
313,96,108172,1,0,0:0:0:0:
289,94,108260,1,0,1:0:0:0:
199,185,108437,2,0,B|233:191|233:191|294:186,1,95.9999970703126,8|0,0:0|0:0,0:0:0:0:
238,22,108790,6,0,B|231:56|231:56|236:117,1,95.9999970703126,0|0,0:0|1:0,0:0:0:0:
307,220,109143,1,8,0:0:0:0:
183,208,109319,1,0,0:0:0:0:
159,203,109408,1,0,0:0:0:0:
135,199,109496,1,0,0:0:0:0:
111,196,109584,1,0,0:0:0:0:
87,193,109672,1,0,1:0:0:0:
55,71,109849,2,0,L|169:88,1,95.9999970703126,8|0,0:0|0:0,0:0:0:0:
250,160,110202,5,4,1:3:0:0:
374,162,110378,1,4,1:3:0:0:
310,54,110555,2,0,P|263:60|220:41,1,95.9999970703126,2|0,0:1|0:0,0:0:0:0:
325,156,110908,2,0,P|373:162|432:128,1,95.9999970703126,2|0,0:1|0:0,0:0:0:0:
297,253,111260,2,0,P|249:259|206:240,1,95.9999970703126,2|0,0:1|0:0,0:0:0:0:
372,330,111613,5,0,0:0:0:0:
438,224,111790,1,2,0:0:0:0:
319,186,111966,1,8,0:0:0:0:
391,83,112143,1,0,0:0:0:0:
393,63,112231,1,0,0:0:0:0:
397,44,112319,1,2,0:0:0:0:
377,65,112408,1,0,0:0:0:0:
350,75,112496,1,2,0:0:0:0:
321,77,112584,1,0,0:0:0:0:
289,56,112673,6,0,B|259:73|226:57|226:57|193:70|193:70|158:58|123:70,1,167.999994873047,2|0,0:1|0:0,0:0:0:0:
112,112,113026,6,0,P|107:162|129:211,1,80
199,252,113379,1,8,0:0:0:0:
279,185,113556,1,0,0:0:0:0:
295,187,113644,1,0,0:0:0:0:
311,187,113732,1,0,0:0:0:0:
327,185,113820,1,0,0:0:0:0:
343,181,113909,1,0,1:0:0:0:
380,83,114085,2,0,P|327:89|289:114,1,80,8|0,0:0|0:0,0:0:0:0:
376,249,114438,6,0,P|370:196|345:158,1,80,0|0,0:0|1:0,0:0:0:0:
304,101,114791,1,8,0:0:0:0:
242,169,114967,1,0,0:0:0:0:
229,178,115056,1,0,0:0:0:0:
214,184,115144,1,0,0:0:0:0:
198,189,115232,1,0,0:0:0:0:
182,191,115320,1,0,1:0:0:0:
85,151,115497,2,0,B|67:134|67:134|39:167|47:230,1,120,8|0,0:0|0:0,0:0:0:0:
63,260,115850,6,0,P|110:265|160:249,1,80,4|4,1:3|1:3,0:0:0:0:
214,184,116203,1,8,0:0:0:0:
280,247,116379,2,0,L|323:241,1,40
300,169,116556,2,0,L|343:163,1,40
390,224,116732,1,0,1:0:0:0:
413,119,116909,1,8,0:0:0:0:
313,90,117085,1,0,0:0:0:0:
258,199,117261,6,0,P|217:206|155:193,1,80,0|0,0:0|1:0,0:0:0:0:
92,134,117614,1,8,0:0:0:0:
192,107,117791,1,0,0:0:0:0:
208,108,117879,1,0,0:0:0:0:
222,105,117967,1,0,0:0:0:0:
236,99,118056,1,0,0:0:0:0:
249,90,118144,1,0,1:0:0:0:
324,18,118320,2,0,P|351:73|333:146,1,120,8|0,0:0|0:0,0:0:0:0:
336,162,118673,6,0,B|303:149|303:149|236:148,1,80,4|4,1:3|1:3,0:0:0:0:
158,172,119026,1,8,0:0:0:0:
233,245,119203,1,0,0:0:0:0:
248,242,119291,1,0,0:0:0:0:
263,237,119379,1,0,0:0:0:0:
277,229,119467,1,0,0:0:0:0:
289,219,119556,1,0,1:0:0:0:
314,118,119732,2,0,P|359:79|407:78,1,80,8|0,0:0|0:0,0:0:0:0:
306,196,120085,6,0,P|268:182|241:152,1,80,0|0,0:0|1:0,0:0:0:0:
166,81,120438,1,8,0:0:0:0:
239,7,120614,2,0,L|251:67,1,40
322,26,120791,2,0,L|334:86,1,40
263,117,120967,1,0,1:0:0:0:
182,199,121144,2,0,P|144:234|66:221,1,120,8|0,0:0|0:0,0:0:0:0:
51,215,121497,6,0,B|39:188|39:188|42:132,1,80,4|4,1:3|1:3,0:0:0:0:
87,44,121850,1,8,0:0:0:0:
166,110,122026,1,0,0:0:0:0:
181,113,122114,1,0,0:0:0:0:
197,114,122203,1,0,0:0:0:0:
212,110,122291,1,0,0:0:0:0:
225,102,122379,1,0,1:0:0:0:
294,18,122556,2,0,B|335:27|335:27|376:19,1,80,8|0,0:0|0:0,0:0:0:0:
303,103,122908,6,0,B|265:110|265:110|224:101,1,80,0|0,0:0|1:0,0:0:0:0:
151,172,123261,1,8,0:0:0:0:
60,162,123437,2,0,L|51:201,1,40,8|0,0:3|0:0,0:0:0:0:
125,94,123614,2,0,L|134:55,1,40,8|0,0:3|0:0,0:0:0:0:
34,85,123791,1,8,0:3:0:0:
151,172,123967,2,0,B|177:170|190:160|190:160|230:188|283:159,1,120,2|0,0:1|0:0,0:0:0:0:
309,148,124320,6,0,P|314:178|303:240,1,80,4|4,1:3|1:3,0:0:0:0:
232,287,124673,1,8,0:0:0:0:
326,310,124850,1,0,0:0:0:0:
342,307,124938,1,0,0:0:0:0:
361,303,125026,2,0,L|378:366,2,40,0|0|0,0:0|0:0|1:0,0:0:0:0:
275,255,125379,1,8,0:0:0:0:
184,286,125556,1,0,0:0:0:0:
78,240,125732,6,0,P|61:194|84:133,1,80,0|0,0:0|1:0,0:0:0:0:
93,72,126085,1,8,0:0:0:0:
178,118,126261,1,0,0:0:0:0:
193,122,126350,1,0,0:0:0:0:
208,123,126438,1,0,0:0:0:0:
223,122,126526,1,0,0:0:0:0:
238,119,126614,1,0,1:0:0:0:
315,49,126791,2,0,B|352:19|408:30|408:30|378:60,1,120,8|0,0:0|0:0,0:0:0:0:
375,70,127144,6,0,P|367:113|386:175,1,80,4|4,1:3|1:3,0:3:0:0:
455,212,127497,1,8,0:0:0:0:
357,247,127673,1,0,0:0:0:0:
341,247,127761,1,0,0:0:0:0:
325,243,127850,1,0,0:0:0:0:
310,236,127938,1,0,0:0:0:0:
297,226,128026,1,0,1:0:0:0:
233,143,128203,2,0,P|177:147|145:126,1,80,8|0,0:0|0:0,0:0:0:0:
49,235,128556,6,0,P|87:227|124:241,1,80,0|0,0:0|1:0,0:0:0:0:
202,310,128909,1,8,0:0:0:0:
288,252,129085,2,0,L|292:200,1,40
218,209,129261,2,0,L|222:157,1,40
290,137,129438,1,0,1:0:0:0:
211,95,129614,2,0,B|166:98|166:98|146:81|146:81|97:85,1,120,8|0,0:0|0:0,0:0:0:0:
77,91,129967,6,0,B|74:142|74:142|99:186,1,80,4|4,1:3|1:3,0:0:0:0:
181,221,130320,1,8,0:0:0:0:
251,156,130496,1,0,0:0:0:0:
271,155,130584,1,0,0:0:0:0:
291,154,130672,1,0,0:0:0:0:
312,153,130761,1,0,0:0:0:0:
332,152,130849,1,0,1:0:0:0:
424,184,131026,2,0,B|428:238|428:238|412:278,1,80,8|0,0:0|0:0,0:0:0:0:
336,326,131379,5,0,0:0:0:0:
249,268,131555,1,0,1:0:0:0:
162,326,131732,1,8,0:0:0:0:
76,267,131908,1,0,0:0:0:0:
77,247,131996,1,0,0:0:0:0:
78,227,132084,1,0,0:0:0:0:
79,206,132173,1,0,0:0:0:0:
80,186,132261,1,0,1:0:0:0:
26,87,132437,2,0,B|64:92|82:107|82:107|101:92|163:86,1,120,8|0,0:0|0:0,0:0:0:0:
170,89,132790,5,8,0:0:0:0:
241,195,132967,2,0,L|223:248,2,40,2|0|2,0:0|0:0|0:0,0:0:0:0:
286,83,133320,5,8,0:0:0:0:
356,180,133497,2,0,L|338:233,2,40,2|0|2,0:0|0:0|0:0,0:0:0:0:
407,79,133849,6,0,P|438:102|470:168,1,80,8|0,0:0|0:0,0:0:0:0:
286,83,134202,5,8,0:0:0:0:
356,180,134379,2,0,L|338:233,2,40,2|0|2,0:0|0:0|0:0,0:0:0:0:
170,89,134732,5,8,0:0:0:0:
241,195,134908,2,0,L|223:248,2,40,0|0|2,0:0|0:0|0:0,0:0:0:0:
286,83,135261,6,0,P|322:67|395:73,1,80,2|0,0:1|0:0,0:0:0:0:
468,67,135614,1,4,0:0:0:0:
