osu file format v14

[General]
AudioFilename: dRAPER- JoYrIDEs.mp3
AudioLeadIn: 0
PreviewTime: 44908
Countdown: 0
SampleSet: Soft
StackLeniency: 0.4
Mode: 0
LetterboxInBreaks: 0
WidescreenStoryboard: 0

[Editor]
Bookmarks: 11389,22683,33977,38212,45271,67859,84805,90452,113041,135629
DistanceSpacing: 1.2
BeatDivisor: 4
GridSize: 4
TimelineZoom: 0.8999997

[Metadata]
Title:Joyride
TitleUnicode:Joyride
Artist:Draper
ArtistUnicode:Draper
Creator:Rohit6
Version:Hard
Source:
Tags:drum and bass dnb liquid perspectives ep monstercat electronic dance edm Log Off Now Side BOUYAAA Come[Back]Home CBH
BeatmapID:857411
BeatmapSetID:392188

[Difficulty]
HPDrainRate:5
CircleSize:3.8
OverallDifficulty:7
ApproachRate:8
SliderMultiplier:1.4
SliderTickRate:1

[Events]
//Background and Video events
0,0,"o1.jpg",0,0
//Break Periods
2,34167,38212
//Storyboard Layer 0 (Background)
//Storyboard Layer 1 (Fail)
//Storyboard Layer 2 (Pass)
//Storyboard Layer 3 (Foreground)
//Storyboard Sound Samples

[TimingPoints]
85,352.941176470588,4,2,5,60,1,0
2820,-100,4,2,5,20,0,0
2908,-100,4,2,5,60,0,0
5643,-100,4,2,5,20,0,0
5732,-100,4,2,5,60,0,0
8467,-100,4,2,5,20,0,0
8555,-100,4,2,3,60,0,0
11026,-100,4,2,7,60,0,0
11379,-100,4,2,5,70,0,0
14114,-100,4,2,5,50,0,0
14202,-100,4,2,5,70,0,0
16937,-100,4,2,5,20,0,0
17026,-100,4,2,5,70,0,0
19761,-100,4,2,5,20,0,0
19849,-100,4,2,3,70,0,0
22320,-100,4,2,7,70,0,0
22673,-100,4,2,6,70,0,0
39614,-100,4,2,0,40,0,0
39967,-100,4,2,0,50,0,0
40320,-100,4,2,0,60,0,0
40673,-100,4,2,0,70,0,0
41026,-100,4,2,0,80,0,0
41379,-100,4,2,0,90,0,0
41732,-100,4,2,0,100,0,0
42084,-100,4,2,0,20,0,0
42437,-100,4,2,6,80,0,0
45261,-90.9090909090909,4,2,8,100,0,1
56202,-90.9090909090909,4,2,7,100,0,0
56555,-90.9090909090909,4,2,8,100,0,1
59379,-90.9090909090909,4,2,6,100,0,1
62114,-90.9090909090909,4,2,0,20,0,1
62202,-90.9090909090909,4,2,8,100,0,1
65026,-90.9090909090909,4,2,7,100,0,1
66437,-90.9090909090909,4,2,8,100,0,1
67496,-90.9090909090909,4,2,7,100,0,1
67849,-100,4,2,8,60,0,0
70584,-100,4,2,8,20,0,0
70673,-100,4,2,8,60,0,0
73408,-100,4,2,8,20,0,0
73496,-100,4,2,8,60,0,0
76232,-100,4,2,8,20,0,0
76320,-100,4,2,6,60,0,0
79143,-100,4,2,8,60,0,0
81879,-100,4,2,8,20,0,0
81967,-100,4,2,8,60,0,0
84790,-100,4,2,6,70,0,0
87614,-100,4,2,6,80,0,0
90437,-90.9090909090909,4,2,8,100,0,1
101379,-90.9090909090909,4,2,7,100,0,0
101732,-90.9090909090909,4,2,8,100,0,1
104555,-90.9090909090909,4,2,6,100,0,1
107290,-90.9090909090909,4,2,0,20,0,1
107379,-90.9090909090909,4,2,8,100,0,1
110202,-90.9090909090909,4,2,7,100,0,1
111614,-90.9090909090909,4,2,8,100,0,1
112673,-90.9090909090909,4,2,7,100,0,1
113026,-100,4,2,8,60,0,0
115761,-100,4,2,8,20,0,0
115849,-100,4,2,8,60,0,0
118584,-100,4,2,8,20,0,0
118673,-100,4,2,8,60,0,0
121408,-100,4,2,8,20,0,0
121496,-100,4,2,6,60,0,0
124320,-100,4,2,8,60,0,0
127055,-100,4,2,8,20,0,0
127143,-100,4,2,8,60,0,0
132790,-100,4,2,8,80,0,0
135261,-100,4,2,8,100,0,0
135614,-100,4,2,8,50,0,0

[Colours]
Combo1 : 155,251,11
Combo2 : 255,209,26
Combo3 : 255,128,0
Combo4 : 182,182,182

[HitObjects]
281,328,85,6,0,L|266:227,1,70,8|8,0:3|0:3,0:0:0:0:
201,211,437,1,8,0:0:0:0:
118,225,614,2,0,L|93:271,2,35
83,148,967,1,0,0:0:0:0:
135,82,1143,2,0,B|238:93,1,70,8|0,0:0|0:0,0:0:0:0:
266,176,1496,6,0,B|196:168,1,70
126,215,1849,1,8,0:0:0:0:
169,286,2026,2,0,B|197:287|231:315|231:315|256:288|313:283,1,140
376,298,2555,2,0,B|391:264|391:264|392:174,1,105,8|0,0:0|0:0,0:0:0:0:
392,173,2908,6,0,P|346:173|308:143,1,70,8|8,0:3|0:3,0:0:0:0:
273,95,3261,1,8,0:0:0:0:
193,121,3437,2,0,L|154:88,2,35
195,205,3790,1,0,0:0:0:0:
116,235,3967,2,0,L|28:218,1,70,8|0,0:0|0:0,0:0:0:0:
100,315,4320,6,0,L|188:332,1,70
237,280,4673,1,8,0:0:0:0:
314,312,4849,2,0,B|354:329|379:310|379:310|363:266|384:213,1,140
414,164,5379,2,0,P|357:156|309:187,1,105,8|0,0:0|0:0,0:0:0:0:
302,196,5732,6,0,B|267:202|267:202|209:189,1,70,8|8,0:3|0:3,0:0:0:0:
151,175,6084,1,8,0:0:0:0:
138,91,6261,2,0,L|102:73,2,35
214,54,6614,1,0,0:0:0:0:
279,106,6790,2,0,P|322:103|370:68,1,70,8|0,0:0|0:0,0:0:0:0:
434,151,7143,6,0,P|391:154|343:189,1,70
309,226,7496,1,8,0:0:0:0:
225,232,7673,2,0,B|222:198|234:177|234:177|221:169|221:169|235:141|219:89,1,140
168,37,8202,2,0,B|139:26|139:26|53:29,1,105,8|0,0:0|0:0,0:0:0:0:
43,33,8555,5,0,0:0:0:0:
78,109,8732,2,0,L|61:193,1,70,8|0,0:3|0:0,0:0:0:0:
192,87,9084,5,0,0:0:0:0:
157,163,9261,2,0,L|174:247,1,70,8|0,0:3|0:0,0:0:0:0:
37,177,9614,5,0,0:0:0:0:
72,253,9791,2,0,L|55:337,1,70,8|0,0:3|0:0,0:0:0:0:
179,350,10143,5,0,0:0:0:0:
250,305,10320,2,0,L|413:325,2,140,8|8|2,0:3|0:3|0:1,0:0:0:0:
96,234,11379,6,0,L|86:143,1,70,8|8,0:3|0:3,0:0:0:0:
94,80,11732,1,8,0:0:0:0:
188,105,11908,1,0,0:0:0:0:
188,105,11996,1,0,0:0:0:0:
188,105,12084,2,0,L|265:99,1,70
340,114,12437,2,0,L|417:108,1,70,8|0,0:0|0:0,0:0:0:0:
478,186,12790,6,0,L|401:192,1,70
339,240,13143,1,8,0:0:0:0:
273,186,13320,2,0,B|228:192|228:192|204:186|204:186|177:192|177:192|127:183,1,140
68,132,13849,2,0,P|94:109|175:113,1,105,8|0,0:0|0:0,0:0:0:0:
184,109,14202,6,0,P|219:98|269:106,1,70,8|8,0:3|0:3,0:0:0:0:
334,132,14555,1,8,0:0:0:0:
419,109,14732,1,0,0:0:0:0:
419,109,14820,1,0,0:0:0:0:
419,109,14908,1,0,0:0:0:0:
469,175,15084,1,0,0:0:0:0:
426,247,15261,2,0,L|422:334,1,70,8|0,0:0|0:0,0:0:0:0:
348,366,15614,6,0,L|344:296,1,70
280,241,15967,1,8,0:0:0:0:
196,239,16143,2,0,B|151:227|113:262|113:262|90:248|99:214,1,140
153,154,16673,2,0,B|195:152|195:152|256:172,1,105,8|0,0:0|0:0,0:0:0:0:
273,185,17026,6,0,P|317:178|352:140,1,70,8|8,0:3|0:3,0:0:0:0:
379,90,17379,1,8,0:0:0:0:
324,26,17555,1,0,0:0:0:0:
324,26,17643,1,0,0:0:0:0:
324,26,17732,1,0,0:0:0:0:
247,60,17908,1,0,0:0:0:0:
169,26,18084,2,0,P|162:75|179:111,1,70,8|0,0:0|0:0,0:0:0:0:
241,171,18437,6,0,P|248:204|239:238,1,70
172,288,18790,1,8,0:0:0:0:
231,347,18967,2,0,B|268:342|290:351|290:351|314:342|314:342|346:351|376:344,1,140
434,294,19496,2,0,B|446:260|446:260|438:187,1,105,8|0,0:0|0:0,0:0:0:0:
435,167,19849,5,0,0:0:0:0:
360,207,20026,2,0,L|287:197,1,70,8|0,0:3|0:0,0:0:0:0:
369,105,20379,5,0,0:0:0:0:
294,65,20556,2,0,L|221:75,1,70,8|0,0:3|0:0,0:0:0:0:
292,177,20908,5,0,0:0:0:0:
217,217,21085,2,0,L|144:207,1,70,8|0,0:3|0:0,0:0:0:0:
223,103,21437,5,0,0:0:0:0:
147,66,21614,2,0,L|0:82,2,140,8|8|2,0:3|0:3|0:1,0:0:0:0:
324,110,22673,6,0,L|419:92,2,70,0|0|8,0:0|1:0|0:0,0:0:0:0:
277,190,23202,1,0,0:0:0:0:
277,190,23290,1,0,0:0:0:0:
277,190,23379,1,0,0:0:0:0:
184,155,23555,1,0,1:0:0:0:
103,198,23732,2,0,P|63:203|22:180,1,70,8|0,0:0|0:0,0:0:0:0:
9,103,24084,6,0,P|49:98|90:121,1,70,0|0,0:0|1:0,0:0:0:0:
129,182,24437,1,8,0:0:0:0:
196,120,24614,2,0,B|218:119|239:114|239:114|266:122|266:122|293:113|293:113|320:119|353:117,1,140
430,124,25143,1,2,0:1:0:0:
382,210,25320,1,2,0:1:0:0:
443,285,25496,6,0,P|380:310|312:276,1,140,2|8,0:1|0:0,0:0:0:0:
258,202,26026,2,0,P|195:174|132:199,1,140,2|0,0:1|0:0,0:0:0:0:
74,278,26555,1,2,0:1:0:0:
82,106,26908,6,0,P|43:108|0:135,2,70,0|0|8,0:0|1:0|0:0,0:0:0:0:
167,153,27437,1,0,0:0:0:0:
167,153,27526,1,0,0:0:0:0:
167,153,27614,1,2,0:1:0:0:
256,140,27790,1,2,1:1:0:0:
277,58,27967,2,0,P|308:43|343:42,1,70,8|0,0:0|0:0,0:0:0:0:
454,78,28320,6,0,B|466:111|466:111|449:231,1,140,2|8,1:1|0:0,0:0:0:0:
472,303,28849,2,0,L|516:330,2,35
385,274,29202,1,0,1:0:0:0:
301,310,29379,2,0,P|255:313|202:293,1,70,8|0,0:0|0:0,0:0:0:0:
141,348,29732,6,0,P|144:302|124:249,1,70,0|0,0:0|1:0,0:0:0:0:
86,204,30084,1,8,0:0:0:0:
141,131,30261,2,0,B|185:114|185:114|231:117|231:117|279:98,1,140
361,54,30790,1,2,0:1:0:0:
405,141,30967,1,2,0:1:0:0:
316,192,31143,6,0,P|247:200|191:160,1,140,2|8,0:1|0:0,0:0:0:0:
150,68,31673,2,0,P|219:60|274:99,1,140,2|0,0:1|0:0,0:0:0:0:
316,192,32202,1,2,0:1:0:0:
183,317,32555,6,0,B|147:323|147:323|88:313,2,70,0|0|8,0:0|1:0|0:0,0:0:0:0:
265,277,33084,1,8,0:3:0:0:
348,313,33261,2,0,P|352:350|346:387,2,70,8|0|2,0:3|0:0|0:1,0:0:0:0:
371,131,33967,5,4,0:1:0:0:
256,192,39614,12,0,42084,0:0:0:0:
234,277,42437,5,0,1:0:0:0:
164,218,42614,2,0,P|134:213|72:235,1,70,8|8,0:0|0:0,0:0:0:0:
249,184,42967,5,0,1:0:0:0:
319,125,43144,2,0,P|349:120|411:142,1,70,8|8,0:0|0:0,0:0:0:0:
236,99,43496,5,0,1:0:0:0:
151,65,43673,1,8,0:0:0:0:
167,154,43849,5,0,1:0:0:0:
236,99,44026,2,0,L|326:94,1,70,8|8,0:0|0:0,0:0:0:0:
236,209,44379,5,0,1:0:0:0:
154,247,44555,2,0,B|119:253|119:253|71:231,1,70,8|8,0:3|0:3,0:0:0:0:
230,293,44908,2,0,B|265:292|265:292|308:262,1,70,12|12,0:3|0:3,0:0:0:0:
128,343,45261,6,0,L|114:260,1,77.0000023498536,4|4,1:3|1:3,0:0:0:0:
205,222,45614,2,0,L|219:139,1,77.0000023498536,8|0,0:0|0:0,0:0:0:0:
155,67,45967,1,2,0:0:0:0:
155,67,46055,1,0,0:0:0:0:
155,67,46143,1,2,1:2:0:0:
255,61,46320,2,0,L|359:47,1,77.0000023498536,8|0,0:0|0:0,0:0:0:0:
462,68,46673,6,0,P|454:100|475:167,1,77.0000023498536,0|0,0:0|1:0,0:0:0:0:
503,233,47026,2,0,P|490:269|464:297,1,77.0000023498536,8|0,0:0|0:0,0:0:0:0:
449,300,47290,1,0,0:0:0:0:
433,298,47379,2,0,B|341:287,1,77.0000023498536
275,228,47732,2,0,P|249:214|176:222,1,77.0000023498536,8|0,0:0|0:0,0:0:0:0:
85,174,48084,6,0,L|79:92,1,77.0000023498536,4|4,1:3|1:3,0:0:0:0:
160,51,48437,2,0,L|165:127,1,77.0000023498536,8|0,0:0|0:0,0:0:0:0:
203,212,48790,1,2,0:0:0:0:
264,144,48967,1,2,1:2:0:0:
312,222,49143,2,0,P|348:229|405:205,1,77.0000023498536,8|0,0:0|0:0,0:0:0:0:
257,324,49496,6,0,L|269:372,2,38.5000011749268,2|0|2,0:0|0:0|0:0,0:0:0:0:
173,269,49849,1,8,0:0:0:0:
225,183,50026,1,2,0:0:0:0:
157,109,50202,2,0,P|102:107|60:129,2,77.0000023498536,2|0|4,0:0|1:0|0:0,0:0:0:0:
334,191,50908,6,0,L|422:179,1,77.0000023498536,4|4,1:3|1:3,0:0:0:0:
455,262,51261,2,0,L|367:274,1,77.0000023498536,8|0,0:0|0:0,0:0:0:0:
320,362,51614,1,2,0:0:0:0:
320,362,51702,1,0,0:0:0:0:
320,362,51790,1,2,1:2:0:0:
241,296,51967,2,0,L|153:308,1,77.0000023498536,8|0,0:0|0:0,0:0:0:0:
39,342,52320,6,0,B|28:305|28:305|42:266,1,77.0000023498536,0|0,0:0|1:0,0:0:0:0:
131,225,52673,2,0,B|143:188|143:188|132:151,1,77.0000023498536,8|0,0:0|0:0,0:0:0:0:
42,108,53026,1,2,0:0:0:0:
96,24,53202,1,2,0:0:0:0:
186,67,53379,2,0,P|225:75|269:62,1,77.0000023498536,8|0,0:0|0:0,0:0:0:0:
404,19,53732,6,0,L|388:121,1,77.0000023498536,4|4,1:3|1:3,0:0:0:0:
428,187,54084,1,8,0:0:0:0:
357,258,54261,1,2,0:0:0:0:
357,258,54349,1,0,0:0:0:0:
357,258,54437,1,2,0:0:0:0:
268,211,54614,1,0,1:0:0:0:
209,291,54790,2,0,P|176:314|109:309,1,77.0000023498536,8|0,0:0|0:0,0:0:0:0:
36,227,55143,6,0,L|-10:242,2,38.5000011749268,2|0|2,0:0|0:0|0:0,0:0:0:0:
83,138,55496,1,8,0:0:0:0:
177,172,55673,2,0,L|190:256,2,77.0000023498536,2|0|0,0:0|0:0|1:0,0:0:0:0:
162,72,56202,1,2,0:1:0:0:
366,75,56555,6,0,B|381:110|381:110|373:234,1,154.000004699707,4|8,0:0|0:0,0:0:0:0:
404,321,57084,1,0,0:0:0:0:
404,321,57173,1,0,0:0:0:0:
404,321,57261,2,0,P|440:328|486:309,1,77.0000023498536,0|0,0:0|1:0,0:0:0:0:
447,220,57614,2,0,P|411:213|365:232,1,77.0000023498536,8|0,0:0|0:0,0:0:0:0:
252,285,57967,6,0,L|261:363,2,77.0000023498536,0|0|8,0:0|1:0|0:0,0:0:0:0:
188,207,58496,1,0,0:0:0:0:
245,125,58673,2,0,P|291:127|339:100,1,77.0000023498536,0|0,0:0|1:0,0:0:0:0:
387,189,59026,2,0,P|341:187|293:214,1,77.0000023498536,8|0,0:0|0:0,0:0:0:0:
234,261,59379,5,0,1:0:0:0:
166,187,59555,2,0,L|158:91,1,77.0000023498536,2|0,0:1|0:0,0:0:0:0:
235,289,59908,5,0,1:0:0:0:
303,215,60084,2,0,L|311:119,1,77.0000023498536,2|0,0:1|0:0,0:0:0:0:
235,314,60437,5,0,1:0:0:0:
167,240,60613,2,0,L|159:144,1,77.0000023498536,2|0,0:1|0:0,0:0:0:0:
235,338,60967,5,0,1:0:0:0:
303,264,61143,2,0,L|311:168,1,77.0000023498536,2|0,0:1|0:0,0:0:0:0:
234,363,61496,5,0,1:0:0:0:
169,293,61673,1,2,0:1:0:0:
230,194,61849,6,0,B|215:122|247:146|226:63,1,115.50000352478,4|0,0:0|0:0,0:0:0:0:
228,55,62202,6,0,P|276:62|320:46,1,77.0000023498536,4|4,1:3|1:3,0:0:0:0:
394,13,62555,1,8,0:0:0:0:
450,109,62732,1,0,0:0:0:0:
450,109,62820,1,0,0:0:0:0:
450,109,62908,2,0,P|443:157|459:201,1,77.0000023498536,0|0,0:0|1:0,0:0:0:0:
497,272,63261,2,0,P|449:265|405:281,1,77.0000023498536,8|0,0:0|0:0,0:0:0:0:
318,332,63614,6,0,B|303:293|303:293|309:170,1,154.000004699707,0|8,0:0|0:0,0:0:0:0:
351,90,64143,1,0,0:0:0:0:
351,90,64232,1,0,0:0:0:0:
351,90,64320,2,0,B|386:99|386:99|443:84,1,77.0000023498536,0|0,0:0|1:0,0:0:0:0:
483,170,64673,2,0,B|448:161|448:161|408:171,1,77.0000023498536,8|0,0:0|0:0,0:0:0:0:
293,208,65026,6,0,L|207:177,1,77.0000023498536,2|0,0:1|0:0,0:0:0:0:
126,216,65379,2,0,L|157:130,1,77.0000023498536,2|0,0:1|0:0,0:0:0:0:
126,46,65732,2,0,L|212:77,1,77.0000023498536,2|0,0:1|0:0,0:0:0:0:
293,38,66085,2,0,L|262:124,1,77.0000023498536,2|0,0:1|0:0,0:0:0:0:
187,203,66437,6,0,P|145:194|107:156,2,77.0000023498536,0|0|8,0:0|1:0|0:0,0:0:0:0:
287,202,66967,1,0,0:0:0:0:
301,199,67055,1,0,0:0:0:0:
316,197,67143,2,0,B|349:197|370:180|370:180|384:200|384:200|417:177|468:196,1,154.000004699707,0|2,0:0|0:1,0:0:0:0:
297,279,67849,6,0,P|260:267|211:275,1,70,4|4,1:3|1:3,0:0:0:0:
134,291,68202,1,8,0:0:0:0:
60,237,68379,2,0,B|53:187|53:187|72:160|72:160|62:95,1,140,0|0,0:0|1:0,0:0:0:0:
43,15,68908,2,0,P|80:14|129:41,1,70,8|0,0:0|0:0,0:0:0:0:
177,110,69261,6,0,P|210:120|244:121,1,70,0|0,0:0|1:0,0:0:0:0:
324,76,69614,1,8,0:0:0:0:
397,128,69790,2,0,B|398:161|431:198|431:198|422:235|374:216,1,140,0|0,0:0|1:0,0:0:0:0:
297,187,70320,2,0,B|264:179|264:179|179:197,1,105,8|0,0:0|0:0,0:0:0:0:
172,200,70673,6,0,P|173:172|151:114,2,70,4|4|8,1:3|1:3|0:0,0:0:0:0:
151,289,71202,2,0,B|199:295|225:274|225:274|249:287|249:287|267:272|312:278,1,140,0|0,0:0|1:0,0:0:0:0:
367,315,71732,1,8,0:0:0:0:
442,264,71908,1,0,0:0:0:0:
427,174,72084,6,0,L|425:77,1,70,0|0,0:0|1:0,0:0:0:0:
351,50,72437,1,8,0:0:0:0:
276,102,72614,2,0,B|234:111|211:90|211:90|190:115|139:109,1,140,0|0,0:0|1:0,0:0:0:0:
69,59,73143,2,0,B|56:98|56:98|74:182,1,105,8|0,0:0|0:0,0:0:0:0:
76,187,73496,6,0,P|45:202|8:207,2,70,4|4|8,1:3|1:3|0:0,0:0:0:0:
165,166,74026,2,0,B|271:172|271:172|229:142,1,140,0|0,0:0|1:0,0:0:0:0:
178,88,74555,1,8,0:0:0:0:
92,118,74732,1,0,0:0:0:0:
106,207,74908,6,0,P|135:233|179:236,1,70,0|0,0:0|1:0,0:0:0:0:
255,235,75261,1,8,0:0:0:0:
318,300,75437,2,0,B|360:278|422:291|422:291|406:232,1,140,0|0,0:0|1:0,0:0:0:0:
340,202,75967,2,0,B|331:165|331:165|345:143|345:143|332:95,1,105,8|0,0:0|0:0,0:0:0:0:
328,85,76320,6,0,B|231:96|231:96|172:72,1,140,2|0,0:1|0:0,0:0:0:0:
123,25,76849,2,0,B|102:76|102:76|109:108|109:108|85:172,1,140,2|0,0:1|0:0,0:0:0:0:
32,227,77379,1,2,0:1:0:0:
104,281,77555,1,2,0:0:0:0:
181,233,77732,6,0,L|261:225,1,70,0|0,0:0|1:0,0:0:0:0:
333,262,78084,1,8,0:0:0:0:
323,171,78261,1,8,0:3:0:0:
407,205,78437,2,0,P|416:166|403:127,1,70,0|8,0:0|0:3,0:0:0:0:
340,76,78790,1,2,0:1:0:0:
239,244,79143,6,0,L|146:248,1,70,4|4,1:3|1:3,0:3:0:0:
72,262,79496,1,8,0:0:0:0:
84,166,79673,1,0,0:0:0:0:
84,166,79761,1,0,0:0:0:0:
84,166,79849,2,0,P|118:172|163:159,1,70,0|0,0:0|1:0,0:0:0:0:
232,120,80202,1,8,0:0:0:0:
312,162,80379,1,0,0:0:0:0:
345,77,80555,6,0,P|379:77|425:61,1,70,0|0,0:0|1:0,0:0:0:0:
491,19,80908,1,8,0:0:0:0:
493,120,81084,1,0,0:0:0:0:
493,120,81173,1,0,0:0:0:0:
493,120,81261,2,0,P|481:162|481:197,1,70,0|0,0:0|1:0,0:0:0:0:
486,279,81614,2,0,B|414:289|414:289|370:274,1,105,8|0,0:0|0:0,0:0:0:0:
357,268,81967,6,0,P|341:309|342:361,2,70,4|4|8,1:3|1:3|0:0,0:0:0:0:
394,184,82496,1,0,0:0:0:0:
394,184,82584,1,0,0:0:0:0:
394,184,82673,2,0,P|356:175|306:194,1,70,0|0,0:0|1:0,0:0:0:0:
250,232,83026,2,0,P|215:238|182:229,1,70,8|0,0:0|0:0,0:0:0:0:
97,194,83379,6,0,B|78:126|78:126|97:54,1,140,0|8,0:0|0:0,0:0:0:0:
186,46,83908,1,0,0:0:0:0:
186,46,83996,1,0,0:0:0:0:
186,46,84084,2,0,P|229:51|280:38,1,70,0|0,0:0|1:0,0:0:0:0:
338,10,84437,2,0,P|343:53|330:104,1,70,8|0,0:0|0:0,0:0:0:0:
309,165,84790,5,0,1:0:0:0:
219,184,84967,1,8,0:0:0:0:
85,333,85320,5,0,1:0:0:0:
113,245,85497,1,8,0:0:0:0:
55,56,85849,5,0,1:0:0:0:
116,124,86026,1,8,0:0:0:0:
204,102,86202,5,0,1:0:0:0:
265,170,86379,1,8,0:0:0:0:
479,176,86732,5,0,1:0:0:0:
390,195,86909,1,8,0:0:0:0:
278,363,87261,5,0,1:0:0:0:
306,276,87438,1,8,0:0:0:0:
244,209,87614,5,0,1:0:0:0:
207,126,87790,2,0,L|226:46,1,70,8|8,0:0|0:0,0:0:0:0:
314,58,88143,5,0,1:0:0:0:
351,140,88319,2,0,L|431:159,1,70,8|8,0:0|0:0,0:0:0:0:
380,239,88673,5,0,1:0:0:0:
357,339,88849,1,8,0:0:0:0:
283,271,89026,5,0,1:0:0:0:
196,299,89202,2,0,L|116:280,1,70,8|8,0:0|0:0,0:0:0:0:
107,193,89555,5,0,1:0:0:0:
183,144,89731,2,0,L|202:64,1,70,8|8,0:3|0:3,0:0:0:0:
248,214,90084,2,0,L|229:294,1,70,12|12,0:3|0:3,0:0:0:0:
358,235,90437,6,0,L|372:152,1,77.0000023498536,4|4,1:3|1:3,0:0:0:0:
272,138,90790,2,0,L|259:62,1,77.0000023498536,8|0,0:0|0:0,0:0:0:0:
179,16,91143,1,2,0:0:0:0:
179,16,91231,1,0,0:0:0:0:
179,16,91319,1,2,0:0:0:0:
146,102,91496,2,0,L|69:112,1,77.0000023498536,8|0,0:0|0:0,0:0:0:0:
56,217,91849,6,0,P|48:249|69:316,1,77.0000023498536,0|0,0:0|1:0,0:0:0:0:
138,347,92202,2,0,L|233:341,1,77.0000023498536,8|0,0:0|0:0,0:0:0:0:
312,366,92555,1,0,0:0:0:0:
334,268,92732,1,0,1:0:0:0:
234,265,92908,2,0,P|184:240|172:190,1,77.0000023498536,8|0,0:0|0:0,0:0:0:0:
95,170,93260,6,0,L|89:88,1,77.0000023498536,4|4,1:3|1:3,0:0:0:0:
183,58,93613,2,0,L|189:140,1,77.0000023498536,8|0,0:0|0:0,0:0:0:0:
245,217,93966,1,2,0:0:0:0:
321,151,94143,1,2,1:2:0:0:
379,231,94319,2,0,P|420:232|476:204,1,77.0000023498536,8|0,0:0|0:0,0:0:0:0:
457,119,94673,6,0,L|510:98,2,38.5000011749268,2|0|2,0:0|0:0|0:0,0:0:0:0:
364,157,95025,1,8,0:0:0:0:
274,112,95202,1,2,0:0:0:0:
196,180,95379,2,0,P|158:201|90:203,2,77.0000023498536,2|0|4,0:0|1:0|0:0,0:0:0:0:
336,35,96084,6,0,L|424:23,1,77.0000023498536,4|4,1:3|1:3,0:0:0:0:
385,121,96437,2,0,L|297:133,1,77.0000023498536,8|0,0:0|0:0,0:0:0:0:
232,56,96790,1,2,0:0:0:0:
232,56,96879,1,0,0:0:0:0:
232,56,96966,1,2,0:0:0:0:
192,150,97143,2,0,L|104:162,1,77.0000023498536,8|0,0:0|0:0,0:0:0:0:
46,239,97496,6,0,B|33:275|33:275|44:312,1,77.0000023498536,0|0,0:0|1:0,0:0:0:0:
139,342,97849,2,0,B|176:330|176:330|213:341,1,77.0000023498536,8|0,0:0|0:0,0:0:0:0:
311,358,98202,1,2,0:0:0:0:
305,258,98378,1,2,1:2:0:0:
389,203,98555,2,0,P|428:211|472:198,1,77.0000023498536,8|0,0:0|0:0,0:0:0:0:
373,103,98908,6,0,P|335:94|298:103,1,77.0000023498536,4|4,1:3|1:3,0:0:0:0:
237,182,99260,1,8,0:0:0:0:
305,258,99437,1,2,0:0:0:0:
305,258,99525,1,0,0:0:0:0:
305,258,99614,1,2,0:0:0:0:
251,342,99790,1,2,1:2:0:0:
160,299,99966,2,0,P|121:291|60:317,1,77.0000023498536,8|0,0:0|0:0,0:0:0:0:
37,211,100319,6,0,L|-9:226,2,38.5000011749268,2|0|2,0:0|0:0|1:2,0:0:0:0:
137,210,100672,1,8,0:0:0:0:
127,112,100849,2,0,L|39:81,2,77.0000023498536,2|0|0,0:0|0:0|1:0,0:0:0:0:
214,61,101379,1,2,0:1:0:0:
367,193,101731,6,0,B|351:229|351:229|374:352,1,154.000004699707,4|8,0:0|0:0,0:0:0:0:
460,369,102260,1,0,0:0:0:0:
460,369,102349,1,0,0:0:0:0:
460,369,102437,2,0,P|467:333|448:287,1,77.0000023498536,0|0,0:0|1:0,0:0:0:0:
370,239,102790,2,0,P|333:251|296:244,1,77.0000023498536,8|0,0:0|0:0,0:0:0:0:
197,258,103143,6,0,L|206:336,2,77.0000023498536,0|0|8,0:0|1:0|0:0,0:0:0:0:
113,202,103672,1,0,0:0:0:0:
165,116,103849,2,0,P|211:118|259:91,1,77.0000023498536,0|0,0:0|1:0,0:0:0:0:
303,184,104202,2,0,P|257:182|209:209,1,77.0000023498536,8|0,0:0|0:0,0:0:0:0:
150,256,104555,5,0,1:0:0:0:
71,194,104731,2,0,L|82:108,1,77.0000023498536,2|0,0:1|0:0,0:0:0:0:
95,18,105084,5,0,1:0:0:0:
174,80,105260,2,0,L|163:166,1,77.0000023498536,2|0,0:1|0:0,0:0:0:0:
150,256,105614,5,0,1:0:0:0:
71,194,105790,1,2,0:1:0:0:
164,156,105967,5,0,1:0:0:0:
243,216,106143,2,0,L|346:197,1,77.0000023498536,2|0,0:1|0:0,0:0:0:0:
414,171,106496,5,0,1:0:0:0:
335,111,106672,2,0,L|232:130,1,77.0000023498536,2|0,0:1|0:0,0:0:0:0:
188,196,107026,2,0,B|191:227|188:243|188:243|197:266|197:266|188:291|199:328,1,115.50000352478,4|0,0:0|0:0,0:0:0:0:
198,332,107378,6,0,P|246:339|290:323,1,77.0000023498536,4|4,1:3|1:3,0:0:0:0:
342,255,107731,1,8,0:0:0:0:
431,315,107908,1,0,0:0:0:0:
431,315,107996,1,0,0:0:0:0:
431,315,108084,2,0,P|445:281|442:227,1,77.0000023498536,0|0,0:0|1:0,0:0:0:0:
473,151,108437,2,0,P|425:158|381:142,1,77.0000023498536,8|0,0:0|0:0,0:0:0:0:
335,78,108790,6,0,B|317:155|317:155|341:233,1,154.000004699707,0|8,0:0|0:0,0:0:0:0:
385,319,109319,1,0,0:0:0:0:
385,319,109408,1,0,0:0:0:0:
385,319,109496,2,0,B|350:328|350:328|293:313,1,77.0000023498536,0|0,0:0|1:0,0:0:0:0:
246,240,109849,2,0,B|211:231|211:231|171:241,1,77.0000023498536,8|0,0:0|0:0,0:0:0:0:
32,274,110202,6,0,P|70:284|119:263,1,77.0000023498536,2|0,0:1|0:0,0:0:0:0:
212,176,110555,2,0,P|173:165|124:186,1,77.0000023498536,2|0,0:1|0:0,0:0:0:0:
171,314,110908,2,0,P|181:275|160:226,1,77.0000023498536,2|0,0:1|0:0,0:0:0:0:
72,134,111261,2,0,P|61:172|82:221,1,77.0000023498536,2|0,0:1|0:0,0:0:0:0:
95,313,111614,6,0,P|136:320|197:296,2,77.0000023498536,0|0|8,0:0|1:0|0:0,0:0:0:0:
9,249,112143,1,2,0:0:0:0:
22,242,112231,1,0,0:0:0:0:
37,239,112320,2,0,B|128:210|94:264|189:226,1,154.000004699707,0|2,0:0|0:1,0:0:0:0:
333,254,113026,6,0,L|247:243,1,70,4|4,1:3|1:3,0:0:0:0:
191,300,113379,1,8,0:0:0:0:
106,265,113556,2,0,B|118:233|102:204|102:204|118:197|118:197|100:164|127:120,1,140,0|0,0:0|1:0,0:0:0:0:
190,85,114085,2,0,P|232:87|278:70,1,70,8|0,0:0|0:0,0:0:0:0:
340,40,114437,6,0,P|347:73|342:113,1,70,0|0,0:0|1:0,0:0:0:0:
295,186,114791,1,8,0:0:0:0:
204,177,114967,2,0,B|171:178|134:211|134:211|97:202|116:154,1,140,0|0,0:0|1:0,0:0:0:0:
170,59,115497,2,0,B|200:52|200:52|283:74,1,105,8|0,0:0|0:0,0:0:0:0:
295,76,115850,6,0,B|313:48|313:48|325:0,2,70,4|4|8,1:3|1:3|0:0,0:0:0:0:
280,166,116379,2,0,B|346:191|386:160|386:160|350:129,1,140,0|0,0:0|1:0,0:0:0:0:
295,76,116909,1,8,0:0:0:0:
207,99,117085,1,0,0:0:0:0:
122,66,117261,6,0,P|84:70|44:84,1,70,0|0,0:0|1:0,0:0:0:0:
4,156,117614,1,8,0:0:0:0:
71,217,117791,2,0,B|114:216|138:232|138:232|161:211|210:208,1,140,0|0,0:0|1:0,0:0:0:0:
285,152,118320,2,0,B|272:191|272:191|290:275,1,105,8|0,0:0|0:0,0:0:0:0:
291,280,118673,6,0,P|260:295|223:300,2,70,4|4|8,1:3|1:3|0:0,0:0:0:0:
369,232,119203,2,0,B|391:192|375:126|375:126|334:164,1,140,0|0,0:0|1:0,0:0:0:0:
283,207,119732,1,8,0:0:0:0:
302,293,119909,1,0,0:0:0:0:
214,317,120085,6,0,P|180:309|155:285,1,70,0|0,0:0|1:0,0:0:0:0:
170,195,120438,1,8,0:0:0:0:
257,220,120614,2,0,B|309:189|362:208|362:208|345:152,1,140,0|0,0:0|1:0,0:0:0:0:
286,116,121143,2,0,B|251:108|251:108|221:115|221:115|181:103,1,105,8|0,0:0|0:0,0:0:0:0:
158,90,121497,6,0,B|90:59|87:124|2:86,1,140,2|0,0:1|0:0,0:0:0:0:
9,177,122026,2,0,B|32:188|47:204|47:204|95:168|152:175,1,140,2|0,0:1|0:0,0:0:0:0:
216,160,122556,1,2,0:1:0:0:
292,193,122732,1,2,0:0:0:0:
365,148,122909,6,0,B|402:149|402:149|442:128,1,70,0|0,0:0|1:0,0:0:0:0:
443,50,123261,1,8,0:0:0:0:
366,15,123437,1,0,0:0:0:0:
313,80,123614,2,0,B|276:81|276:81|236:60,1,70,0|0,0:0|1:0,0:0:0:0:
177,114,123967,1,2,0:1:0:0:
257,278,124320,6,0,P|292:288|327:282,1,70,4|4,1:3|1:3,0:0:0:0:
382,211,124673,1,8,0:0:0:0:
305,161,124850,1,0,0:0:0:0:
305,161,124938,1,0,0:0:0:0:
305,161,125026,2,0,P|271:154|236:160,1,70,0|0,0:0|1:0,0:0:0:0:
163,107,125379,1,8,0:0:0:0:
105,178,125556,1,0,0:0:0:0:
16,158,125732,6,0,P|16:192|37:238,1,70,0|0,0:0|1:0,0:0:0:0:
95,285,126085,1,8,0:0:0:0:
176,240,126261,1,0,0:0:0:0:
176,240,126350,1,0,0:0:0:0:
176,240,126438,2,0,P|218:228|253:228,1,70,0|0,0:0|1:0,0:0:0:0:
304,295,126790,2,0,B|334:305|334:305|406:295,1,105,8|0,0:0|0:0,0:0:0:0:
426,294,127144,6,0,P|442:335|441:387,2,70,4|4|8,1:3|1:3|0:0,0:0:0:0:
398,206,127673,1,0,0:0:0:0:
398,206,127761,1,0,0:0:0:0:
398,206,127850,2,0,P|360:197|310:216,1,70,0|0,0:0|1:0,0:0:0:0:
253,252,128203,2,0,P|218:258|185:249,1,70,8|0,0:0|0:0,0:0:0:0:
100,214,128556,6,0,B|79:148|79:148|106:73,1,140,0|8,0:0|0:0,0:0:0:0:
186,46,129085,1,0,0:0:0:0:
186,46,129173,1,0,0:0:0:0:
186,46,129261,2,0,P|229:51|280:38,1,70,0|0,0:0|1:0,0:0:0:0:
338,10,129614,2,0,P|346:52|324:103,1,70,8|0,0:0|0:0,0:0:0:0:
273,140,129967,6,0,L|264:226,1,70,0|0,0:0|1:0,0:0:0:0:
314,286,130320,1,8,0:0:0:0:
229,318,130496,1,0,0:0:0:0:
229,318,130584,1,0,0:0:0:0:
229,318,130673,2,0,L|133:310,1,70,0|0,0:0|1:0,0:0:0:0:
71,336,131026,2,0,L|87:243,1,70,8|0,0:0|0:0,0:0:0:0:
59,178,131379,6,0,L|151:188,1,70,0|0,0:0|1:0,0:0:0:0:
207,231,131732,1,8,0:0:0:0:
279,170,131908,1,0,0:0:0:0:
279,170,131996,1,0,0:0:0:0:
279,170,132084,2,0,L|289:78,1,70,0|0,0:0|1:0,0:0:0:0:
370,63,132437,2,0,L|360:155,1,70,8|0,0:0|0:0,0:0:0:0:
430,193,132790,5,8,0:0:0:0:
366,258,132967,2,0,L|375:312,2,35,2|0|2,0:0|0:0|0:0,0:0:0:0:
302,192,133320,5,8,0:0:0:0:
238,127,133497,2,0,L|247:73,2,35,2|0|2,0:0|0:0|0:0,0:0:0:0:
173,191,133849,2,0,L|152:280,1,70,8|0|0|0,0:0|0:0,0:0:0:0:
43,192,134202,5,8,0:0:0:0:
107,127,134379,2,0,L|98:73,2,35,2|0|2,0:0|0:0|0:0,0:0:0:0:
173,191,134732,5,8,0:0:0:0:
237,256,134909,2,0,L|228:310,2,35,2|0|2,0:0|0:0|0:0,0:0:0:0:
296,187,135261,6,0,B|337:178|337:178|368:188|368:188|409:178|409:178|372:167,1,140,2|4,0:1|0:0,0:0:0:0:
