osu file format v14

[General]
AudioFilename: dRAPER- JoYrIDEs.mp3
AudioLeadIn: 0
PreviewTime: 44908
Countdown: 0
SampleSet: Soft
StackLeniency: 0.2
Mode: 0
LetterboxInBreaks: 0
WidescreenStoryboard: 0

[Editor]
Bookmarks: 11389,22683,33977,45271,59386,67859,84800,90447,104565,113036,135624
DistanceSpacing: 1.3
BeatDivisor: 4
GridSize: 4
TimelineZoom: 1

[Metadata]
Title:Joyride
TitleUnicode:Joyride
Artist:Draper
ArtistUnicode:Draper
Creator:Rohit6
Version:Fun Run
Source:
Tags:drum and bass dnb liquid perspectives ep monstercat electronic dance edm Log Off Now Side BOUYAAA Come[Back]Home CBH
BeatmapID:951399
BeatmapSetID:392188

[Difficulty]
HPDrainRate:6
CircleSize:4.2
OverallDifficulty:8.7
ApproachRate:9.2
SliderMultiplier:1.8
SliderTickRate:2

[Events]
//Background and Video events
0,0,"o1.jpg",0,0
//Break Periods
//Storyboard Layer 0 (Background)
//Storyboard Layer 1 (Fail)
//Storyboard Layer 2 (Pass)
//Storyboard Layer 3 (Foreground)
//Storyboard Sound Samples

[TimingPoints]
85,352.941176470588,4,2,5,70,1,0
437,-133.333333333333,4,2,5,60,0,0
614,-133.333333333333,4,2,5,50,0,0
790,-133.333333333333,4,2,5,60,0,0
967,-133.333333333333,4,2,5,50,0,0
1143,-133.333333333333,4,2,5,60,0,0
1320,-133.333333333333,4,2,5,50,0,0
1496,-133.333333333333,4,2,5,70,0,0
1673,-133.333333333333,4,2,5,50,0,0
1849,-133.333333333333,4,2,5,60,0,0
2026,-133.333333333333,4,2,5,50,0,0
2114,-133.333333333333,4,2,5,40,0,0
2202,-133.333333333333,4,2,5,50,0,0
2290,-133.333333333333,4,2,5,40,0,0
2379,-133.333333333333,4,2,5,50,0,0
2555,-133.333333333333,4,2,5,60,0,0
2820,-133.333333333333,4,2,5,10,0,0
2908,-133.333333333333,4,2,5,70,0,0
3261,-133.333333333333,4,2,5,60,0,0
3437,-133.333333333333,4,2,5,50,0,0
3791,-133.333333333333,4,2,5,50,0,0
3967,-133.333333333333,4,2,5,60,0,0
4143,-133.333333333333,4,2,5,50,0,0
4320,-133.333333333333,4,2,5,70,0,0
4497,-133.333333333333,4,2,5,50,0,0
4673,-133.333333333333,4,2,5,60,0,0
4849,-133.333333333333,4,2,5,50,0,0
4937,-133.333333333333,4,2,5,40,0,0
5025,-133.333333333333,4,2,5,50,0,0
5113,-133.333333333333,4,2,5,40,0,0
5202,-133.333333333333,4,2,5,50,0,0
5379,-133.333333333333,4,2,5,60,0,0
5643,-133.333333333333,4,2,5,10,0,0
5732,-133.333333333333,4,2,5,70,0,0
6084,-133.333333333333,4,2,5,60,0,0
6261,-133.333333333333,4,2,5,50,0,0
6437,-133.333333333333,4,2,5,60,0,0
6614,-133.333333333333,4,2,5,50,0,0
6790,-133.333333333333,4,2,5,60,0,0
6967,-133.333333333333,4,2,5,50,0,0
7143,-133.333333333333,4,2,5,70,0,0
7320,-133.333333333333,4,2,5,50,0,0
7496,-133.333333333333,4,2,5,60,0,0
7673,-133.333333333333,4,2,5,50,0,0
7761,-133.333333333333,4,2,5,40,0,0
7849,-133.333333333333,4,2,5,50,0,0
7937,-133.333333333333,4,2,5,40,0,0
8026,-133.333333333333,4,2,5,50,0,0
8202,-133.333333333333,4,2,5,60,0,0
8467,-133.333333333333,4,2,5,10,0,0
8555,-133.333333333333,4,2,3,80,0,0
8732,-133.333333333333,4,2,3,50,0,0
8908,-133.333333333333,4,2,3,60,0,0
9084,-133.333333333333,4,2,3,50,0,0
9261,-133.333333333333,4,2,3,60,0,0
9437,-133.333333333333,4,2,3,50,0,0
9614,-133.333333333333,4,2,3,60,0,0
9790,-133.333333333333,4,2,3,50,0,0
9967,-133.333333333333,4,2,3,70,0,0
10143,-133.333333333333,4,2,3,50,0,0
10320,-133.333333333333,4,2,3,60,0,0
10496,-133.333333333333,4,2,3,50,0,0
10584,-133.333333333333,4,2,3,40,0,0
10673,-133.333333333333,4,2,3,60,0,0
10761,-133.333333333333,4,2,3,40,0,0
10849,-133.333333333333,4,2,3,50,0,0
11026,-80,4,2,5,100,0,0
11290,-80,4,2,5,20,0,0
11379,-100,4,2,5,70,0,0
11732,-100,4,2,5,60,0,0
11908,-100,4,2,5,50,0,0
12084,-100,4,2,5,60,0,0
12262,-100,4,2,5,50,0,0
12438,-100,4,2,5,60,0,0
12614,-100,4,2,5,50,0,0
12790,-100,4,2,5,70,0,0
12968,-100,4,2,5,50,0,0
13144,-100,4,2,5,60,0,0
13320,-100,4,2,5,50,0,0
13408,-100,4,2,5,40,0,0
13496,-100,4,2,5,50,0,0
13584,-100,4,2,5,40,0,0
13673,-100,4,2,5,50,0,0
13849,-100,4,2,5,60,0,0
14114,-100,4,2,5,10,0,0
14202,-100,4,2,5,70,0,0
14555,-100,4,2,5,60,0,0
14732,-100,4,2,5,50,0,0
14908,-100,4,2,5,60,0,0
15085,-100,4,2,5,50,0,0
15261,-100,4,2,5,60,0,0
15437,-100,4,2,5,50,0,0
15614,-100,4,2,5,70,0,0
15791,-100,4,2,5,50,0,0
15967,-100,4,2,5,60,0,0
16143,-100,4,2,5,50,0,0
16232,-100,4,2,5,40,0,0
16320,-100,4,2,5,50,0,0
16408,-100,4,2,5,40,0,0
16497,-100,4,2,5,50,0,0
16673,-100,4,2,5,60,0,0
16937,-100,4,2,5,10,0,0
17026,-100,4,2,5,70,0,0
17379,-100,4,2,5,60,0,0
17555,-100,4,2,5,50,0,0
17732,-100,4,2,5,60,0,0
17909,-100,4,2,5,50,0,0
18085,-100,4,2,5,60,0,0
18261,-100,4,2,5,50,0,0
18437,-100,4,2,5,70,0,0
18615,-100,4,2,5,50,0,0
18791,-100,4,2,5,60,0,0
18967,-100,4,2,5,50,0,0
19055,-100,4,2,5,40,0,0
19143,-100,4,2,5,50,0,0
19231,-100,4,2,5,40,0,0
19320,-100,4,2,5,50,0,0
19496,-100,4,2,5,60,0,0
19761,-100,4,2,5,10,0,0
19849,-100,4,2,3,80,0,0
20026,-100,4,2,3,50,0,0
20202,-100,4,2,3,60,0,0
20379,-100,4,2,3,50,0,0
20555,-100,4,2,3,60,0,0
20732,-100,4,2,3,50,0,0
20908,-100,4,2,3,60,0,0
21084,-100,4,2,3,50,0,0
21261,-100,4,2,3,70,0,0
21437,-100,4,2,3,50,0,0
21614,-100,4,2,3,60,0,0
21790,-100,4,2,3,50,0,0
21879,-100,4,2,3,40,0,0
21967,-100,4,2,3,50,0,0
22055,-100,4,2,3,40,0,0
22144,-100,4,2,3,50,0,0
22320,-80,4,2,3,100,0,0
22584,-100,4,2,3,20,0,0
22673,-100,4,2,6,90,0,0
22849,-100,4,2,6,60,0,0
23026,-100,4,2,6,80,0,0
23202,-100,4,2,6,60,0,0
23379,-100,4,2,6,80,0,0
23555,-100,4,2,6,60,0,0
23732,-100,4,2,6,80,0,0
23908,-100,4,2,6,60,0,0
24084,-100,4,2,6,90,0,0
24261,-100,4,2,6,60,0,0
24437,-100,4,2,6,80,0,0
24614,-100,4,2,6,60,0,0
24702,-133.333333333333,4,2,6,40,0,0
24790,-133.333333333333,4,2,6,50,0,0
24878,-133.333333333333,4,2,6,40,0,0
24967,-133.333333333333,4,2,6,50,0,0
25143,-100,4,2,6,80,0,0
25320,-100,4,2,6,60,0,0
25496,-100,4,2,6,80,0,0
25673,-100,4,2,6,60,0,0
25849,-100,4,2,6,80,0,0
26026,-100,4,2,6,80,0,0
26114,-100,4,2,6,60,0,0
26202,-100,4,2,6,80,0,0
26379,-100,4,2,6,60,0,0
26555,-100,4,2,6,80,0,0
26732,-100,4,2,6,60,0,0
26908,-100,4,2,6,90,0,0
27084,-100,4,2,6,60,0,0
27261,-100,4,2,6,80,0,0
27437,-100,4,2,6,60,0,0
27526,-100,4,2,6,50,0,0
27614,-100,4,2,6,100,0,0
27702,-100,4,2,6,80,0,0
27790,-100,4,2,6,80,0,0
27967,-100,4,2,6,100,0,0
28143,-100,4,2,6,80,0,0
28320,-100,4,2,6,100,0,0
28496,-100,4,2,6,60,0,0
28673,-100,4,2,6,80,0,0
28849,-100,4,2,6,60,0,0
29026,-100,4,2,6,80,0,0
29202,-100,4,2,6,80,0,0
29379,-100,4,2,6,80,0,0
29555,-100,4,2,6,60,0,0
29732,-100,4,2,6,90,0,0
29908,-100,4,2,6,60,0,0
30084,-100,4,2,6,80,0,0
30261,-100,4,2,6,60,0,0
30349,-100,4,2,6,60,0,0
30437,-133.333333333333,4,2,6,50,0,0
30525,-133.333333333333,4,2,6,40,0,0
30614,-133.333333333333,4,2,6,50,0,0
30790,-100,4,2,6,80,0,0
30967,-100,4,2,6,60,0,0
31143,-100,4,2,6,80,0,0
31320,-100,4,2,6,60,0,0
31496,-100,4,2,6,80,0,0
31673,-100,4,2,6,80,0,0
31761,-100,4,2,6,60,0,0
31849,-100,4,2,6,80,0,0
32026,-100,4,2,6,60,0,0
32202,-100,4,2,6,80,0,0
32379,-100,4,2,6,60,0,0
32555,-100,4,2,6,90,0,0
32732,-100,4,2,6,60,0,0
32908,-100,4,2,6,90,0,0
33084,-100,4,2,6,80,0,0
33261,-100,4,2,6,90,0,0
33437,-100,4,2,6,80,0,0
33614,-80,4,2,3,100,0,0
33879,-80,4,2,6,10,0,0
33967,-133.333333333333,4,2,6,80,0,0
34496,-133.333333333333,4,2,6,60,0,0
36437,-133.333333333333,4,2,6,70,0,0
36790,-133.333333333333,4,2,6,80,0,0
36967,-133.333333333333,4,2,6,20,0,0
37143,-133.333333333333,4,2,6,70,0,0
37320,-133.333333333333,4,2,6,80,0,0
37496,-133.333333333333,4,2,6,20,0,0
37673,-133.333333333333,4,2,6,70,0,0
37849,-133.333333333333,4,1,6,60,0,0
38026,-133.333333333333,4,1,6,50,0,0
38202,-133.333333333333,4,1,6,70,0,0
38379,-133.333333333333,4,1,6,50,0,0
38908,-133.333333333333,4,1,6,70,0,0
39261,-133.333333333333,4,1,6,60,0,0
39437,-133.333333333333,4,1,6,30,0,0
39614,-133.333333333333,4,1,6,70,0,0
39790,-133.333333333333,4,1,6,35,0,0
40320,-133.333333333333,4,2,6,40,0,0
40496,-133.333333333333,4,2,6,20,0,0
40673,-133.333333333333,4,2,6,65,0,0
40849,-133.333333333333,4,2,6,32,0,0
41026,-133.333333333333,4,2,6,75,0,0
41202,-133.333333333333,4,2,6,37,0,0
41732,-133.333333333333,4,2,6,60,0,0
41908,-133.333333333333,4,2,6,20,0,0
42084,-100,4,2,6,90,0,0
42437,-133.333333333333,4,2,6,80,0,0
42614,-133.333333333333,4,2,6,90,0,0
42967,-133.333333333333,4,2,6,80,0,0
43143,-133.333333333333,4,2,6,90,0,0
43496,-133.333333333333,4,2,6,80,0,0
43673,-133.333333333333,4,2,6,90,0,0
43849,-133.333333333333,4,2,6,80,0,0
44026,-133.333333333333,4,2,6,90,0,0
44379,-133.333333333333,4,2,6,80,0,0
44555,-133.333333333333,4,2,6,90,0,0
44908,-133.333333333333,4,2,6,95,0,0
45261,-83.3333333333333,4,2,6,100,0,1
45614,-83.3333333333333,4,2,8,100,0,1
45790,-83.3333333333333,4,2,8,80,0,1
45967,-83.3333333333333,4,2,6,100,0,1
46055,-83.3333333333333,4,2,8,80,0,1
46143,-83.3333333333333,4,2,6,100,0,1
46320,-83.3333333333333,4,2,8,100,0,1
46496,-83.3333333333333,4,2,8,80,0,1
46673,-83.3333333333333,4,2,6,100,0,1
46849,-83.3333333333333,4,2,6,80,0,1
47026,-83.3333333333333,4,2,8,100,0,1
47290,-83.3333333333333,4,2,8,80,0,1
47379,-83.3333333333333,4,2,6,100,0,1
47467,-83.3333333333333,4,2,8,80,0,1
47555,-83.3333333333333,4,2,8,100,0,1
47908,-83.3333333333333,4,2,8,80,0,1
48084,-83.3333333333333,4,1,6,100,0,1
48437,-83.3333333333333,4,2,8,100,0,1
48614,-83.3333333333333,4,2,6,100,0,1
48702,-83.3333333333333,4,2,8,80,0,1
48790,-83.3333333333333,4,2,6,100,0,1
48879,-83.3333333333333,4,2,8,80,0,1
48967,-83.3333333333333,4,2,6,100,0,1
49143,-83.3333333333333,4,2,8,100,0,1
49320,-83.3333333333333,4,2,8,80,0,1
49496,-83.3333333333333,4,2,6,100,0,1
49584,-83.3333333333333,4,2,8,80,0,1
49673,-83.3333333333333,4,2,6,100,0,1
49849,-83.3333333333333,4,2,8,100,0,1
50026,-83.3333333333333,4,2,7,100,0,1
50114,-83.3333333333333,4,2,7,80,0,1
50202,-83.3333333333333,4,2,7,100,0,1
50290,-83.3333333333333,4,2,7,80,0,1
50379,-83.3333333333333,4,2,6,100,0,1
50555,-83.3333333333333,4,2,8,100,0,1
50732,-83.3333333333333,4,2,8,80,0,1
50908,-83.3333333333333,4,2,6,100,0,1
51261,-83.3333333333333,4,2,8,100,0,1
51526,-83.3333333333333,4,2,8,80,0,1
51614,-83.3333333333333,4,2,7,100,0,1
51702,-83.3333333333333,4,2,8,80,0,1
51790,-83.3333333333333,4,2,6,100,0,1
51967,-83.3333333333333,4,2,8,100,0,1
52143,-83.3333333333333,4,2,8,80,0,1
52320,-83.3333333333333,4,2,8,100,0,1
52496,-83.3333333333333,4,2,6,80,0,1
52673,-83.3333333333333,4,2,8,100,0,1
52937,-83.3333333333333,4,2,8,80,0,1
53026,-83.3333333333333,4,2,6,100,0,1
53114,-83.3333333333333,4,2,8,80,0,1
53202,-83.3333333333333,4,2,6,100,0,1
53379,-83.3333333333333,4,2,8,100,0,1
53555,-83.3333333333333,4,2,8,80,0,1
53732,-83.3333333333333,4,2,6,100,0,1
54084,-83.3333333333333,4,2,8,100,0,1
54261,-83.3333333333333,4,2,7,100,0,1
54349,-83.3333333333333,4,2,8,80,0,1
54437,-83.3333333333333,4,2,6,100,0,1
54526,-83.3333333333333,4,2,8,80,0,1
54614,-83.3333333333333,4,2,6,100,0,1
54790,-83.3333333333333,4,2,8,100,0,1
54967,-83.3333333333333,4,2,8,80,0,1
55143,-83.3333333333333,4,2,6,100,0,1
55232,-83.3333333333333,4,2,8,80,0,1
55320,-83.3333333333333,4,2,8,100,0,1
55673,-83.3333333333333,4,2,6,100,0,1
55761,-83.3333333333333,4,2,8,80,0,1
55849,-83.3333333333333,4,2,6,100,0,1
55937,-83.3333333333333,4,2,8,80,0,1
56026,-83.3333333333333,4,2,6,100,0,1
56202,-66.6666666666667,4,2,3,100,0,0
56467,-66.6666666666667,4,2,8,10,0,0
56555,-83.3333333333333,4,2,6,100,0,1
56908,-83.3333333333333,4,2,8,100,0,1
57173,-83.3333333333333,4,2,8,80,0,1
57261,-83.3333333333333,4,2,8,100,0,1
57349,-83.3333333333333,4,2,8,80,0,1
57437,-83.3333333333333,4,2,6,100,0,1
57614,-83.3333333333333,4,2,8,100,0,1
57790,-83.3333333333333,4,2,8,80,0,1
57967,-83.3333333333333,4,2,8,100,0,1
58143,-83.3333333333333,4,2,6,80,0,1
58320,-83.3333333333333,4,2,8,100,0,1
58584,-83.3333333333333,4,2,8,80,0,1
58673,-83.3333333333333,4,2,8,100,0,1
58761,-83.3333333333333,4,2,8,80,0,1
58849,-83.3333333333333,4,2,8,100,0,1
59202,-83.3333333333333,4,2,8,80,0,1
59379,-83.3333333333333,4,2,6,100,0,1
59732,-83.3333333333333,4,2,6,100,0,1
59908,-83.3333333333333,4,2,6,100,0,1
59996,-83.3333333333333,4,2,8,80,0,1
60084,-83.3333333333333,4,2,6,100,0,1
60173,-83.3333333333333,4,2,8,80,0,1
60261,-83.3333333333333,4,2,6,100,0,1
60437,-83.3333333333333,4,2,8,100,0,1
60614,-83.3333333333333,4,2,8,80,0,1
60790,-83.3333333333333,4,2,6,100,0,1
60967,-83.3333333333333,4,2,6,80,0,1
61143,-83.3333333333333,4,2,7,100,0,1
61320,-83.3333333333333,4,2,6,100,0,1
61408,-83.3333333333333,4,2,8,80,0,1
61496,-83.3333333333333,4,2,6,100,0,1
61584,-83.3333333333333,4,2,8,80,0,1
61673,-83.3333333333333,4,2,6,100,0,1
61849,-83.3333333333333,4,2,6,80,0,1
61937,-83.3333333333333,4,2,6,60,0,1
62026,-83.3333333333333,4,2,6,80,0,1
62114,-83.3333333333333,4,2,6,60,0,1
62202,-83.3333333333333,4,2,6,100,0,1
62555,-83.3333333333333,4,2,8,100,0,1
62820,-83.3333333333333,4,2,8,80,0,1
62908,-83.3333333333333,4,2,8,100,0,1
62996,-83.3333333333333,4,2,8,80,0,1
63084,-83.3333333333333,4,2,8,100,0,1
63437,-83.3333333333333,4,2,8,80,0,1
63614,-83.3333333333333,4,2,8,100,0,1
63790,-83.3333333333333,4,2,6,80,0,1
63967,-83.3333333333333,4,2,8,100,0,1
64232,-83.3333333333333,4,2,8,80,0,1
64320,-83.3333333333333,4,2,6,100,0,1
64408,-83.3333333333333,4,2,8,80,0,1
64496,-83.3333333333333,4,2,6,100,0,1
64673,-83.3333333333333,4,2,8,100,0,1
64849,-83.3333333333333,4,2,8,80,0,1
65026,-83.3333333333333,4,2,6,100,0,1
65379,-83.3333333333333,4,2,8,100,0,1
65643,-83.3333333333333,4,2,8,80,0,1
65732,-83.3333333333333,4,2,6,100,0,1
65820,-83.3333333333333,4,2,8,80,0,1
65908,-83.3333333333333,4,2,6,100,0,1
66084,-83.3333333333333,4,2,8,100,0,1
66261,-83.3333333333333,4,2,8,80,0,1
66437,-83.3333333333333,4,2,8,100,0,1
66614,-83.3333333333333,4,2,6,80,0,1
66790,-83.3333333333333,4,2,8,100,0,1
67143,-83.3333333333333,4,2,6,80,0,1
67232,-83.3333333333333,4,2,6,60,0,1
67320,-83.3333333333333,4,2,6,80,0,1
67408,-83.3333333333333,4,2,6,60,0,1
67496,-66.6666666666667,4,2,3,100,0,1
67761,-66.6666666666667,4,2,3,10,0,1
67849,-100,4,2,8,80,0,0
68202,-100,4,2,8,80,0,0
68467,-100,4,2,8,60,0,0
68555,-100,4,2,8,80,0,0
68643,-100,4,2,8,60,0,0
68732,-100,4,2,8,80,0,0
68908,-100,4,2,8,80,0,0
69084,-100,4,2,8,60,0,0
69261,-100,4,2,8,80,0,0
69437,-100,4,2,8,60,0,0
69614,-100,4,2,8,80,0,0
69879,-100,4,2,8,60,0,0
69967,-100,4,2,8,80,0,0
70055,-100,4,2,8,60,0,0
70143,-100,4,2,8,80,0,0
70320,-100,4,2,8,80,0,0
70584,-100,4,2,8,20,0,0
70673,-100,4,2,8,80,0,0
71290,-100,4,2,8,60,0,0
71379,-100,4,2,8,80,0,0
71467,-100,4,2,8,60,0,0
71555,-100,4,2,8,80,0,0
71908,-100,4,2,8,60,0,0
72084,-100,4,2,8,80,0,0
72261,-100,4,2,8,60,0,0
72437,-100,4,2,8,80,0,0
72702,-100,4,2,8,60,0,0
72790,-100,4,2,8,80,0,0
72879,-100,4,2,8,60,0,0
72967,-100,4,2,8,80,0,0
73408,-100,4,2,8,20,0,0
73496,-100,4,2,8,80,0,0
73849,-100,4,2,8,80,0,0
74114,-100,4,2,8,60,0,0
74202,-100,4,2,8,80,0,0
74290,-100,4,2,8,60,0,0
74379,-100,4,2,8,80,0,0
74732,-100,4,2,8,60,0,0
74908,-100,4,2,8,80,0,0
75084,-100,4,2,8,60,0,0
75261,-100,4,2,8,80,0,0
75526,-100,4,2,8,60,0,0
75614,-100,4,2,8,80,0,0
75702,-100,4,2,8,60,0,0
75790,-100,4,2,8,80,0,0
76232,-100,4,2,8,20,0,0
76320,-100,4,2,8,80,0,0
76937,-100,4,2,8,60,0,0
77026,-100,4,2,8,80,0,0
77114,-100,4,2,8,60,0,0
77202,-100,4,2,8,80,0,0
77555,-100,4,2,8,60,0,0
77732,-100,4,2,8,80,0,0
77908,-100,4,2,8,60,0,0
78084,-100,4,2,8,80,0,0
78349,-100,4,2,8,60,0,0
78437,-100,4,2,8,80,0,0
78526,-100,4,2,8,60,0,0
78614,-100,4,2,8,80,0,0
78790,-80,4,2,8,100,0,0
79055,-80,4,2,8,10,0,0
79143,-100,4,2,8,100,0,0
79761,-100,4,2,8,60,0,0
79849,-100,4,2,8,80,0,0
79937,-100,4,2,8,60,0,0
80026,-100,4,2,8,80,0,0
80379,-100,4,2,8,60,0,0
80555,-100,4,2,8,80,0,0
80732,-100,4,2,8,60,0,0
80908,-100,4,2,8,80,0,0
81173,-100,4,2,8,60,0,0
81261,-100,4,2,8,80,0,0
81349,-100,4,2,8,60,0,0
81437,-100,4,2,8,80,0,0
81879,-100,4,2,8,20,0,0
81967,-100,4,2,8,80,0,0
82584,-100,4,2,8,60,0,0
82673,-100,4,2,8,80,0,0
82761,-100,4,2,8,60,0,0
82849,-100,4,2,8,80,0,0
83202,-100,4,2,8,60,0,0
83379,-100,4,2,8,80,0,0
83555,-100,4,2,8,60,0,0
83732,-100,4,2,8,80,0,0
83996,-100,4,2,8,60,0,0
84084,-100,4,2,8,80,0,0
84173,-100,4,2,8,60,0,0
84261,-100,4,2,8,80,0,0
84702,-100,4,2,8,20,0,0
84790,-133.333333333333,4,2,6,70,0,0
85143,-133.333333333333,4,2,6,30,0,0
85320,-133.333333333333,4,2,6,70,0,0
85673,-133.333333333333,4,2,6,30,0,0
85849,-133.333333333333,4,2,6,70,0,0
86026,-133.333333333333,4,2,6,50,0,0
86202,-133.333333333333,4,2,6,70,0,0
86555,-133.333333333333,4,2,6,30,0,0
86732,-133.333333333333,4,2,6,70,0,0
87084,-133.333333333333,4,2,6,50,0,0
87261,-133.333333333333,4,2,6,70,0,0
87437,-133.333333333333,4,2,6,50,0,0
87614,-133.333333333333,4,2,6,70,0,0
87790,-133.333333333333,4,2,6,80,0,0
88143,-133.333333333333,4,2,6,70,0,0
88320,-133.333333333333,4,2,6,80,0,0
88673,-133.333333333333,4,2,6,70,0,0
88849,-133.333333333333,4,2,6,80,0,0
89026,-133.333333333333,4,2,6,70,0,0
89202,-133.333333333333,4,2,6,80,0,0
89379,-133.333333333333,4,2,6,70,0,0
89555,-133.333333333333,4,2,6,80,0,0
89732,-133.333333333333,4,2,6,90,0,0
89908,-133.333333333333,4,2,6,90,0,0
90084,-133.333333333333,4,2,6,95,0,0
90261,-133.333333333333,4,2,6,95,0,0
90437,-83.3333333333333,4,2,8,100,0,1
90967,-83.3333333333333,4,2,8,80,0,1
91143,-83.3333333333333,4,2,7,90,0,1
91232,-83.3333333333333,4,2,8,70,0,1
91320,-83.3333333333333,4,2,6,100,0,1
91496,-83.3333333333333,4,2,8,100,0,1
91673,-83.3333333333333,4,2,8,80,0,1
91849,-83.3333333333333,4,2,8,100,0,1
92026,-83.3333333333333,4,2,8,80,0,1
92202,-83.3333333333333,4,2,8,100,0,1
92467,-83.3333333333333,4,2,8,80,0,1
92555,-83.3333333333333,4,2,7,100,0,1
92643,-83.3333333333333,4,2,8,80,0,1
92732,-83.3333333333333,4,2,6,100,0,1
92908,-83.3333333333333,4,2,8,100,0,1
93084,-83.3333333333333,4,2,8,80,0,1
93261,-83.3333333333333,4,2,8,100,0,1
93879,-83.3333333333333,4,2,8,80,0,1
93967,-83.3333333333333,4,2,6,100,0,1
94055,-83.3333333333333,4,2,8,80,0,1
94143,-83.3333333333333,4,2,6,100,0,1
94320,-83.3333333333333,4,2,8,100,0,1
94496,-83.3333333333333,4,2,8,80,0,1
94673,-83.3333333333333,4,2,6,100,0,1
94761,-83.3333333333333,4,2,8,80,0,1
94849,-83.3333333333333,4,2,8,100,0,1
95290,-83.3333333333333,4,2,8,80,0,1
95379,-83.3333333333333,4,2,7,100,0,1
95467,-83.3333333333333,4,2,8,80,0,1
95555,-83.3333333333333,4,2,8,100,0,1
95908,-83.3333333333333,4,2,8,80,0,1
96084,-83.3333333333333,4,2,8,100,0,1
96702,-83.3333333333333,4,2,8,80,0,1
96790,-83.3333333333333,4,2,7,100,0,1
96879,-83.3333333333333,4,2,8,80,0,1
96967,-83.3333333333333,4,2,6,100,0,1
97143,-83.3333333333333,4,2,8,100,0,1
97320,-83.3333333333333,4,2,8,80,0,1
97496,-83.3333333333333,4,2,8,100,0,1
97673,-83.3333333333333,4,2,8,80,0,1
97849,-83.3333333333333,4,2,8,100,0,1
98114,-83.3333333333333,4,2,8,80,0,1
98202,-83.3333333333333,4,2,7,100,0,1
98290,-83.3333333333333,4,2,8,80,0,1
98379,-83.3333333333333,4,2,6,100,0,1
98555,-83.3333333333333,4,2,8,100,0,1
98732,-83.3333333333333,4,2,8,80,0,1
98908,-83.3333333333333,4,2,8,100,0,1
99437,-83.3333333333333,4,2,6,100,0,1
99526,-83.3333333333333,4,2,8,80,0,1
99614,-83.3333333333333,4,2,6,100,0,1
99702,-83.3333333333333,4,2,8,80,0,1
99790,-83.3333333333333,4,2,6,100,0,1
99967,-83.3333333333333,4,2,8,100,0,1
100143,-83.3333333333333,4,2,8,80,0,1
100320,-83.3333333333333,4,2,7,100,0,1
100408,-83.3333333333333,4,2,8,80,0,1
100496,-83.3333333333333,4,2,8,100,0,1
100849,-83.3333333333333,4,2,6,100,0,1
100937,-83.3333333333333,4,2,8,80,0,1
101026,-83.3333333333333,4,2,6,100,0,1
101114,-83.3333333333333,4,2,8,80,0,1
101202,-83.3333333333333,4,2,6,100,0,1
101379,-66.6666666666667,4,2,3,100,0,0
101643,-66.6666666666667,4,2,3,10,0,0
101732,-83.3333333333333,4,2,8,100,0,1
102349,-83.3333333333333,4,2,8,80,0,1
102437,-83.3333333333333,4,2,7,100,0,1
102526,-83.3333333333333,4,2,8,80,0,1
102614,-83.3333333333333,4,2,8,100,0,1
102967,-83.3333333333333,4,2,8,80,0,1
103143,-83.3333333333333,4,2,8,100,0,1
103320,-83.3333333333333,4,2,8,80,0,1
103496,-83.3333333333333,4,2,8,100,0,1
103761,-83.3333333333333,4,2,8,80,0,1
103849,-83.3333333333333,4,2,7,100,0,1
103937,-83.3333333333333,4,2,8,80,0,1
104026,-83.3333333333333,4,2,6,100,0,1
104202,-83.3333333333333,4,2,8,100,0,1
104379,-83.3333333333333,4,2,8,80,0,1
104555,-83.3333333333333,4,2,8,100,0,1
104908,-83.3333333333333,4,2,6,100,0,1
105173,-83.3333333333333,4,2,8,80,0,1
105261,-83.3333333333333,4,2,8,100,0,1
105349,-83.3333333333333,4,2,8,80,0,1
105437,-83.3333333333333,4,2,6,100,0,1
105614,-83.3333333333333,4,2,8,100,0,1
105790,-83.3333333333333,4,2,8,80,0,1
105967,-83.3333333333333,4,2,7,100,0,1
106143,-83.3333333333333,4,2,8,80,0,1
106320,-83.3333333333333,4,2,8,100,0,1
106496,-83.3333333333333,4,2,7,100,0,1
106584,-83.3333333333333,4,2,8,80,0,1
106673,-83.3333333333333,4,2,7,100,0,1
106761,-83.3333333333333,4,2,8,80,0,1
106849,-83.3333333333333,4,2,6,100,0,1
107026,-83.3333333333333,4,2,7,80,0,1
107114,-83.3333333333333,4,2,7,60,0,1
107202,-83.3333333333333,4,2,7,80,0,1
107290,-83.3333333333333,4,2,7,60,0,1
107379,-83.3333333333333,4,2,8,100,0,1
107996,-83.3333333333333,4,2,8,80,0,1
108084,-83.3333333333333,4,2,8,100,0,1
108173,-83.3333333333333,4,2,8,80,0,1
108261,-83.3333333333333,4,2,8,100,0,1
108614,-83.3333333333333,4,2,8,80,0,1
108790,-83.3333333333333,4,2,8,100,0,1
108967,-83.3333333333333,4,2,8,80,0,1
109408,-83.3333333333333,4,2,8,80,0,1
109496,-83.3333333333333,4,2,6,100,0,1
109584,-83.3333333333333,4,2,8,80,0,1
109673,-83.3333333333333,4,2,6,100,0,1
109849,-83.3333333333333,4,2,8,100,0,1
110026,-83.3333333333333,4,2,8,80,0,1
110202,-83.3333333333333,4,2,8,100,0,1
110732,-83.3333333333333,4,2,6,100,0,1
110820,-83.3333333333333,4,2,8,80,0,1
110908,-83.3333333333333,4,2,6,100,0,1
110996,-83.3333333333333,4,2,8,80,0,1
111084,-83.3333333333333,4,2,6,100,0,1
111261,-83.3333333333333,4,2,8,100,0,1
111437,-83.3333333333333,4,2,8,80,0,1
111614,-83.3333333333333,4,2,8,100,0,1
111790,-83.3333333333333,4,2,8,80,0,1
111967,-83.3333333333333,4,2,8,100,0,1
112143,-83.3333333333333,4,2,8,80,0,1
112320,-83.3333333333333,4,2,6,80,0,1
112408,-83.3333333333333,4,2,6,60,0,1
112496,-83.3333333333333,4,2,6,80,0,1
112584,-83.3333333333333,4,2,6,60,0,1
112673,-66.6666666666667,4,2,3,100,0,1
112937,-66.6666666666667,4,2,3,10,0,1
113026,-100,4,2,8,80,0,0
113643,-100,4,2,8,60,0,0
113732,-100,4,2,8,80,0,0
113820,-100,4,2,8,60,0,0
113908,-100,4,2,8,80,0,0
114261,-100,4,2,8,60,0,0
114437,-100,4,2,8,80,0,0
114614,-100,4,2,8,60,0,0
114790,-100,4,2,8,80,0,0
115055,-100,4,2,8,60,0,0
115143,-100,4,2,8,80,0,0
115232,-100,4,2,8,60,0,0
115320,-100,4,2,8,80,0,0
115761,-100,4,2,8,20,0,0
115849,-100,4,2,8,80,0,0
116467,-100,4,2,8,60,0,0
116555,-100,4,2,8,80,0,0
116643,-100,4,2,8,60,0,0
116732,-100,4,2,8,80,0,0
117084,-100,4,2,8,60,0,0
117261,-100,4,2,8,80,0,0
117437,-100,4,2,8,60,0,0
117614,-100,4,2,8,80,0,0
117879,-100,4,2,8,60,0,0
117967,-100,4,2,8,80,0,0
118055,-100,4,2,8,60,0,0
118143,-100,4,2,8,80,0,0
118584,-100,4,2,8,20,0,0
118673,-100,4,2,8,80,0,0
119290,-100,4,2,8,60,0,0
119379,-100,4,2,8,80,0,0
119467,-100,4,2,8,60,0,0
119555,-100,4,2,8,80,0,0
119908,-100,4,2,8,60,0,0
120084,-100,4,2,8,80,0,0
120261,-100,4,2,8,60,0,0
120437,-100,4,2,8,80,0,0
120702,-100,4,2,8,60,0,0
120790,-100,4,2,8,80,0,0
120879,-100,4,2,8,60,0,0
120967,-100,4,2,8,80,0,0
121408,-100,4,2,8,20,0,0
121496,-100,4,2,8,80,0,0
122114,-100,4,2,8,60,0,0
122202,-100,4,2,8,80,0,0
122290,-100,4,2,8,60,0,0
122379,-100,4,2,8,80,0,0
122732,-100,4,2,8,60,0,0
122908,-100,4,2,8,80,0,0
123084,-100,4,2,8,60,0,0
123526,-100,4,2,8,60,0,0
123614,-100,4,2,8,80,0,0
123702,-100,4,2,8,60,0,0
123790,-100,4,2,8,80,0,0
123967,-80,4,2,3,100,0,0
124232,-80,4,2,3,10,0,0
124320,-100,4,2,8,90,0,0
124937,-100,4,2,8,60,0,0
125026,-100,4,2,8,80,0,0
125114,-100,4,2,8,60,0,0
125202,-100,4,2,8,80,0,0
125555,-100,4,2,8,60,0,0
125732,-100,4,2,8,80,0,0
125908,-100,4,2,8,60,0,0
126084,-100,4,2,8,80,0,0
126349,-100,4,2,8,60,0,0
126437,-100,4,2,8,80,0,0
126526,-100,4,2,8,60,0,0
126614,-100,4,2,8,80,0,0
127055,-100,4,2,8,20,0,0
127143,-100,4,2,8,80,0,0
127761,-100,4,2,8,60,0,0
127849,-100,4,2,8,80,0,0
127937,-100,4,2,8,60,0,0
128026,-100,4,2,8,80,0,0
128379,-100,4,2,8,60,0,0
128555,-100,4,2,8,80,0,0
128732,-100,4,2,8,60,0,0
128908,-100,4,2,8,80,0,0
129173,-100,4,2,8,60,0,0
129261,-100,4,2,8,80,0,0
129349,-100,4,2,8,60,0,0
129437,-100,4,2,8,80,0,0
129879,-100,4,2,8,20,0,0
129967,-100,4,2,8,80,0,0
130584,-100,4,2,8,60,0,0
130673,-100,4,2,8,80,0,0
130761,-100,4,2,8,60,0,0
130849,-100,4,2,8,80,0,0
131202,-100,4,2,8,60,0,0
131379,-100,4,2,8,80,0,0
131555,-100,4,2,8,60,0,0
131732,-100,4,2,8,80,0,0
131996,-100,4,2,8,60,0,0
132084,-100,4,2,8,80,0,0
132173,-100,4,2,8,60,0,0
132261,-100,4,2,8,80,0,0
132702,-100,4,2,8,20,0,0
132790,-100,4,2,8,80,0,0
133055,-100,4,2,8,70,0,0
133143,-100,4,2,8,80,0,0
133584,-100,4,2,8,70,0,0
133673,-100,4,2,8,80,0,0
134026,-100,4,2,8,70,0,0
134202,-100,4,2,8,80,0,0
134467,-100,4,2,8,70,0,0
134555,-100,4,2,8,80,0,0
134996,-100,4,2,8,70,0,0
135084,-100,4,2,8,80,0,0
135261,-80,4,2,3,100,0,0
135526,-80,4,2,3,10,0,0
135614,-133.333333333333,4,2,3,50,0,0

[Colours]
Combo1 : 155,251,11
Combo2 : 255,209,26
Combo3 : 255,128,0
Combo4 : 182,182,182

[HitObjects]
128,357,85,5,8,0:3:0:0:
128,357,261,1,8,0:3:0:0:
256,259,437,1,8,0:0:0:0:
319,324,614,1,0,0:0:0:0:
322,333,702,1,0,0:0:0:0:
326,342,790,2,0,P|365:344|410:320,1,67.5000025749208,0|0,0:0|0:0,0:0:0:0:
497,232,1143,1,8,0:0:0:0:
485,326,1320,1,0,0:0:0:0:
403,240,1496,6,0,P|404:206|416:175,1,67.5000025749208,0|0,0:0|0:0,0:0:0:0:
505,37,1849,1,8,0:0:0:0:
475,120,2026,1,0,0:0:0:0:
462,108,2114,1,0,0:0:0:0:
447,99,2202,1,0,0:0:0:0:
430,96,2290,1,0,0:0:0:0:
413,97,2379,1,0,0:0:0:0:
322,227,2555,2,0,B|346:194|346:194|338:128,1,101.250003862381,8|0,0:0|0:0,0:0:0:0:
336,117,2908,5,8,0:3:0:0:
257,168,3084,1,8,0:3:0:0:
321,27,3261,1,8,0:0:0:0:
224,17,3437,1,0,0:0:0:0:
227,22,3526,1,0,0:0:0:0:
230,27,3614,1,0,0:0:0:0:
184,106,3790,1,0,0:0:0:0:
336,117,3967,2,0,L|426:100,1,67.5000025749208,8|0,0:0|0:0,0:0:0:0:
485,35,4320,5,0,0:0:0:0:
496,128,4496,1,0,0:0:0:0:
392,10,4673,1,8,0:0:0:0:
298,42,4849,1,0,0:0:0:0:
281,40,4937,1,0,0:0:0:0:
264,38,5026,1,0,0:0:0:0:
247,36,5114,1,0,0:0:0:0:
230,34,5202,1,0,0:0:0:0:
148,192,5379,2,0,L|268:209,1,101.250003862381,8|0,0:0|0:0,0:0:0:0:
265,207,5732,5,8,0:3:0:0:
216,123,5908,1,8,0:3:0:0:
188,277,6084,1,8,0:0:0:0:
281,209,6261,1,0,0:0:0:0:
291,210,6349,1,0,0:0:0:0:
300,211,6437,2,0,L|387:192,1,67.5000025749208,0|0,0:0|0:0,0:0:0:0:
370,84,6790,2,0,P|337:82|289:112,1,67.5000025749208,8|0,0:0|0:0,0:0:0:0:
351,284,7143,6,0,P|390:282|435:252,1,67.5000025749208,0|0,0:0|0:0,0:0:0:0:
469,136,7496,1,8,0:0:0:0:
499,222,7673,1,0,0:0:0:0:
497,238,7761,1,0,0:0:0:0:
495,255,7849,1,0,0:0:0:0:
493,272,7937,1,0,0:0:0:0:
491,289,8025,1,0,0:0:0:0:
340,384,8202,2,0,L|353:265,1,101.250003862381,8|0,0:0|0:0,0:0:0:0:
354,267,8555,5,0,0:0:0:0:
236,198,8732,1,8,0:3:0:0:
292,53,8908,1,8,0:0:0:0:
299,180,9084,1,0,0:0:0:0:
270,199,9173,1,0,0:0:0:0:
236,198,9261,1,8,0:3:0:0:
183,77,9438,1,0,0:0:0:0:
366,113,9614,1,8,0:0:0:0:
236,198,9790,1,8,0:3:0:0:
379,30,9967,5,0,0:0:0:0:
427,169,10143,1,0,0:0:0:0:
236,198,10320,1,8,0:3:0:0:
322,254,10496,2,0,L|326:221,1,33.7500012874604,0|0,0:0|0:0,0:0:0:0:
236,198,10673,2,0,L|240:164,1,33.7500012874604,8|0,0:3|0:0,0:0:0:0:
366,113,10849,1,0,0:0:0:0:
236,198,11026,6,2,B|233:238|227:254|227:254|241:274|241:274|211:313|238:357,1,168.75,2|0,3:1|0:0,0:0:0:0:
254,369,11379,5,8,0:3:0:0:
254,369,11555,1,8,0:3:0:0:
412,334,11732,1,8,0:0:0:0:
371,217,11908,2,0,L|327:220,1,45,0|0,0:0|0:0,0:0:0:0:
323,306,12084,2,0,B|336:279|336:279|326:219,1,90,0|0,0:0|0:0,0:0:0:0:
291,50,12437,1,8,0:0:0:0:
225,136,12614,1,0,0:0:0:0:
383,103,12790,5,0,0:0:0:0:
291,50,12967,1,0,0:0:0:0:
311,146,13143,1,8,0:0:0:0:
375,7,13320,1,0,0:0:0:0:
397,7,13408,1,0,0:0:0:0:
418,13,13496,1,0,0:0:0:0:
436,26,13584,1,0,0:0:0:0:
451,42,13673,1,0,0:0:0:0:
291,50,13849,2,0,B|232:62|232:62|173:43,1,90,8|0,0:0|0:0,0:0:0:0:
63,83,14202,5,8,0:3:0:0:
106,156,14378,1,8,0:3:0:0:
121,18,14555,1,8,0:0:0:0:
191,139,14732,2,0,L|196:201,1,45,0|0,0:0|0:0,0:0:0:0:
277,142,14908,2,0,B|250:129|250:129|190:139,1,90,0|0,0:0|0:0,0:0:0:0:
139,284,15261,1,8,0:0:0:0:
59,237,15437,1,0,0:0:0:0:
229,269,15614,6,0,L|335:254,1,90,0|0,0:0|0:0,0:0:0:0:
476,362,15967,1,8,0:0:0:0:
384,339,16143,2,0,P|384:319|394:290,1,45,0|0,0:0|0:0,0:0:0:0:
480,225,16320,2,0,P|480:245|470:274,1,45,0|0,0:0|0:0,0:0:0:0:
297,341,16496,1,0,0:0:0:0:
310,174,16673,2,0,P|363:186|395:227,1,90,8|0,0:0|0:0,0:0:0:0:
229,269,17026,5,8,0:3:0:0:
186,153,17202,1,8,0:3:0:0:
318,256,17379,1,8,0:0:0:0:
216,358,17555,2,0,L|161:354,1,45,0|0,0:0|0:0,0:0:0:0:
229,269,17731,2,0,L|216:358,1,90,0|0,0:0|0:0,0:0:0:0:
148,232,18084,1,8,0:0:0:0:
264,188,18261,1,0,0:0:0:0:
101,302,18437,5,0,0:0:0:0:
44,195,18614,1,0,0:0:0:0:
191,143,18790,1,8,0:0:0:0:
148,232,18967,2,0,P|132:212|123:184,1,45,0|0,0:0|0:0,0:0:0:0:
198,71,19143,2,0,P|201:96|195:125,1,45,0|0,0:0|0:0,0:0:0:0:
89,121,19320,1,0,0:0:0:0:
271,32,19496,2,0,B|330:23|330:23|370:49,1,90,8|0,0:0|0:0,0:0:0:0:
349,196,19849,5,0,0:0:0:0:
295,114,20026,1,8,0:3:0:0:
456,118,20202,1,0,0:0:0:0:
317,183,20379,1,0,0:0:0:0:
299,151,20467,1,0,0:0:0:0:
295,114,20555,1,8,0:3:0:0:
451,202,20732,1,0,0:0:0:0:
252,252,20908,1,0,0:0:0:0:
295,114,21084,1,8,0:3:0:0:
330,286,21261,5,0,0:0:0:0:
168,250,21437,1,0,0:0:0:0:
295,114,21614,1,8,0:3:0:0:
370,204,21790,2,0,B|373:155,1,45,0|0,0:0|0:0,0:0:0:0:
295,114,21967,2,0,B|298:65,1,45,8|0,0:3|0:0,0:0:0:0:
427,18,22144,1,0,0:0:0:0:
295,114,22320,6,2,B|309:153|284:182|284:182|296:208|296:208|269:246|300:295,1,168.75,2|0,0:1|0:0,0:0:0:0:
294,286,22673,6,0,B|327:300|327:300|396:283,1,90,4|0,0:2|1:0,0:0:0:0:
511,142,23026,1,8,0:0:0:0:
384,156,23202,1,0,0:0:0:0:
375,181,23290,1,0,0:0:0:0:
385,206,23379,1,0,0:0:0:0:
512,218,23555,1,0,1:0:0:0:
380,83,23732,1,8,0:0:0:0:
449,178,23908,1,0,0:0:0:0:
435,27,24084,6,0,B|394:7|394:7|343:12,1,90,0|0,0:0|1:0,0:0:0:0:
256,163,24437,1,8,0:0:0:0:
363,205,24614,1,0,0:0:0:0:
367,174,24702,1,0,0:0:0:0:
372,144,24790,1,0,0:0:0:0:
376,113,24879,1,0,0:0:0:0:
380,83,24967,1,0,0:0:0:0:
198,89,25143,5,10,0:1:0:0:
271,286,25320,1,2,0:1:0:0:
316,29,25496,5,2,1:1:0:0:
256,163,25673,1,2,1:2:0:0:
465,102,25849,1,8,0:1:0:0:
334,219,26026,6,0,L|341:171,1,45,2|0,0:1|0:0,0:0:0:0:
273,90,26202,1,2,0:0:0:0:
210,224,26379,1,2,1:2:0:0:
460,200,26555,5,10,0:1:0:0:
371,97,26732,1,0,0:0:0:0:
322,245,26908,6,0,L|225:248,1,90,0|0,0:0|1:0,0:0:0:0:
92,108,27261,1,8,0:0:0:0:
218,141,27437,1,0,0:0:0:0:
220,154,27526,1,0,0:0:0:0:
223,167,27614,2,0,P|196:172|177:172,1,45,2|0,0:1|0:0,0:0:0:0:
8,53,27790,1,2,0:0:0:0:
184,68,27967,1,8,0:0:0:0:
82,208,28143,1,0,0:0:0:0:
101,3,28320,5,2,1:0:0:0:
137,141,28496,1,0,1:0:0:0:
294,8,28673,1,8,0:0:0:0:
248,144,28849,1,0,0:0:0:0:
239,121,28937,1,0,0:0:0:0:
244,94,29026,1,0,0:0:0:0:
325,223,29202,1,0,1:0:0:0:
170,327,29379,2,0,B|161:294|161:294|173:237,1,90,8|0,0:0|0:0,0:0:0:0:
330,115,29732,5,0,0:0:0:0:
250,270,29908,1,0,1:0:0:0:
257,71,30084,1,8,0:0:0:0:
400,160,30261,1,0,0:0:0:0:
371,188,30349,1,0,0:0:0:0:
333,199,30437,1,0,0:0:0:0:
293,191,30525,1,0,0:0:0:0:
262,166,30613,1,0,1:0:0:0:
443,50,30790,5,10,0:1:0:0:
423,312,30967,1,2,0:1:0:0:
320,15,31143,5,2,1:1:0:0:
419,124,31320,1,2,1:2:0:0:
207,219,31496,1,8,0:1:0:0:
319,116,31673,6,0,L|331:169,1,45,2|0,0:1|0:0,0:0:0:0:
451,219,31849,1,2,0:0:0:0:
422,29,32026,1,2,1:2:0:0:
360,252,32202,5,10,0:1:0:0:
507,113,32379,1,0,0:0:0:0:
299,27,32555,6,0,L|242:40,2,45,0|0|0,0:0|0:0|1:0,0:0:0:0:
507,113,32908,1,8,0:0:0:0:
243,196,33084,1,8,0:3:0:0:
336,107,33261,2,0,L|345:171,1,45,8|0,0:3|0:0,0:0:0:0:
355,272,33437,1,8,0:3:0:0:
396,44,33614,6,2,B|465:21|523:62|523:62|490:79,1,168.75,2|0,0:1|0:0,0:0:0:0:
419,124,33967,5,4,1:0:0:0:
118,208,34496,1,0,1:0:0:0:
428,282,35026,1,0,1:0:0:0:
210,342,35379,5,0,1:0:0:0:
500,199,35908,1,0,1:0:0:0:
160,120,36437,1,2,1:1:0:0:
198,245,36614,1,2,1:1:0:0:
342,135,36790,6,0,P|401:140|451:180,1,101.250003862381,2|0,1:1|1:0,0:0:0:0:
454,186,37143,1,2,1:1:0:0:
276,74,37320,2,0,P|214:78|162:114,1,101.250003862381,2|0,1:1|1:0,0:0:0:0:
160,120,37673,1,2,1:1:0:0:
364,49,37849,5,2,0:0:0:0:
244,153,38026,1,0,0:0:0:0:
370,212,38202,1,0,0:0:0:0:
266,291,38379,1,0,0:0:0:0:
253,269,38732,5,0,0:0:0:0:
240,248,38908,1,2,0:1:0:0:
301,72,39084,1,0,0:0:0:0:
309,170,39261,1,0,0:0:0:0:
215,29,39437,1,8,0:2:0:0:
56,152,39614,5,0,0:0:0:0:
228,130,39790,1,8,0:2:0:0:
218,153,40143,5,0,1:0:0:0:
132,49,40320,2,0,L|18:57,1,101.250003862381,8|0,1:2|1:0,0:0:0:0:
10,57,40673,1,0,1:0:0:0:
226,42,40849,1,8,1:2:0:0:
135,139,41026,1,0,1:0:0:0:
248,39,41202,1,8,1:2:0:0:
273,37,41555,5,0,1:0:0:0:
205,204,41732,2,0,L|218:307,1,101.250003862381,8|0,1:2|0:0,0:0:0:0:
221,331,42084,1,2,1:0:0:0:
202,181,42261,1,2,1:0:0:0:
34,192,42437,5,2,1:0:0:0:
125,62,42614,1,8,0:0:0:0:
308,258,42790,1,8,0:0:0:0:
119,163,42967,5,2,1:0:0:0:
255,47,43143,1,8,0:0:0:0:
283,358,43320,1,8,0:0:0:0:
210,148,43496,5,2,1:0:0:0:
389,44,43673,1,8,0:0:0:0:
300,163,43849,5,2,1:0:0:0:
512,67,44026,1,8,0:0:0:0:
482,330,44202,1,8,0:0:0:0:
388,192,44379,5,0,1:0:0:0:
190,271,44555,1,8,0:3:0:0:
194,189,44732,1,8,0:3:0:0:
347,350,44908,1,4,0:3:0:0:
367,271,45084,1,4,0:3:0:0:
105,330,45261,5,4,1:3:0:0:
116,126,45437,1,4,1:3:0:0:
338,273,45614,2,0,B|416:269|416:269|446:225,1,107.999996704102,8|2,0:0|0:0,0:0:0:0:
441,224,45879,1,0,0:0:0:0:
446,203,45967,2,0,L|435:137,1,53.9999983520508,2|0,0:1|0:0,0:0:0:0:
410,23,46143,1,2,1:2:0:0:
322,186,46320,1,8,0:0:0:0:
192,47,46496,6,0,B|159:4|159:4|143:179,1,215.999993408203,2|2,0:0|1:2,0:0:0:0:
338,273,47026,1,8,0:0:0:0:
272,121,47202,1,2,0:0:0:0:
250,116,47290,1,0,0:0:0:0:
228,111,47379,2,0,L|222:179,1,53.9999983520508,2|2,0:1|0:0,0:0:0:0:
212,296,47555,1,2,1:2:0:0:
414,233,47732,2,0,P|363:192|299:191,1,107.999996704102,8|2,0:0|0:0,0:0:0:0:
103,271,48084,5,4,1:3:0:0:
224,165,48261,1,4,1:3:0:0:
286,360,48437,1,8,0:0:0:0:
216,217,48614,2,0,P|215:191|225:163,1,53.9999983520508,2|0,0:1|0:0,0:0:0:0:
302,44,48790,2,0,P|303:70|293:98,1,53.9999983520508,2|0,0:1|0:0,0:0:0:0:
143,128,48967,1,2,1:2:0:0:
381,122,49143,1,8,0:0:0:0:
214,55,49320,1,2,0:0:0:0:
304,267,49496,5,2,1:0:0:0:
309,235,49585,1,0,0:0:0:0:
313,203,49673,1,2,1:2:0:0:
136,296,49849,1,8,0:0:0:0:
289,351,50026,2,0,P|298:326|300:300,1,53.9999983520508,2|0,0:1|0:0,0:0:0:0:
223,164,50202,2,0,P|215:190|216:217,1,53.9999983520508,2|0,0:1|0:0,0:0:0:0:
384,307,50379,1,2,1:2:0:0:
483,120,50555,2,0,B|356:93,1,107.999996704102,8|2,0:0|0:0,0:0:0:0:
213,288,50908,5,4,1:3:0:0:
267,75,51084,1,4,1:3:0:0:
461,205,51261,2,0,B|388:225|388:225|344:209,1,107.999996704102,8|2,0:0|0:0,0:0:0:0:
336,207,51526,1,0,0:0:0:0:
315,199,51614,2,0,P|306:169|317:129,1,53.9999983520508,2|0,0:1|0:0,0:0:0:0:
337,26,51790,1,2,1:2:0:0:
490,195,51967,1,8,0:0:0:0:
310,302,52143,6,0,B|233:274|211:323|191:373|99:339,1,215.999993408203,2|2,0:0|1:2,0:0:0:0:
52,125,52673,1,8,0:0:0:0:
144,266,52849,1,2,0:0:0:0:
123,271,52937,1,0,0:0:0:0:
101,269,53026,2,0,P|94:240|99:213,1,53.9999983520508,2|0,0:1|0:0,0:0:0:0:
184,116,53202,1,2,1:2:0:0:
386,224,53379,2,0,B|369:290|405:272|378:344,1,107.999996704102,8|0,0:0|0:0,0:0:0:0:
281,170,53732,5,4,1:3:0:0:
396,88,53908,1,4,1:3:0:0:
184,116,54084,1,8,0:0:0:0:
278,271,54261,2,0,L|280:217,1,53.9999983520508,2|0,0:1|0:0,0:0:0:0:
135,209,54437,2,0,L|133:263,1,53.9999983520508,2|0,0:1|0:0,0:0:0:0:
273,353,54614,1,2,1:2:0:0:
208,214,54790,1,8,0:0:0:0:
135,347,54967,1,2,0:0:0:0:
44,194,55143,5,2,1:0:0:0:
46,155,55232,1,0,0:0:0:0:
48,116,55320,1,2,1:2:0:0:
253,84,55496,1,8,0:0:0:0:
148,146,55673,2,0,P|145:121|150:92,1,53.9999983520508,2|0,0:1|0:0,0:0:0:0:
359,94,55849,2,0,P|363:120|360:147,1,53.9999983520508,2|0,0:1|0:0,0:0:0:0:
256,343,56026,1,2,0:1:0:0:
235,157,56202,6,2,P|257:84|270:158,1,202.500007724762,2|0,0:1|0:0,0:0:0:0:
252,233,56555,5,4,1:3:0:0:
148,146,56732,1,4,1:3:0:0:
360,148,56908,1,8,0:0:0:0:
347,306,57084,1,2,0:0:0:0:
304,332,57173,1,0,0:0:0:0:
256,343,57261,1,2,0:0:0:0:
207,333,57349,1,0,0:0:0:0:
166,304,57437,1,2,1:2:0:0:
254,71,57614,1,8,0:0:0:0:
362,229,57790,6,0,B|297:233|297:233|256:219|256:219|216:233|216:233|137:223,1,215.999993408203,2|0,0:0|1:0,0:0:0:0:
0,44,58320,1,8,0:0:0:0:
164,61,58496,1,2,0:0:0:0:
163,110,58584,1,0,0:0:0:0:
116,124,58672,1,2,0:0:0:0:
91,82,58761,1,0,0:0:0:0:
119,43,58849,1,2,1:2:0:0:
150,225,59026,1,8,0:0:0:0:
40,153,59202,1,2,0:0:0:0:
249,91,59379,5,4,1:3:0:0:
305,206,59555,1,4,1:3:0:0:
263,327,59732,1,2,0:1:0:0:
1,368,59908,6,0,L|74:366,1,53.9999983520508,2|0,0:0|0:0,0:0:0:0:
125,281,60084,2,0,L|198:279,1,53.9999983520508,2|0,0:0|0:0,0:0:0:0:
263,327,60261,1,2,1:0:0:0:
491,331,60437,5,2,0:2:0:0:
377,383,60614,1,2,0:0:0:0:
263,327,60790,1,2,1:1:0:0:
249,91,60966,5,2,0:2:0:0:
305,206,61143,1,2,0:2:0:0:
263,327,61320,6,0,L|245:245,1,53.9999983520508,2|0,0:1|0:0,0:0:0:0:
305,206,61496,2,0,L|292:153,1,53.9999983520508,2|0,0:0|0:0,0:0:0:0:
249,91,61673,1,2,1:1:0:0:
51,194,61849,5,2,0:1:0:0:
64,263,61937,1,2,0:1:0:0:
133,277,62026,1,2,0:1:0:0:
164,215,62114,1,2,0:1:0:0:
116,163,62202,5,4,1:3:0:0:
86,342,62379,1,4,1:3:0:0:
270,227,62555,2,0,B|332:212|313:245|377:229,1,107.999996704102,8|2,0:0|0:0,0:0:0:0:
425,208,62820,1,0,0:0:0:0:
445,158,62908,1,2,0:0:0:0:
427,107,62996,1,0,0:0:0:0:
382,76,63084,1,2,1:2:0:0:
234,233,63261,1,8,0:0:0:0:
408,348,63437,6,0,B|425:208|425:208|353:139,1,215.999993408203,2|2,0:0|1:2,0:0:0:0:
160,48,63967,1,8,0:0:0:0:
234,233,64143,1,0,0:0:0:0:
254,227,64232,1,0,0:0:0:0:
274,221,64320,2,0,L|287:142,1,53.9999983520508,2|0,0:1|0:0,0:0:0:0:
303,36,64496,1,2,1:2:0:0:
127,175,64673,2,0,P|60:178|6:148,1,107.999996704102,8|2,0:0|0:0,0:0:0:0:
230,97,65026,5,4,1:3:0:0:
348,237,65202,1,4,1:3:0:0:
106,347,65379,2,0,B|89:313|89:313|110:228,1,107.999996704102,8|2,0:0|0:0,0:0:0:0:
112,224,65643,1,0,0:0:0:0:
120,203,65732,2,0,P|147:207|182:222,1,53.9999983520508,2|0,0:1|0:0,0:0:0:0:
274,296,65908,1,2,1:2:0:0:
30,244,66084,2,0,L|61:104,1,107.999996704102,8|2,0:0|0:0,0:0:0:0:
270,0,66437,6,0,L|293:105,1,107.999996704102,0|2,0:0|1:2,0:0:0:0:
184,309,66790,1,8,0:0:0:0:
108,131,66967,1,2,0:0:0:0:
80,125,67055,1,2,0:0:0:0:
54,138,67143,5,2,0:1:0:0:
83,191,67232,1,2,0:1:0:0:
139,209,67320,1,2,1:1:0:0:
195,192,67408,1,2,0:1:0:0:
238,155,67496,6,2,B|284:190|335:165|335:165|353:192|353:192|393:168|443:194,1,202.500007724762,2|0,0:1|0:0,0:0:0:0:
496,208,67849,5,4,1:3:0:0:
406,97,68026,1,4,1:3:0:0:
304,263,68202,2,0,P|299:322|338:373,1,90,8|2,0:0|0:0,0:0:0:0:
348,366,68467,1,0,0:0:0:0:
388,360,68555,1,2,0:0:0:0:
423,340,68643,1,0,0:0:0:0:
438,302,68732,1,2,1:2:0:0:
335,150,68908,6,0,B|280:148|280:148|220:186|220:186|158:183,1,180,8|0,0:0|0:0,0:0:0:0:
32,120,69437,1,2,1:2:0:0:
196,106,69614,1,8,0:0:0:0:
95,235,69790,2,0,P|84:217|82:194,1,45,2|0,0:0|0:0,0:0:0:0:
121,39,69967,2,0,P|121:60|111:82,1,45,2|0,0:0|0:0,0:0:0:0:
0,204,70143,1,2,1:2:0:0:
167,181,70320,2,0,B|213:184|213:184|253:168|253:168|309:174,1,135,8|0,0:0|0:0,0:0:0:0:
316,175,70673,5,4,1:3:0:0:
196,106,70849,1,4,1:3:0:0:
251,293,71026,1,8,0:0:0:0:
382,225,71202,1,2,0:0:0:0:
390,209,71290,1,0,0:0:0:0:
397,192,71379,2,0,L|390:127,1,45,2|0,0:0|0:0,0:0:0:0:
378,49,71555,1,2,1:2:0:0:
187,208,71732,6,0,B|170:341|170:341|235:298,1,180,8|0,0:0|0:0,0:0:0:0:
196,106,72261,1,2,1:2:0:0:
36,139,72437,2,0,B|64:158|64:158|144:146,1,90,8|2,0:0|0:0,0:0:0:0:
108,111,72702,1,0,0:0:0:0:
115,71,72790,1,2,0:0:0:0:
139,38,72879,1,0,0:0:0:0:
176,22,72967,1,2,1:2:0:0:
294,168,73143,2,0,B|317:242|268:220|300:330,1,135,8|0,0:0|0:0,0:0:0:0:
298,317,73496,5,4,1:3:0:0:
222,205,73673,1,4,1:3:0:0:
418,131,73849,1,8,0:0:0:0:
410,258,74026,2,0,L|336:269,1,45,2|0,0:0|0:0,0:0:0:0:
294,168,74202,2,0,L|368:179,1,45,2|0,0:0|0:0,0:0:0:0:
475,193,74379,1,2,1:2:0:0:
312,77,74555,6,0,B|204:66|251:130|124:111,1,180,8|0,0:0|0:0,0:0:0:0:
9,93,75084,1,2,1:2:0:0:
146,28,75261,2,0,B|156:83|156:83|132:131,1,90,8|2,0:0|0:0,0:0:0:0:
107,137,75526,1,0,0:0:0:0:
66,142,75614,1,2,0:0:0:0:
28,129,75702,1,0,0:0:0:0:
9,93,75790,1,2,1:2:0:0:
242,54,75967,2,0,B|331:39|331:39|371:58,1,135,8|0,0:0|0:0,0:0:0:0:
387,67,76320,5,4,1:3:0:0:
224,57,76496,1,4,1:3:0:0:
464,27,76673,1,8,0:0:0:0:
437,177,76849,2,0,L|375:167,1,45,2|0,0:0|0:0,0:0:0:0:
274,119,77026,2,0,L|336:109,1,45,2|0,0:0|0:0,0:0:0:0:
482,105,77202,1,2,1:2:0:0:
216,194,77379,6,0,B|156:204|156:204|99:173|99:173|36:180,1,180,8|0,0:0|0:0,0:0:0:0:
0,306,77908,1,2,1:2:0:0:
220,273,78084,1,8,0:0:0:0:
83,294,78261,6,0,L|89:250,1,45,8|0,0:3|0:0,0:0:0:0:
175,120,78437,2,0,L|163:77,1,45,8|0,0:3|0:0,0:0:0:0:
246,355,78614,1,4,1:3:0:0:
428,160,78790,6,0,B|413:103|439:50|439:50|405:68|362:50,1,168.75,2|0,3:1|0:0,0:0:0:0:
319,19,79143,5,4,1:3:0:0:
500,11,79320,1,4,1:3:0:0:
471,223,79496,2,0,B|436:240|436:240|357:219,1,90,8|2,0:0|0:0,0:0:0:0:
347,214,79761,1,0,0:0:0:0:
308,201,79849,1,2,0:0:0:0:
269,188,79937,1,0,0:0:0:0:
230,175,80026,1,2,1:2:0:0:
56,312,80202,6,0,B|22:341|22:341|93:381|161:343,1,180,8|0,0:0|0:0,0:0:0:0:
286,273,80732,1,2,1:2:0:0:
103,165,80908,2,0,B|90:205|90:205|105:250,1,90,8|2,0:0|0:0,0:0:0:0:
138,274,81173,1,0,0:0:0:0:
178,277,81261,1,2,0:0:0:0:
210,253,81349,1,0,0:0:0:0:
228,217,81437,1,2,1:2:0:0:
107,33,81614,2,0,B|93:70|93:70|104:171,1,135,8|0,0:0|0:0,0:0:0:0:
106,182,81967,5,4,1:3:0:0:
172,81,82143,1,4,1:3:0:0:
25,136,82320,1,8,0:0:0:0:
188,172,82496,2,0,P|210:166|242:139,1,45,2|0,0:0|0:0,0:0:0:0:
285,28,82673,2,0,P|268:44|254:83,1,45,2|0,0:0|0:0,0:0:0:0:
310,191,82849,1,2,1:2:0:0:
512,118,83026,6,0,B|417:77|435:152|338:105,1,180,8|0,0:0|0:0,0:0:0:0:
206,7,83555,1,2,1:2:0:0:
393,47,83732,1,8,0:0:0:0:
280,159,83908,1,2,0:0:0:0:
258,124,83996,1,0,0:0:0:0:
260,83,84084,1,2,0:0:0:0:
281,48,84173,1,0,0:0:0:0:
315,28,84261,1,2,1:2:0:0:
308,235,84437,2,0,B|222:250|263:207|170:225,1,135,8|0,0:0|0:0,0:0:0:0:
163,227,84790,5,0,1:0:0:0:
376,277,84967,2,0,P|387:250|385:211,1,67.5000025749208,8|0,1:2|0:0,0:0:0:0:
198,143,85320,5,0,1:0:0:0:
399,56,85497,2,0,P|414:80|419:119,1,67.5000025749208,8|0,1:2|0:0,0:0:0:0:
284,314,85849,5,0,1:0:0:0:
84,187,86026,1,8,1:2:0:0:
308,235,86202,5,0,1:0:0:0:
87,329,86379,2,0,P|70:301|67:267,1,67.5000025749208,8|0,1:2|0:0,0:0:0:0:
187,111,86732,5,0,1:0:0:0:
437,267,86909,2,0,P|452:242|457:203,1,67.5000025749208,8|0,1:2|0:0,0:0:0:0:
308,121,87261,5,0,1:0:0:0:
248,355,87437,1,8,0:0:0:0:
390,116,87614,5,2,0:1:0:0:
218,207,87790,1,8,0:0:0:0:
218,207,87967,1,8,0:0:0:0:
361,269,88143,5,2,0:1:0:0:
171,123,88320,1,8,0:0:0:0:
171,123,88497,1,8,0:0:0:0:
266,291,88673,5,2,0:1:0:0:
251,58,88849,1,8,0:0:0:0:
103,268,89026,5,2,0:1:0:0:
304,160,89202,1,8,0:0:0:0:
304,160,89379,1,8,0:0:0:0:
119,31,89555,5,0,0:0:0:0:
366,86,89732,1,8,0:3:0:0:
401,173,89908,1,8,0:3:0:0:
138,181,90084,1,8,0:3:0:0:
103,268,90260,1,8,0:3:0:0:
251,87,90437,5,4,1:3:0:0:
72,113,90614,1,4,1:3:0:0:
177,335,90790,2,0,B|210:353|210:353|303:332,1,107.999996704102,8|2,0:0|0:0,0:0:0:0:
299,329,91055,1,0,0:0:0:0:
319,321,91143,2,0,P|321:293|313:267,1,53.9999983520508,2|0,0:1|0:0,0:0:0:0:
226,171,91320,1,2,1:2:0:0:
92,365,91496,1,8,0:0:0:0:
311,237,91673,6,0,P|330:149|231:64,1,215.999993408203,2|2,0:0|1:2,0:0:0:0:
98,235,92202,2,0,B|134:257|134:257|227:252,1,107.999996704102,8|2,0:0|0:0,0:0:0:0:
216,239,92467,1,0,0:0:0:0:
231,223,92555,2,0,P|235:185|216:156,1,53.9999983520508,2|0,0:1|0:0,0:0:0:0:
148,75,92732,1,2,1:2:0:0:
15,239,92908,2,0,P|43:294|91:315,1,107.999996704102,8|2,0:0|0:0,0:0:0:0:
319,268,93261,5,4,1:3:0:0:
151,166,93437,1,4,1:3:0:0:
221,377,93614,1,8,0:0:0:0:
236,199,93790,1,2,0:0:0:0:
219,213,93879,1,0,0:0:0:0:
206,230,93967,2,0,L|211:288,1,53.9999983520508,2|0,0:1|0:0,0:0:0:0:
330,361,94143,1,2,1:2:0:0:
453,191,94320,2,0,B|411:187|411:187|390:174|390:174|350:170,1,107.999996704102,8|2,0:0|0:0,0:0:0:0:
155,371,94673,5,2,1:0:0:0:
188,374,94761,1,0,0:0:0:0:
221,377,94849,1,2,1:2:0:0:
261,126,95026,2,0,B|211:107|211:107|142:129,1,107.999996704102,8|2,0:0|0:0,0:0:0:0:
142,137,95290,1,0,0:0:0:0:
125,150,95379,2,0,L|135:223,1,53.9999983520508,2|0,0:1|0:1,0:0:0:0:
211,284,95555,1,2,1:2:0:0:
360,77,95732,2,0,B|300:78|324:46|257:44,1,107.999996704102,8|2,0:0|0:0,0:0:0:0:
63,214,96084,5,4,1:3:0:0:
235,207,96261,1,4,1:3:0:0:
66,70,96437,2,0,B|47:104|47:104|57:188,1,107.999996704102,8|2,0:0|0:0,0:0:0:0:
59,193,96702,1,0,0:0:0:0:
63,214,96790,2,0,L|138:203,1,53.9999983520508,2|0,0:1|0:0,0:0:0:0:
219,127,96967,1,2,1:2:0:0:
4,117,97143,1,8,0:0:0:0:
47,320,97320,6,0,B|168:350|133:259|278:296,1,215.999993408203,2|2,0:0|1:2,0:0:0:0:
434,354,97849,1,8,0:0:0:0:
276,378,98026,1,2,0:0:0:0:
261,362,98114,1,0,0:0:0:0:
248,344,98202,2,0,L|257:270,1,53.9999983520508,2|0,0:1|0:0,0:0:0:0:
271,158,98379,1,2,1:2:0:0:
357,368,98555,1,8,0:0:0:0:
175,295,98732,1,2,0:0:0:0:
325,79,98908,5,4,1:3:0:0:
332,263,99084,1,4,1:3:0:0:
164,89,99261,1,8,0:0:0:0:
56,187,99437,2,0,P|49:215|54:239,1,53.9999983520508,2|0,0:1|0:0,0:0:0:0:
192,208,99614,2,0,P|164:201|140:206,1,53.9999983520508,2|0,0:1|0:0,0:0:0:0:
84,326,99790,1,2,1:1:0:0:
274,312,99967,2,0,B|283:171,1,107.999996704102,8|2,0:0|0:0,0:0:0:0:
113,27,100320,6,0,L|111:81,1,53.9999983520508,2|0,0:1|0:0,0:0:0:0:
139,206,100496,1,2,1:2:0:0:
348,127,100673,1,8,0:0:0:0:
187,131,100849,2,0,L|240:130,1,53.9999983520508,2|0,0:1|0:0,0:0:0:0:
373,42,101026,2,0,L|320:43,1,53.9999983520508,2|0,0:1|0:0,0:0:0:0:
281,204,101202,1,2,1:1:0:0:
111,81,101379,6,2,B|48:58|39:97|-20:72|-20:72|10:51|48:58,1,202.500007724762,2|0,0:1|0:0,0:0:0:0:
183,50,101732,5,4,1:3:0:0:
30,158,101908,1,4,1:3:0:0:
201,345,102084,2,0,B|217:295|217:295|205:241,1,107.999996704102,8|2,0:0|0:0,0:0:0:0:
181,197,102349,1,0,0:0:0:0:
134,183,102437,1,2,0:0:0:0:
89,204,102526,1,0,0:0:0:0:
71,249,102614,1,2,1:2:0:0:
223,124,102790,1,8,0:0:0:0:
414,239,102967,6,0,B|293:196|329:289|185:234,1,215.999993408203,2|2,0:0|1:2,0:0:0:0:
94,121,103496,1,8,0:0:0:0:
227,38,103673,1,2,0:0:0:0:
246,45,103761,1,0,0:0:0:0:
266,51,103849,2,0,L|258:115,1,53.9999983520508,2|0,0:1|0:0,0:0:0:0:
151,183,104026,1,2,1:2:0:0:
349,7,104202,2,0,L|329:152,1,107.999996704102,8|2,0:0|0:0,0:0:0:0:
165,334,104555,5,4,1:3:0:0:
166,202,104732,1,4,1:3:0:0:
266,372,104908,1,2,0:1:0:0:
309,199,105084,6,0,L|307:279,1,53.9999983520508,2|0,0:0|0:0,0:0:0:0:
368,373,105261,2,0,L|369:319,1,53.9999983520508,2|0,0:0|0:0,0:0:0:0:
445,198,105437,1,2,1:1:0:0:
201,136,105614,5,2,0:2:0:0:
401,136,105790,2,0,L|317:136,1,53.9999983520508
171,136,105967,5,2,0:1:0:0:
431,136,106143,1,2,1:2:0:0:
250,30,106320,1,2,0:2:0:0:
201,167,106496,6,0,L|199:221,1,53.9999983520508,2|0,0:1|0:0,0:0:0:0:
404,221,106673,2,0,L|402:168,1,53.9999983520508,2|0,0:1|0:0,0:0:0:0:
337,32,106849,1,2,1:1:0:0:
240,292,107026,5,2,0:1:0:0:
266,356,107114,1,2,0:1:0:0:
335,359,107202,1,2,0:1:0:0:
361,293,107290,1,2,0:1:0:0:
301,253,107379,5,4,1:3:0:0:
168,362,107555,1,4,1:3:0:0:
431,372,107732,2,0,B|447:302|447:302|424:243,1,107.999996704102,8|2,0:0|0:0,0:0:0:0:
405,229,107996,1,0,0:0:0:0:
405,180,108084,1,2,0:0:0:0:
435,142,108173,1,0,0:0:0:0:
481,129,108261,1,2,1:2:0:0:
494,318,108437,1,8,0:0:0:0:
300,176,108614,6,0,B|226:165|226:165|168:194|168:194|80:185,1,215.999993408203,2|2,0:0|1:2,0:0:0:0:
7,17,109143,1,8,0:0:0:0:
159,17,109320,1,2,0:0:0:0:
166,37,109408,1,0,0:0:0:0:
174,57,109496,2,0,L|148:134,1,53.9999983520508,2|0,0:1|0:0,0:0:0:0:
15,118,109673,1,2,1:2:0:0:
248,26,109849,2,0,B|314:21|314:21|362:49,1,107.999996704102,8|2,0:0|0:0,0:0:0:0:
422,256,110202,5,4,1:3:0:0:
294,105,110379,1,4,1:3:0:0:
503,15,110555,1,8,0:0:0:0:
384,172,110732,2,0,P|375:146|376:119,1,53.9999983520508,2|0,0:1|0:0,0:0:0:0:
511,144,110908,2,0,P|512:170|503:195,1,53.9999983520508,2|0,0:1|0:0,0:0:0:0:
321,242,111084,1,2,1:1:0:0:
248,35,111261,2,0,P|302:24|363:53,1,107.999996704102,8|2,0:0|0:0,0:0:0:0:
207,229,111614,6,0,B|139:237|139:237|89:216,1,107.999996704102,0|2,0:0|1:2,0:0:0:0:
6,14,111967,1,8,0:0:0:0:
160,125,112143,1,2,0:0:0:0:
188,116,112232,1,2,0:0:0:0:
216,108,112320,5,2,0:1:0:0:
171,68,112408,1,2,0:1:0:0:
114,85,112496,1,2,1:1:0:0:
102,143,112584,1,2,0:1:0:0:
146,182,112673,6,0,B|202:194|202:194|245:186|272:163|272:163|300:180|300:180|361:175,1,202.500007724762,2|0,0:1|0:0,0:0:0:0:
406,168,113026,5,4,1:3:0:0:
275,257,113202,1,4,1:3:0:0:
365,93,113379,2,0,B|417:81|417:81|473:106,1,90,8|2,0:0|0:0,0:0:0:0:
476,127,113643,1,0,0:0:0:0:
489,165,113732,1,2,0:0:0:0:
480,205,113820,1,0,0:0:0:0:
456,236,113908,1,2,1:2:0:0:
231,167,114084,6,0,B|300:159|300:159|335:177|335:177|406:168,1,180,8|0,0:0|0:0,0:0:0:0:
451,13,114614,1,2,1:2:0:0:
266,86,114790,1,8,0:0:0:0:
406,168,114967,2,0,L|412:116,1,45,2|0,0:0|0:0,0:0:0:0:
351,16,115143,2,0,L|345:68,1,45,2|0,0:0|0:0,0:0:0:0:
400,212,115320,1,2,1:2:0:0:
266,86,115496,2,0,B|218:80|218:80|182:101|182:101|137:95,1,135,8|0,0:0|0:0,0:0:0:0:
119,93,115849,5,4,1:3:0:0:
283,88,116026,1,4,1:3:0:0:
132,176,116202,1,8,0:0:0:0:
266,245,116379,1,2,0:0:0:0:
292,214,116467,1,0,0:0:0:0:
272,179,116555,1,2,0:0:0:0:
232,186,116643,1,0,0:0:0:0:
227,227,116732,1,2,1:2:0:0:
370,82,116908,6,0,B|264:57|302:120|186:87,1,180,8|0,0:0|0:0,0:0:0:0:
71,33,117437,1,2,1:2:0:0:
263,55,117614,2,0,B|276:98|276:98|255:142,1,90,8|2,0:0|0:0,0:0:0:0:
223,162,117879,1,0,0:0:0:0:
182,164,117967,1,2,0:0:0:0:
143,150,118055,1,0,0:0:0:0:
122,115,118143,1,2,1:2:0:0:
318,103,118320,2,0,B|406:115|372:78|464:94,1,135,8|0,0:0|0:0,0:0:0:0:
467,97,118673,5,4,1:3:0:0:
345,22,118849,1,4,1:3:0:0:
430,173,119026,1,8,0:0:0:0:
318,103,119202,2,0,P|292:103|268:113,1,45,2|0,0:0|0:0,0:0:0:0:
210,237,119379,2,0,P|187:236|166:230,1,45,2|0,0:0|0:0,0:0:0:0:
50,161,119555,1,2,1:2:0:0:
206,54,119732,6,0,P|261:91|287:207,1,180,8|0,0:0|0:0,0:0:0:0:
260,353,120261,1,2,1:2:0:0:
202,153,120437,1,8,0:0:0:0:
373,142,120614,1,2,0:0:0:0:
383,156,120702,1,0,0:0:0:0:
390,172,120790,2,0,L|379:239,1,45,2|0,0:0|0:0,0:0:0:0:
276,273,120967,1,2,1:2:0:0:
97,162,121143,2,0,B|89:73|89:73|120:40,1,135,8|0,0:0|0:0,0:0:0:0:
136,31,121496,5,4,1:3:0:0:
100,179,121673,1,4,1:3:0:0:
293,25,121849,2,0,B|407:35,1,90,8|2,0:0|0:0,0:0:0:0:
410,62,122114,1,0,0:0:0:0:
420,100,122202,1,2,0:0:0:0:
417,140,122290,1,0,0:0:0:0:
395,175,122379,1,2,1:2:0:0:
169,104,122555,6,0,B|271:70|244:145|358:108,1,180,8|0,0:0|0:0,0:0:0:0:
486,41,123084,1,2,1:2:0:0:
305,41,123261,1,8,0:0:0:0:
226,213,123437,6,0,L|213:169,1,45,8|0,0:3|0:0,0:0:0:0:
361,302,123614,2,0,L|374:259,1,45,8|0,0:3|0:0,0:0:0:0:
200,357,123790,1,0,1:0:0:0:
64,150,123967,6,2,B|36:117|36:117|93:81|158:129,1,168.75,2|0,3:1|0:0,0:0:0:0:
214,170,124320,5,4,1:3:0:0:
18,221,124496,1,4,1:3:0:0:
202,290,124673,1,8,0:0:0:0:
263,105,124849,2,0,P|242:95|220:94,1,45,2|0,0:0|0:0,0:0:0:0:
144,220,125026,2,0,P|123:229|101:230,1,45,2|0,0:0|0:0,0:0:0:0:
36,117,125202,1,2,1:2:0:0:
189,22,125379,6,0,B|234:14|234:14|313:43|313:43|387:33,1,180,8|0,0:0|0:0,0:0:0:0:
494,6,125908,1,2,1:2:0:0:
338,130,126084,1,8,0:0:0:0:
465,187,126261,2,0,P|460:158|442:131,1,45,2|0,0:0|0:0,0:0:0:0:
350,61,126437,2,0,P|340:81|338:103,1,45,2|0,0:0|0:0,0:0:0:0:
463,213,126614,1,2,1:2:0:0:
284,299,126790,2,0,L|150:275,1,135,8|0,0:0|0:0,0:0:0:0:
146,293,127143,5,4,1:3:0:0:
289,281,127320,1,4,1:3:0:0:
195,65,127496,2,0,P|152:73|109:123,1,90,8|2,0:0|0:0,0:0:0:0:
108,143,127761,1,0,0:0:0:0:
87,177,127849,1,2,0:0:0:0:
49,191,127937,1,0,0:0:0:0:
8,183,128026,1,2,1:2:0:0:
188,141,128202,6,0,B|239:148|239:148|276:134|276:134|312:148|312:148|375:140,1,180,8|0,0:0|0:0,0:0:0:0:
484,124,128732,1,2,1:2:0:0:
275,230,128908,1,8,0:0:0:0:
290,37,129084,1,2,0:0:0:0:
307,32,129173,1,0,0:0:0:0:
323,27,129261,2,0,P|328:59|319:91,1,45,2|0,0:0|0:0,0:0:0:0:
275,211,129437,1,2,1:2:0:0:
189,48,129614,2,0,B|107:67|140:23|57:41,1,135,8|0,0:0|0:0,0:0:0:0:
41,49,129967,5,4,1:3:0:0:
206,46,130143,1,4,1:3:0:0:
87,245,130320,2,0,B|75:216|75:216|86:130,1,90,8|2,0:0|0:0,0:0:0:0:
90,118,130584,1,0,0:0:0:0:
127,134,130673,1,2,0:0:0:0:
167,136,130761,1,0,0:0:0:0:
206,130,130849,1,2,1:2:0:0:
41,49,131026,6,0,B|5:21|5:21|-10:164,1,180,8|0,0:0|0:0,0:0:0:0:
105,282,131555,1,2,1:2:0:0:
206,46,131732,1,8,0:0:0:0:
295,194,131908,1,2,0:0:0:0:
262,222,131996,1,0,1:2:0:0:
229,200,132084,1,2,0:0:0:0:
238,160,132173,1,0,0:0:0:0:
279,156,132261,1,2,0:0:0:0:
443,218,132437,2,0,P|432:158|439:71,1,135,8|0,0:0|0:0,0:0:0:0:
447,13,132790,5,8,0:0:0:0:
261,188,132967,1,2,0:0:0:0:
260,192,133055,1,0,0:0:0:0:
259,196,133143,1,2,0:0:0:0:
447,288,133320,5,8,0:0:0:0:
259,109,133496,1,2,0:0:0:0:
258,105,133584,1,0,0:0:0:0:
257,101,133672,1,2,0:0:0:0:
146,346,133849,5,8,0:0:0:0:
366,346,134026,1,2,0:0:0:0:
191,33,134202,5,8,0:0:0:0:
314,284,134379,1,2,0:0:0:0:
316,279,134467,1,0,0:0:0:0:
318,274,134555,1,2,0:0:0:0:
327,33,134732,5,8,0:0:0:0:
198,284,134909,1,2,0:0:0:0:
196,279,134997,1,0,0:0:0:0:
194,274,135085,1,2,0:0:0:0:
281,144,135261,6,2,P|267:84|271:150,1,168.75,2|0,0:1|0:0,0:0:0:0:
259,210,135614,1,4,0:2:0:0:
