osu file format v14

[General]
AudioFilename: audio.mp3
AudioLeadIn: 0
PreviewTime: 158763
Countdown: 0
SampleSet: Soft
StackLeniency: 0.7
Mode: 0
LetterboxInBreaks: 0
WidescreenStoryboard: 0

[Editor]
DistanceSpacing: 1
BeatDivisor: 4
GridSize: 4
TimelineZoom: 1.2

[Metadata]
Title:Terrific
TitleUnicode:Terrific
Artist:Drake Bell
ArtistUnicode:Drake Bell
Creator:mancuso_JM_
Version:Tough
Source:
Tags:A Reminder english pop alternative rock mancusojuanmattos
BeatmapID:2536215
BeatmapSetID:1219003

[Difficulty]
HPDrainRate:6
CircleSize:4
OverallDifficulty:6
ApproachRate:7.3
SliderMultiplier:2.2
SliderTickRate:1

[Events]
//Background and Video events
0,0,"BG.jpg",0,0
//Break Periods
2,120563,138709
//Storyboard Layer 0 (Background)
//Storyboard Layer 1 (Fail)
//Storyboard Layer 2 (Pass)
//Storyboard Layer 3 (Foreground)
//Storyboard Layer 4 (Overlay)
//Storyboard Sound Samples

[TimingPoints]
5163,600,4,2,2,80,1,0
24363,-117.647058823529,4,2,2,45,0,0
24963,-117.647058823529,4,2,2,25,0,0
25263,-117.647058823529,4,2,2,45,0,0
26163,-117.647058823529,4,2,2,25,0,0
26463,-117.647058823529,4,2,2,45,0,0
27363,-117.647058823529,4,2,2,25,0,0
28563,-117.647058823529,4,2,2,45,0,0
29763,-117.647058823529,4,2,2,25,0,0
30063,-117.647058823529,4,2,2,45,0,0
30963,-117.647058823529,4,2,2,25,0,0
31263,-117.647058823529,4,2,2,45,0,0
32463,-117.647058823529,4,2,2,25,0,0
32800,-117.647058823529,4,2,2,45,0,0
33361,-117.647058823529,4,2,2,25,0,0
33963,-117.647058823529,4,2,2,45,0,0
34563,-117.647058823529,4,2,2,25,0,0
34863,-117.647058823529,4,2,2,45,0,0
35763,-117.647058823529,4,2,2,25,0,0
36063,-117.647058823529,4,2,2,45,0,0
37263,-117.647058823529,4,2,2,25,0,0
37863,-117.647058823529,4,2,2,45,0,0
38163,-117.647058823529,4,2,2,25,0,0
38763,-117.647058823529,4,2,2,45,0,0
39363,-117.647058823529,4,2,2,25,0,0
39663,-117.647058823529,4,2,2,45,0,0
40563,-117.647058823529,4,2,2,25,0,0
40863,-117.647058823529,4,2,2,45,0,0
42663,-117.647058823529,4,2,2,65,0,0
43563,-100,4,2,1,80,0,0
51963,-100,4,2,1,65,0,0
53163,-90.9090909090909,4,2,1,80,0,1
69963,-133.333333333333,4,2,1,80,0,1
71763,-90.9090909090909,4,2,1,80,0,1
72063,-90.9090909090909,4,2,1,55,0,1
72363,-100,4,2,1,80,0,0
100563,-100,4,2,1,55,0,0
100863,-100,4,2,1,80,0,0
101163,-90.9090909090909,4,2,1,80,0,1
120363,-100,4,2,1,35,0,0
139563,-100,4,2,1,80,0,0
153663,-100,4,2,1,55,0,0
153963,-100,4,2,1,80,0,0
158763,-90.9090909090909,4,2,1,80,0,1
173013,-100,4,2,1,80,0,0
173163,-90.9090909090909,4,2,1,80,0,1
189963,-100,4,2,1,80,0,0
190113,-100,4,2,1,60,0,0
192363,-100,4,2,1,45,0,0
194763,-100,4,2,1,30,0,0
197163,-100,4,2,1,15,0,0

[Colours]
Combo1 : 198,140,255
Combo2 : 255,164,119
Combo3 : 117,186,255

[HitObjects]
40,245,24363,6,0,P|127:271|211:236,1,187.000003566742,2|8,0:0|0:0,0:0:0:0:
300,236,25263,2,0,P|384:271|471:245,1,187.000003566742,2|2,0:0|0:0,0:0:0:0:
440,156,26163,1,8,0:0:0:0:
372,92,26463,6,0,B|332:60|300:68|280:108|256:43|256:43|232:108|212:68|180:60|140:92,1,280.500005350113,2|8,0:0|0:0,0:0:0:0:
72,156,27663,1,8,0:0:0:0:
40,248,27963,1,8,0:0:0:0:
44,280,28563,1,2,0:0:0:0:
48,313,29163,6,0,P|137:329|207:272,1,187.000003566742,2|8,0:0|0:0,0:0:0:0:
304,272,30063,2,0,P|374:329|463:313,1,187.000003566742,2|2,0:0|0:0,0:0:0:0:
436,221,30963,1,8,0:0:0:0:
376,149,31263,6,0,P|256:87|136:149,1,280.500005350113,2|2,0:0|0:0,0:0:0:0:
120,241,32463,1,8,0:0:0:0:
188,304,32763,2,0,B|236:316|256:363|256:363|276:316|324:304,1,187.000003566742,8|8,0:0|0:0,0:0:0:0:
344,116,33963,6,0,B|304:140|272:136|256:116|240:96|208:92|168:116,1,187.000003566742,2|8,0:0|0:0,0:0:0:0:
168,208,34863,2,0,P|256:234|344:208,1,187.000003566742,2|2,0:0|0:0,0:0:0:0:
438,209,35763,1,8,0:0:0:0:
388,288,36063,6,0,P|256:328|124:288,1,280.500005350113,2|2,0:0|0:0,0:0:0:0:
74,209,37263,1,8,0:0:0:0:
74,209,37563,1,8,0:0:0:0:
116,124,37863,1,2,0:0:0:0:
172,48,38163,1,8,0:0:0:0:
172,48,38763,6,0,B|220:40|255:78|255:78|292:40|340:48,1,187.000003566742,2|8,0:0|0:0,0:0:0:0:
420,96,39663,2,0,B|444:136|440:168|420:184|400:200|396:232|420:272,1,187.000003566742,2|2,0:0|0:0,0:0:0:0:
464,352,40563,1,8,0:0:0:0:
372,344,40863,2,0,B|340:304|300:296|276:348|260:292|256:230|256:230|252:292|236:348|212:296|172:304|140:344,1,374.000007133484,2|0,0:0|0:0,0:0:0:0:
48,352,42363,1,2,0:0:0:0:
12,200,42663,5,4,0:3:0:0:
65,122,42963,1,0,1:0:0:0:
155,97,43263,1,0,1:0:0:0:
255,191,43563,6,0,P|309:200|361:183,1,110,4|2,0:0|0:0,0:0:0:0:
408,84,44163,1,8,0:0:0:0:
464,180,44463,2,0,L|456:296,1,110,2|0,0:0|3:0,0:0:0:0:
320,344,45063,2,0,L|327:234,2,110,4|8|2,0:3|0:0|0:0,0:0:0:0:
212,360,45963,5,4,0:3:0:0:
104,380,46263,1,2,0:0:0:0:
48,284,46563,1,8,0:0:0:0:
92,184,46863,2,0,P|38:174|-12:193,1,110,2|0,0:0|3:0,0:0:0:0:
152,249,47463,2,0,P|176:200|171:146,1,110,4|8,0:3|0:0,0:0:0:0:
112,52,48063,1,2,0:0:0:0:
256,24,48363,6,0,L|365:16,1,110,4|2,0:3|0:0,0:0:0:0:
460,76,48963,1,8,0:0:0:0:
416,175,49263,2,0,P|366:196|315:178,1,110,2|0,0:0|3:0,0:0:0:0:
128,112,49863,2,0,P|180:99|229:123,2,110,4|8|0,0:3|0:0|0:0,0:0:0:0:
68,204,50763,5,4,0:3:0:0:
53,312,51063,1,0,3:0:0:0:
141,378,51363,1,8,0:0:0:0:
243,336,51663,1,0,3:0:0:0:
257,227,51963,1,8,0:0:0:0:
257,227,52263,1,8,0:0:0:0:
257,227,53163,6,0,P|358:284|464:235,1,242.000007385254,4|8,0:0|0:0,0:0:0:0:
504,120,54063,1,2,0:0:0:0:
420,32,54363,2,0,B|372:32|372:32|352:44|352:44|302:44,1,121.000003692627,4|2,0:3|0:0,0:0:0:0:
184,68,54963,1,8,0:0:0:0:
92,144,55263,1,2,0:0:0:0:
16,240,55563,6,0,P|85:330|195:300,1,242.000007385254,4|8,0:0|0:0,0:0:0:0:
316,300,56463,2,2,P|426:330|496:240,1,242.000007385254,2|4,0:0|0:3,0:0:0:0:
420,144,57363,1,8,0:0:0:0:
328,68,57663,1,4,0:3:0:0:
256,164,57963,5,4,0:0:0:0:
256,164,58563,2,0,P|200:184|142:170,1,121.000003692627,8|2,0:0|0:0,0:0:0:0:
23,196,59163,2,0,P|7:253|24:310,1,121.000003692627,4|2,0:3|0:0,0:0:0:0:
136,364,59763,1,8,0:0:0:0:
256,344,60063,1,2,0:0:0:0:
376,363,60363,6,0,P|391:247|319:153,1,242.000007385254,4|8,0:0|0:0,0:0:0:0:
192,153,61263,2,2,P|120:247|135:363,1,242.000007385254,2|4,0:0|0:3,0:0:0:0:
256,344,62163,1,8,0:0:0:0:
376,364,62463,1,0,0:0:0:0:
460,280,62763,6,0,P|384:240|312:292,1,181.500005538941,4|2,0:0|0:0,0:0:0:0:
296,316,63363,2,0,L|284:196,1,121.000003692627,8|0,0:0|3:0,0:0:0:0:
172,144,63963,2,0,P|160:85|176:27,1,121.000003692627,2|0,0:0|3:0,0:0:0:0:
296,12,64563,1,8,0:0:0:0:
400,72,64863,1,0,0:0:0:0:
472,167,65163,6,0,P|406:225|324:197,1,181.500005538941,4|2,0:0|0:0,0:0:0:0:
300,180,65763,2,0,L|312:308,1,121.000003692627,8|0,0:0|3:0,0:0:0:0:
203,355,66363,2,0,P|146:339|92:363,1,121.000003692627,2|0,0:0|3:0,0:0:0:0:
12,272,66963,1,8,0:0:0:0:
32,152,67263,1,4,0:3:0:0:
76,40,67563,6,0,B|120:20|164:28|176:52|184:68|192:84|204:108|248:116|292:96,1,242.000007385254,4|8,0:0|0:0,0:0:0:0:
388,24,68463,1,0,3:0:0:0:
364,144,68763,2,0,L|348:264,1,121.000003692627,4|0,0:3|3:0,0:0:0:0:
255,344,69363,2,0,P|201:367|145:349,1,121.000003692627,8|0,0:0|0:0,0:0:0:0:
36,292,69963,6,0,L|41:251,3,41.2500015735627,2|0|0|0,0:0|0:0|0:0|0:0,0:0:0:0:
120,236,70563,2,0,L|128:188,3,41.2500015735627,8|0|0|0,0:0|0:0|0:0|0:0,0:0:0:0:
204,184,71163,2,0,L|212:128,3,41.2500015735627,2|0|0|4,0:0|0:0|3:0|0:3,0:0:0:0:
280,104,71763,1,8,0:0:0:0:
399,116,72063,1,4,0:0:0:0:
488,176,72363,6,0,B|468:248|384:248|384:248|301:248,1,220,4|8,0:0|0:0,0:0:0:0:
192,232,73263,2,0,B|212:160|296:160|296:160|378:160,1,220,2|4,0:0|0:3,0:0:0:0:
487,160,74163,2,0,P|495:105|477:54,1,110,8|0,0:0|0:0,0:0:0:0:
368,44,74763,5,4,0:3:0:0:
256,64,75063,1,0,3:0:0:0:
144,43,75363,2,0,P|93:64|39:57,1,110,8|0,0:0|3:0,0:0:0:0:
20,164,75963,1,0,3:0:0:0:
88,264,76263,1,2,0:0:0:0:
88,264,76563,2,0,P|163:239|222:291,1,165,8|0,0:0|3:0,0:0:0:0:
222,320,77163,6,0,B|270:320|270:320|286:332|286:332|328:332,1,110,4|2,0:3|0:0,0:0:0:0:
424,280,77763,2,0,P|433:226|412:175,1,110,8|2,0:0|0:0,0:0:0:0:
348,91,78363,2,0,P|299:116|246:107,1,110,0|2,3:0|0:0,0:0:0:0:
180,20,78963,1,8,0:0:0:0:
72,40,79263,1,2,0:0:0:0:
32,144,79563,6,0,L|44:256,1,110,4|2,0:3|0:0,0:0:0:0:
28,364,80163,1,8,0:0:0:0:
132,296,80463,1,0,3:0:0:0:
132,296,80613,1,0,3:0:0:0:
132,296,80763,2,0,P|183:279|234:298,1,110,2|0,0:0|0:0,0:0:0:0:
414,250,81363,2,0,P|362:266|312:248,1,110,10|4,0:0|0:3,0:0:0:0:
212,88,81963,5,4,0:0:0:0:
116,36,82263,1,2,0:0:0:0:
68,136,82563,1,8,0:0:0:0:
152,208,82863,2,0,P|256:238|360:208,1,220,2|0,0:0|3:0,0:0:0:0:
444,136,83763,1,8,0:0:0:0:
396,36,84063,1,2,0:0:0:0:
304,96,84363,6,0,B|256:122|256:122|208:96,1,110,4|0,0:3|0:0,0:0:0:0:
124,40,84963,2,0,P|69:43|23:71,1,110,8|0,0:0|3:0,0:0:0:0:
48,180,85563,1,0,3:0:0:0:
100,276,85863,1,2,0:0:0:0:
100,276,86163,2,0,P|152:264|199:291,1,110,8|0,0:0|0:0,0:0:0:0:
320,344,86763,6,0,B|372:340|372:340|403:353|428:368|428:368|477:361,1,165,4|0,0:0|3:0,0:0:0:0:
503,368,87363,2,0,L|489:258,1,110,8|0,0:0|0:0,0:0:0:0:
496,148,87963,2,0,P|476:96|442:54,1,110,2|0,0:0|0:0,0:0:0:0:
332,44,88563,1,8,0:0:0:0:
256,124,88863,1,2,0:0:0:0:
164,180,89163,6,0,P|256:231|348:180,1,220,4|8,0:3|0:0,0:0:0:0:
428,104,90063,1,0,0:0:0:0:
496,192,90363,1,8,0:0:0:0:
508,216,90513,1,4,0:3:0:0:
512,244,90663,1,4,0:3:0:0:
512,272,90813,1,4,0:3:0:0:
500,296,90963,2,0,P|452:320|400:306,1,110,8|2,0:0|0:0,0:0:0:0:
328,180,91563,5,4,0:0:0:0:
224,212,91863,1,2,0:0:0:0:
120,244,92163,1,8,0:0:0:0:
24,296,92463,2,0,P|-22:200|24:104,1,220,2|2,0:0|0:0,0:0:0:0:
120,47,93363,2,0,P|172:35|220:59,1,110,8|0,0:0|0:0,0:0:0:0:
256,200,93963,5,4,0:0:0:0:
356,160,94263,1,2,0:0:0:0:
464,124,94563,1,8,0:0:0:0:
464,124,94863,2,0,P|510:220|464:316,1,220,2|2,0:0|0:0,0:0:0:0:
367,355,95763,2,0,P|331:314|284:287,1,110,8|0,0:0|0:0,0:0:0:0:
187,236,96363,6,0,P|119:276|45:245,1,165,4|0,0:0|3:0,0:0:0:0:
20,236,96963,2,0,L|40:128,1,110,8|0,0:0|3:0,0:0:0:0:
120,52,97563,2,0,B|176:36|176:68|228:53,1,110,2|0,0:0|0:0,0:0:0:0:
324,112,98163,2,0,L|316:228,1,110,8|0,0:0|0:0,0:0:0:0:
236,296,98763,6,0,P|305:335|382:309,1,165,4|0,0:3|0:0,0:0:0:0:
408,308,99363,2,0,B|420:260|420:260|408:200,1,110,8|0,0:0|3:0,0:0:0:0:
340,112,99963,1,0,3:0:0:0:
256,232,100263,5,4,3:0:0:0:
144,116,100563,1,4,0:0:0:0:
276,28,100863,1,4,3:0:0:0:
256,232,101163,6,0,B|300:252|344:244|356:220|364:204|372:188|384:164|428:156|472:176,1,242.000007385254,4|8,0:0|0:0,0:0:0:0:
508,292,102063,1,2,0:0:0:0:
388,316,102363,2,0,P|334:342|274:341,1,121.000003692627,4|2,0:3|0:0,0:0:0:0:
160,304,102963,1,8,0:0:0:0:
96,200,103263,1,2,0:0:0:0:
140,88,103563,6,0,P|252:107|316:11,1,242.000007385254,4|8,0:0|0:0,0:0:0:0:
195,11,104463,2,2,P|259:107|371:88,1,242.000007385254,2|4,0:0|0:3,0:0:0:0:
472,20,105363,1,8,0:0:0:0:
488,140,105663,1,4,0:3:0:0:
500,260,105963,5,4,0:0:0:0:
500,260,106563,2,0,P|446:286|386:281,1,121.000003692627,8|2,0:0|0:0,0:0:0:0:
296,200,107163,2,0,B|256:156|256:156|194:156,1,121.000003692627,4|2,0:3|0:0,0:0:0:0:
76,176,107763,1,8,0:0:0:0:
16,280,108063,1,2,0:0:0:0:
114,356,108363,6,0,B|152:320|194:300|194:300|180:236|194:156,1,242.000007385254,4|8,0:0|0:0,0:0:0:0:
318,156,109263,2,2,B|332:236|318:300|318:300|360:320|398:356,1,242.000007385254,2|4,0:0|0:3,0:0:0:0:
496,280,110163,1,8,0:0:0:0:
436,176,110463,1,0,0:0:0:0:
375,71,110763,6,0,P|290:54|224:112,1,181.500005538941,4|2,0:0|0:0,0:0:0:0:
204,136,111363,2,0,B|204:76|204:76|171:24,1,121.000003692627,8|0,0:0|3:0,0:0:0:0:
52,44,111963,2,0,P|44:103|65:159,1,121.000003692627,2|0,0:0|3:0,0:0:0:0:
136,256,112563,1,8,0:0:0:0:
248,304,112863,1,0,0:0:0:0:
368,324,113163,6,0,P|404:244|361:167,1,181.500005538941,4|2,0:0|0:0,0:0:0:0:
336,152,113763,2,0,B|280:164|280:164|261:148|225:130,1,121.000003692627,8|0,0:0|3:0,0:0:0:0:
147,39,114363,2,0,P|89:28|36:55,1,121.000003692627,2|0,0:0|3:0,0:0:0:0:
32,176,114963,1,8,0:0:0:0:
96,280,115263,1,4,0:3:0:0:
176,368,115563,6,0,B|232:352|244:320|256:286|256:286|268:320|280:352|336:368,1,242.000007385254,4|8,0:0|0:0,0:0:0:0:
416,280,116463,1,0,3:0:0:0:
312,212,116763,2,0,P|256:193|199:211,1,121.000003692627,4|0,0:3|3:0,0:0:0:0:
92,156,117363,2,0,B|104:108|104:108|96:88|96:88|106:39,1,121.000003692627,8|0,0:0|0:0,0:0:0:0:
228,20,117963,6,0,L|288:32,3,60.5000018463135,2|0|0|0,0:0|0:0|0:0|0:0,0:0:0:0:
304,104,118563,2,0,L|364:116,3,60.5000018463135,8|0|0|0,0:0|0:0|3:0|0:0,0:0:0:0:
400,180,119163,1,4,0:3:0:0:
463,281,119463,1,0,3:0:0:0:
463,281,119613,1,0,3:0:0:0:
463,281,119763,1,8,0:0:0:0:
385,375,120063,1,4,0:3:0:0:
273,329,120363,5,4,0:0:0:0:
256,312,139563,6,0,P|332:335|399:292,1,165,4|0,0:3|3:0,0:0:0:0:
428,296,140163,2,0,L|412:188,1,110,8|0,0:0|3:0,0:0:0:0:
364,88,140763,1,2,0:0:0:0:
256,104,141063,1,4,0:3:0:0:
148,88,141363,1,8,0:0:0:0:
64,16,141663,1,2,0:0:0:0:
28,120,141963,6,0,B|40:160|24:188|24:188|40:208|40:208|24:236|38:275,1,165,4|0,0:3|3:0,0:0:0:0:
44,304,142563,2,0,B|100:304|100:304|143:272,1,110,8|0,0:0|3:0,0:0:0:0:
196,176,143163,1,2,0:0:0:0:
304,200,143463,1,4,0:3:0:0:
412,228,143763,1,8,0:0:0:0:
412,228,144063,1,2,0:0:0:0:
412,228,144363,6,0,P|439:151|412:75,1,165,4|0,0:3|3:0,0:0:0:0:
388,60,144963,2,0,B|332:60|332:60|288:28,1,110,8|0,0:0|3:0,0:0:0:0:
180,12,145563,1,2,0:0:0:0:
72,4,145863,1,4,0:3:0:0:
48,112,146163,1,8,0:0:0:0:
48,112,146763,6,0,P|76:187|53:265,1,165,4|0,0:3|3:0,0:0:0:0:
36,288,147363,2,0,B|72:292|92:288|92:288|126:329,1,110,8|0,0:0|0:0,0:0:0:0:
232,356,147963,1,2,0:0:0:0:
340,332,148263,1,4,0:3:0:0:
448,304,148563,1,8,0:0:0:0:
448,304,148863,1,2,0:0:0:0:
448,303,149163,6,0,P|456:250|440:197,1,110,4|0,0:3|3:0,0:0:0:0:
338,55,149763,2,0,P|323:107|338:160,1,110,8|2,0:0|3:2,0:0:0:0:
432,111,150363,2,2,L|212:111,1,220,4|2,0:3|0:0,0:0:0:0:
212,111,151563,5,4,0:3:0:0:
160,208,151863,1,2,0:0:0:0:
227,296,152163,2,0,P|280:283|331:303,1,110,8|2,0:0|0:0,0:0:0:0:
440,296,152763,2,0,B|460:252|456:228|412:220|422:192|412:164|456:156|460:132|440:88,1,220,4|8,0:3|0:0,0:0:0:0:
348,28,153663,1,4,0:0:0:0:
304,136,153963,6,0,B|256:162|256:162|208:136,1,110,4|0,0:3|3:0,0:0:0:0:
164,28,154563,1,8,0:0:0:0:
72,88,154863,1,0,3:0:0:0:
72,88,155163,2,0,B|52:132|56:156|100:164|90:192|100:220|56:228|52:252|72:296,1,220,4|8,0:3|0:0,0:0:0:0:
164,356,156063,1,0,3:0:0:0:
256,296,156363,5,4,0:0:0:0:
256,192,156513,12,4,158163,0:3:0:0:
148,92,158763,6,0,B|192:112|236:104|248:80|256:64|264:48|276:24|320:16|364:36,1,242.000007385254,4|8,0:0|0:0,0:0:0:0:
468,96,159663,1,2,0:0:0:0:
392,192,159963,2,0,P|379:250|400:306,1,121.000003692627,4|2,0:3|0:0,0:0:0:0:
500,372,160563,1,8,0:0:0:0:
400,306,160863,1,2,0:0:0:0:
282,340,161163,6,0,P|172:371|92:288,1,242.000007385254,4|8,0:0|0:0,0:0:0:0:
120,172,162063,2,2,P|230:139|309:222,1,242.000007385254,2|4,0:0|0:3,0:0:0:0:
283,340,162963,1,12,0:0:0:0:
168,380,163263,1,4,0:3:0:0:
93,287,163563,5,4,0:0:0:0:
93,287,164163,2,0,P|76:230|92:173,1,121.000003692627,8|2,0:0|0:0,0:0:0:0:
164,76,164763,2,0,B|208:108|208:108|274:108,1,121.000003692627,4|2,0:3|0:0,0:0:0:0:
380,168,165363,1,8,0:0:0:0:
476,240,165663,1,2,0:0:0:0:
370,295,165963,6,0,P|257:277|195:373,1,242.000007385254,4|8,0:0|0:0,0:0:0:0:
316,373,166863,2,2,P|254:276|141:295,1,242.000007385254,2|4,0:0|0:3,0:0:0:0:
24,340,167763,1,8,0:0:0:0:
48,220,168063,1,2,0:0:0:0:
64,196,168213,1,0,3:0:0:0:
80,172,168363,6,0,B|130:153|154:185|170:209|194:241|242:221,1,181.500005538941,4|2,0:0|0:0,0:0:0:0:
272,228,168963,2,0,P|327:248|382:225,1,121.000003692627,8|0,0:0|3:0,0:0:0:0:
382,104,169563,2,0,P|326:83|271:106,1,121.000003692627,2|0,3:2|3:0,0:0:0:0:
164,160,170163,1,8,0:0:0:0:
100,264,170463,1,2,0:0:0:0:
108,292,170613,1,0,3:0:0:0:
120,320,170763,6,0,B|170:339|194:307|210:283|234:251|282:271,1,181.500005538941,4|2,0:0|0:0,0:0:0:0:
308,284,171363,2,0,P|362:306|418:285,1,121.000003692627,8|0,0:0|3:0,0:0:0:0:
476,180,171963,2,0,B|464:132|464:132|472:112|472:112|462:63,1,121.000003692627,2|2,3:2|0:0,0:0:0:0:
352,12,172563,1,8,0:0:0:0:
236,44,172863,1,4,0:3:0:0:
248,68,173013,1,4,0:3:0:0:
259,96,173163,6,0,P|205:120|148:104,1,121.000003692627,4|0,0:0|0:0,0:0:0:0:
53,35,173763,1,8,0:0:0:0:
9,147,174063,1,2,0:0:0:0:
45,263,174363,1,4,0:3:0:0:
140,344,174663,2,2,P|256:373|372:344,1,242.000007385254,2|0,0:0|0:0,0:0:0:0:
344,232,175563,6,0,B|308:224|288:212|264:184|256:158|256:158|248:184|224:212|204:224|168:232,1,242.000007385254,4|8,0:0|0:0,0:0:0:0:
156,112,176463,2,2,P|256:53|356:112,1,242.000007385254,2|4,0:0|0:3,0:0:0:0:
444,192,177363,1,8,0:0:0:0:
480,308,177663,1,4,0:3:0:0:
372,360,177963,5,4,0:0:0:0:
372,360,178563,2,0,P|316:340|260:359,1,121.000003692627,8|2,0:0|0:0,0:0:0:0:
180,272,179163,2,0,B|196:225|196:225|191:204|191:204|206:157,1,121.000003692627,4|2,0:3|0:0,0:0:0:0:
256,48,179763,1,8,0:0:0:0:
372,88,180063,1,2,0:0:0:0:
472,156,180363,6,0,P|424:258|313:241,1,242.000007385254,4|8,0:0|0:0,0:0:0:0:
199,240,181263,2,2,P|88:258|40:156,1,242.000007385254,2|4,0:0|0:3,0:0:0:0:
140,88,182163,1,8,0:0:0:0:
256,48,182463,1,2,0:0:0:0:
284,40,182613,1,0,3:0:0:0:
312,32,182763,6,0,L|355:208,1,181.500005538941,4|2,0:0|0:0,0:0:0:0:
368,234,183363,2,0,P|424:216|478:238,1,121.000003692627,8|0,0:0|3:0,0:0:0:0:
368,336,183963,2,0,P|312:355|257:333,1,121.000003692627,2|0,0:0|3:0,0:0:0:0:
156,268,184563,1,8,0:0:0:0:
80,172,184863,1,2,0:0:0:0:
88,144,185013,1,0,3:0:0:0:
100,116,185163,6,0,P|181:84|252:134,1,181.500005538941,4|2,0:0|0:0,0:0:0:0:
264,160,185763,2,0,L|272:40,1,121.000003692627,8|0,0:0|3:0,0:0:0:0:
376,176,186363,1,2,0:0:0:0:
364,296,186663,1,4,0:3:0:0:
248,324,186963,1,8,0:0:0:0:
128,340,187263,1,2,3:2:0:0:
100,348,187413,1,0,3:0:0:0:
70,350,187563,6,0,P|55:292|67:233,1,121.000003692627,4|2,0:0|0:0,0:0:0:0:
146,71,188163,2,0,P|162:128|152:188,1,121.000003692627,8|2,0:0|0:0,0:0:0:0:
44,132,188763,1,4,0:3:0:0:
146,71,189063,1,2,0:0:0:0:
172,56,189213,1,0,3:0:0:0:
196,40,189363,1,8,0:0:0:0:
348,4,189663,1,4,0:3:0:0:
368,144,189963,5,4,0:0:0:0:
256,192,190113,12,2,197163,0:0:0:0:
