osu file format v14

[General]
AudioFilename: audio.mp3
AudioLeadIn: 0
PreviewTime: 158763
Countdown: 0
SampleSet: Soft
StackLeniency: 0.7
Mode: 0
LetterboxInBreaks: 0
WidescreenStoryboard: 1

[Editor]
DistanceSpacing: 1
BeatDivisor: 4
GridSize: 4
TimelineZoom: 1.2

[Metadata]
Title:Terrific
TitleUnicode:Terrific
Artist:Drake Bell
ArtistUnicode:Drake Bell
Creator:mancuso_JM_
Version:Relaxing
Source:
Tags:A Reminder english pop alternative rock mancusojuanmattos
BeatmapID:2536214
BeatmapSetID:1219003

[Difficulty]
HPDrainRate:2
CircleSize:3
OverallDifficulty:2
ApproachRate:3
SliderMultiplier:1.2
SliderTickRate:1

[Events]
//Background and Video events
0,0,"BG.jpg",0,0
//Break Periods
2,120563,138123
//Storyboard Layer 0 (Background)
//Storyboard Layer 1 (Fail)
//Storyboard Layer 2 (Pass)
//Storyboard Layer 3 (Foreground)
//Storyboard Layer 4 (Overlay)
//Storyboard Sound Samples

[TimingPoints]
5163,600,4,2,2,45,1,0
26163,-100,4,2,2,25,0,0
26463,-100,4,2,2,45,0,0
27363,-100,4,2,2,25,0,0
28563,-100,4,2,2,45,0,0
30963,-100,4,2,2,25,0,0
31263,-100,4,2,2,45,0,0
32763,-100,4,2,2,25,0,0
33963,-100,4,2,2,45,0,0
35763,-100,4,2,2,25,0,0
36063,-100,4,2,2,45,0,0
37563,-100,4,2,2,25,0,0
38763,-100,4,2,2,45,0,0
40563,-100,4,2,2,25,0,0
40863,-100,4,2,2,45,0,0
42663,-100,4,2,2,65,0,0
43563,-100,4,2,1,80,0,0
51963,-100,4,2,1,65,0,0
53163,-100,4,2,1,80,0,1
72363,-100,4,2,1,80,0,0
100563,-100,4,2,1,55,0,0
101163,-100,4,2,1,80,0,1
120363,-100,4,2,1,35,0,0
139563,-100,4,2,1,80,0,0
153618,-100,4,2,1,55,0,0
153918,-100,4,2,1,80,0,0
158763,-100,4,2,1,80,0,1
173013,-100,4,2,1,80,0,0
173163,-100,4,2,1,80,0,1
189963,-100,4,2,1,80,0,0
190113,-100,4,2,1,60,0,0
192363,-100,4,2,1,45,0,0
194763,-100,4,2,1,30,0,0
197163,-100,4,2,1,15,0,0

[Colours]
Combo1 : 198,140,255
Combo2 : 255,164,119
Combo3 : 117,186,255

[HitObjects]
315,271,24363,6,0,P|390:316|472:287,2,180,2|2|8,0:0|0:0|0:0,0:0:0:0:
236,180,26763,2,0,B|192:220|192:220|131:220,1,120,2|8,0:0|0:0,0:0:0:0:
48,132,27963,1,8,0:0:0:0:
104,24,28563,1,2,0:0:0:0:
216,64,29163,6,0,B|276:52|292:80|300:104|316:132|376:120,2,180,2|2|8,0:0|0:0|0:0,0:0:0:0:
100,92,31563,2,0,P|44:192|100:292,1,240,2|8,0:0|0:0,0:0:0:0:
216,332,33363,1,8,0:0:0:0:
280,231,33963,6,0,P|362:204|438:248,2,180,2|2|8,0:0|0:0|0:0,0:0:0:0:
176,292,36363,2,0,P|119:191|175:91,1,240,2|8,0:0|0:0,0:0:0:0:
280,32,38163,1,8,0:0:0:0:
340,136,38763,6,0,B|376:160|396:188|396:188|499:188,2,180,2|2|8,0:0|0:0|0:0,0:0:0:0:
255,51,41163,2,0,P|148:11|59:84,1,240,2|2,0:0|0:0,0:0:0:0:
96,200,42963,1,0,1:0:0:0:
148,308,43563,6,0,P|235:314|298:254,2,180,4|2|8,0:0|0:0|0:0,0:0:0:0:
44,248,45963,1,4,0:3:0:0:
84,136,46563,1,8,0:0:0:0:
144,32,47163,2,0,L|263:47,1,120,0|8,3:0|0:0,0:0:0:0:
332,148,48363,6,0,B|323:186|302:206|302:206|318:243|318:243|298:259|293:310,2,180,4|2|8,0:3|0:0|0:0,0:0:0:0:
444,104,50763,1,4,0:3:0:0:
364,12,51363,1,8,0:0:0:0:
268,80,51963,2,0,L|196:68,1,60,8|8,0:0|0:0,0:0:0:0:
148,240,53163,6,0,L|266:259,1,120,4|8,0:0|0:0,0:0:0:0:
384,236,54363,1,4,0:3:0:0:
468,152,54963,1,8,0:0:0:0:
395,55,55563,2,2,P|313:27|238:72,2,180,4|2|8,0:0|0:0|0:0,0:0:0:0:
468,152,57963,5,4,0:0:0:0:
416,260,58563,2,0,P|362:285|304:275,1,120,8|4,0:0|0:3,0:0:0:0:
196,228,59763,1,8,0:0:0:0:
104,147,60363,2,2,P|180:104|264:128,2,180,4|2|8,0:0|0:0|0:0,0:0:0:0:
112,268,62763,5,4,0:0:0:0:
172,372,63363,1,8,0:0:0:0:
256,288,63963,2,0,B|316:288|316:288|360:328,1,120,2|8,0:0|0:0,0:0:0:0:
476,300,65163,5,4,0:0:0:0:
452,184,65763,1,8,0:0:0:0:
424,68,66363,2,0,B|360:68|360:68|318:105,1,120,2|8,0:0|0:0,0:0:0:0:
256,208,67563,5,4,0:0:0:0:
156,276,68163,2,0,P|256:332|356:275,1,240,8|8,0:0|0:0,0:0:0:0:
348,156,69963,1,4,0:3:0:0:
316,40,70563,1,8,0:0:0:0:
196,40,71163,2,0,L|164:156,1,120,2|8,0:0|0:0,0:0:0:0:
183,274,72363,6,0,B|235:258|256:224|256:224|277:258|327:274,2,180,4|2|8,0:0|0:0|0:0,0:0:0:0:
152,156,74763,2,0,P|256:105|360:156,1,240,4|0,0:3|3:0,0:0:0:0:
424,256,76563,1,8,0:0:0:0:
344,340,77163,6,0,P|256:358|168:340,2,180,4|2|8,0:3|0:0|0:0,0:0:0:0:
460,304,79563,2,0,B|484:268|484:236|456:216|436:212|448:192|436:172|456:168|484:148|484:116|460:80,1,240,4|2,0:3|0:0,0:0:0:0:
344,44,81363,1,10,0:0:0:0:
256,128,81963,6,0,P|178:167|96:136,2,180,4|2|8,0:0|0:0|0:0,0:0:0:0:
332,42,84363,2,0,P|447:36|515:128,1,240,4|2,0:3|0:0,0:0:0:0:
488,248,86163,1,8,0:0:0:0:
380,300,86763,2,0,P|300:264|268:183,2,180,4|2|8,0:0|0:0|0:0,0:0:0:0:
488,248,89163,6,0,B|480:200|480:200|467:181|467:181|460:133,1,120,4|8,0:3|0:0,0:0:0:0:
360,64,90363,1,8,0:0:0:0:
256,124,90963,1,8,0:0:0:0:
184,224,91563,6,0,P|136:150|152:63,2,180,4|2|8,0:0|0:0|0:0,0:0:0:0:
272,308,93963,2,0,B|304:284|320:264|320:264|374:264,1,120,4|8,0:0|0:0,0:0:0:0:
496,244,95163,1,2,0:0:0:0:
444,136,95763,1,8,0:0:0:0:
388,28,96363,6,0,B|328:16|312:44|304:68|288:96|228:84,2,180,4|0|8,0:0|3:0|0:0,0:0:0:0:
412,144,98763,2,0,P|362:176|303:187,1,120,4|8,0:3|0:0,0:0:0:0:
188,156,99963,1,0,3:0:0:0:
88,88,100563,1,4,0:0:0:0:
28,192,101163,6,0,L|39:311,1,120,4|8,0:0|0:0,0:0:0:0:
156,336,102363,1,4,0:3:0:0:
256,268,102963,1,8,0:0:0:0:
355,335,103563,2,2,P|441:350|500:287,2,180,4|2|8,0:0|0:0|0:0,0:0:0:0:
332,220,105963,5,4,0:0:0:0:
260,122,106563,2,0,P|316:102|375:107,1,120,8|4,0:0|0:3,0:0:0:0:
464,192,107763,1,8,0:0:0:0:
420,304,108363,2,2,P|336:333|250:310,2,180,4|2|8,0:0|0:0|0:0,0:0:0:0:
484,204,110763,5,4,0:0:0:0:
452,88,111363,1,8,0:0:0:0:
344,36,111963,2,0,P|287:51|230:33,1,120,2|8,0:0|0:0,0:0:0:0:
132,104,113163,5,4,0:0:0:0:
164,220,113763,1,8,0:0:0:0:
200,336,114363,2,0,P|259:339|310:309,1,120,2|8,0:0|0:0,0:0:0:0:
368,204,115563,5,4,0:0:0:0:
364,84,116163,2,0,P|256:40|148:84,1,240,8|8,0:0|0:0,0:0:0:0:
132,204,117963,6,0,L|144:272,2,60,2|0|8,0:0|0:0|0:0,0:0:0:0:
28,148,119163,2,0,L|33:88,2,60,4|0|8,0:3|3:0|0:0,0:0:0:0:
44,268,120363,5,4,0:0:0:0:
134,131,139563,6,0,P|171:84|196:30,1,120,4|8,0:3|0:0,0:0:0:0:
315,29,140763,2,0,P|340:83|378:131,1,120,2|8,0:0|0:0,0:0:0:0:
348,248,141963,1,4,0:3:0:0:
256,324,142563,1,8,0:0:0:0:
164,248,143163,1,4,0:3:0:0:
16,56,144363,6,0,P|66:25|126:21,1,120,4|8,0:3|0:0,0:0:0:0:
208,108,145563,2,0,L|196:228,1,120,2|8,0:0|0:0,0:0:0:0:
308,272,146763,2,0,L|323:92,2,180,4|2|8,0:3|0:0|0:0,0:0:0:0:
212,348,149163,5,4,0:3:0:0:
108,288,149763,1,8,0:0:0:0:
40,188,150363,2,2,L|51:68,1,120,4|2,0:3|0:0,0:0:0:0:
168,32,151563,6,0,B|232:32|232:32|273:69,1,120,4|8,0:3|0:0,0:0:0:0:
340,168,152763,1,4,0:3:0:0:
436,96,153363,1,8,0:0:0:0:
496,200,153963,5,4,0:3:0:0:
492,324,154563,2,0,P|381:355|303:272,1,240,8|8,0:0|0:0,0:0:0:0:
340,156,156363,6,0,B|362:106|332:88|332:88|296:72|272:60|272:36|256:21|256:21|240:36|240:60|216:72|180:88|180:88|150:106|172:156,1,360,4|4,0:0|0:3,0:0:0:0:
200,272,158763,6,0,B|256:294|256:294|312:272,1,120,4|8,0:0|0:0,0:0:0:0:
424,232,159963,1,4,0:3:0:0:
384,120,160563,1,8,0:0:0:0:
327,13,161163,2,2,B|277:29|256:63|256:63|235:29|183:13,2,180,4|2|12,0:0|0:0|0:0,0:0:0:0:
440,56,163563,5,4,0:0:0:0:
487,168,164163,2,0,P|429:178|373:159,1,120,8|4,0:0|0:3,0:0:0:0:
288,76,165363,1,8,0:0:0:0:
184,20,165963,2,2,B|128:20|128:20|72:60|72:60|16:60,2,180,4|2|8,0:0|0:0|0:0,0:0:0:0:
288,76,168363,5,4,0:0:0:0:
384,148,168963,1,8,0:0:0:0:
480,220,169563,2,0,P|496:277|485:335,1,120,2|8,3:2|0:0,0:0:0:0:
364,328,170763,5,4,0:0:0:0:
256,280,171363,1,8,0:0:0:0:
148,328,171963,2,0,B|88:328|88:328|45:285,1,120,2|8,3:2|0:0,0:0:0:0:
20,168,173163,5,4,0:0:0:0:
83,64,173763,2,0,P|143:57|200:72,1,120,8|4,0:0|0:3,0:0:0:0:
256,180,174963,1,8,0:0:0:0:
203,283,175563,2,2,P|291:288|358:232,2,180,4|2|8,0:0|0:0|0:0,0:0:0:0:
108,212,177963,5,4,0:0:0:0:
20,128,178563,2,0,P|70:96|129:90,1,120,8|4,0:0|0:3,0:0:0:0:
228,156,179763,1,8,0:0:0:0:
304,248,180363,2,2,B|364:260|380:232|388:208|404:180|464:192,2,180,4|2|8,0:0|0:0|0:0,0:0:0:0:
184,248,182763,5,4,0:0:0:0:
84,312,183363,1,8,0:0:0:0:
28,204,183963,2,0,L|39:84,1,120,2|8,0:0|0:0,0:0:0:0:
144,24,185163,5,4,0:0:0:0:
256,68,185763,1,8,0:0:0:0:
368,24,186363,2,0,B|428:24|428:24|476:68,1,120,2|8,0:0|0:0,0:0:0:0:
492,184,187563,6,0,L|500:248,2,60,4|2|8,0:0|0:0|0:0,0:0:0:0:
376,160,188763,2,0,L|381:100,2,60,4|2|8,0:3|0:0|0:0,0:0:0:0:
256,192,189963,5,4,0:0:0:0:
256,192,190113,12,2,197163,0:0:0:0:
