osu file format v14

[General]
AudioFilename: audio.mp3
AudioLeadIn: 0
PreviewTime: 158763
Countdown: 0
SampleSet: Soft
StackLeniency: 0.7
Mode: 0
LetterboxInBreaks: 0
WidescreenStoryboard: 1

[Editor]
DistanceSpacing: 1.1
BeatDivisor: 4
GridSize: 4
TimelineZoom: 1.2

[Metadata]
Title:Terrific
TitleUnicode:Terrific
Artist:Drake Bell
ArtistUnicode:Drake Bell
Creator:mancuso_JM_
Version:Average
Source:
Tags:A Reminder english pop alternative rock mancusojuanmattos
BeatmapID:2536213
BeatmapSetID:1219003

[Difficulty]
HPDrainRate:4.5
CircleSize:3.5
OverallDifficulty:4.5
ApproachRate:5
SliderMultiplier:1.6
SliderTickRate:1

[Events]
//Background and Video events
0,0,"BG.jpg",0,0
//Break Periods
2,120563,138363
//Storyboard Layer 0 (Background)
//Storyboard Layer 1 (Fail)
//Storyboard Layer 2 (Pass)
//Storyboard Layer 3 (Foreground)
//Storyboard Layer 4 (Overlay)
//Storyboard Sound Samples

[TimingPoints]
5163,600,4,2,2,45,1,0
24963,-100,4,2,2,25,0,0
25263,-100,4,2,2,45,0,0
27663,-100,4,2,2,25,0,0
28563,-100,4,2,2,45,0,0
29763,-100,4,2,2,25,0,0
30063,-100,4,2,2,45,0,0
32463,-100,4,2,2,25,0,0
32763,-100,4,2,2,45,0,0
33363,-100,4,2,2,25,0,0
33963,-100,4,2,2,45,0,0
34563,-100,4,2,2,25,0,0
34863,-100,4,2,2,45,0,0
37263,-100,4,2,2,25,0,0
38763,-100,4,2,2,45,0,0
39363,-100,4,2,2,25,0,0
39663,-100,4,2,2,45,0,0
42663,-100,4,2,2,65,0,0
43563,-100,4,2,1,80,0,0
51963,-100,4,2,1,65,0,0
53163,-100,4,2,1,80,0,1
72363,-100,4,2,1,80,0,0
100563,-100,4,2,1,55,0,0
101163,-100,4,2,1,80,0,1
120363,-100,4,2,1,35,0,0
139563,-100,4,2,1,80,0,0
158763,-100,4,2,1,80,0,1
173013,-100,4,2,1,80,0,0
173163,-100,4,2,1,80,0,1
189963,-100,4,2,1,80,0,0
190113,-100,4,2,1,60,0,0
192363,-100,4,2,1,45,0,0
194763,-100,4,2,1,30,0,0
197163,-100,4,2,1,15,0,0

[Colours]
Combo1 : 198,140,255
Combo2 : 255,164,119
Combo3 : 117,186,255

[HitObjects]
312,196,24363,6,0,P|328:118|300:44,1,160,2|8,0:0|0:0,0:0:0:0:
211,44,25263,2,0,P|183:118|200:196,1,160,2|2,0:0|0:0,0:0:0:0:
128,360,26463,6,0,B|172:328|200:336|216:364|248:336|256:292|256:292|264:336|296:364|312:336|340:328|384:360,1,320,2|8,0:0|0:0,0:0:0:0:
448,300,27963,1,8,0:0:0:0:
488,128,28563,1,2,0:0:0:0:
332,44,29163,6,0,B|288:68|260:48|252:32|224:12|180:36,1,160,2|8,0:0|0:0,0:0:0:0:
180,124,30063,2,0,P|256:145|332:124,1,160,2|2,0:0|0:0,0:0:0:0:
400,296,31263,6,0,B|356:256|316:256|276:280|288:324|256:322|224:324|236:280|196:256|156:256|112:296,1,320,2|8,0:0|0:0,0:0:0:0:
44,356,32763,1,8,0:0:0:0:
28,180,33363,1,8,0:0:0:0:
184,96,33963,6,0,B|236:108|256:128|256:128|276:108|328:96,1,160,2|8,0:0|0:0,0:0:0:0:
328,184,34863,2,0,P|256:213|184:184,1,160,2|2,0:0|0:0,0:0:0:0:
100,336,36063,6,0,P|256:366|412:336,1,320,2|8,0:0|0:0,0:0:0:0:
464,264,37563,1,8,0:0:0:0:
464,88,38163,1,8,0:0:0:0:
308,8,38763,6,0,B|268:32|256:66|256:66|244:32|204:8,1,160,2|8,0:0|0:0,0:0:0:0:
115,12,39663,2,0,B|91:54|111:82|127:90|147:118|123:162,1,160,2|2,0:0|0:0,0:0:0:0:
108,336,40863,6,0,B|168:376|212:320|200:276|240:308|256:373|256:373|272:308|312:276|300:320|344:376|404:336,1,400,2|2,0:0|0:0,0:0:0:0:
467,275,42663,2,0,P|458:237|456:197,1,80,4|0,0:3|1:0,0:0:0:0:
472,112,43263,1,0,1:0:0:0:
384,124,43563,6,0,B|348:172|304:172|304:172|240:172,1,160,4|8,0:0|0:0,0:0:0:0:
156,136,44463,2,0,B|192:88|236:88|236:88|300:88,1,160,2|4,0:0|0:3,0:0:0:0:
384,124,45363,1,8,0:0:0:0:
508,247,45963,6,0,P|501:287|499:327,1,80,4|2,0:3|0:0,0:0:0:0:
412,344,46563,1,8,0:0:0:0:
412,344,46863,2,0,P|342:312|270:344,1,160,2|4,0:0|0:3,0:0:0:0:
188,376,47763,1,8,0:0:0:0:
60,252,48363,6,0,L|52:172,1,80,4|2,0:3|0:0,0:0:0:0:
20,92,48963,1,8,0:0:0:0:
108,100,49263,2,0,B|150:76|178:96|186:112|214:132|258:108,1,160,2|4,0:0|0:3,0:0:0:0:
324,48,50163,1,8,0:0:0:0:
312,224,50763,6,0,L|300:303,1,80,4|0,0:3|3:0,0:0:0:0:
211,303,51363,2,0,L|200:224,1,80,8|0,0:0|3:0,0:0:0:0:
256,156,51963,1,8,0:0:0:0:
256,156,52263,1,8,0:0:0:0:
440,348,53163,6,0,P|472:276|440:204,1,160,4|8,0:0|0:0,0:0:0:0:
372,152,54063,1,2,0:0:0:0:
292,116,54363,1,4,0:3:0:0:
208,96,54663,2,0,P|176:166|206:238,1,160,2|2,0:0|0:0,0:0:0:0:
276,288,55563,6,0,B|318:264|346:284|354:300|382:320|426:296,1,160,4|8,0:0|0:0,0:0:0:0:
480,224,56463,2,2,B|460:164|460:164|464:136|464:136|444:70,1,160,2|4,0:0|0:3,0:0:0:0:
368,28,57363,1,8,0:0:0:0:
204,88,57963,6,0,P|184:164|209:239,1,160,4|8,0:0|0:0,0:0:0:0:
288,276,58863,1,2,0:0:0:0:
368,236,59163,1,4,0:3:0:0:
444,192,59463,2,0,B|416:112|476:112|441:36,1,160,2|2,0:0|0:0,0:0:0:0:
356,20,60363,6,0,B|304:20|304:20|276:32|256:52|256:52|205:52,1,160,4|8,0:0|0:0,0:0:0:0:
124,20,61263,1,2,0:0:0:0:
124,108,61563,2,0,L|143:266,1,160,0|8,3:0|0:0,0:0:0:0:
320,276,62763,6,0,L|305:156,2,120,4|2|0,0:0|0:0|3:0,0:0:0:0:
396,323,63963,2,0,P|431:306|471:303,2,80,2|0|8,0:0|3:0|0:0,0:0:0:0:
236,244,65163,6,0,L|221:124,2,120,4|2|0,0:0|0:0|3:0,0:0:0:0:
160,288,66363,2,0,P|124:270|84:267,2,80,2|0|8,0:0|3:0|0:0,0:0:0:0:
328,340,67563,6,0,P|402:360|462:311,1,160,4|8,0:0|0:0,0:0:0:0:
492,228,68463,1,0,3:0:0:0:
452,152,68763,2,0,B|408:128|380:148|372:164|344:184|302:160,1,160,4|8,0:3|0:0,0:0:0:0:
144,84,69963,6,0,P|110:104|70:106,2,80,2|0|8,0:0|0:0|0:0,0:0:0:0:
212,28,70863,1,0,3:0:0:0:
212,28,71163,2,0,P|279:68|354:48,1,160,2|8,0:0|0:0,0:0:0:0:
480,172,72363,6,0,B|428:220|428:220|338:220,1,160,4|8,0:0|0:0,0:0:0:0:
256,192,73263,2,0,P|225:263|257:334,1,160,2|4,0:0|0:3,0:0:0:0:
340,364,74163,1,8,0:0:0:0:
480,260,74763,6,0,B|496:204|496:204|469:105,1,160,4|8,0:3|0:0,0:0:0:0:
408,44,75663,1,0,3:0:0:0:
408,44,75963,2,0,B|366:68|338:48|330:32|302:12|258:36,1,160,0|8,3:0|0:0,0:0:0:0:
192,200,77163,6,0,B|232:212|256:245|256:245|280:212|320:200,1,160,4|8,0:3|0:0,0:0:0:0:
356,280,78063,2,0,P|324:303|298:334,1,80,2|0,0:0|3:0,0:0:0:0:
213,334,78663,2,0,P|187:303|156:280,1,80,2|8,0:0|0:0,0:0:0:0:
4,192,79563,6,0,B|12:152|24:140|24:140|8:100|8:100|24:80|31:44,1,160,4|8,0:3|0:0,0:0:0:0:
116,24,80463,1,0,3:0:0:0:
184,80,80763,2,0,P|256:109|328:80,1,160,2|10,0:0|0:0,0:0:0:0:
498,48,81963,6,0,P|476:123|504:196,1,160,4|8,0:0|0:0,0:0:0:0:
432,244,82863,2,0,B|408:193|360:193|360:193|294:193,1,160,2|0,0:0|3:0,0:0:0:0:
205,193,83763,1,8,0:0:0:0:
96,56,84363,6,0,B|120:5|168:5|168:5|234:5,1,160,4|8,0:3|0:0,0:0:0:0:
316,40,85263,1,0,3:0:0:0:
316,40,85563,2,0,B|292:91|244:91|244:91|178:91,1,160,2|8,0:0|0:0,0:0:0:0:
32,192,86763,6,0,B|56:243|104:243|104:243|170:243,1,160,4|8,0:0|0:0,0:0:0:0:
184,156,87663,2,0,P|256:126|328:156,1,160,2|2,0:0|0:0,0:0:0:0:
342,243,88563,1,8,0:0:0:0:
195,340,89163,6,0,P|157:349|119:337,1,80,4|0,0:3|0:0,0:0:0:0:
84,256,89763,2,0,L|96:176,1,80,8|0,0:0|0:0,0:0:0:0:
168,124,90363,1,8,0:0:0:0:
256,100,90663,1,4,0:3:0:0:
344,124,90963,1,8,0:0:0:0:
320,300,91563,6,0,P|358:309|396:297,1,80,4|2,0:0|0:0,0:0:0:0:
472,248,92163,1,8,0:0:0:0:
472,248,92463,2,0,L|453:89,1,160,2|2,0:0|0:0,0:0:0:0:
376,44,93363,1,8,0:0:0:0:
200,56,93963,6,0,L|211:135,1,80,4|2,0:0|0:0,0:0:0:0:
196,224,94563,1,8,0:0:0:0:
196,224,94863,2,0,B|152:248|124:228|116:212|88:192|46:216,1,160,2|2,0:0|0:0,0:0:0:0:
0,292,95763,1,8,0:0:0:0:
164,360,96363,6,0,P|203:364|240:350,1,80,4|0,0:0|0:0,0:0:0:0:
316,304,96963,1,8,0:0:0:0:
316,304,97263,2,0,B|391:304|391:304|402:319|419:334|444:342|469:342,1,160,0|0,3:0|0:0,0:2:0:0:
466,251,98163,1,8,0:0:0:0:
412,84,98763,6,0,P|356:65|302:88,2,120,4|2|0,0:3|0:0|3:0,0:0:0:0:
448,164,99963,1,0,3:0:0:0:
466,251,100263,1,4,3:0:0:0:
488,336,100563,1,4,0:0:0:0:
316,320,101163,6,0,B|272:336|256:370|256:370|240:336|196:320,1,160,4|8,0:0|0:0,0:0:0:0:
112,296,102063,1,2,0:0:0:0:
36,252,102363,1,4,0:3:0:0:
0,172,102663,2,0,P|65:131|138:156,1,160,2|2,0:0|0:0,0:0:0:0:
200,220,103563,6,0,L|359:208,1,160,4|8,0:0|0:0,0:0:0:0:
368,296,104463,2,2,L|208:307,1,160,2|4,0:0|0:3,0:0:0:0:
136,360,105363,1,8,0:0:0:0:
28,220,105963,6,0,B|9:165|9:165|31:65,1,160,4|8,0:0|0:0,0:0:0:0:
120,72,106863,1,2,0:0:0:0:
208,84,107163,1,4,0:3:0:0:
292,108,107463,2,0,P|307:185|272:255,1,160,2|2,0:0|0:0,0:0:0:0:
216,324,108363,6,0,B|240:375|288:375|288:375|354:375,1,160,4|8,0:0|0:0,0:0:0:0:
436,340,109263,2,2,B|412:289|364:289|364:289|298:289,1,160,2|4,0:0|0:3,0:0:0:0:
216,324,110163,1,8,0:0:0:0:
44,284,110763,6,0,B|30:242|30:242|48:168,2,120,4|2|0,0:0|0:0|3:0,0:0:0:0:
112,340,111963,2,0,L|190:324,1,80,2|0,0:0|3:0,0:0:0:0:
264,372,112563,1,8,0:0:0:0:
412,280,113163,6,0,B|425:238|425:238|407:164,2,120,4|2|0,0:0|0:0|3:0,0:0:0:0:
324,300,114363,2,0,L|245:284,1,80,2|0,0:0|3:0,0:0:0:0:
172,336,114963,1,8,0:0:0:0:
160,160,115563,6,0,L|322:194,1,160,4|8,0:0|0:0,0:0:0:0:
400,216,116463,1,0,3:0:0:0:
484,248,116763,2,0,P|515:177|483:106,1,160,4|8,0:3|0:0,0:0:0:0:
342,8,117963,6,0,P|315:37|299:74,1,80,2|0,0:0|0:0,0:0:0:0:
212,73,118563,2,0,P|197:37|170:8,1,80,8|0,0:0|3:0,0:0:0:0:
84,24,119163,2,0,L|77:103,1,80,4|0,0:3|3:0,0:0:0:0:
156,144,119763,1,8,0:0:0:0:
256,288,120363,5,4,0:0:0:0:
178,38,139563,6,0,B|212:28|236:36|240:52|256:48|272:52|276:36|300:28|334:38,1,160,4|8,0:3|0:0,0:0:0:0:
388,108,140463,1,0,3:0:0:0:
312,153,140763,2,0,B|288:177|280:199|280:199|232:199|232:199|224:177|200:153,1,160,2|8,0:0|0:0,0:0:0:0:
56,252,141963,6,0,B|100:268|120:292|120:292|204:292,1,160,4|8,0:3|0:0,0:0:0:0:
256,364,142863,1,0,3:0:0:0:
308,292,143163,2,0,B|392:292|392:292|412:268|456:252,1,160,2|8,0:0|0:0,0:0:0:0:
454,74,144363,6,0,P|379:56|317:101,1,160,4|8,0:3|0:0,0:0:0:0:
256,168,145263,1,0,3:0:0:0:
196,102,145563,2,0,L|36:92,1,160,2|8,0:0|0:0,0:0:0:0:
104,256,146763,6,0,L|263:265,1,160,4|8,0:3|0:0,0:0:0:0:
340,308,147663,1,0,0:0:0:0:
420,272,147963,2,0,B|448:224|448:224|426:121,1,160,2|8,0:0|0:0,0:0:0:0:
256,72,149163,6,0,B|214:96|186:76|178:60|150:40|106:64,1,160,4|8,0:3|0:0,0:0:0:0:
32,112,150063,1,2,3:2:0:0:
32,112,150363,2,2,L|48:272,1,160,4|2,0:3|0:0,0:0:0:0:
212,335,151563,6,0,P|285:311|352:351,1,160,4|8,0:3|0:0,0:0:0:0:
440,348,152463,1,2,0:0:0:0:
440,348,152763,2,0,B|456:296|456:296|436:192,1,160,4|8,0:3|0:0,0:0:0:0:
326,56,153963,6,0,P|294:79|256:87,1,80,4|0,0:3|3:0,0:0:0:0:
168,76,154563,2,0,B|136:56|136:56|93:56,1,80,8|0,0:0|3:0,0:0:0:0:
24,108,155163,1,4,0:3:0:0:
24,276,155763,1,8,0:0:0:0:
112,300,156063,1,0,3:0:0:0:
108,216,156363,6,0,B|156:208|188:264|188:264|192:208|216:176|256:148|256:148|296:176|320:208|324:264|324:264|356:208|404:216,1,480,4|4,0:0|0:3,0:0:0:0:
328,52,158763,6,0,P|256:23|184:52,1,160,4|8,0:0|0:0,0:0:0:0:
212,136,159663,1,2,0:0:0:0:
300,136,159963,1,4,0:3:0:0:
312,224,160263,2,0,B|288:248|280:270|280:270|232:270|232:270|224:248|200:224,1,160,2|2,0:0|0:0,0:0:0:0:
138,148,161163,6,0,P|163:73|208:7,1,160,4|8,0:0|0:0,0:0:0:0:
303,7,162063,2,2,P|348:73|373:148,1,160,2|4,0:0|0:3,0:0:0:0:
380,236,162963,1,12,0:0:0:0:
336,312,163263,1,4,0:3:0:0:
255,348,163563,6,0,P|181:371|113:334,1,160,4|8,0:0|0:0,0:0:0:0:
68,260,164463,1,2,0:0:0:0:
124,192,164763,1,4,0:3:0:0:
204,152,165063,2,0,B|270:152|270:152|318:152|342:203,1,160,2|2,0:0|0:0,0:0:0:0:
262,243,165963,6,0,B|196:243|196:243|148:243|124:192,1,160,4|8,0:0|0:0,0:0:0:0:
40,220,166863,2,2,B|47:256|63:276|63:276|47:316|47:316|59:328|67:368,1,160,2|4,0:0|0:3,0:0:0:0:
156,356,167763,1,8,0:0:0:0:
300,252,168363,6,0,L|420:240,2,120,4|2|0,0:0|0:0|3:0,0:0:0:0:
224,212,169563,2,0,P|187:228|148:222,1,80,2|0,3:2|3:0,0:0:0:0:
112,140,170163,1,8,0:0:0:0:
256,40,170763,6,0,L|376:28,2,120,4|2|0,0:0|0:0|3:0,0:0:0:0:
204,112,171963,2,0,P|199:151|213:188,1,80,2|2,3:2|0:0,0:0:0:0:
288,236,172563,1,8,0:0:0:0:
452,264,173163,6,0,P|481:192|452:120,1,160,4|8,0:0|0:0,0:0:0:0:
376,72,174063,1,2,0:0:0:0:
300,24,174363,1,4,0:3:0:0:
256,100,174663,2,2,B|212:124|184:104|176:88|148:68|106:92,1,160,2|0,0:0|0:0,0:0:0:0:
40,152,175563,6,0,L|55:311,1,160,4|8,0:0|0:0,0:0:0:0:
140,338,176463,2,2,P|212:312|274:356,1,160,2|4,0:0|0:3,0:0:0:0:
360,340,177363,1,8,0:0:0:0:
508,252,177963,6,0,B|524:212|524:212|501:97,1,160,4|8,0:0|0:0,0:0:0:0:
432,44,178863,1,2,0:0:0:0:
348,64,179163,1,4,0:3:0:0:
263,88,179463,2,0,P|258:166|293:237,1,160,2|2,0:0|0:0,0:0:0:0:
336,316,180363,6,0,B|312:367|264:367|264:367|198:367,1,160,4|8,0:0|0:0,0:0:0:0:
120,328,181263,2,2,B|144:277|192:277|192:277|258:277,1,160,2|4,0:0|0:3,0:0:0:0:
336,316,182163,1,8,0:0:0:0:
460,192,182763,6,0,L|440:73,2,120,4|2|0,0:0|0:0|3:0,0:0:0:0:
388,244,183963,2,0,P|383:283|400:319,1,80,2|0,0:0|3:0,0:0:0:0:
480,360,184563,1,8,0:0:0:0:
304,360,185163,6,0,L|184:348,2,120,4|2|0,0:0|0:0|3:0,0:0:0:0:
372,304,186363,2,0,B|380:264|380:264|369:226,1,80,2|0,0:0|3:0,0:0:0:0:
307,163,186963,1,8,0:0:0:0:
181,37,187563,6,0,P|142:32|104:42,1,80,4|2,0:0|0:0,0:0:0:0:
68,124,188163,2,0,P|76:163|72:202,1,80,8|0,0:0|3:0,0:0:0:0:
104,284,188763,2,0,L|184:272,1,80,2|0,0:0|3:0,0:0:0:0:
256,324,189363,1,8,0:0:0:0:
376,196,189963,5,4,0:0:0:0:
256,192,190113,12,2,197163,0:0:0:0:
