osu file format v14

[General]
AudioFilename: audio.mp3
AudioLeadIn: 0
PreviewTime: 18752
Countdown: 0
SampleSet: Soft
StackLeniency: 0.7
Mode: 0
LetterboxInBreaks: 0
WidescreenStoryboard: 0

[Editor]
Bookmarks: 35829,36752,37675,38598,39521,40444
DistanceSpacing: 1.4
BeatDivisor: 2
GridSize: 4
TimelineZoom: 1

[Metadata]
Title:I Found A Way
TitleUnicode:I Found A Way
Artist:Drake Bell
ArtistUnicode:Drake Bell
Creator:-Space-
Version:Advanced
Source:Drake & Josh
Tags:opening nickelodeon diraimur op nick miranda cosgrove josh peck [_Space_]
BeatmapID:1274046
BeatmapSetID:603193

[Difficulty]
HPDrainRate:4.5
CircleSize:3.6
OverallDifficulty:5
ApproachRate:5
SliderMultiplier:1.3
SliderTickRate:1

[Events]
//Background and Video events
0,0,"osubg1.jpg",0,0
//Break Periods
//Storyboard Layer 0 (Background)
//Storyboard Layer 1 (Fail)
//Storyboard Layer 2 (Pass)
//Storyboard Layer 3 (Foreground)
//Storyboard Sound Samples

[TimingPoints]
291,461.538461538462,4,2,0,40,1,0
291,-111.111111111111,4,2,0,40,0,0
3521,-111.111111111111,4,1,0,50,0,0
3983,-100,4,1,0,50,0,0
16906,-125,4,2,0,40,0,0
18752,-90.9090909090909,4,1,0,60,0,1
25214,-90.9090909090909,4,3,0,70,0,1
25906,-90.9090909090909,4,3,0,50,0,1
26137,-90.9090909090909,4,1,0,60,0,1
40906,-90.9090909090909,4,1,0,60,0,0
46444,-111.111111111111,4,1,0,50,0,0
50137,-111.111111111111,4,2,0,40,0,0
51983,-111.111111111111,4,2,0,30,0,0
52906,-111.111111111111,4,2,0,20,0,0
53829,-111.111111111111,4,2,0,10,0,0

[Colours]
Combo1 : 196,217,0
Combo2 : 56,220,1
Combo3 : 112,165,254
Combo4 : 254,81,44

[HitObjects]
116,108,291,6,0,L|132:232,1,116.999996429443,2|0,0:0|0:0,0:0:0:0:
256,332,1214,1,2,0:0:0:0:
380,228,1675,2,0,P|393:202|398:173,1,58.4999982147217
388,92,2137,6,0,L|282:38,1,116.999996429443,0|2,0:0|0:0,0:0:0:0:
144,116,3060,1,2,0:0:0:0:
256,236,3521,1,0,0:0:0:0:
328,196,3752,1,8,0:0:0:0:
404,232,3983,6,0,P|448:224|476:208,1,65,4|0,0:0|0:0,0:0:0:0:
492,128,4444,2,0,L|444:60,1,65
372,36,4906,2,0,P|312:24|220:40,1,130,8|0,0:0|0:0,0:0:0:0:
164,76,5598,1,0,0:0:0:0:
136,164,5829,6,0,L|168:312,1,130,8|0,0:0|0:0,0:0:0:0:
332,216,6752,2,0,L|312:128,2,65,8|0|0,0:0|0:0|0:0,0:0:0:0:
392,284,7444,1,0,0:0:0:0:
484,288,7675,5,4,0:0:0:0:
400,128,8137,2,0,P|368:84|276:84,1,130,8|2,0:0|0:0,0:0:0:0:
256,252,9060,1,8,0:0:0:0:
432,212,9521,6,0,P|464:192|484:144,1,65
400,128,9983,2,0,P|352:176|364:268,1,130,2|8,0:0|0:0,0:0:0:0:
268,276,10675,1,0,0:0:0:0:
192,228,10906,2,0,L|100:256,1,65,8|0,0:0|0:0,0:0:0:0:
52,196,11367,5,4,0:0:0:0:
228,148,11829,1,0,0:0:0:0:
324,304,12291,2,0,P|384:312|464:272,1,130,8|0,0:0|0:0,0:0:0:0:
460,196,12983,1,0,0:0:0:0:
408,120,13214,6,0,L|268:132,1,130,8|0,0:0|0:0,0:0:0:0:
196,96,13906,2,0,P|192:160|240:212,2,130
256,192,15060,8,2,16906,0:0:0:0:
56,108,18752,5,4,0:0:0:0:
256,124,19214,1,8,0:0:0:0:
160,296,19675,2,0,P|220:320|312:304,1,143.000004364014,0|8,0:0|0:0,0:0:0:0:
408,144,20598,6,0,P|380:128|336:72,1,71.5000021820069
256,72,21060,2,0,P|204:76|160:64,1,71.5000021820069,8|0,0:0|0:0,0:0:0:0:
88,48,21521,2,0,B|48:64|48:104|48:104|48:200,1,143.000004364014,0|8,0:0|0:0,0:0:0:0:
120,244,22214,6,0,L|268:244,1,143.000004364014
364,244,22906,1,8,0:0:0:0:
312,156,23137,2,0,L|164:156,1,143.000004364014
220,72,23829,2,0,L|300:72,1,71.5000021820069,8|0,0:0|0:0,0:0:0:0:
388,100,24291,6,0,P|416:160|368:244,1,143.000004364014,4|8,0:0|0:0,0:0:0:0:
208,316,25214,2,0,P|181:251|209:187,1,143.000004364014
304,152,25906,1,8,0:0:0:0:
360,236,26137,5,0,0:0:0:0:
252,68,26598,1,4,0:0:0:0:
92,188,27060,2,0,P|92:232|104:260,1,71.5000021820069
188,312,27521,2,0,L|276:296,1,71.5000021820069,8|0,0:0|0:0,0:0:0:0:
356,268,27983,6,0,P|328:224|220:204,1,143.000004364014,4|8,0:0|0:0,0:0:0:0:
140,192,28675,2,0,P|100:136|116:44,1,143.000004364014
196,108,29367,1,8,0:0:0:0:
136,300,29829,6,0,B|156:332|156:332|276:352,1,143.000004364014,4|8,0:0|0:0,0:0:0:0:
360,340,30521,2,0,P|380:284|360:200,1,143.000004364014,0|0,0:0|0:0,0:0:0:0:
300,148,31214,2,0,L|216:120,1,71.5000021820069,8|0,0:0|0:0,0:0:0:0:
160,192,31675,6,0,L|320:244,2,143.000004364014,4|0|0,0:0|0:0|0:0,0:0:0:0:
152,92,32829,2,0,P|196:48|224:40,1,71.5000021820069,0|8,0:0|0:0,0:0:0:0:
304,32,33291,1,0,0:0:0:0:
376,100,33521,5,0,0:0:0:0:
220,228,33983,1,4,0:0:0:0:
388,336,34444,2,0,P|394:301|389:265,1,71.5000021820069,8|0,0:0|0:0,0:0:0:0:
292,296,34906,1,0,0:0:0:0:
204,344,35137,6,0,L|52:356,1,143.000004364014,8|0,0:0|0:0,0:0:0:0:
32,256,35829,2,0,P|28:208|36:172,1,71.5000021820069,4|0,0:0|0:0,0:0:0:0:
100,112,36291,1,8,0:0:0:0:
248,244,36752,1,4,0:0:0:0:
412,132,37214,6,0,P|432:172|432:220,1,71.5000021820069,8|0,0:0|0:0,0:0:0:0:
400,292,37675,2,0,L|248:344,1,143.000004364014,4|8,0:0|0:0,0:0:0:0:
172,372,38367,1,0,0:0:0:0:
192,272,38598,1,4,0:0:0:0:
228,76,39060,5,8,0:0:0:0:
84,204,39521,2,0,P|44:220|12:272,1,71.5000021820069,4|0,0:0|0:0,0:0:0:0:
104,304,39983,2,0,P|144:288|176:236,1,71.5000021820069,8|0,0:0|0:0,0:0:0:0:
176,168,40444,1,4,0:0:0:0:
328,40,40906,5,4,0:0:0:0:
364,236,41367,1,8,0:0:0:0:
436,48,41829,1,0,0:0:0:0:
472,244,42291,1,8,0:0:0:0:
436,48,42752,6,0,P|384:40|284:48,1,143.000004364014
220,112,43444,1,0,0:0:0:0:
195,211,43675,1,8,0:0:0:0:
384,280,44137,1,8,0:0:0:0:
188,320,44598,5,4,0:0:0:0:
384,280,45060,1,8,0:0:0:0:
195,211,45521,1,0,0:0:0:0:
392,172,45983,1,8,0:0:0:0:
272,60,46444,5,0,0:0:0:0:
195,94,46675,2,0,L|195:226,2,116.999996429443,4|4|4,0:0|0:0|0:0,0:0:0:0:
360,76,48060,1,0,0:0:0:0:
256,192,48291,8,0,53829,0:0:0:0:
