osu file format v14

[General]
AudioFilename: audio.mp3
AudioLeadIn: 0
PreviewTime: 25989
Countdown: 1
SampleSet: None
StackLeniency: 0.7
Mode: 0
LetterboxInBreaks: 0
WidescreenStoryboard: 1

[Editor]
DistanceSpacing: 0.3
BeatDivisor: 4
GridSize: 8
TimelineZoom: 1

[Metadata]
Title:Found a Way
TitleUnicode:Found a Way
Artist:Drake Bell
ArtistUnicode:Drake Bell
Creator:Apo11o
Version:Turn Around
Source:Drake & Josh
Tags:nickelodeon and show
BeatmapID:1918014
BeatmapSetID:918503

[Difficulty]
HPDrainRate:5
CircleSize:4
OverallDifficulty:8
ApproachRate:9
SliderMultiplier:1.6
SliderTickRate:1

[Events]
//Background and Video events
0,0,"its the future I can see.jpg",0,0
//Break Periods
//Storyboard Layer 0 (Background)
//Storyboard Layer 1 (Fail)
//Storyboard Layer 2 (Pass)
//Storyboard Layer 3 (Foreground)
//Storyboard Sound Samples

[TimingPoints]
259,461.538461538462,4,3,0,60,1,0
2566,-90.9090909090909,4,3,0,60,0,0
3028,-83.3333333333333,4,3,0,60,0,0
3951,-86.9565217391304,4,3,0,60,0,0
19412,-100,4,3,0,60,0,0
21720,-86.9565217391304,4,3,0,60,0,0
22182,-83.3333333333333,4,3,0,60,0,0
26105,-71.4285714285714,4,3,0,60,0,0
54028,-86.9565217391304,4,3,0,60,0,0
61528,-86.9565217391304,4,2,0,5,0,0

[HitObjects]
83,258,259,5,0,0:0:0:0:
168,224,489,1,0,0:0:0:0:
236,275,720,2,0,L|319:282,1,80
347,289,1066,1,0,0:0:0:0:
347,289,1182,2,0,L|338:109,1,160
292,63,1874,1,0,0:0:0:0:
199,88,2105,6,0,P|153:109|116:148,1,80
253,149,2566,2,0,P|227:192|221:262,1,88.000002685547
339,129,3028,2,0,P|343:179|383:247,1,95.9999970703126
417,90,3489,1,0,0:0:0:0:
276,316,3720,1,0,0:0:0:0:
279,293,3835,1,0,0:0:0:0:
282,270,3951,5,0,0:0:0:0:
282,270,4412,1,0,0:0:0:0:
456,256,4643,1,0,0:0:0:0:
342,178,4874,1,0,0:0:0:0:
342,178,5335,1,0,0:0:0:0:
394,358,5566,1,0,0:0:0:0:
446,178,5797,6,0,P|442:121|415:68,1,92.0000017547608
227,38,6259,2,0,P|211:81|210:126,1,92.0000017547608
322,95,6720,1,0,0:0:0:0:
227,38,6951,1,0,0:0:0:0:
119,64,7182,1,0,0:0:0:0:
126,190,7412,1,0,0:0:0:0:
128,212,7527,1,0,0:0:0:0:
130,235,7642,5,0,0:0:0:0:
210,126,7874,1,0,0:0:0:0:
334,263,8105,1,0,0:0:0:0:
210,208,8335,1,0,0:0:0:0:
356,182,8566,2,0,P|404:217|426:272,1,92.0000017547608
241,307,9028,1,0,0:0:0:0:
297,129,9259,1,0,0:0:0:0:
118,166,9489,6,0,L|18:167,1,92.0000017547608
203,40,9951,2,0,L|303:41,1,92.0000017547608
218,189,10412,1,0,0:0:0:0:
61,67,10643,1,0,0:0:0:0:
31,259,10874,1,0,0:0:0:0:
179,103,11105,1,0,0:0:0:0:
179,80,11220,1,0,0:0:0:0:
180,57,11335,5,0,0:0:0:0:
180,57,11797,1,0,0:0:0:0:
281,24,12028,1,0,0:0:0:0:
369,68,12259,1,0,0:0:0:0:
369,68,12720,1,0,0:0:0:0:
301,143,12951,1,0,0:0:0:0:
343,240,13182,6,0,P|392:247|458:225,1,92.0000017547608
439,322,13643,2,0,P|393:329|344:323,1,92.0000017547608
148,295,14105,1,0,0:0:0:0:
221,197,14335,1,0,0:0:0:0:
273,312,14566,1,0,0:0:0:0:
118,288,14797,1,0,0:0:0:0:
95,281,14912,1,0,0:0:0:0:
73,275,15027,5,0,0:0:0:0:
23,101,15259,1,0,0:0:0:0:
117,197,15489,1,0,0:0:0:0:
121,33,15720,1,0,0:0:0:0:
23,101,15951,2,0,L|5:200,1,92.0000017547608
220,201,16412,2,0,L|203:110,1,92.0000017547608
6,191,16874,5,0,0:0:0:0:
135,290,17105,1,0,0:0:0:0:
118,112,17335,1,0,0:0:0:0:
35,287,17566,1,0,0:0:0:0:
236,291,17797,2,0,L|219:200,1,92.0000017547608
150,383,18259,1,0,0:0:0:0:
173,383,18374,1,0,0:0:0:0:
196,383,18489,1,0,0:0:0:0:
219,383,18605,1,0,0:0:0:0:
249,382,18720,6,0,L|364:383,1,92.0000017547608
481,352,19182,1,0,0:0:0:0:
405,250,19412,2,0,P|376:195|390:131,1,120
451,185,19874,2,0,L|226:218,1,200
208,281,20566,6,0,P|176:214|208:151,1,120
329,203,21028,1,0,0:0:0:0:
208,281,21259,2,0,L|198:374,1,80
33,285,21720,2,0,L|23:188,1,92.0000017547608
188,173,22182,1,0,0:0:0:0:
193,150,22297,1,0,0:0:0:0:
200,128,22412,5,0,0:0:0:0:
74,55,22643,1,0,0:0:0:0:
206,114,22874,1,0,0:0:0:0:
344,63,23105,1,0,0:0:0:0:
229,8,23335,1,0,0:0:0:0:
290,131,23566,1,0,0:0:0:0:
431,79,23797,1,0,0:0:0:0:
506,180,24028,1,0,0:0:0:0:
344,63,24259,1,0,0:0:0:0:
344,63,25412,5,0,0:0:0:0:
145,191,25643,1,0,0:0:0:0:
381,210,25874,1,0,0:0:0:0:
404,207,25989,1,0,0:0:0:0:
428,204,26104,5,0,0:0:0:0:
281,138,26335,1,0,0:0:0:0:
206,274,26566,2,0,L|222:384,1,111.999996582031
73,194,27028,1,0,0:0:0:0:
16,358,27259,1,0,0:0:0:0:
206,274,27489,1,0,0:0:0:0:
350,349,27720,6,0,P|426:340|391:210,1,223.999993164063
256,353,28412,1,0,0:0:0:0:
152,165,28643,2,0,B|239:119|288:205|381:149,1,223.999993164063
211,68,29335,1,0,0:0:0:0:
206,236,29566,1,0,0:0:0:0:
204,263,29681,1,0,0:0:0:0:
203,290,29797,6,0,B|90:306|90:306|29:185,1,223.999993164063
107,50,30489,2,0,P|161:41|210:67,1,111.999996582031
294,229,30951,1,0,0:0:0:0:
147,117,31182,1,0,0:0:0:0:
319,45,31412,1,0,0:0:0:0:
107,50,31643,6,0,L|85:161,1,111.999996582031
281,23,32105,2,0,L|303:134,1,111.999996582031
85,159,32566,1,0,0:0:0:0:
281,23,32797,1,0,0:0:0:0:
213,251,33028,1,0,0:0:0:0:
107,50,33259,1,0,0:0:0:0:
302,132,33489,5,0,0:0:0:0:
416,107,33720,1,0,0:0:0:0:
475,6,33951,1,0,0:0:0:0:
475,6,34412,5,0,0:0:0:0:
351,209,34643,1,0,0:0:0:0:
336,21,34874,1,0,0:0:0:0:
489,168,35105,1,0,0:0:0:0:
492,195,35220,1,0,0:0:0:0:
495,223,35335,6,0,B|406:289|406:289|503:353,1,223.999993164063
312,294,36028,2,0,L|80:303,1,223.999993164063
167,209,36720,1,0,0:0:0:0:
236,378,36951,1,0,0:0:0:0:
306,194,37182,6,0,P|307:141|160:138,1,223.999993164063
396,129,37874,1,0,0:0:0:0:
309,26,38105,2,0,P|228:10|190:17,1,111.999996582031
61,131,38566,2,0,P|116:134|170:119,1,111.999996582031
309,26,39028,6,0,L|432:19,1,111.999996582031
204,38,39489,2,0,L|81:31,1,111.999996582031
374,150,39951,1,0,0:0:0:0:
309,26,40182,1,0,0:0:0:0:
206,222,40412,1,0,0:0:0:0:
284,110,40643,1,0,0:0:0:0:
95,128,40874,5,0,0:0:0:0:
28,212,41105,1,0,0:0:0:0:
75,319,41335,1,0,0:0:0:0:
75,319,41797,1,0,0:0:0:0:
202,230,42028,1,0,0:0:0:0:
323,336,42259,1,0,0:0:0:0:
121,236,42489,6,0,P|160:170|285:213,1,223.999993164063
121,236,43182,1,0,0:0:0:0:
417,120,43412,2,0,P|378:54|252:97,1,223.999993164063
417,120,44105,1,0,0:0:0:0:
423,320,44335,6,0,B|390:213|390:213|305:285,1,223.999993164063
423,320,45028,1,0,0:0:0:0:
208,189,45259,2,0,B|241:81|241:81|326:153,1,223.999993164063
208,188,45952,1,0,0:0:0:0:
105,268,46182,6,0,L|66:45,1,223.999993164063
105,268,46874,1,0,0:0:0:0:
238,290,47105,2,0,L|277:67,1,223.999993164063
238,290,47797,1,0,0:0:0:0:
175,153,48028,1,0,0:0:0:0:
172,125,48143,1,0,0:0:0:0:
170,97,48258,5,0,0:0:0:0:
354,148,48489,1,0,0:0:0:0:
215,16,48720,2,0,P|160:6|93:41,1,111.999996582031
257,122,49182,1,0,0:0:0:0:
355,21,49412,1,0,0:0:0:0:
439,174,49643,2,0,P|445:234|428:295,1,111.999996582031
230,351,50105,6,0,P|217:296|224:241,1,111.999996582031
346,111,50566,1,0,0:0:0:0:
302,293,50797,1,0,0:0:0:0:
123,152,51028,1,0,0:0:0:0:
317,197,51259,1,0,0:0:0:0:
153,328,51489,1,0,0:0:0:0:
197,112,51720,1,0,0:0:0:0:
302,293,51951,6,0,P|365:283|405:244,1,111.999996582031
192,203,52412,2,0,P|129:213|89:252,1,111.999996582031
317,197,52874,1,0,0:0:0:0:
128,106,53105,1,0,0:0:0:0:
359,72,53335,1,0,0:0:0:0:
94,243,53566,1,0,0:0:0:0:
409,197,53797,1,0,0:0:0:0:
64,99,54028,1,0,0:0:0:0:
43,100,54489,5,0,0:0:0:0:
18,117,54951,5,0,0:0:0:0:
1,160,55412,5,0,0:0:0:0:
274,70,55643,1,0,0:0:0:0:
