osu file format v14

[General]
AudioFilename: audio.ogg
AudioLeadIn: 0
PreviewTime: 70650
Countdown: 0
SampleSet: Soft
StackLeniency: 0.5
Mode: 0
LetterboxInBreaks: 0
WidescreenStoryboard: 0

[Editor]
DistanceSpacing: 4.2
BeatDivisor: 16
GridSize: 4
TimelineZoom: 2.12

[Metadata]
Title:Take Care feat. Rihanna
TitleUnicode:Take Care feat. Rihanna
Artist:Drake
ArtistUnicode:Drake
Creator:quantumvortex
Version:Loved and Lost
Source:
Tags:visionary rnb r&b rhythm and blues dance hip hop hip-hop jamie xx smith 40 gil scott-heron i'll of you english
BeatmapID:3934407
BeatmapSetID:1907916

[Difficulty]
HPDrainRate:5
CircleSize:4
OverallDifficulty:8.5
ApproachRate:9
SliderMultiplier:3
SliderTickRate:1

[Events]
//Background and Video events
0,0,"pexels-juan-pablo-serrano-arenas-1677236.jpg",0,0
//Break Periods
2,196646,210957
//Storyboard Layer 0 (Background)
//Storyboard Layer 1 (Fail)
//Storyboard Layer 2 (Pass)
//Storyboard Layer 3 (Foreground)
//Storyboard Layer 4 (Overlay)
//Storyboard Sound Samples

[TimingPoints]
7749,491.400491400491,4,2,2,60,1,0
8117,-100,4,2,99,5,0,0
8240,-100,4,2,1,60,0,0
8362,-100,4,2,99,5,0,0
8486,-100,4,2,3,60,0,0
8608,-100,4,2,99,5,0,0
8731,-133.333333333333,4,2,4,60,0,0
9099,-133.333333333333,4,2,5,60,0,0
9468,-133.333333333333,4,2,6,60,0,0
9714,-133.333333333333,4,2,7,60,0,0
11188,-200,4,2,8,60,0,0
11556,-200,4,2,99,5,0,0
11680,-133.333333333333,4,2,9,60,0,0
12048,-133.333333333333,4,2,99,5,0,0
12171,-133.333333333333,4,2,2,60,0,0
12293,-133.333333333333,4,2,99,5,0,0
12417,-133.333333333333,4,2,10,60,0,0
12539,-133.333333333333,4,2,99,5,0,0
12663,-133.333333333333,4,2,4,60,0,0
13031,-133.333333333333,4,2,5,60,0,0
13400,-133.333333333333,4,2,11,60,0,0
13645,-133.333333333333,4,2,7,60,0,0
15611,-100,4,2,9,60,0,0
15979,-100,4,2,99,5,0,0
16102,-100,4,2,2,60,0,0
16224,-100,4,2,99,5,0,0
16348,-100,4,2,3,60,0,0
16471,-100,4,2,1,60,0,0
16594,-100,4,2,4,60,0,0
16839,-100,4,2,1,60,0,0
16962,-100,4,2,5,60,0,0
17084,-100,4,2,1,60,0,0
17331,-100,4,2,6,60,0,0
17453,-100,4,2,99,5,0,0
17577,-200,4,2,12,60,0,0
18559,-200,4,2,7,60,0,0
19419,-200,4,2,1,60,0,0
19542,-100,4,2,2,60,0,0
19664,-100,4,2,99,5,0,0
19788,-100,4,2,1,60,0,0
19910,-100,4,2,99,5,0,0
20034,-100,4,2,1,60,0,0
20218,-100,4,2,99,5,0,0
20279,-100,4,2,10,60,0,0
20401,-100,4,2,99,5,0,0
20525,-133.333333333333,4,2,13,60,0,0
20893,-133.333333333333,4,2,5,60,0,0
21262,-133.333333333333,4,2,14,60,0,0
21508,-133.333333333333,4,2,7,60,0,0
22368,-133.333333333333,4,2,1,60,0,0
23473,-100,4,2,2,60,0,0
23595,-100,4,2,99,5,0,0
23719,-100,4,2,1,60,0,0
23842,-100,4,2,8,60,0,0
24087,-100,4,2,99,5,0,0
24210,-100,4,2,10,60,0,0
24332,-100,4,2,99,5,0,0
24456,-100,4,2,4,60,0,0
24824,-100,4,2,5,60,0,0
25193,-100,4,2,6,60,0,0
25439,-100,4,2,7,60,0,0
26422,-100,4,2,12,60,0,0
26790,-100,4,2,99,5,0,0
26913,-100,4,2,8,60,0,0
27036,-100,4,2,1,60,0,0
27159,-100,4,2,8,60,0,0
27281,-100,4,2,99,5,0,0
27405,-100,4,2,2,60,0,0
27773,-100,4,2,8,60,0,0
28019,-100,4,2,99,5,0,0
28142,-100,4,2,10,60,0,0
28264,-100,4,2,99,5,0,0
28387,-100,4,2,13,60,0,0
28755,-100,4,2,15,60,0,0
29124,-100,4,2,14,60,0,0
29370,-100,4,2,12,60,0,0
29738,-100,4,2,99,5,0,0
29862,-114.285714285714,4,2,8,60,0,0
30230,-114.285714285714,4,2,99,5,0,0
30353,-133.333333333333,4,2,12,60,0,0
30721,-133.333333333333,4,2,99,5,0,0
30844,-158.730158730159,4,2,8,60,0,0
31212,-158.730158730159,4,2,99,5,0,0
31336,-158.730158730159,4,2,2,60,0,0
31950,-158.730158730159,4,2,99,5,0,0
32073,-158.730158730159,4,2,10,60,0,0
32195,-158.730158730159,4,2,99,5,0,0
32319,-133.333333333333,4,2,13,60,0,0
32687,-133.333333333333,4,2,15,60,0,0
33056,-133.333333333333,4,2,16,60,0,0
33301,-133.333333333333,4,2,12,60,0,0
33669,-133.333333333333,4,2,99,5,0,0
33793,-133.333333333333,4,2,8,60,0,0
34038,-133.333333333333,4,2,17,60,0,0
34284,-133.333333333333,4,2,12,60,0,0
34652,-133.333333333333,4,2,99,5,0,0
34776,-133.333333333333,4,2,8,60,0,0
35021,-133.333333333333,4,2,17,60,0,0
35267,-133.333333333333,4,2,9,60,0,0
36004,-133.333333333333,4,2,10,60,0,0
36126,-133.333333333333,4,2,99,5,0,0
36250,-133.333333333333,4,2,13,60,0,0
36618,-133.333333333333,4,2,15,60,0,0
36987,-133.333333333333,4,2,14,60,0,0
37233,-133.333333333333,4,2,7,60,0,0
37970,-133.333333333333,4,2,18,60,0,0
38092,-133.333333333333,4,2,99,5,0,0
38215,-133.333333333333,4,2,12,60,0,0
38706,-133.333333333333,4,2,8,60,0,0
38830,-133.333333333333,4,2,1,60,0,0
38952,-133.333333333333,4,2,18,60,0,0
39074,-133.333333333333,4,2,99,5,0,0
39218,491.400491400491,4,2,19,40,1,0
39218,-400,4,2,19,40,0,0
39832,-400,4,2,99,5,0,0
39955,-400,4,2,20,40,0,0
40201,-400,4,2,21,40,0,0
40569,-400,4,2,22,40,0,0
40938,-400,4,2,23,40,0,0
42903,-400,4,2,99,5,0,0
43149,-400,4,2,24,40,0,0
43763,-400,4,2,99,5,0,0
43886,-400,4,2,20,40,0,0
44132,-400,4,2,25,40,0,0
44501,-400,4,2,26,40,0,0
44869,-400,4,2,27,40,0,0
46834,-400,4,2,99,5,0,0
47081,-400,4,2,24,40,0,0
47695,-400,4,2,99,5,0,0
47818,-400,4,2,20,40,0,0
48063,-400,4,2,21,40,0,0
48432,-400,4,2,22,40,0,0
48800,-400,4,2,23,40,0,0
50765,-400,4,2,28,40,0,0
51012,-400,4,2,29,40,0,0
51626,-400,4,2,99,5,0,0
51749,-400,4,2,30,40,0,0
51995,-400,4,2,31,40,0,0
52363,-400,4,2,32,40,0,0
52732,-400,4,2,33,40,0,0
53960,-400,4,2,99,5,0,0
54309,491.400491400491,4,2,1,80,1,0
54309,-400,4,2,1,80,0,0
54677,-400,4,2,17,80,0,0
54923,491.400491400491,4,2,2,70,1,0
54923,-133.333333333333,4,2,2,70,0,0
55168,-133.333333333333,4,2,1,70,0,0
55291,-133.333333333333,4,2,1,70,0,0
55536,-133.333333333333,4,2,99,5,0,0
55660,-133.333333333333,4,2,3,70,0,0
55782,-133.333333333333,4,2,99,5,0,0
55906,-133.333333333333,4,2,34,70,0,0
56151,-133.333333333333,4,2,1,70,0,0
56274,-133.333333333333,4,2,5,70,0,0
56519,-133.333333333333,4,2,99,5,0,0
56642,-100,4,2,6,70,0,0
56765,-100,4,2,99,5,0,0
56889,-100,4,2,12,70,0,0
57134,-100,4,2,1,70,0,0
57257,-100,4,2,1,70,0,0
57502,-100,4,2,99,5,0,0
57626,-100,4,2,18,70,0,0
57748,-100,4,2,99,5,0,0
57871,-133.333333333333,4,2,12,70,0,0
58239,-133.333333333333,4,2,1,70,0,0
58608,-100,4,2,18,70,0,0
58730,-100,4,2,99,5,0,0
58854,-100,4,2,2,70,0,0
59099,-100,4,2,1,70,0,0
59223,-100,4,2,1,70,0,0
59468,-100,4,2,99,5,0,0
59591,-100,4,2,3,70,0,0
59713,-100,4,2,99,5,0,0
59837,-133.333333333333,4,2,34,70,0,0
60082,-133.333333333333,4,2,1,70,0,0
60206,-133.333333333333,4,2,5,70,0,0
60328,-133.333333333333,4,2,3,70,0,0
60574,-100,4,2,11,70,0,0
60696,-100,4,2,99,5,0,0
60820,-100,4,2,12,70,0,0
61065,-100,4,2,1,70,0,0
61188,-100,4,2,1,70,0,0
61433,-100,4,2,99,5,0,0
61557,-100,4,2,18,70,0,0
61679,-100,4,2,99,5,0,0
61802,-133.333333333333,4,2,12,70,0,0
62048,-133.333333333333,4,2,1,70,0,0
62171,-133.333333333333,4,2,1,70,0,0
62293,-133.333333333333,4,2,3,70,0,0
62539,-100,4,2,18,70,0,0
62662,-100,4,2,99,5,0,0
62785,-100,4,2,2,70,0,0
63030,-100,4,2,1,70,0,0
63154,-100,4,2,1,70,0,0
63399,-100,4,2,99,5,0,0
63522,-100,4,2,3,70,0,0
63644,-100,4,2,99,5,0,0
63768,-133.333333333333,4,2,34,70,0,0
64013,-133.333333333333,4,2,1,70,0,0
64137,-133.333333333333,4,2,5,70,0,0
64382,-133.333333333333,4,2,99,5,0,0
64505,-100,4,2,6,70,0,0
64627,-100,4,2,99,5,0,0
64751,-100,4,2,12,70,0,0
64996,-100,4,2,1,70,0,0
65120,-100,4,2,1,70,0,0
65365,-100,4,2,99,5,0,0
65488,-100,4,2,18,70,0,0
65610,-100,4,2,99,5,0,0
65733,-133.333333333333,4,2,12,70,0,0
66102,-133.333333333333,4,2,1,70,0,0
66471,-133.333333333333,4,2,18,70,0,0
66717,-133.333333333333,4,2,2,70,0,0
66962,-133.333333333333,4,2,1,70,0,0
67085,-133.333333333333,4,2,1,70,0,0
67330,-133.333333333333,4,2,99,5,0,0
67454,-133.333333333333,4,2,3,70,0,0
67576,-133.333333333333,4,2,99,5,0,0
67699,-133.333333333333,4,2,34,70,0,0
67944,-133.333333333333,4,2,1,70,0,0
68068,-133.333333333333,4,2,5,70,0,0
68313,-133.333333333333,4,2,99,5,0,0
68436,-133.333333333333,4,2,11,70,0,0
68558,-133.333333333333,4,2,99,5,0,0
68682,-133.333333333333,4,2,7,70,0,0
68805,-133.333333333333,4,2,8,70,0,0
69050,-133.333333333333,4,2,1,70,0,0
69419,-133.333333333333,4,2,17,70,0,0
69665,-200,4,2,7,70,0,0
69911,-200,4,2,8,70,0,0
70033,-200,4,2,4,70,0,0
70156,-200,4,2,8,70,0,0
70402,-200,4,2,6,70,0,0
70648,-200,4,2,35,70,0,0
70770,-66.6666666666667,4,2,1,70,0,0
71016,-66.6666666666667,4,2,8,70,0,0
71138,-66.6666666666667,4,2,3,70,0,0
71262,-66.6666666666667,4,2,1,70,0,0
71385,-66.6666666666667,4,2,3,70,0,0
71507,-66.6666666666667,4,2,99,5,0,0
71631,-66.6666666666667,4,2,36,70,0,0
71876,-66.6666666666667,4,2,1,70,0,0
71999,-66.6666666666667,4,2,37,70,0,0
72244,-66.6666666666667,4,2,99,5,0,0
72368,-66.6666666666667,4,2,6,70,0,0
72490,-66.6666666666667,4,2,99,5,0,0
72613,-66.6666666666667,4,2,38,70,0,0
72736,-66.6666666666667,4,2,1,70,0,0
72982,-66.6666666666667,4,2,8,70,0,0
73104,-66.6666666666667,4,2,3,70,0,0
73228,-66.6666666666667,4,2,1,70,0,0
73350,-66.6666666666667,4,2,18,70,0,0
73472,-66.6666666666667,4,2,99,5,0,0
73596,-66.6666666666667,4,2,38,70,0,0
73841,-66.6666666666667,4,2,9,70,0,0
73965,-66.6666666666667,4,2,8,70,0,0
74087,-66.6666666666667,4,2,10,70,0,0
74210,-66.6666666666667,4,2,1,70,0,0
74333,-66.6666666666667,4,2,39,70,0,0
74455,-66.6666666666667,4,2,99,5,0,0
74579,-66.6666666666667,4,2,35,70,0,0
74824,-66.6666666666667,4,2,1,70,0,0
74948,-66.6666666666667,4,2,8,70,0,0
75070,-66.6666666666667,4,2,3,70,0,0
75193,-66.6666666666667,4,2,1,70,0,0
75316,-66.6666666666667,4,2,3,70,0,0
75438,-66.6666666666667,4,2,99,5,0,0
75562,-66.6666666666667,4,2,36,70,0,0
75807,-66.6666666666667,4,2,1,70,0,0
75930,-66.6666666666667,4,2,37,70,0,0
76052,-66.6666666666667,4,2,3,70,0,0
76176,-66.6666666666667,4,2,1,70,0,0
76299,-66.6666666666667,4,2,11,70,0,0
76421,-66.6666666666667,4,2,99,5,0,0
76545,-66.6666666666667,4,2,38,70,0,0
76729,-66.6666666666667,4,2,99,5,0,0
76790,-66.6666666666667,4,2,1,70,0,0
76912,-66.6666666666667,4,2,8,70,0,0
77036,-66.6666666666667,4,2,40,70,0,0
77159,-66.6666666666667,4,2,1,70,0,0
77282,-66.6666666666667,4,2,18,70,0,0
77405,-66.6666666666667,4,2,1,70,0,0
77527,-66.6666666666667,4,2,38,70,0,0
77772,-66.6666666666667,4,2,9,70,0,0
77896,-66.6666666666667,4,2,8,70,0,0
78018,-66.6666666666667,4,2,10,70,0,0
78142,-66.6666666666667,4,2,1,70,0,0
78264,-66.6666666666667,4,2,39,70,0,0
78386,-66.6666666666667,4,2,99,5,0,0
78510,-66.6666666666667,4,2,35,70,0,0
78755,-66.6666666666667,4,2,1,70,0,0
78879,-66.6666666666667,4,2,8,70,0,0
79124,-66.6666666666667,4,2,99,5,0,0
79247,-66.6666666666667,4,2,3,70,0,0
79369,-66.6666666666667,4,2,99,5,0,0
79493,-66.6666666666667,4,2,36,70,0,0
79615,-66.6666666666667,4,2,99,5,0,0
79739,-66.6666666666667,4,2,1,70,0,0
79861,-66.6666666666667,4,2,37,70,0,0
79984,-66.6666666666667,4,2,40,70,0,0
80106,-66.6666666666667,4,2,1,70,0,0
80230,-66.6666666666667,4,2,6,70,0,0
80352,-66.6666666666667,4,2,99,5,0,0
80476,-200,4,2,41,70,0,0
80721,-200,4,2,1,70,0,0
80844,-200,4,2,8,70,0,0
80967,-66.6666666666667,4,2,40,70,0,0
81151,-66.6666666666667,4,2,99,5,0,0
81213,-66.6666666666667,4,2,18,70,0,0
81335,-66.6666666666667,4,2,99,5,0,0
81459,-66.6666666666667,4,2,38,70,0,0
81581,-66.6666666666667,4,2,99,5,0,0
81704,-66.6666666666667,4,2,42,70,0,0
81827,-66.6666666666667,4,2,8,70,0,0
81950,-66.6666666666667,4,2,43,70,0,0
82073,-66.6666666666667,4,2,1,70,0,0
82196,-66.6666666666667,4,2,39,70,0,0
82318,-66.6666666666667,4,2,99,5,0,0
82441,-66.6666666666667,4,2,35,70,0,0
82686,-66.6666666666667,4,2,1,70,0,0
82810,-66.6666666666667,4,2,8,70,0,0
82933,-66.6666666666667,4,2,40,70,0,0
83056,-66.6666666666667,4,2,1,70,0,0
83178,-66.6666666666667,4,2,3,70,0,0
83301,-66.6666666666667,4,2,1,70,0,0
83424,-66.6666666666667,4,2,36,70,0,0
83546,-66.6666666666667,4,2,99,5,0,0
83669,-83.3333333333333,4,2,1,70,0,0
83792,-83.3333333333333,4,2,37,70,0,0
83916,-83.3333333333333,4,2,40,70,0,0
84038,-83.3333333333333,4,2,1,70,0,0
84161,-83.3333333333333,4,2,11,70,0,0
84284,-83.3333333333333,4,2,99,5,0,0
84407,-100,4,2,38,70,0,0
84652,-100,4,2,1,70,0,0
84776,-100,4,2,8,70,0,0
84898,-133.333333333333,4,2,40,70,0,0
85021,-83.3333333333333,4,2,1,70,0,0
85144,-133.333333333333,4,2,18,70,0,0
85267,-83.3333333333333,4,2,1,70,0,0
85390,-133.333333333333,4,2,38,70,0,0
85635,-133.333333333333,4,2,42,70,0,0
85758,-133.333333333333,4,2,8,70,0,0
85881,-133.333333333333,4,2,10,70,0,0
86004,-133.333333333333,4,2,1,70,0,0
86127,-133.333333333333,4,2,44,70,0,0
86372,-66.6666666666667,4,2,2,70,0,0
86495,-66.6666666666667,4,2,99,5,0,0
86618,-66.6666666666667,4,2,1,70,0,0
86741,-66.6666666666667,4,2,1,70,0,0
86863,-66.6666666666667,4,2,3,70,0,0
86987,-66.6666666666667,4,2,1,70,0,0
87110,-66.6666666666667,4,2,3,70,0,0
87232,-66.6666666666667,4,2,99,5,0,0
87355,-66.6666666666667,4,2,34,70,0,0
87600,-66.6666666666667,4,2,1,70,0,0
87724,-66.6666666666667,4,2,5,70,0,0
87846,-66.6666666666667,4,2,3,70,0,0
87970,-66.6666666666667,4,2,1,70,0,0
88092,-66.6666666666667,4,2,6,70,0,0
88214,-66.6666666666667,4,2,99,5,0,0
88338,-66.6666666666667,4,2,12,70,0,0
88460,-66.6666666666667,4,2,99,5,0,0
88584,-66.6666666666667,4,2,1,70,0,0
88707,-66.6666666666667,4,2,1,70,0,0
88829,-66.6666666666667,4,2,3,70,0,0
88952,-66.6666666666667,4,2,1,70,0,0
89075,-66.6666666666667,4,2,18,70,0,0
89197,-66.6666666666667,4,2,99,5,0,0
89321,-200,4,2,2,70,0,0
89566,-200,4,2,1,70,0,0
89812,-200,4,2,40,70,0,0
90304,-66.6666666666667,4,2,2,70,0,0
90549,-66.6666666666667,4,2,1,70,0,0
90672,-66.6666666666667,4,2,1,70,0,0
90794,-66.6666666666667,4,2,3,70,0,0
90918,-66.6666666666667,4,2,1,70,0,0
91041,-66.6666666666667,4,2,3,70,0,0
91163,-66.6666666666667,4,2,99,5,0,0
91287,-66.6666666666667,4,2,34,70,0,0
91409,-66.6666666666667,4,2,99,5,0,0
91532,-66.6666666666667,4,2,1,70,0,0
91655,-66.6666666666667,4,2,5,70,0,0
91777,-66.6666666666667,4,2,3,70,0,0
91901,-66.6666666666667,4,2,1,70,0,0
92024,-66.6666666666667,4,2,11,70,0,0
92146,-66.6666666666667,4,2,99,5,0,0
92269,-66.6666666666667,4,2,12,70,0,0
92391,-66.6666666666667,4,2,99,5,0,0
92515,-66.6666666666667,4,2,1,70,0,0
92638,-66.6666666666667,4,2,1,70,0,0
92760,-66.6666666666667,4,2,3,70,0,0
92884,-66.6666666666667,4,2,1,70,0,0
93006,-66.6666666666667,4,2,18,70,0,0
93128,-66.6666666666667,4,2,99,5,0,0
93252,-200,4,2,11,70,0,0
93497,-200,4,2,1,70,0,0
93743,-200,4,2,40,70,0,0
94235,-66.6666666666667,4,2,2,70,0,0
94480,-66.6666666666667,4,2,1,70,0,0
94604,-66.6666666666667,4,2,1,70,0,0
94726,-66.6666666666667,4,2,3,70,0,0
94849,-66.6666666666667,4,2,1,70,0,0
94972,-66.6666666666667,4,2,3,70,0,0
95094,-66.6666666666667,4,2,99,5,0,0
95218,-66.6666666666667,4,2,34,70,0,0
95340,-66.6666666666667,4,2,99,5,0,0
95463,-66.6666666666667,4,2,1,70,0,0
95586,-66.6666666666667,4,2,5,70,0,0
95708,-66.6666666666667,4,2,3,70,0,0
95832,-66.6666666666667,4,2,1,70,0,0
95955,-66.6666666666667,4,2,6,70,0,0
96077,-66.6666666666667,4,2,99,5,0,0
96201,-66.6666666666667,4,2,12,70,0,0
96446,-66.6666666666667,4,2,1,70,0,0
96569,-66.6666666666667,4,2,1,70,0,0
96814,-66.6666666666667,4,2,99,5,0,0
96938,-66.6666666666667,4,2,18,70,0,0
97060,-66.6666666666667,4,2,99,5,0,0
97183,-100,4,2,11,70,0,0
97305,-100,4,2,99,5,0,0
97429,-100,4,2,1,70,0,0
97552,-100,4,2,4,70,0,0
97674,-100,4,2,3,70,0,0
97798,-100,4,2,1,70,0,0
97920,-100,4,2,13,70,0,0
98042,-100,4,2,99,5,0,0
98166,-66.6666666666667,4,2,2,70,0,0
98411,-66.6666666666667,4,2,1,70,0,0
98535,-66.6666666666667,4,2,1,70,0,0
98657,-66.6666666666667,4,2,3,70,0,0
98780,-66.6666666666667,4,2,1,70,0,0
98903,-66.6666666666667,4,2,3,70,0,0
99025,-66.6666666666667,4,2,99,5,0,0
99149,-80,4,2,34,70,0,0
99271,-80,4,2,99,5,0,0
99395,-80,4,2,1,70,0,0
99518,-80,4,2,5,70,0,0
99640,-80,4,2,3,70,0,0
99763,-80,4,2,1,70,0,0
99886,-80,4,2,11,70,0,0
100008,-80,4,2,99,5,0,0
100132,-100,4,2,12,70,0,0
100377,-100,4,2,1,70,0,0
100500,-100,4,2,1,70,0,0
100745,-100,4,2,99,5,0,0
100869,-100,4,2,18,70,0,0
100991,-100,4,2,99,5,0,0
101115,-100,4,2,12,70,0,0
101360,-100,4,2,8,70,0,0
101483,-100,4,2,4,70,0,0
101606,-100,4,2,3,70,0,0
101852,-100,4,2,45,70,0,0
102097,-100,4,2,2,60,0,0
102219,-100,4,2,99,5,0,0
102343,-133.333333333333,4,2,1,60,0,0
102957,-133.333333333333,4,2,99,5,0,0
103080,-133.333333333333,4,2,34,60,0,0
103203,-133.333333333333,4,2,1,60,0,0
103325,-133.333333333333,4,2,8,60,0,0
103571,-133.333333333333,4,2,3,60,0,0
103694,-133.333333333333,4,2,1,60,0,0
103816,-133.333333333333,4,2,16,60,0,0
103940,-133.333333333333,4,2,1,60,0,0
104063,-133.333333333333,4,2,12,60,0,0
104185,-133.333333333333,4,2,99,5,0,0
104309,-133.333333333333,4,2,1,60,0,0
104431,-133.333333333333,4,2,1,60,0,0
104554,-133.333333333333,4,2,40,60,0,0
105046,-133.333333333333,4,2,7,60,0,0
105414,-133.333333333333,4,2,1,60,0,0
105537,-133.333333333333,4,2,3,60,0,0
105783,-133.333333333333,4,2,17,60,0,0
106029,-133.333333333333,4,2,2,60,0,0
106151,-133.333333333333,4,2,1,60,0,0
106396,-133.333333333333,4,2,1,60,0,0
106520,-133.333333333333,4,2,40,60,0,0
106643,-133.333333333333,4,2,1,60,0,0
106766,-133.333333333333,4,2,8,60,0,0
107134,-133.333333333333,4,2,99,5,0,0
107257,-133.333333333333,4,2,1,60,0,0
107748,-133.333333333333,4,2,14,60,0,0
107871,-133.333333333333,4,2,1,60,0,0
107994,-133.333333333333,4,2,12,60,0,0
108240,-133.333333333333,4,2,8,60,0,0
108362,-133.333333333333,4,2,1,60,0,0
108486,-133.333333333333,4,2,40,60,0,0
108608,-133.333333333333,4,2,99,5,0,0
108731,-133.333333333333,4,2,18,60,0,0
108853,-133.333333333333,4,2,99,5,0,0
108977,-285.714285714286,4,2,7,60,0,0
109345,-285.714285714286,4,2,1,60,0,0
109714,-285.714285714286,4,2,17,60,0,0
109837,-285.714285714286,4,2,8,60,0,0
109960,-133.333333333333,4,2,2,60,0,0
110328,-133.333333333333,4,2,1,60,0,0
110451,-133.333333333333,4,2,40,60,0,0
110819,-133.333333333333,4,2,99,5,0,0
110943,-133.333333333333,4,2,34,60,0,0
111188,-133.333333333333,4,2,1,60,0,0
111311,-133.333333333333,4,2,5,60,0,0
111556,-133.333333333333,4,2,99,5,0,0
111680,-133.333333333333,4,2,6,60,0,0
112048,-133.333333333333,4,2,99,5,0,0
112171,-285.714285714286,4,2,1,60,0,0
112662,-285.714285714286,4,2,17,60,0,0
112908,-285.714285714286,4,2,7,60,0,0
113276,-285.714285714286,4,2,1,60,0,0
113645,-285.714285714286,4,2,17,60,0,0
113768,-285.714285714286,4,2,1,60,0,0
113891,-133.333333333333,4,2,2,60,0,0
114259,-133.333333333333,4,2,1,60,0,0
114382,-133.333333333333,4,2,40,60,0,0
114750,-133.333333333333,4,2,99,5,0,0
114874,-133.333333333333,4,2,34,60,0,0
115119,-133.333333333333,4,2,1,60,0,0
115242,-133.333333333333,4,2,5,60,0,0
115487,-133.333333333333,4,2,99,5,0,0
115611,-133.333333333333,4,2,11,60,0,0
115857,-133.333333333333,4,2,8,60,0,0
116102,-133.333333333333,4,2,1,60,0,0
116225,-133.333333333333,4,2,1,60,0,0
116347,-133.333333333333,4,2,40,60,0,0
116471,-133.333333333333,4,2,1,60,0,0
116594,-133.333333333333,4,2,8,60,0,0
116716,-133.333333333333,4,2,99,5,0,0
116839,-133.333333333333,4,2,7,60,0,0
117331,-133.333333333333,4,2,3,60,0,0
117699,-133.333333333333,4,2,1,60,0,0
117822,-133.333333333333,4,2,2,60,0,0
117944,-133.333333333333,4,2,99,5,0,0
118068,-133.333333333333,4,2,1,60,0,0
118191,-133.333333333333,4,2,8,60,0,0
118682,-133.333333333333,4,2,99,5,0,0
118805,-133.333333333333,4,2,34,60,0,0
119050,-133.333333333333,4,2,1,60,0,0
119174,-133.333333333333,4,2,5,60,0,0
119419,-133.333333333333,4,2,99,5,0,0
119542,-133.333333333333,4,2,6,60,0,0
119664,-133.333333333333,4,2,99,5,0,0
119788,-133.333333333333,4,2,7,60,0,0
120279,-133.333333333333,4,2,3,60,0,0
120771,-133.333333333333,4,2,12,60,0,0
121139,-133.333333333333,4,2,1,60,0,0
121262,-133.333333333333,4,2,40,60,0,0
121384,-133.333333333333,4,2,99,5,0,0
121508,-133.333333333333,4,2,18,60,0,0
121630,-133.333333333333,4,2,99,5,0,0
121753,-133.333333333333,4,2,2,60,0,0
122122,-133.333333333333,4,2,8,60,0,0
122367,-133.333333333333,4,2,99,5,0,0
122491,-133.333333333333,4,2,10,60,0,0
122613,-133.333333333333,4,2,99,5,0,0
122736,-133.333333333333,4,2,46,60,0,0
123104,-133.333333333333,4,2,15,60,0,0
123473,-133.333333333333,4,2,14,60,0,0
123719,-133.333333333333,4,2,12,60,0,0
124087,-133.333333333333,4,2,1,60,0,0
124210,-158.730158730159,4,2,40,60,0,0
124578,-158.730158730159,4,2,99,5,0,0
124702,-200,4,2,12,60,0,0
125070,-200,4,2,1,60,0,0
125193,-270.27027027027,4,2,40,60,0,0
125561,-270.27027027027,4,2,99,5,0,0
125685,-133.333333333333,4,2,2,60,0,0
126299,-133.333333333333,4,2,99,5,0,0
126422,-133.333333333333,4,2,10,60,0,0
126544,-133.333333333333,4,2,99,5,0,0
126667,-133.333333333333,4,2,46,60,0,0
127035,-133.333333333333,4,2,15,60,0,0
127404,-133.333333333333,4,2,16,60,0,0
127650,-200,4,2,12,60,0,0
128018,-200,4,2,1,60,0,0
128142,-200,4,2,40,60,0,0
128387,-200,4,2,17,60,0,0
128633,-200,4,2,12,60,0,0
129001,-200,4,2,1,60,0,0
129124,-200,4,2,40,60,0,0
129369,-200,4,2,17,60,0,0
129616,-133.333333333333,4,2,47,60,0,0
130230,-133.333333333333,4,2,99,5,0,0
130353,-133.333333333333,4,2,10,60,0,0
130475,-133.333333333333,4,2,99,5,0,0
130599,-133.333333333333,4,2,46,60,0,0
130967,-133.333333333333,4,2,15,60,0,0
131336,-133.333333333333,4,2,14,60,0,0
131581,-133.333333333333,4,2,7,60,0,0
132073,-133.333333333333,4,2,3,60,0,0
132319,-133.333333333333,4,2,18,60,0,0
132441,-133.333333333333,4,2,99,5,0,0
132564,-133.333333333333,4,2,12,60,0,0
132809,-133.333333333333,4,2,1,60,0,0
132933,-133.333333333333,4,2,1,60,0,0
133055,-133.333333333333,4,2,3,60,0,0
133178,-133.333333333333,4,2,1,60,0,0
133423,-133.333333333333,4,2,99,5,0,0
133567,491.400491400491,4,2,19,40,1,0
133567,-400,4,2,19,40,0,0
134181,-400,4,2,99,5,0,0
134304,-400,4,2,20,40,0,0
134550,-400,4,2,21,40,0,0
134918,-400,4,2,22,40,0,0
135287,-400,4,2,23,40,0,0
137252,-400,4,2,99,5,0,0
137498,-400,4,2,24,40,0,0
138112,-400,4,2,99,5,0,0
138235,-400,4,2,20,40,0,0
138481,-400,4,2,25,40,0,0
138850,-400,4,2,26,40,0,0
139218,-400,4,2,27,40,0,0
141183,-400,4,2,99,5,0,0
141429,-400,4,2,24,40,0,0
142043,-400,4,2,99,5,0,0
142167,-400,4,2,20,40,0,0
142412,-400,4,2,21,40,0,0
142781,-400,4,2,22,40,0,0
143149,-400,4,2,23,40,0,0
145114,-400,4,2,28,40,0,0
145361,-400,4,2,29,40,0,0
145975,-400,4,2,99,5,0,0
146098,-400,4,2,30,40,0,0
146343,-400,4,2,31,40,0,0
146712,-400,4,2,32,40,0,0
147081,-400,4,2,33,40,0,0
148309,-400,4,2,99,5,0,0
148657,491.400491400491,4,2,1,80,1,0
148658,-400,4,2,1,80,0,0
149026,-400,4,2,17,80,0,0
149271,491.400491400491,4,2,2,70,1,0
149271,-133.333333333333,4,2,2,70,0,0
149395,-133.333333333333,4,2,8,70,0,0
149640,-133.333333333333,4,2,1,70,0,0
149763,-133.333333333333,4,2,40,70,0,0
149885,-133.333333333333,4,2,99,5,0,0
150009,-133.333333333333,4,2,3,70,0,0
150377,-133.333333333333,4,2,99,5,0,0
150500,-133.333333333333,4,2,1,70,0,0
150622,-133.333333333333,4,2,15,70,0,0
150746,-133.333333333333,4,2,40,70,0,0
150868,-133.333333333333,4,2,99,5,0,0
150992,-133.333333333333,4,2,6,70,0,0
151114,-133.333333333333,4,2,99,5,0,0
151237,-133.333333333333,4,2,12,70,0,0
151482,-133.333333333333,4,2,1,70,0,0
151728,-133.333333333333,4,2,40,70,0,0
151975,-133.333333333333,4,2,18,70,0,0
152343,-133.333333333333,4,2,99,5,0,0
152466,-133.333333333333,4,2,1,70,0,0
152588,-133.333333333333,4,2,1,70,0,0
152712,-133.333333333333,4,2,40,70,0,0
152834,-133.333333333333,4,2,99,5,0,0
152957,-133.333333333333,4,2,18,70,0,0
153079,-133.333333333333,4,2,99,5,0,0
153203,-133.333333333333,4,2,2,70,0,0
153448,-133.333333333333,4,2,1,70,0,0
153694,-133.333333333333,4,2,40,70,0,0
153940,-133.333333333333,4,2,3,70,0,0
154308,-133.333333333333,4,2,99,5,0,0
154432,-133.333333333333,4,2,1,70,0,0
154554,-133.333333333333,4,2,15,70,0,0
154677,-133.333333333333,4,2,40,70,0,0
154799,-133.333333333333,4,2,99,5,0,0
154923,-133.333333333333,4,2,11,70,0,0
155045,-133.333333333333,4,2,99,5,0,0
155169,-133.333333333333,4,2,12,70,0,0
155414,-133.333333333333,4,2,1,70,0,0
155660,-133.333333333333,4,2,40,70,0,0
155906,-133.333333333333,4,2,18,70,0,0
156274,-133.333333333333,4,2,99,5,0,0
156397,-133.333333333333,4,2,1,70,0,0
156519,-133.333333333333,4,2,1,70,0,0
156643,-133.333333333333,4,2,40,70,0,0
156888,-133.333333333333,4,2,18,70,0,0
157134,-133.333333333333,4,2,2,70,0,0
157379,-133.333333333333,4,2,1,70,0,0
157625,-133.333333333333,4,2,40,70,0,0
157871,-133.333333333333,4,2,3,70,0,0
158239,-133.333333333333,4,2,99,5,0,0
158363,-133.333333333333,4,2,1,70,0,0
158485,-133.333333333333,4,2,15,70,0,0
158608,-133.333333333333,4,2,40,70,0,0
158730,-133.333333333333,4,2,99,5,0,0
158854,-133.333333333333,4,2,6,70,0,0
158976,-133.333333333333,4,2,99,5,0,0
159100,-133.333333333333,4,2,12,70,0,0
159345,-133.333333333333,4,2,1,70,0,0
159591,-133.333333333333,4,2,40,70,0,0
159837,-133.333333333333,4,2,18,70,0,0
160328,-133.333333333333,4,2,1,70,0,0
160451,-133.333333333333,4,2,1,70,0,0
160574,-133.333333333333,4,2,3,70,0,0
160820,-133.333333333333,4,2,18,70,0,0
160942,-133.333333333333,4,2,99,5,0,0
161065,-133.333333333333,4,2,2,70,0,0
161310,-133.333333333333,4,2,1,70,0,0
161434,-133.333333333333,4,2,1,70,0,0
161679,-133.333333333333,4,2,99,5,0,0
161803,-133.333333333333,4,2,3,70,0,0
161925,-133.333333333333,4,2,99,5,0,0
162048,-133.333333333333,4,2,34,70,0,0
162293,-133.333333333333,4,2,1,70,0,0
162417,-133.333333333333,4,2,5,70,0,0
162662,-133.333333333333,4,2,99,5,0,0
162785,-133.333333333333,4,2,11,70,0,0
162907,-133.333333333333,4,2,99,5,0,0
163031,-133.333333333333,4,2,12,70,0,0
163400,-133.333333333333,4,2,1,70,0,0
163522,-133.333333333333,4,2,3,70,0,0
163768,-133.333333333333,4,2,17,70,0,0
164013,-285.714285714286,4,2,7,70,0,0
164260,-285.714285714286,4,2,8,70,0,0
164382,-285.714285714286,4,2,4,70,0,0
164505,-285.714285714286,4,2,8,70,0,0
164751,-285.714285714286,4,2,48,70,0,0
164996,-66.6666666666667,4,2,24,90,0,0
165119,-66.6666666666667,4,2,99,5,0,0
165242,-66.6666666666667,4,2,1,90,0,0
165426,-66.6666666666667,4,2,99,5,0,0
165488,-66.6666666666667,4,2,40,90,0,0
165610,-66.6666666666667,4,2,99,5,0,0
165734,-66.6666666666667,4,2,3,90,0,0
165857,-66.6666666666667,4,2,1,90,0,0
165979,-66.6666666666667,4,2,36,90,0,0
166101,-66.6666666666667,4,2,99,5,0,0
166225,-66.6666666666667,4,2,1,90,0,0
166347,-66.6666666666667,4,2,49,90,0,0
166471,-66.6666666666667,4,2,40,90,0,0
166716,-66.6666666666667,4,2,16,90,0,0
166962,-66.6666666666667,4,2,38,90,0,0
167085,-66.6666666666667,4,2,1,90,0,0
167331,-66.6666666666667,4,2,8,90,0,0
167454,-66.6666666666667,4,2,40,90,0,0
167576,-66.6666666666667,4,2,99,5,0,0
167699,-66.6666666666667,4,2,18,90,0,0
167822,-66.6666666666667,4,2,1,90,0,0
167945,-66.6666666666667,4,2,38,90,0,0
168067,-66.6666666666667,4,2,99,5,0,0
168191,-66.6666666666667,4,2,42,90,0,0
168313,-66.6666666666667,4,2,8,90,0,0
168436,-66.6666666666667,4,2,43,90,0,0
168681,-66.6666666666667,4,2,50,90,0,0
168928,-66.6666666666667,4,2,35,90,0,0
169112,-66.6666666666667,4,2,99,5,0,0
169174,-66.6666666666667,4,2,1,90,0,0
169296,-66.6666666666667,4,2,8,90,0,0
169419,-66.6666666666667,4,2,40,90,0,0
169541,-66.6666666666667,4,2,99,5,0,0
169665,-66.6666666666667,4,2,3,90,0,0
169788,-66.6666666666667,4,2,1,90,0,0
169911,-66.6666666666667,4,2,36,90,0,0
170034,-66.6666666666667,4,2,1,90,0,0
170279,-66.6666666666667,4,2,37,90,0,0
170402,-66.6666666666667,4,2,40,90,0,0
170524,-66.6666666666667,4,2,99,5,0,0
170648,-66.6666666666667,4,2,11,90,0,0
170771,-66.6666666666667,4,2,1,90,0,0
170893,-66.6666666666667,4,2,38,90,0,0
171015,-66.6666666666667,4,2,99,5,0,0
171139,-66.6666666666667,4,2,1,90,0,0
171262,-66.6666666666667,4,2,8,90,0,0
171385,-66.6666666666667,4,2,40,90,0,0
171507,-66.6666666666667,4,2,99,5,0,0
171631,-66.6666666666667,4,2,18,90,0,0
171753,-66.6666666666667,4,2,1,90,0,0
171876,-66.6666666666667,4,2,38,90,0,0
172060,-66.6666666666667,4,2,99,5,0,0
172122,-66.6666666666667,4,2,42,90,0,0
172306,-66.6666666666667,4,2,99,5,0,0
172368,-66.6666666666667,4,2,43,90,0,0
172552,-66.6666666666667,4,2,99,5,0,0
172613,-66.6666666666667,4,2,39,90,0,0
172735,-66.6666666666667,4,2,99,5,0,0
172859,-80,4,2,35,90,0,0
173104,-80,4,2,1,90,0,0
173228,-80,4,2,8,90,0,0
173473,-80,4,2,99,5,0,0
173596,-80,4,2,3,90,0,0
173718,-80,4,2,99,5,0,0
173841,-133.333333333333,4,2,36,90,0,0
174087,-133.333333333333,4,2,1,90,0,0
174210,-133.333333333333,4,2,37,90,0,0
174455,-133.333333333333,4,2,99,5,0,0
174579,-66.6666666666667,4,2,6,90,0,0
174701,-66.6666666666667,4,2,99,5,0,0
174825,-66.6666666666667,4,2,38,90,0,0
175070,-66.6666666666667,4,2,1,90,0,0
175193,-66.6666666666667,4,2,8,90,0,0
175438,-66.6666666666667,4,2,99,5,0,0
175562,-66.6666666666667,4,2,18,90,0,0
175684,-66.6666666666667,4,2,99,5,0,0
175807,-100,4,2,38,90,0,0
176052,-100,4,2,9,90,0,0
176176,-100,4,2,8,90,0,0
176421,-100,4,2,99,5,0,0
176545,-100,4,2,39,90,0,0
176667,-100,4,2,99,5,0,0
176790,-66.6666666666667,4,2,35,90,0,0
177035,-66.6666666666667,4,2,1,90,0,0
177159,-66.6666666666667,4,2,8,90,0,0
177404,-66.6666666666667,4,2,99,5,0,0
177527,-66.6666666666667,4,2,3,90,0,0
177649,-66.6666666666667,4,2,99,5,0,0
177773,-80,4,2,36,90,0,0
178141,-80,4,2,37,90,0,0
178510,-80,4,2,11,90,0,0
178756,-80,4,2,38,90,0,0
179124,-80,4,2,8,90,0,0
179247,-80,4,2,3,90,0,0
179493,-80,4,2,17,90,0,0
179739,-80,4,2,41,90,0,0
179984,-80,4,2,8,90,0,0
180107,-80,4,2,8,90,0,0
180230,-80,4,2,43,90,0,0
180476,-80,4,2,50,90,0,0
180721,-66.6666666666667,4,2,24,90,0,0
180966,-66.6666666666667,4,2,1,90,0,0
181090,-66.6666666666667,4,2,8,90,0,0
181335,-66.6666666666667,4,2,99,5,0,0
181459,-66.6666666666667,4,2,10,90,0,0
181581,-66.6666666666667,4,2,99,5,0,0
181704,-66.6666666666667,4,2,51,90,0,0
181949,-66.6666666666667,4,2,1,90,0,0
182073,-66.6666666666667,4,2,49,90,0,0
182318,-66.6666666666667,4,2,99,5,0,0
182441,-66.6666666666667,4,2,6,90,0,0
182563,-66.6666666666667,4,2,99,5,0,0
182687,-133.333333333333,4,2,38,90,0,0
182932,-133.333333333333,4,2,1,90,0,0
183056,-133.333333333333,4,2,8,90,0,0
183301,-133.333333333333,4,2,99,5,0,0
183424,-133.333333333333,4,2,18,90,0,0
183547,-133.333333333333,4,2,1,90,0,0
183670,-100,4,2,38,90,0,0
183792,-100,4,2,99,5,0,0
183916,-100,4,2,42,90,0,0
184038,-100,4,2,8,90,0,0
184160,-100,4,2,10,90,0,0
184284,-100,4,2,1,90,0,0
184407,-100,4,2,39,90,0,0
184529,-100,4,2,99,5,0,0
184651,-66.6666666666667,4,2,35,90,0,0
184775,-66.6666666666667,4,2,99,5,0,0
184898,-66.6666666666667,4,2,1,90,0,0
185021,-66.6666666666667,4,2,8,90,0,0
185266,-66.6666666666667,4,2,99,5,0,0
185390,-66.6666666666667,4,2,10,90,0,0
185512,-66.6666666666667,4,2,99,5,0,0
185635,-66.6666666666667,4,2,51,90,0,0
185880,-66.6666666666667,4,2,1,90,0,0
186004,-66.6666666666667,4,2,49,90,0,0
186249,-66.6666666666667,4,2,99,5,0,0
186373,-66.6666666666667,4,2,11,90,0,0
186495,-66.6666666666667,4,2,99,5,0,0
186618,-133.333333333333,4,2,38,90,0,0
186740,-133.333333333333,4,2,99,5,0,0
186864,-133.333333333333,4,2,1,90,0,0
186987,-133.333333333333,4,2,8,90,0,0
187109,-133.333333333333,4,2,3,90,0,0
187233,-133.333333333333,4,2,1,90,0,0
187355,-133.333333333333,4,2,18,90,0,0
187477,-133.333333333333,4,2,99,5,0,0
187601,-100,4,2,38,90,0,0
187723,-100,4,2,99,5,0,0
187847,-100,4,2,42,90,0,0
187970,-100,4,2,8,90,0,0
188092,-100,4,2,10,90,0,0
188215,-100,4,2,1,90,0,0
188338,-100,4,2,39,90,0,0
188460,-100,4,2,99,5,0,0
188583,-66.6666666666667,4,2,35,90,0,0
188706,-66.6666666666667,4,2,99,5,0,0
188830,-66.6666666666667,4,2,1,90,0,0
188952,-66.6666666666667,4,2,8,90,0,0
189197,-66.6666666666667,4,2,99,5,0,0
189321,-66.6666666666667,4,2,10,90,0,0
189443,-66.6666666666667,4,2,99,5,0,0
189567,-66.6666666666667,4,2,51,90,0,0
189812,-66.6666666666667,4,2,1,90,0,0
189935,-66.6666666666667,4,2,49,90,0,0
190180,-66.6666666666667,4,2,99,5,0,0
190304,-66.6666666666667,4,2,6,90,0,0
190426,-66.6666666666667,4,2,99,5,0,0
190549,-66.6666666666667,4,2,38,90,0,0
190671,-66.6666666666667,4,2,99,5,0,0
190795,-66.6666666666667,4,2,1,90,0,0
190918,-66.6666666666667,4,2,8,90,0,0
191163,-66.6666666666667,4,2,99,5,0,0
191287,-66.6666666666667,4,2,18,90,0,0
191409,-66.6666666666667,4,2,99,5,0,0
191532,-66.6666666666667,4,2,38,90,0,0
191777,-66.6666666666667,4,2,9,90,0,0
191901,-66.6666666666667,4,2,8,90,0,0
192023,-66.6666666666667,4,2,10,90,0,0
192147,-66.6666666666667,4,2,1,90,0,0
192269,-66.6666666666667,4,2,39,90,0,0
192392,-66.6666666666667,4,2,1,90,0,0
192515,-66.6666666666667,4,2,35,90,0,0
192637,-66.6666666666667,4,2,99,5,0,0
192761,-66.6666666666667,4,2,1,90,0,0
192884,-66.6666666666667,4,2,8,90,0,0
193129,-66.6666666666667,4,2,99,5,0,0
193252,-66.6666666666667,4,2,10,90,0,0
193374,-66.6666666666667,4,2,99,5,0,0
193498,-66.6666666666667,4,2,51,90,0,0
193743,-66.6666666666667,4,2,1,90,0,0
193866,-66.6666666666667,4,2,49,90,0,0
193988,-66.6666666666667,4,2,3,90,0,0
194112,-66.6666666666667,4,2,1,90,0,0
194235,-66.6666666666667,4,2,11,90,0,0
194357,-66.6666666666667,4,2,99,5,0,0
194481,-66.6666666666667,4,2,41,90,0,0
194849,-66.6666666666667,4,2,8,90,0,0
194972,-66.6666666666667,4,2,3,90,0,0
195218,-66.6666666666667,4,2,17,90,0,0
195463,-66.6666666666667,4,2,41,90,0,0
195709,-66.6666666666667,4,2,42,90,0,0
195832,-133.333333333333,4,2,8,90,0,0
195954,-133.333333333333,4,2,10,90,0,0
196078,-133.333333333333,4,2,1,90,0,0
196201,-133.333333333333,4,2,39,90,0,0
196323,-133.333333333333,4,2,99,5,0,0
196446,-133.333333333333,4,2,1,90,0,0
196692,-133.333333333333,4,2,8,90,0,0
211557,-133.333333333333,4,2,1,90,0,0
211802,-133.333333333333,4,2,99,5,0,0
211925,-133.333333333333,4,2,1,90,0,0
212047,-133.333333333333,4,2,99,5,0,0
212171,-66.6666666666667,4,2,52,90,0,0
212416,-66.6666666666667,4,2,1,90,0,0
212540,-66.6666666666667,4,2,8,90,0,0
212663,-66.6666666666667,4,2,53,90,0,0
212785,-66.6666666666667,4,2,99,5,0,0
212908,-66.6666666666667,4,2,1,90,0,0
213030,-66.6666666666667,4,2,99,5,0,0
213154,-66.6666666666667,4,2,52,90,0,0
213399,-66.6666666666667,4,2,1,90,0,0
213522,-66.6666666666667,4,2,8,90,0,0
213644,-66.6666666666667,4,2,6,90,0,0
213768,-66.6666666666667,4,2,1,90,0,0
214013,-66.6666666666667,4,2,99,5,0,0
214137,-66.6666666666667,4,2,52,90,0,0
214382,-66.6666666666667,4,2,1,90,0,0
214505,-66.6666666666667,4,2,8,90,0,0
214628,-66.6666666666667,4,2,53,90,0,0
214750,-66.6666666666667,4,2,99,5,0,0
214874,-66.6666666666667,4,2,1,90,0,0
214996,-66.6666666666667,4,2,99,5,0,0
215120,-66.6666666666667,4,2,52,90,0,0
215365,-66.6666666666667,4,2,9,90,0,0
215488,-66.6666666666667,4,2,8,90,0,0
215733,-66.6666666666667,4,2,99,5,0,0
215857,-66.6666666666667,4,2,54,90,0,0
215979,-66.6666666666667,4,2,99,5,0,0
216102,-66.6666666666667,4,2,52,90,0,0
216347,-66.6666666666667,4,2,1,90,0,0
216471,-66.6666666666667,4,2,8,90,0,0
216594,-66.6666666666667,4,2,53,90,0,0
216716,-66.6666666666667,4,2,99,5,0,0
216839,-66.6666666666667,4,2,1,90,0,0
216961,-66.6666666666667,4,2,99,5,0,0
217085,-66.6666666666667,4,2,52,90,0,0
217330,-66.6666666666667,4,2,1,90,0,0
217454,-66.6666666666667,4,2,8,90,0,0
217577,-66.6666666666667,4,2,53,90,0,0
217699,-66.6666666666667,4,2,99,5,0,0
217822,-66.6666666666667,4,2,1,90,0,0
217944,-66.6666666666667,4,2,99,5,0,0
218068,-66.6666666666667,4,2,52,90,0,0
218313,-66.6666666666667,4,2,1,90,0,0
218436,-66.6666666666667,4,2,8,90,0,0
218559,-66.6666666666667,4,2,53,90,0,0
218681,-66.6666666666667,4,2,99,5,0,0
218805,-66.6666666666667,4,2,1,90,0,0
218927,-66.6666666666667,4,2,99,5,0,0
219051,-66.6666666666667,4,2,52,90,0,0
219296,-66.6666666666667,4,2,9,90,0,0
219419,-66.6666666666667,4,2,8,90,0,0
219542,-66.6666666666667,4,2,54,90,0,0
219910,-66.6666666666667,4,2,99,5,0,0
220034,-66.6666666666667,4,2,52,90,0,0
220279,-66.6666666666667,4,2,1,90,0,0
220402,-66.6666666666667,4,2,8,90,0,0
220525,-66.6666666666667,4,2,53,90,0,0
220647,-66.6666666666667,4,2,99,5,0,0
220771,-66.6666666666667,4,2,1,90,0,0
220893,-66.6666666666667,4,2,99,5,0,0
221016,-66.6666666666667,4,2,52,90,0,0
221261,-66.6666666666667,4,2,1,90,0,0
221385,-66.6666666666667,4,2,8,90,0,0
221507,-66.6666666666667,4,2,6,90,0,0
221631,-66.6666666666667,4,2,1,90,0,0
221876,-66.6666666666667,4,2,99,5,0,0
221999,-66.6666666666667,4,2,52,90,0,0
222244,-66.6666666666667,4,2,1,90,0,0
222368,-66.6666666666667,4,2,8,90,0,0
222491,-66.6666666666667,4,2,53,90,0,0
222613,-66.6666666666667,4,2,99,5,0,0
222736,-66.6666666666667,4,2,1,90,0,0
222858,-66.6666666666667,4,2,99,5,0,0
222982,-66.6666666666667,4,2,52,90,0,0
223227,-66.6666666666667,4,2,9,90,0,0
223350,-66.6666666666667,4,2,8,90,0,0
223595,-66.6666666666667,4,2,99,5,0,0
223719,-66.6666666666667,4,2,54,90,0,0
223841,-66.6666666666667,4,2,99,5,0,0
223965,-66.6666666666667,4,2,52,90,0,0
224210,-66.6666666666667,4,2,1,90,0,0
224333,-66.6666666666667,4,2,8,90,0,0
224456,-66.6666666666667,4,2,53,90,0,0
224578,-66.6666666666667,4,2,99,5,0,0
224702,-66.6666666666667,4,2,1,90,0,0
224824,-66.6666666666667,4,2,99,5,0,0
224948,-66.6666666666667,4,2,52,90,0,0
225193,-66.6666666666667,4,2,1,90,0,0
225316,-66.6666666666667,4,2,8,90,0,0
225438,-66.6666666666667,4,2,6,90,0,0
225562,-66.6666666666667,4,2,1,90,0,0
225685,-66.6666666666667,4,2,8,90,0,0
225807,-66.6666666666667,4,2,99,5,0,0
225930,-66.6666666666667,4,2,52,90,0,0
226299,-66.6666666666667,4,2,8,90,0,0
226422,-66.6666666666667,4,2,6,90,0,0
226667,-66.6666666666667,4,2,1,90,0,0
226913,-66.6666666666667,4,2,52,90,0,0
227035,-66.6666666666667,4,2,99,5,0,0
227159,-66.6666666666667,4,2,42,90,0,0
227281,-66.6666666666667,4,2,8,90,0,0
227405,-66.6666666666667,4,2,54,90,0,0
227527,-66.6666666666667,4,2,1,90,0,0
227650,-66.6666666666667,4,2,54,90,0,0
227773,-66.6666666666667,4,2,1,90,0,0
227895,-100,4,2,55,70,0,0
228264,-100,4,2,1,70,0,0
228387,-100,4,2,53,70,0,0
228509,-100,4,2,99,5,0,0
228633,-100,4,2,3,70,0,0
228755,-100,4,2,99,5,0,0
228879,-100,4,2,56,70,0,0
229247,-100,4,2,5,70,0,0
229616,-100,4,2,6,70,0,0
229862,-100,4,2,57,70,0,0
230353,-100,4,2,16,70,0,0
230844,-100,4,2,58,70,0,0
231335,-200,4,2,59,70,0,0
231704,-200,4,2,99,5,0,0
231827,-100,4,2,60,70,0,0
232195,-100,4,2,1,70,0,0
232319,-100,4,2,6,70,0,0
232441,-100,4,2,99,5,0,0
232564,-100,4,2,10,70,0,0
232686,-100,4,2,99,5,0,0
232810,-100,4,2,56,70,0,0
233055,-100,4,2,1,70,0,0
233178,-100,4,2,5,70,0,0
233423,-100,4,2,99,5,0,0
233547,-100,4,2,11,70,0,0
233669,-100,4,2,99,5,0,0
233793,-100,4,2,57,70,0,0
234284,-100,4,2,16,70,0,0
234776,-100,4,2,58,70,0,0
235144,-100,4,2,1,70,0,0
235267,-100,4,2,17,70,0,0
235758,-100,4,2,60,70,0,0
236126,-100,4,2,1,70,0,0
236250,-100,4,2,6,70,0,0
236372,-100,4,2,99,5,0,0
236495,-100,4,2,3,70,0,0
236618,-100,4,2,1,70,0,0
236741,-100,4,2,56,70,0,0
236986,-100,4,2,1,70,0,0
237110,-100,4,2,5,70,0,0
237232,-100,4,2,6,70,0,0
237355,-100,4,2,1,70,0,0
237478,-100,4,2,6,70,0,0
237600,-100,4,2,99,5,0,0
237724,-100,4,2,61,70,0,0
238215,-100,4,2,16,70,0,0
238706,-200,4,2,58,70,0,0
239075,-200,4,2,1,70,0,0
239444,-200,4,2,17,70,0,0
239567,-200,4,2,1,70,0,0
239689,-100,4,2,55,70,0,0
239812,-100,4,2,99,5,0,0
239935,-100,4,2,1,70,0,0
240057,-100,4,2,1,70,0,0
240181,-100,4,2,53,70,0,0
240549,-100,4,2,99,5,0,0
240672,-100,4,2,62,70,0,0
240917,-100,4,2,1,70,0,0
241041,-100,4,2,5,70,0,0
241286,-100,4,2,99,5,0,0
241409,-100,4,2,14,70,0,0
241531,-100,4,2,99,5,0,0
241655,-100,4,2,57,70,0,0
242147,-100,4,2,16,70,0,0
242638,-100,4,2,58,70,0,0
243129,-100,4,2,1,70,0,0
243621,-100,4,2,55,70,0,0
243743,-100,4,2,99,5,0,0
243866,-100,4,2,1,70,0,0
243989,-100,4,2,8,70,0,0
244357,-100,4,2,10,70,0,0
244604,-100,4,2,56,70,0,0
244849,-100,4,2,1,70,0,0
244972,-100,4,2,5,70,0,0
245217,-100,4,2,99,5,0,0
245341,-100,4,2,6,70,0,0
245463,-100,4,2,99,5,0,0
245586,-100,4,2,57,70,0,0
246569,-100,4,2,61,70,0,0
246937,-100,4,2,99,5,0,0
247061,-100,4,2,63,70,0,0
247183,-100,4,2,99,5,0,0
247306,-100,4,2,18,70,0,0
247428,-100,4,2,99,5,0,0
247552,-100,4,2,55,70,0,0
247920,-100,4,2,8,70,0,0
248166,-100,4,2,99,5,0,0
248289,-100,4,2,10,70,0,0
248411,-100,4,2,99,5,0,0
248535,-100,4,2,62,70,0,0
248903,-100,4,2,15,70,0,0
249272,-100,4,2,14,70,0,0
249518,-100,4,2,61,70,0,0
249886,-100,4,2,99,5,0,0
250008,-114.942528735632,4,2,63,70,0,0
250377,-114.942528735632,4,2,99,5,0,0
250500,-133.333333333333,4,2,61,70,0,0
250868,-133.333333333333,4,2,99,5,0,0
250991,-158.730158730159,4,2,63,70,0,0
251360,-158.730158730159,4,2,99,5,0,0
251483,-133.333333333333,4,2,55,70,0,0
252097,-133.333333333333,4,2,99,5,0,0
252220,-133.333333333333,4,2,10,70,0,0
252342,-133.333333333333,4,2,99,5,0,0
252466,-133.333333333333,4,2,62,70,0,0
252834,-133.333333333333,4,2,15,70,0,0
253203,-133.333333333333,4,2,16,70,0,0
253449,-133.333333333333,4,2,61,70,0,0
253817,-133.333333333333,4,2,99,5,0,0
253940,-133.333333333333,4,2,63,70,0,0
254185,-133.333333333333,4,2,17,70,0,0
254432,-133.333333333333,4,2,61,70,0,0
254800,-133.333333333333,4,2,99,5,0,0
254923,-133.333333333333,4,2,63,70,0,0
255168,-133.333333333333,4,2,17,70,0,0
255414,-133.333333333333,4,2,60,70,0,0
255782,-133.333333333333,4,2,99,5,0,0
255906,-133.333333333333,4,2,20,70,0,0
256028,-133.333333333333,4,2,99,5,0,0
256151,-133.333333333333,4,2,10,70,0,0
256273,-133.333333333333,4,2,99,5,0,0
256397,-133.333333333333,4,2,62,70,0,0
256765,-133.333333333333,4,2,15,70,0,0
257134,-133.333333333333,4,2,14,70,0,0
257380,-133.333333333333,4,2,57,70,0,0
258117,-133.333333333333,4,2,18,70,0,0
258239,-133.333333333333,4,2,99,5,0,0
258363,-133.333333333333,4,2,61,70,0,0
258731,-133.333333333333,4,2,99,5,0,0
258854,-133.333333333333,4,2,63,70,0,0
258977,-133.333333333333,4,2,1,70,0,0
259099,-133.333333333333,4,2,8,70,0,0
259222,-133.333333333333,4,2,99,5,0,0
259366,491.400491400491,4,2,19,40,1,0
259366,-400,4,2,19,40,0,0
259857,-400,4,2,7,40,0,0
260103,-400,4,2,20,40,0,0
260348,-400,4,2,21,40,0,0
260717,-400,4,2,22,40,0,0
261085,-400,4,2,23,40,0,0
263051,-400,4,2,99,5,0,0
263297,-400,4,2,24,40,0,0
263788,-400,4,2,64,40,0,0
264034,-400,4,2,20,40,0,0
264280,-400,4,2,25,40,0,0
264648,-400,4,2,26,40,0,0
265017,-400,4,2,27,40,0,0
266982,-400,4,2,99,5,0,0
267228,-400,4,2,24,40,0,0
267719,-400,4,2,64,40,0,0
267965,-400,4,2,20,40,0,0
268211,-400,4,2,21,40,0,0
268579,-400,4,2,22,40,0,0
268948,-400,4,2,23,40,0,0
270913,-400,4,2,28,40,0,0
271159,-400,4,2,29,40,0,0
271650,-400,4,2,1,40,0,0
271896,-400,4,2,30,40,0,0
272142,-400,4,2,31,40,0,0
272511,-400,4,2,32,40,0,0
272879,-400,4,2,33,40,0,0
273124,-400,4,2,65,40,0,0

[Colours]
Combo1 : 245,199,165
Combo2 : 175,201,200

[HitObjects]
256,192,1852,12,0,7503,2:2:0:0:
56,82,7750,6,1,B|110:52|176:91|118:142|215:167|263:122,1,225,2|0,3:2|2:2,0:0:0:0:
326,98,8241,2,1,P|339:69|323:10,1,75,2|0,3:2|2:2,0:0:0:0:
252,130,8487,2,1,P|222:118|191:65,1,75,2|0,2:2|2:2,0:0:0:0:
363,175,8732,2,1,P|457:162|456:99,2,168.75,2|2|2,3:2|2:2|2:2,0:0:0:0:
325,97,9715,5,2,3:2:0:0:
325,97,10207,1,0,3:3:0:0:
325,97,10698,1,2,3:2:0:0:
325,97,11189,6,1,P|311:167|305:219,1,112.5,2|0,3:2|2:2,0:0:0:0:
222,256,11681,6,1,B|212:129|176:228|160:81,1,168.75,2|0,3:2|2:2,0:0:0:0:
246,55,12172,2,1,L|242:124,1,56.2500000000001,0|0,3:3|2:2,0:0:0:0:
89,146,12418,2,1,L|85:89,1,56.2500000000001,2|0,2:2|2:2,0:0:0:0:
289,202,12664,2,1,P|205:205|124:232,2,168.75,2|2|2,3:2|2:2|2:2,0:0:0:0:
156,115,13646,5,2,3:2:0:0:
156,115,14138,1,0,3:3:0:0:
156,115,14629,1,2,3:2:0:0:
156,115,15121,1,0,3:3:0:0:
156,115,15612,6,1,B|115:108|81:131|66:169|66:169|115:179|148:202|161:247,1,225,2|0,3:2|2:2,0:0:0:0:
111,301,16103,2,1,P|101:337|70:368,1,75,0|0,3:3|2:2,0:0:0:0:
230,260,16349,1,2,2:2:0:0:
258,228,16472,1,2,2:2:0:0:
296,236,16595,2,1,P|323:286|416:308,1,150,2|0,3:2|2:2,0:0:0:0:
511,197,16963,2,1,P|491:239|454:248,1,75,2|0,2:2|3:3,0:0:0:0:
318,147,17209,1,2,2:2:0:0:
328,134,17332,2,1,P|361:112|401:112,1,75,2|0,2:2|2:2,0:0:0:0:
507,192,17578,6,1,P|435:176|398:112,2,150,2|0|2,3:2|3:3|3:2,0:0:0:0:
341,64,19052,1,0,3:3:0:0:
198,156,19420,5,2,2:2:0:0:
198,156,19543,2,1,P|156:166|121:182,1,75,2|0,3:2|2:2,0:0:0:0:
247,84,19789,2,1,P|198:65|167:37,1,75,2|0,2:2|2:2,0:0:0:0:
44,112,20035,2,1,P|104:139|129:191,1,112.5,2|0,3:2|2:2,0:0:0:0:
166,242,20280,2,1,P|162:283|141:314,1,75,2|0,2:2|2:2,0:0:0:0:
21,378,20526,6,1,P|31:297|68:206,2,168.75,2|2|2,3:2|2:2|2:2,0:0:0:0:
263,332,21509,5,2,3:2:0:0:
263,332,22000,1,0,3:3:0:0:
379,371,22369,1,8,2:3:0:0:
379,371,22492,1,4,3:3:0:0:
343,292,23474,6,1,P|332:250|335:191,1,75,2|0,3:2|2:2,0:0:0:0:
473,342,23720,2,1,P|472:251|445:102,1,225,2|0,2:2|2:2,0:0:0:0:
261,78,24211,2,1,P|307:100|357:104,1,75,2|0,2:2|2:2,0:0:0:0:
477,27,24457,2,1,P|383:33|246:86,2,225,2|2|2,3:2|2:2|2:2,0:0:0:0:
239,158,25440,5,2,3:2:0:0:
239,158,25931,1,0,3:3:0:0:
239,158,26423,6,1,P|156:163|154:39,1,225,2|0,3:2|2:2,0:0:0:0:
322,134,26914,1,2,3:2:0:0:
322,134,27037,2,1,P|305:232|301:307,1,150,0|0,2:2|2:2,0:0:0:0:
166,243,27406,6,1,B|212:170|323:212|340:254|272:304|351:405|431:371|470:310,1,375,2|0,3:2|2:2,0:0:0:0:
506,269,28143,2,1,P|519:219|505:190,1,75,2|0,2:2|2:2,0:0:0:0:
401,106,28388,2,1,P|417:221|444:338,2,225,2|2|2,3:2|2:2|2:2,0:0:0:0:
241,265,29371,6,1,P|260:177|275:26,1,225,2|0,3:2|2:2,0:0:0:0:
28,220,29863,2,1,P|39:131|68:22,1,196.875000000001,2|0,3:2|2:2,0:0:0:0:
152,158,30354,6,1,P|132:294|121:341,1,168.75,2|0,3:2|2:2,0:0:0:0:
240,131,30845,2,1,P|314:236|334:255,1,141.75,2|0,3:2|2:2,0:0:0:0:
482,171,31337,6,1,B|501:142|476:92|421:79|386:113|386:113|440:133|446:182,1,236.25,2|0,3:2|2:2,0:0:0:0:
437,244,32074,2,1,P|417:264|387:268,1,47.2499999999999,2|0,2:2|2:2,0:0:0:0:
343,328,32320,2,1,P|315:284|299:159,2,168.75,2|2|2,3:2|2:2|2:2,0:0:0:0:
157,329,33302,6,1,P|178:246|193:140,1,168.75,2|0,3:2|2:2,0:0:0:0:
158,241,33794,2,1,P|193:246|157:243,1,112.5,2|2,3:2|2:2,0:0:0:0:
71,277,34285,6,1,P|50:194|35:88,1,168.75,2|0,3:2|2:2,0:0:0:0:
70,189,34777,2,1,P|34:194|70:191,1,112.5,2|2,3:2|2:2,0:0:0:0:
56,32,35268,6,1,B|90:32|113:53|120:83|120:83|270:107,1,225.000000000001,2|0,3:2|3:3,0:0:0:0:
380,30,36005,2,1,P|344:39|311:38,1,56.2500000000001,2|0,2:2|2:2,0:0:0:0:
254,104,36251,2,1,P|350:124|420:154,2,168.75,2|2|2,3:2|2:2|2:2,0:0:0:0:
493,183,37234,5,2,3:2:0:0:
493,183,37725,1,0,3:3:0:0:
493,183,37971,6,1,P|481:220|478:247,1,56.2500000000001,2|0,2:2|2:2,0:0:0:0:
410,97,38216,2,1,P|390:208|389:335,1,225.000000000001,2|2,3:2|3:2,0:0:0:0:
280,217,38831,1,0,2:2:0:0:
280,217,38953,2,1,P|289:253|300:276,1,56.2500000000001,2|0,2:2|2:2,0:0:0:0:
483,347,39219,6,1,P|428:328|389:325,1,93.75,2|0,2:2|2:2,0:0:0:0:
324,363,39956,1,2,2:2:0:0:
309,370,40201,1,2,2:2:0:0:
214,307,40570,1,2,2:2:0:0:
95,356,40938,2,1,P|210:336|393:322,1,300,2|0,2:2|2:2,0:0:0:0:
463,271,43150,6,1,P|489:249|493:189,1,93.75,2|0,2:2|2:2,0:0:0:0:
439,137,43887,1,2,2:2:0:0:
429,130,44133,1,2,2:2:0:0:
341,190,44501,1,2,2:2:0:0:
228,148,44870,2,1,B|422:155|483:29,1,300,2|0,2:2|2:2,0:0:0:0:
328,58,47081,6,1,B|275:52|290:76|233:67,1,93.75,2|0,2:2|2:2,0:0:0:0:
171,27,47818,1,2,2:2:0:0:
163,21,48064,1,2,2:2:0:0:
100,87,48432,1,2,2:2:0:0:
17,35,48801,2,1,P|137:72|288:171,1,300,2|2,2:2|2:2,0:0:0:0:
386,188,51012,6,1,P|356:208|317:258,1,93.75,2|0,2:2|2:2,0:0:0:0:
291,324,51749,1,2,2:2:0:0:
288,333,51995,1,2,2:2:0:0:
175,313,52363,1,2,2:2:0:0:
225,367,52732,2,1,P|333:339|413:337,1,187.5,2|0,2:2|2:2,0:0:0:0:
493,370,54310,5,8,2:3:0:0:
493,370,54432,1,4,2:3:0:0:
376,255,54678,1,2,3:2:0:0:
376,255,54801,1,0,3:3:0:0:
376,255,54924,6,1,B|378:234|385:223|401:215|401:215|391:138,1,112.5,2|0,1:2|2:2,0:0:0:0:
506,101,55292,2,1,L|494:238,1,112.5,2|0,1:2|2:2,0:0:0:0:
355,87,55661,2,1,P|395:73|413:79,1,56.2500000000001,2|0,2:2|2:2,0:0:0:0:
286,222,55906,2,1,L|265:95,1,112.5,2|0,1:2|2:2,0:0:0:0:
315,9,56275,2,1,B|292:34|292:34|195:48,1,112.5,2|0,1:2|2:2,0:0:0:0:
62,36,56643,6,1,P|58:75|77:109,1,75,2|0,2:2|2:2,0:0:0:0:
285,222,56889,2,1,P|265:177|160:162,1,150,2|0,1:2|2:2,0:0:0:0:
60,193,57258,2,1,B|44:214|42:236|54:264|54:264|63:234|77:218|108:213,1,150,2|0,1:2|2:2,0:0:0:0:
189,255,57626,2,1,P|160:285|116:280,1,75,2|0,2:2|2:2,0:0:0:0:
0,343,57872,6,1,P|91:354|189:385,1,168.75,2|2,1:2|1:2,0:0:0:0:
494,327,58609,6,1,P|461:337|412:336,1,75,2|0,1:2|2:2,0:0:0:0:
287,265,58855,6,1,B|324:278|339:314|339:314|341:276|385:248,1,150,2|0,1:2|2:2,0:0:0:0:
511,206,59223,2,1,B|494:221|485:240|485:240|368:253,1,150,2|0,1:2|2:2,0:0:0:0:
265,160,59592,2,1,L|348:173,1,75,2|0,2:2|2:2,0:0:0:0:
201,234,59838,6,1,P|181:175|186:109,1,112.5,2|0,1:2|2:2,0:0:0:0:
244,78,60206,2,1,P|250:43|268:21,1,56.2500000000001,2|0,1:2|1:1,0:0:0:0:
339,171,60575,6,1,P|377:146|424:142,1,75,2|0,2:2|2:2,0:0:0:0:
192,251,60820,2,1,P|145:263|81:179,1,150,2|0,1:2|2:2,0:0:0:0:
21,144,61189,2,1,P|49:69|132:58,1,150,2|0,1:2|2:2,0:0:0:0:
189,120,61557,2,1,P|183:162|149:175,1,75,2|0,2:2|2:2,0:0:0:0:
21,144,61803,6,1,L|7:14,1,112.5,2|0,1:2|2:2,0:0:0:0:
110,51,62172,2,1,L|101:117,1,56.2500000000001,2|0,1:2|1:1,0:0:0:0:
45,342,62540,6,1,L|34:260,1,75,2|0,1:2|2:2,0:0:0:0:
163,175,62786,2,1,P|216:183|238:290,1,150,2|0,1:2|2:2,0:0:0:0:
311,364,63154,2,1,P|331:269|356:193,1,150,2|0,1:2|2:2,0:0:0:0:
401,304,63523,2,1,P|421:344|453:359,1,75,2|0,2:2|2:2,0:0:0:0:
346,218,63769,6,1,P|398:199|418:124,1,112.5,2|0,1:2|2:2,0:0:0:0:
491,122,64137,2,1,P|494:87|422:25,1,112.5,2|0,1:2|2:2,0:0:0:0:
374,17,64506,2,1,P|341:34|330:76,1,75,2|0,2:2|2:2,0:0:0:0:
270,184,64752,6,1,P|240:96|241:9,1,150,2|0,1:2|2:2,0:0:0:0:
14,136,65120,2,1,P|53:87|106:-2,1,150,2|0,1:2|2:2,0:0:0:0:
150,115,65489,2,1,P|138:172|134:203,1,75,2|0,2:2|2:2,0:0:0:0:
43,301,65734,6,1,P|29:207|12:130,2,168.75,2|2|2,1:2|1:2|1:2,0:0:0:0:
143,202,66717,6,1,P|155:297|156:333,1,112.5,2|0,1:2|2:2,0:0:0:0:
289,239,67086,2,1,P|272:308|242:365,1,112.5,2|0,1:2|2:2,0:0:0:0:
388,321,67454,2,1,P|369:357|351:382,1,56.2500000000001,2|0,2:2|2:2,0:0:0:0:
449,266,67700,6,1,P|467:303|533:325,1,112.5,2|0,1:2|2:2,0:0:0:0:
374,241,68068,2,1,P|416:194|479:195,1,112.5,2|0,1:2|2:2,0:0:0:0:
319,186,68437,2,1,P|322:154|306:122,1,56.2500000000001,2|0,2:2|2:2,0:0:0:0:
398,101,68683,6,1,P|409:52|521:19,2,168.75,2|0|2,1:2|1:1|2:2,0:0:0:0:
313,131,69666,6,1,L|299:13,2,112.5,2|8|10,1:2|1:3|1:3,0:0:0:0:
46,62,70648,5,2,1:2:0:0:
63,51,70771,2,1,P|125:84|133:144,1,112.5,0|2,2:2|2:2,0:0:0:0:
49,292,71017,2,1,P|69:231|138:211,1,112.5,2|0,1:2|1:1,0:0:0:0:
309,215,71263,1,2,2:2:0:0:
309,215,71385,2,1,P|241:199|194:185,1,112.5,2|0,2:2|2:2,0:0:0:0:
134,113,71631,6,1,P|168:248|180:369,1,225,2|0,1:2|2:2,0:0:0:0:
418,155,72000,2,1,P|384:290|372:411,1,225,2|0,1:2|2:2,0:0:0:0:
274,92,72368,2,1,P|265:118|276:91,1,112.5,2|0,2:2|2:2,0:0:0:0:
177,13,72614,5,2,1:2:0:0:
177,13,72737,2,1,P|138:61|147:133,1,112.5,0|2,2:2|2:2,0:0:0:0:
420,83,72982,2,1,P|397:25|331:-2,1,112.5,2|0,1:2|1:1,0:0:0:0:
246,231,73228,1,2,2:2:0:0:
246,231,73351,2,1,P|307:240|364:196,1,112.5,2|0,2:2|2:2,0:0:0:0:
425,90,73597,6,1,P|265:147|204:154,1,225,2|0,1:2|1:1,0:0:0:0:
361,364,73965,2,1,P|256:324|216:321,1,112.5,2|0,1:2|1:1,0:0:0:0:
26,267,74211,1,2,2:2:0:0:
43,272,74334,2,1,P|111:267|169:247,1,112.5,2|0,1:2|2:2,0:0:0:0:
325,120,74580,6,1,P|342:244|359:360,1,225,2|0,1:2|2:2,0:0:0:0:
220,41,74948,2,1,P|216:111|195:172,1,112.5,2|0,1:2|1:1,0:0:0:0:
346,1,75194,1,2,2:2:0:0:
346,1,75317,2,1,P|401:49|454:76,1,112.5,2|0,2:2|2:2,0:0:0:0:
426,206,75562,6,1,P|258:167|152:159,1,225,2|0,1:2|2:2,0:0:0:0:
192,338,75931,2,1,P|240:267|233:228,1,112.5,2|0,1:2|1:1,0:0:0:0:
94,132,76177,1,2,2:2:0:0:
94,132,76299,2,1,P|100:186|140:225,1,112.5,2|0,2:2|2:2,0:0:0:0:
308,85,76545,6,1,P|199:61|121:59,1,168.75,2|0,1:2|2:2,0:0:0:0:
127,49,76791,2,1,P|200:51|244:60,1,112.5,2|0,2:2|1:1,0:0:0:0:
377,136,77037,5,2,1:2:0:0:
417,203,77159,1,2,2:2:0:0:
404,279,77282,1,2,2:2:0:0:
338,318,77405,1,2,2:2:0:0:
265,287,77528,6,1,P|238:215|240:51,1,225,2|0,1:2|1:1,0:0:0:0:
489,109,77896,2,1,P|502:186|498:242,1,112.5,2|0,1:2|1:1,0:0:0:0:
365,126,78142,1,2,2:2:0:0:
365,126,78265,2,1,P|373:53|386:0,1,112.5,2|0,1:2|2:2,0:0:0:0:
493,223,78511,6,1,B|459:219|436:232|421:260|421:260|257:239,1,225,2|0,1:2|2:2,0:0:0:0:
387,383,78879,2,1,B|353:378|334:359|327:328|327:328|159:305,1,225,2|0,1:2|2:2,0:0:0:0:
8,235,79248,1,2,2:2:0:0:
301,164,79494,6,1,P|229:182|210:231,1,112.5,2|0,1:2|2:2,0:0:0:0:
21,346,79739,2,1,L|5:210,1,112.5,2|2,2:2|1:2,0:0:0:0:
133,138,79985,2,1,L|119:249,1,112.5,2|2,1:2|2:2,0:0:0:0:
19,121,80231,2,1,P|11:51|1:4,1,112.5,2|0,2:2|2:2,0:0:0:0:
133,138,80476,6,1,P|156:80|169:57,1,75,2|0,1:2|2:2,0:0:0:0:
66,185,80845,1,0,1:1:0:0:
161,68,80968,6,1,P|213:28|317:60,1,168.75,2|0,1:2|2:2,0:0:0:0:
323,68,81213,2,1,P|376:93|439:68,1,112.5,2|0,2:2|2:2,0:0:0:0:
253,122,81459,2,1,P|249:184|213:219,1,112.5,2|0,1:2|2:2,0:0:0:0:
398,280,81705,5,2,1:2:0:0:
361,210,81828,1,2,1:2:0:0:
290,189,81951,1,2,1:2:0:0:
216,217,82073,1,2,2:2:0:0:
176,283,82196,2,1,P|180:345|216:380,1,112.5,2|0,1:2|2:2,0:0:0:0:
407,286,82442,6,1,L|384:37,1,225,2|0,1:2|2:2,0:0:0:0:
221,83,82810,1,0,1:1:0:0:
221,83,82933,1,2,1:2:0:0:
221,83,83056,1,2,2:2:0:0:
161,132,83179,1,2,2:2:0:0:
81,127,83302,1,2,2:2:0:0:
21,75,83425,2,1,P|23:48|114:11,1,112.5,2|0,1:2|2:2,0:0:0:0:
230,86,83670,6,1,L|243:193,1,90,2|2,2:2|1:2,0:0:0:0:
70,216,83916,2,1,L|80:126,1,90,2|2,1:2|2:2,0:0:0:0:
244,186,84162,2,1,L|257:293,1,90,2|0,2:2|2:2,0:0:0:0:
17,299,84408,6,1,L|-2:138,1,150,2|0,1:2|2:2,0:0:0:0:
24,74,84776,1,0,1:1:0:0:
84,124,84899,2,1,L|97:190,1,56.2500000000001,2|2,1:2|2:2,0:0:0:0:
208,76,85145,2,1,L|195:142,1,56.2500000000001,2|2,2:2|2:2,0:0:0:0:
127,48,85390,1,2,1:2:0:0:
305,111,85636,5,2,1:2:0:0:
336,78,85759,1,10,1:3:0:0:
382,99,85882,1,6,1:3:0:0:
409,56,86005,1,2,2:2:0:0:
455,68,86127,1,2,1:2:0:0:
229,228,86373,6,1,P|195:197|210:124,1,112.5,6|0,1:2|2:2,0:0:0:0:
311,242,86619,1,2,2:2:0:0:
341,313,86742,2,1,P|331:357|260:381,1,112.5,2|0,1:2|1:1,0:0:0:0:
311,242,86987,1,2,2:2:0:0:
359,170,87110,2,1,P|402:156|458:205,1,112.5,2|0,2:2|2:2,0:0:0:0:
217,305,87356,6,1,P|87:280|-12:246,1,225,2|2,1:2|2:2,0:0:0:0:
74,185,87724,2,1,P|138:195|193:221,1,112.5,2|0,1:2|1:1,0:0:0:0:
133,379,87970,1,2,2:2:0:0:
133,379,88093,2,1,P|69:369|14:343,1,112.5,2|0,2:2|2:2,0:0:0:0:
262,174,88339,6,1,P|247:266|227:306,1,112.5,2|0,1:2|2:2,0:0:0:0:
186,126,88584,1,2,2:2:0:0:
107,168,88707,2,1,P|34:109|10:71,1,112.5,2|0,1:2|1:1,0:0:0:0:
186,126,88953,1,2,2:2:0:0:
189,36,89076,2,1,P|276:2|320:0,1,112.5,2|0,2:2|2:2,0:0:0:0:
495,98,89322,6,1,L|410:85,2,75,10|2|2,1:3|2:2|1:2,0:0:0:0:
294,4,90304,6,1,B|296:35|311:55|339:66|339:66|317:212,1,225,2|2,1:2|2:2,0:0:0:0:
495,98,90673,2,1,B|488:115|472:127|472:127|458:218,1,112.5,2|0,1:2|1:1,0:0:0:0:
293,298,90919,1,2,2:2:0:0:
293,298,91041,2,1,P|241:278|230:214,1,112.5,2|0,2:2|2:2,0:0:0:0:
490,222,91287,6,1,P|472:293|412:299,1,112.5,2|0,1:2|2:2,0:0:0:0:
296,97,91533,1,2,2:2:0:0:
296,97,91656,2,1,P|315:174|315:251,1,112.5,2|0,1:2|1:1,0:0:0:0:
344,382,91901,1,2,2:2:0:0:
343,381,92024,2,1,P|348:325|364:271,1,112.5,2|0,2:2|2:2,0:0:0:0:
201,316,92270,6,1,P|190:251|170:186,1,112.5,2|0,1:2|2:2,0:0:0:0:
280,287,92516,1,2,2:2:0:0:
148,374,92638,2,1,P|81:369|29:357,1,112.5,2|0,1:2|1:1,0:0:0:0:
13,191,92884,1,2,2:2:0:0:
115,141,93007,2,1,P|100:195|91:250,1,112.5,2|0,2:2|2:2,0:0:0:0:
20,12,93253,6,1,L|32:88,2,75,10|2|2,1:3|2:2|1:2,0:0:0:0:
196,216,94236,6,1,P|221:115|246:-3,1,225,2|2,1:2|2:2,0:0:0:0:
108,34,94604,2,1,L|122:160,1,112.5,2|0,1:2|1:1,0:0:0:0:
330,108,94850,1,2,2:2:0:0:
330,108,94973,2,1,L|316:234,1,112.5,2|0,2:2|2:2,0:0:0:0:
214,323,95218,6,1,P|191:262|207:189,1,112.5,2|0,1:2|2:2,0:0:0:0:
425,276,95464,1,2,2:2:0:0:
425,276,95587,2,1,P|428:331|406:383,1,112.5,2|0,1:2|1:1,0:0:0:0:
309,341,95833,1,2,2:2:0:0:
309,341,95955,2,1,L|321:206,1,112.5,2|0,2:2|2:2,0:0:0:0:
512,61,96201,6,1,P|507:140|374:163,1,225,2|2,1:2|2:2,0:0:0:0:
195,215,96570,2,1,P|200:136|333:113,1,225,2|2,1:2|2:2,0:0:0:0:
382,169,96938,2,1,P|394:239|399:294,1,112.5,2|0,2:2|2:2,0:0:0:0:
118,239,97184,6,1,P|124:184|132:154,1,75,10|0,1:3|2:2,0:0:0:0:
181,293,97430,1,2,2:2:0:0:
181,293,97552,2,1,P|130:315|100:323,1,75,6|0,1:3|1:1,0:0:0:0:
197,212,97798,1,2,2:2:0:0:
197,212,97921,2,1,P|241:244|263:266,1,75,6|2,1:3|2:2,0:0:0:0:
38,381,98167,6,1,P|-3:299|74:184,1,225,2|2,1:2|2:2,0:0:0:0:
271,140,98535,2,1,P|225:203|169:198,1,112.5,2|0,1:2|1:1,0:0:0:0:
44,107,98781,1,2,2:2:0:0:
44,107,98904,2,1,P|112:121|134:179,1,112.5,2|0,2:2|2:2,0:0:0:0:
198,208,99150,6,1,P|214:267|218:309,1,93.75,2|0,1:2|2:2,0:0:0:0:
259,138,99395,1,2,2:2:0:0:
259,138,99518,2,1,P|324:164|385:178,1,93.75,2|0,1:2|1:1,0:0:0:0:
219,64,99764,1,2,2:2:0:0:
219,64,99887,2,1,P|263:28|289:-4,1,93.75,2|0,2:2|2:2,0:0:0:0:
259,138,100132,6,1,P|352:114|428:113,1,150,2|2,1:2|2:2,0:0:0:0:
512,48,100501,2,1,P|437:42|365:21,1,150,2|2,1:2|2:2,0:0:0:0:
405,111,100869,2,1,P|476:127|508:139,1,75,2|0,2:2|2:2,0:0:0:0:
512,203,101115,5,2,1:2:0:0:
374,300,101484,1,8,1:3:0:0:
360,271,101607,1,4,1:3:0:0:
504,368,101852,1,2,1:2:0:0:
331,255,102098,6,1,P|306:245|251:270,1,75,6|0,1:2|2:2,0:0:0:0:
271,142,102344,2,1,P|164:263|155:381,1,281.250000000001,2|0,2:2|2:2,0:0:0:0:
115,151,103081,5,2,1:2:0:0:
115,151,103204,2,1,P|109:218|186:277,1,168.75,0|0,2:2|1:1,0:0:0:0:
49,285,103695,2,1,P|59:327|50:364,1,56.2500000000001,2|2,2:2|2:2,0:0:0:0:
76,216,103941,1,2,2:2:0:0:
76,216,104064,2,1,P|45:197|37:172,1,56.2500000000001,2|0,1:2|2:2,0:0:0:0:
9,109,104309,2,1,P|10:82|37:47,1,56.2500000000001,2|0,2:2|1:1,0:0:0:0:
95,28,104555,5,2,1:2:0:0:
95,28,105046,1,2,1:2:0:0:
162,71,105415,1,0,1:1:0:0:
162,71,105538,1,0,1:1:0:0:
233,51,105783,1,2,1:2:0:0:
298,95,106029,5,2,1:2:0:0:
298,95,106152,2,1,P|348:76|338:2,1,112.5,2|0,2:2|1:1,0:0:0:0:
398,220,106521,1,2,1:2:0:0:
398,220,106643,2,1,P|436:43|436:-11,1,225.000000000001,0|0,2:2|2:2,0:0:0:0:
439,154,107258,2,1,P|345:161|339:279,1,225.000000000001,2|2,2:2|2:2,0:0:0:0:
406,379,107872,1,2,2:2:0:0:
406,379,107995,6,1,B|305:360|362:319|256:301,1,168.75,2|0,1:2|1:1,0:0:0:0:
61,336,108486,2,1,B|95:333|71:319|110:308,1,56.2500000000001,2|0,1:2|2:2,0:0:0:0:
142,237,108732,2,1,B|175:244|164:228|206:233,1,56.2500000000001,2|0,2:2|2:2,0:0:0:0:
261,301,108978,6,1,L|252:383,2,78.7499999999999,2|0|2,1:2|1:1|1:2,0:0:0:0:
198,233,109960,6,1,P|178:126|155:45,1,168.75,2|0,1:2|1:1,0:0:0:0:
306,172,110452,2,1,P|326:65|349:-16,1,168.75,2|0,1:2|2:2,0:0:0:0:
156,65,110943,2,1,P|151:112|215:150,1,112.5,2|0,1:2|2:2,0:0:0:0:
317,186,111312,2,1,P|367:166|379:114,1,112.5,2|0,1:2|2:2,0:0:0:0:
262,97,111680,2,1,P|281:171|295:272,1,168.75,2|0,2:2|2:2,0:0:0:0:
392,252,112172,2,1,P|381:309|377:360,1,105,2|2,2:2|2:2,0:0:0:0:
287,273,112909,6,1,L|204:260,2,78.7499999999999,2|0|2,1:2|1:1|1:2,0:0:0:0:
153,316,113769,5,2,2:2:0:0:
153,316,113892,2,1,P|86:282|98:196,1,168.75,2|0,1:2|1:1,0:0:0:0:
223,92,114383,2,1,P|210:215|208:279,1,168.75,2|0,1:2|2:2,0:0:0:0:
67,99,114874,2,1,P|83:177|90:231,1,112.5,2|0,1:2|2:2,0:0:0:0:
209,15,115243,2,1,B|183:22|170:38|170:38|89:26,1,112.5,2|0,1:2|2:2,0:0:0:0:
229,98,115611,6,1,B|300:158|376:84|379:41|334:-13|269:26|318:50,1,225.000000000001,2|0,2:2|2:2,0:0:0:0:
308,113,116226,2,1,B|313:150|321:140|331:182,1,56.2500000000001,2|2,1:2|1:2,0:0:0:0:
435,96,116471,2,1,B|430:156|407:124|399:210,1,112.5,0|0,2:2|2:2,0:0:0:0:
382,276,116840,5,0,1:1:0:0:
130,108,117331,5,4,1:3:0:0:
18,191,117700,5,0,2:2:0:0:
18,191,117823,2,1,P|52:201|70:237,1,56.2500000000001,6|0,1:2|2:2,0:0:0:0:
136,189,118068,2,1,P|175:197|216:21,1,281.250000000001,2|0,2:2|2:2,0:0:0:0:
217,174,118806,6,1,P|248:193|261:268,1,112.5,2|0,1:2|2:2,0:0:0:0:
386,161,119174,2,1,P|353:200|362:273,1,112.5,2|0,1:2|2:2,0:0:0:0:
312,326,119543,2,1,P|317:364|332:387,1,56.2500000000001,2|0,2:2|2:2,0:0:0:0:
436,287,119788,5,2,1:2:0:0:
436,287,120280,1,0,1:1:0:0:
385,162,120771,6,1,B|372:113|399:69|462:62|462:62|465:88,1,168.75,2|0,1:2|1:1,0:0:0:0:
293,179,121263,2,1,P|290:148|301:117,1,56.2500000000001,2|0,1:2|2:2,0:0:0:0:
300,47,121508,2,1,P|319:22|349:8,1,56.2500000000001,2|0,1:2|2:2,0:0:0:0:
192,148,121754,6,1,P|348:99|470:83,1,281.250000000001,2|0,1:2|2:2,0:0:0:0:
361,136,122491,2,1,P|322:122|293:120,1,56.2500000000001,2|0,2:2|2:2,0:0:0:0:
122,179,122737,2,1,P|84:182|68:65,2,168.75,2|2|2,1:2|1:2|2:2,0:0:0:0:
201,136,123720,6,1,P|212:70|119:36,1,168.75,2|0,1:2|1:1,0:0:0:0:
246,201,124211,2,1,P|279:188|351:263,1,141.75,2|0,1:2|2:2,0:0:0:0:
349,123,124702,6,1,P|428:107|464:95,1,112.5,2|0,1:2|1:1,0:0:0:0:
428,192,125194,2,1,P|469:201|519:218,1,83.2500000000001,2|0,1:2|2:2,0:0:0:0:
355,253,125685,6,1,B|174:222|296:362|81:324,1,281.250000000001,2|0,1:2|2:2,0:0:0:0:
247,174,126422,2,1,P|184:160|173:157,1,56.2500000000001,2|0,2:2|2:2,0:0:0:0:
4,200,126668,2,1,P|90:221|178:251,2,168.75,2|2|2,1:2|1:2|2:2,0:0:0:0:
102,184,127651,6,1,P|114:131|87:74,1,112.5,2|0,1:2|1:1,0:0:0:0:
199,160,128142,2,1,P|201:122|184:81,1,75,2|2,1:2|2:2,0:0:0:0:
371,48,128634,6,1,P|359:101|386:158,1,112.5,2|0,1:2|1:1,0:0:0:0:
274,72,129125,2,1,P|272:110|289:151,1,75,2|2,1:2|1:2,0:0:0:0:
498,87,129616,6,1,B|429:78|364:131|375:252|481:260|515:220|494:184,1,281.250000000001,2|0,1:2|2:2,0:0:0:0:
366,155,130353,2,1,P|331:162|315:177,1,56.2500000000001,2|0,2:2|2:2,0:0:0:0:
417,292,130599,2,1,P|432:176|449:104,2,168.75,2|2|2,1:2|1:2|2:2,0:0:0:0:
408,370,131582,5,2,1:2:0:0:
408,370,132073,1,0,1:1:0:0:
330,336,132319,6,1,P|316:306|326:267,1,56.2500000000001,2|0,2:2|2:2,0:0:0:0:
271,209,132565,2,1,P|238:245|222:326,1,112.5,2|0,1:2|2:2,0:0:0:0:
125,203,132933,2,1,P|173:191|185:177,1,56.2500000000001,2|0,1:2|1:1,0:0:0:0:
227,116,133179,2,1,P|155:102|101:84,1,112.5,2|0,2:2|2:2,0:0:0:0:
0,0,133568,6,1,P|9:46|15:94,1,93.75,2|0,2:2|2:2,0:0:0:0:
37,166,134305,1,2,2:2:0:0:
49,194,134550,1,2,2:2:0:0:
2,288,134919,1,2,2:2:0:0:
58,384,135287,2,1,P|31:266|16:87,1,300,2|0,2:2|2:2,0:0:0:0:
156,196,137499,6,1,P|161:143|175:102,1,93.75,2|0,2:2|2:2,0:0:0:0:
239,58,138236,1,2,2:2:0:0:
261,41,138482,1,2,2:2:0:0:
351,82,138850,1,2,2:2:0:0:
463,30,139219,2,1,P|328:78|173:98,1,300,2|0,2:2|2:2,0:0:0:0:
263,31,141430,6,1,P|292:31|327:81,1,93.75,2|0,2:2|2:2,0:0:0:0:
300,155,142167,1,2,2:2:0:0:
286,181,142413,1,2,2:2:0:0:
336,265,142781,1,2,2:2:0:0:
290,375,143150,2,1,P|299:261|324:76,1,300,2|2,2:2|2:2,0:0:0:0:
328,187,145361,6,1,B|321:236|286:218|284:275,1,93.75,2|0,2:2|2:2,0:0:0:0:
341,319,146098,1,2,2:2:0:0:
346,337,146344,1,2,2:2:0:0:
407,275,146712,1,2,2:2:0:0:
459,336,147081,2,1,P|366:288|284:265,1,187.5,2|0,2:2|2:2,0:0:0:0:
122,347,148657,5,8,2:3:0:0:
114,355,148780,1,4,2:3:0:0:
169,252,149026,2,1,P|174:237|175:230,1,18.75,2|0,3:2|3:3,0:0:0:0:
102,222,149272,6,1,B|108:195|65:145|33:170|12:160|-1:119|7:88,1,168.75,2|0,1:2|1:1,0:0:0:0:
91,38,149763,2,1,B|84:73|106:62|99:115,1,56.2500000000001,2|0,1:2|2:2,0:0:0:0:
169,139,150009,2,1,B|186:50|257:108|282:12,1,168.75,2|0,2:2|2:2,0:0:0:0:
214,53,150500,2,1,B|216:88|234:72|241:125,1,56.2500000000001,2|2,2:2|1:2,0:0:0:0:
333,146,150746,2,1,P|336:115|346:78,1,56.2500000000001,2|0,1:2|2:2,0:0:0:0:
474,90,150991,2,1,B|462:123|449:103|428:152,1,56.2500000000001,2|0,2:2|2:2,0:0:0:0:
306,248,151237,6,1,P|256:233|187:222,2,112.5,2|2|2,1:2|2:2|1:2,0:0:0:0:
393,238,151974,2,1,B|282:251|366:297|232:318,1,168.75,2|0,2:2|2:2,0:0:0:0:
311,247,152466,2,1,B|315:282|329:263|337:316,1,56.2500000000001,2|0,2:2|1:1,0:0:0:0:
394,384,152711,2,1,P|403:342|407:318,1,56.2500000000001,2|0,1:2|2:2,0:0:0:0:
512,276,152957,2,1,B|501:309|491:288|474:339,1,56.2500000000001,2|0,1:2|2:2,0:0:0:0:
401,238,153203,6,1,P|387:171|373:119,2,112.5,2|2|2,1:2|2:2|1:2,0:0:0:0:
377,129,153940,2,1,B|386:140|425:117|417:57|312:19|260:67|328:71,1,168.75,2|0,2:2|2:2,0:0:0:0:
384,57,154431,2,1,P|396:42|393:-3,1,56.2500000000001,2|2,2:2|1:2,0:0:0:0:
309,81,154677,2,1,P|295:48|266:29,1,56.2500000000001,2|0,1:2|2:2,0:0:0:0:
249,137,154923,2,1,P|216:134|203:107,1,56.2500000000001,2|0,2:2|2:2,0:0:0:0:
399,247,155168,6,1,P|331:253|276:288,2,112.5,2|2|2,1:2|2:2|1:2,0:0:0:0:
283,294,155905,2,1,B|245:331|205:335|165:310|165:310|172:262,1,168.75,2|0,2:2|2:2,0:0:0:0:
95,251,156397,2,1,L|84:321,1,56.2500000000001,2|0,2:2|1:1,0:0:0:0:
31,367,156643,2,1,B|19:340|1:332|1:332|-4:256,1,112.5,2|2,1:2|1:2,0:0:0:0:
100,243,157134,6,1,P|116:195|151:128,2,112.5,2|2|2,1:2|2:2|1:2,0:0:0:0:
23,8,157871,2,1,B|7:6|-15:44|22:94|55:110|94:100|104:58|64:69,1,168.75,2|0,2:2|2:2,0:0:0:0:
1,144,158362,2,1,P|35:159|65:163,1,56.2500000000001,2|2,2:2|1:2,0:0:0:0:
152,147,158608,2,1,P|181:122|190:90,1,56.2500000000001,2|0,1:2|2:2,0:0:0:0:
293,87,158854,2,1,P|264:62|255:30,1,56.2500000000001,2|0,2:2|2:2,0:0:0:0:
385,28,159100,6,1,P|375:99|357:153,2,112.5,2|2|2,1:2|2:2|1:2,0:0:0:0:
443,124,159837,2,1,P|473:147|365:232,1,225.000000000001,2|2,2:2|2:2,0:0:0:0:
321,202,160451,1,0,1:1:0:0:
321,202,160574,1,0,1:1:0:0:
512,246,160819,6,1,P|477:253|449:278,1,56.2500000000001,2|2,1:2|2:2,0:0:0:0:
358,362,161065,6,1,P|364:314|394:235,1,112.5,2|0,1:2|2:2,0:0:0:0:
249,275,161434,2,1,P|243:227|213:148,1,112.5,2|0,1:2|2:2,0:0:0:0:
333,143,161802,2,1,P|324:174|320:202,1,56.2500000000001,2|0,2:2|2:2,0:0:0:0:
91,165,162048,6,1,P|133:221|180:254,1,112.5,2|0,1:2|2:2,0:0:0:0:
92,297,162416,2,1,P|38:272|-18:262,1,112.5,2|0,1:2|2:2,0:0:0:0:
121,376,162785,2,1,P|148:356|182:347,1,56.2500000000001,2|0,2:2|2:2,0:0:0:0:
256,376,163031,5,2,1:2:0:0:
298,300,163399,1,0,1:1:0:0:
298,300,163522,1,0,1:1:0:0:
215,185,163768,1,2,2:2:0:0:
256,26,164014,6,1,L|261:111,2,78.7499999999999,2|8|2,1:2|1:3|1:2,0:0:0:0:
357,70,164996,6,1,L|498:93,1,112.5,2|0,1:2|2:2,0:0:0:0:
146,143,165242,2,1,P|70:127|73:7,1,168.75,2|0,2:2|2:2,0:0:0:0:
140,8,165488,2,1,P|236:21|268:19,1,112.5,2|0,1:2|2:2,0:0:0:0:
54,138,165733,1,2,2:2:0:0:
54,138,165856,1,2,2:2:0:0:
97,210,165979,6,1,P|86:278|59:338,1,112.5,2|0,1:2|2:2,0:0:0:0:
237,361,166225,2,1,P|248:293|275:233,1,112.5,2|2,2:2|1:2,0:0:0:0:
144,368,166471,2,1,P|180:227|200:103,1,225,2|2,1:2|2:2,0:0:0:0:
278,238,166962,5,2,1:2:0:0:
350,209,167085,1,2,2:2:0:0:
423,235,167208,1,2,2:2:0:0:
390,167,167330,1,2,1:2:0:0:
418,94,167453,2,1,B|429:62|472:37|512:68|492:106|451:75,1,112.5,2|0,1:2|2:2,0:0:0:0:
334,45,167699,1,2,2:2:0:0:
311,60,167822,1,2,2:2:0:0:
313,89,167945,6,1,P|287:138|217:155,1,112.5,2|0,1:2|2:2,0:0:0:0:
139,13,168190,2,1,P|156:84|161:133,1,112.5,2|0,1:2|1:1,0:0:0:0:
109,187,168436,2,1,P|55:186|22:38,1,225,2|2,1:2|1:2,0:0:0:0:
187,227,168928,6,1,P|194:309|154:385,1,168.75,2|0,1:2|2:2,0:0:0:0:
95,338,169173,1,2,2:2:0:0:
95,338,169296,1,2,1:2:0:0:
222,306,169419,2,1,P|295:322|373:356,1,112.5,2|0,1:2|2:2,0:0:0:0:
484,378,169665,5,2,2:2:0:0:
427,329,169787,1,2,2:2:0:0:
408,256,169910,1,2,1:2:0:0:
445,189,170033,1,2,2:2:0:0:
512,156,170156,1,2,2:2:0:0:
507,232,170279,1,2,1:2:0:0:
445,189,170402,2,1,P|421:142|438:65,1,112.5,2|0,1:2|2:2,0:0:0:0:
298,34,170647,5,2,2:2:0:0:
274,44,170770,1,2,2:2:0:0:
255,62,170893,2,1,P|231:109|248:186,1,112.5,2|0,1:2|2:2,0:0:0:0:
55,231,171139,5,2,2:2:0:0:
131,165,171262,1,2,1:2:0:0:
53,110,171385,2,1,P|34:57|40:-1,1,112.5,2|0,1:2|2:2,0:0:0:0:
239,170,171630,5,2,2:2:0:0:
239,170,171753,1,2,2:2:0:0:
239,170,171876,2,1,B|229:272|284:225|269:337,1,168.75,2|0,1:2|2:2,0:0:0:0:
183,300,172122,2,1,P|322:226|380:213,1,168.75,2|0,1:2|2:2,0:0:0:0:
336,246,172367,2,1,P|251:259|166:267,1,168.75,2|0,1:2|2:2,0:0:0:0:
105,217,172613,6,1,P|88:184|174:134,1,112.5,2|0,1:2|2:2,0:0:0:0:
247,168,172859,2,1,P|314:151|318:22,1,187.5,2|0,1:2|2:2,0:0:0:0:
414,198,173227,2,1,P|431:77|426:-11,1,187.5,2|0,1:2|2:2,0:0:0:0:
333,238,173596,2,1,P|365:280|411:281,1,93.75,2|0,2:2|2:2,0:0:0:0:
497,243,173842,6,1,P|478:312|474:367,1,112.5,2|0,1:2|2:2,0:0:0:0:
328,242,174210,2,1,P|341:326|363:364,1,112.5,2|0,1:2|2:2,0:0:0:0:
176,318,174579,2,1,P|225:373|268:391,1,112.5,2|0,2:2|2:2,0:0:0:0:
327,235,174824,6,1,B|186:210|253:266|91:239,1,225,2|0,1:2|2:2,0:0:0:0:
8,151,175193,2,1,P|96:147|109:1,1,225,2|0,1:2|2:2,0:0:0:0:
291,115,175561,2,1,P|255:108|239:36,1,112.5,2|0,2:2|2:2,0:0:0:0:
498,47,175807,6,1,P|507:76|404:128,1,150,2|0,1:2|1:1,0:0:0:0:
312,262,176176,2,1,P|292:171|292:85,1,150,2|0,1:2|2:2,0:0:0:0:
389,0,176544,2,1,P|379:49|368:79,1,75,2|0,1:2|2:2,0:0:0:0:
195,166,176790,6,1,B|192:105|132:60|67:56|67:56|71:101,1,225,2|0,1:2|2:2,0:0:0:0:
202,176,177158,2,1,B|144:162|93:202|142:230|65:272|1:236,1,225,2|0,1:2|2:2,0:0:0:0:
213,186,177527,2,1,P|191:238|181:306,1,112.5,2|0,2:2|2:2,0:0:0:0:
108,384,177773,6,1,P|99:253|70:92,2,281.25,2|2|2,1:2|1:2|2:2,0:0:0:0:
30,353,178756,5,2,1:2:0:0:
181,288,179124,1,0,1:1:0:0:
181,288,179247,1,0,1:1:0:0:
332,348,179493,1,2,2:2:0:0:
488,295,179738,5,2,1:2:0:0:
423,250,180107,1,0,1:1:0:0:
423,250,180230,1,2,1:2:0:0:
493,214,180475,1,2,1:2:0:0:
331,347,180721,6,1,P|350:183|373:94,1,225,2|0,1:2|2:2,0:0:0:0:
157,59,181090,2,1,P|180:169|189:281,1,225,0|0,1:1|2:2,0:0:0:0:
384,43,181458,2,1,P|320:45|291:91,1,112.5,2|0,2:2|2:2,0:0:0:0:
111,202,181704,6,1,P|48:207|20:68,1,225,2|0,1:2|2:2,0:0:0:0:
189,281,182072,2,1,B|164:146|237:224|213:57,1,225,2|0,1:2|2:2,0:0:0:0:
96,10,182441,2,1,B|88:82|122:55|113:134,1,112.5,2|0,2:2|2:2,0:0:0:0:
55,213,182687,6,1,B|52:203|30:195|30:195|126:206,1,112.5,2|0,1:2|2:2,0:0:0:0:
189,281,183055,2,1,P|110:307|85:335,1,112.5,2|2,1:2|2:2,0:0:0:0:
274,215,183424,1,2,2:2:0:0:
274,215,183547,1,0,2:2:0:0:
274,215,183670,6,1,P|245:179|243:137,1,75,2|0,1:2|2:2,0:0:0:0:
346,246,183915,1,2,1:2:0:0:
409,200,184038,2,1,P|454:192|492:212,1,75,2|0,1:2|1:1,0:0:0:0:
346,246,184284,1,2,2:2:0:0:
355,324,184407,2,1,P|338:367|302:389,1,75,2|0,1:2|2:2,0:0:0:0:
272,209,184652,6,1,P|282:143|302:83,1,112.5,2|0,1:2|2:2,0:0:0:0:
494,12,184898,1,2,2:2:0:0:
494,12,185021,2,1,B|484:52|453:87|366:78|366:78|356:38|306:26,1,225,2|0,1:2|2:2,0:0:0:0:
118,83,185389,2,1,P|145:121|219:120,1,112.5,2|0,2:2|2:2,0:0:0:0:
67,9,185635,6,1,B|61:49|25:62|25:62|48:234,1,225,2|0,1:2|2:2,0:0:0:0:
135,158,186004,2,1,B|147:194|183:207|183:207|160:379,1,225,2|0,1:2|2:2,0:0:0:0:
64,313,186372,2,1,P|39:285|52:205,1,112.5,2|0,2:2|2:2,0:0:0:0:
215,132,186618,6,1,P|248:142|281:142,1,56.2500000000001,2|0,1:2|2:2,0:0:0:0:
331,197,186864,1,2,2:2:0:0:
331,197,186986,2,1,P|364:189|393:172,1,56.2500000000001,2|0,1:2|1:1,0:0:0:0:
463,202,187232,1,2,2:2:0:0:
463,202,187355,2,1,P|488:178|504:149,1,56.2500000000001,2|0,2:2|2:2,0:0:0:0:
393,39,187601,6,1,P|396:74|427:117,1,75,2|0,1:2|2:2,0:0:0:0:
317,98,187846,1,2,1:2:0:0:
331,194,187969,2,1,P|299:179|246:184,1,75,2|0,1:2|1:1,0:0:0:0:
317,98,188215,1,2,2:2:0:0:
227,63,188338,2,1,P|255:42|277:-5,1,75,2|0,1:2|2:2,0:0:0:0:
261,180,188584,6,1,P|235:237|237:287,1,112.5,2|0,1:2|2:2,0:0:0:0:
133,107,188829,1,2,2:2:0:0:
133,107,188952,2,1,P|136:249|178:358,1,225,2|0,1:2|2:2,0:0:0:0:
25,254,189321,2,1,P|52:326|99:359,1,112.5,2|0,2:2|2:2,0:0:0:0:
283,356,189566,6,1,P|346:345|354:170,1,225,2|0,1:2|2:2,0:0:0:0:
263,179,189935,2,1,B|293:173|317:189|325:211|325:211|496:187,1,225,2|2,1:2|2:2,0:0:0:0:
239,104,190303,2,1,P|211:110|183:185,1,112.5,2|0,2:2|2:2,0:0:0:0:
356,127,190549,6,1,P|376:69|372:6,1,112.5,2|0,1:2|2:2,0:0:0:0:
278,255,190795,1,2,2:2:0:0:
278,255,190918,2,1,P|253:129|243:8,1,225,2|0,1:2|2:2,0:0:0:0:
169,162,191286,2,1,P|139:108|132:45,1,112.5,2|0,2:2|2:2,0:0:0:0:
243,32,191532,6,1,B|234:181|183:90|173:249,1,225,2|0,1:2|1:1,0:0:0:0:
22,158,191900,2,1,B|35:225|50:179|69:269,1,112.5,2|0,1:2|1:1,0:0:0:0:
139,378,192146,1,2,2:2:0:0:
130,360,192269,1,2,1:2:0:0:
135,335,192392,1,2,2:2:0:0:
160,318,192515,6,1,P|223:326|285:348,1,112.5,2|0,1:2|2:2,0:0:0:0:
498,321,192760,1,2,2:2:0:0:
498,321,192883,2,1,P|382:329|382:202,1,225,2|0,1:2|2:2,0:0:0:0:
426,142,193252,2,1,P|465:139|477:221,1,112.5,2|0,2:2|2:2,0:0:0:0:
351,233,193498,6,1,P|356:110|419:5,1,225,2|0,1:2|2:2,0:0:0:0:
201,146,193866,2,1,P|219:73|217:11,1,112.5,2|0,1:2|1:1,0:0:0:0:
264,198,194112,1,2,2:2:0:0:
191,225,194235,2,1,P|128:223|72:201,1,112.5,2|0,2:2|2:2,0:0:0:0:
24,156,194480,5,2,1:2:0:0:
119,89,194849,1,2,1:2:0:0:
119,89,194972,1,0,1:1:0:0:
14,47,195217,1,2,2:2:0:0:
86,205,195463,5,2,1:2:0:0:
36,314,195709,1,2,1:2:0:0:
36,314,195832,2,1,P|17:278|-8:268,1,56.2500000000001,2|0,1:2|1:1,0:0:0:0:
86,205,196077,1,2,2:2:0:0:
86,205,196200,2,1,P|105:241|130:251,1,56.2500000000001,2|0,1:2|2:2,0:0:0:0:
206,141,196446,5,2,2:2:0:0:
488,362,211557,5,8,2:3:0:0:
488,362,211679,2,1,P|481:328|481:291,1,56.2500000000001,6|0,2:3|2:2,0:0:0:0:
242,294,211925,2,1,P|252:261|271:229,1,56.2500000000001,10|0,2:3|2:2,0:0:0:0:
439,52,212171,6,1,B|406:90|362:88|362:88|328:199|328:199|338:213|338:231,1,225,2|2,1:2|2:2,0:0:0:0:
242,296,212539,1,0,1:1:0:0:
406,254,212662,2,1,B|396:281|363:291|363:291|342:391,1,112.5,2|0,1:2|2:2,0:0:0:0:
242,296,212908,2,1,P|198:266|217:183,1,112.5,2|0,2:2|2:2,0:0:0:0:
301,100,213154,6,1,B|331:90|331:151|286:175|252:163|150:146|201:48|251:76|240:111,1,225,2|0,1:2|2:2,0:0:0:0:
196,209,213522,2,1,B|206:216|183:225|141:218|122:180|145:119,1,112.5,0|0,1:1|1:1,0:0:0:0:
80,0,213768,2,1,P|60:131|32:235,1,225,2|0,2:2|2:2,0:0:0:0:
16,369,214136,6,1,B|26:381|65:374|86:334|105:289|41:255|41:255|66:269|66:298,1,225,2|2,1:2|2:2,0:0:0:0:
138,378,214505,1,0,1:1:0:0:
208,219,214628,2,1,B|225:221|232:192|200:186|145:183|132:279|188:287,1,112.5,2|0,1:2|2:2,0:0:0:0:
305,207,214873,2,1,P|279:274|276:358,1,112.5,2|0,2:2|2:2,0:0:0:0:
361,273,215119,6,1,B|369:297|429:318|497:280|523:191|453:126|411:218|457:232,1,225,2|0,1:2|1:1,0:0:0:0:
461,349,215488,2,1,P|409:198|397:95,1,225,2|0,1:2|2:2,0:0:0:0:
470,11,215856,2,1,B|481:-13|522:8|508:79|453:78,1,112.5,2|0,1:2|2:2,0:0:0:0:
304,195,216102,6,1,B|281:164|289:67|358:54|358:54|323:77|327:118,1,225,2|2,1:2|2:2,0:0:0:0:
149,49,216471,1,0,1:1:0:0:
215,144,216593,2,1,P|225:81|254:22,1,112.5,2|0,1:2|2:2,0:0:0:0:
96,121,216839,2,1,P|117:172|125:228,1,112.5,2|0,2:2|2:2,0:0:0:0:
48,364,217085,6,1,B|30:379|8:345|-23:248|109:191|142:242,1,225,2|0,1:2|2:2,0:0:0:0:
241,308,217453,1,0,1:1:0:0:
139,333,217576,2,1,B|134:312|118:302|118:302|127:215,1,112.5,2|0,1:2|2:2,0:0:0:0:
218,125,217822,2,1,P|207:196|204:264,1,112.5,2|0,2:2|2:2,0:0:0:0:
304,362,218068,6,1,B|335:343|344:298|344:298|510:263,1,225,2|2,1:2|2:2,0:0:0:0:
294,232,218436,1,0,1:1:0:0:
294,232,218559,2,1,P|323:197|393:222,1,112.5,2|0,1:2|2:2,0:0:0:0:
401,118,218805,2,1,P|445:125|459:198,1,112.5,2|0,2:2|2:2,0:0:0:0:
318,158,219050,6,1,B|313:166|285:157|260:96|271:6|376:-15|430:29|355:79|346:38,1,225,2|0,1:2|1:1,0:0:0:0:
254,4,219419,1,0,1:1:0:0:
254,4,219542,1,0,1:1:0:0:
188,150,219787,6,1,B|195:165|211:154|224:124|207:90|159:76,1,112.5,2|0,1:2|2:2,0:0:0:0:
44,66,220033,6,1,B|27:53|12:13|12:13|45:207,1,225,2|2,1:2|2:2,0:0:0:0:
134,317,220402,1,0,1:1:0:0:
261,196,220525,2,1,P|221:231|156:225,1,112.5,2|0,1:2|2:2,0:0:0:0:
8,305,220770,2,1,B|-8:289|-4:268|49:229|103:272,1,112.5,2|0,2:2|2:2,0:0:0:0:
226,375,221016,6,1,P|199:240|202:108,1,225,2|0,1:2|2:2,0:0:0:0:
398,273,221385,2,1,P|389:340|380:385,1,112.500004291535,0|0,1:1|1:1,0:0:0:0:
317,287,221630,2,1,B|303:231|347:174|402:239|438:137|425:111,1,225,2|0,2:2|2:2,0:0:0:0:
195,76,221999,6,1,B|167:76|147:85|133:104|133:104|129:76|152:20|234:-1|272:45,1,225,2|2,1:2|2:2,0:0:0:0:
318,110,222367,1,0,1:1:0:0:
215,186,222490,2,1,P|199:90|187:55,1,112.5,2|0,1:2|2:2,0:0:0:0:
405,1,222736,2,1,P|421:97|433:132,1,112.5,2|0,2:2|2:2,0:0:0:0:
466,307,222982,6,1,B|471:282|404:258|311:317|358:389|432:395|420:313,1,225,2|0,1:2|1:1,0:0:0:0:
507,236,223350,2,1,P|383:304|261:307,1,225,2|0,1:2|2:2,0:0:0:0:
108,264,223719,2,1,P|150:255|230:306,1,112.5,2|0,1:2|2:2,0:0:0:0:
237,368,223964,6,1,B|66:347|66:347|60:329|32:307|-2:321,1,225,2|2,1:2|2:2,0:0:0:0:
123,374,224333,1,0,1:1:0:0:
211,279,224456,2,1,P|221:227|187:162,1,112.5,2|0,1:2|2:2,0:0:0:0:
16,99,224701,2,1,B|2:95|-13:141|15:166|63:168|77:139,1,112.5,2|0,2:2|2:2,0:0:0:0:
344,73,224947,6,1,B|368:63|354:38|252:44|216:107|284:141|186:178,1,225,2|0,1:2|2:2,0:0:0:0:
141,113,225316,2,1,P|136:44|138:-8,1,112.5,2|0,1:2|1:1,0:0:0:0:
328,215,225561,2,1,P|421:120|535:61,1,225,0|0,2:2|2:2,0:0:0:0:
188,270,225930,5,2,1:2:0:0:
250,320,226299,1,0,1:1:0:0:
250,320,226421,1,0,1:1:0:0:
176,345,226667,1,2,2:2:0:0:
360,338,226913,6,1,B|397:353|397:353|324:335,1,112.5,2|0,1:2|2:2,0:0:0:0:
114,298,227158,2,1,P|75:259|101:174,1,112.5,2|0,1:2|1:1,0:0:0:0:
372,23,227404,1,2,1:2:0:0:
317,119,227527,1,4,3:3:0:0:
252,63,227650,1,2,1:2:0:0:
185,98,227773,1,8,2:3:0:0:
124,49,227896,6,1,B|99:32|25:43|-1:102|27:142|27:142|47:126|88:131,1,225,2|0,1:2|1:1,0:0:0:0:
149,165,228387,2,1,P|167:203|162:247,1,75,2|0,1:2|2:2,0:0:0:0:
246,249,228633,2,1,P|231:288|197:316,1,75,2|0,2:2|2:2,0:0:0:0:
108,355,228878,2,1,P|54:343|43:196,2,225,2|2|2,1:2|1:2|2:2,0:0:0:0:
247,246,229861,5,2,1:2:0:0:
247,246,230353,1,0,1:1:0:0:
247,246,230844,1,2,1:2:0:0:
247,246,231335,6,1,P|254:291|266:368,1,112.5,2|0,1:2|2:2,0:0:0:0:
347,379,231827,6,1,B|366:246|449:339|457:170,1,225,2|0,1:2|1:1,0:0:0:0:
388,115,232318,2,1,B|378:101|346:114|361:172|401:170,1,75,0|0,1:1|2:2,0:0:0:0:
489,96,232564,2,1,P|495:56|459:13,1,75,2|0,2:2|2:2,0:0:0:0:
390,110,232810,6,1,P|330:55|249:72,1,150,2|0,1:2|2:2,0:0:0:0:
160,161,233178,2,1,B|162:136|174:122|193:115|193:115|182:0,1,150,2|0,1:2|2:2,0:0:0:0:
297,156,233547,2,1,P|274:181|223:178,1,75,2|0,2:2|2:2,0:0:0:0:
96,103,233792,5,2,1:2:0:0:
96,103,234284,1,0,1:1:0:0:
96,103,234775,5,2,1:2:0:0:
34,148,235144,1,0,1:1:0:0:
34,148,235267,1,0,1:1:0:0:
26,70,235512,1,2,1:2:0:0:
96,103,235758,6,1,P|109:212|115:332,1,225,2|0,1:2|1:1,0:0:0:0:
39,374,236249,2,1,B|49:382|29:391|1:379|-4:340|44:321,1,75,0|0,1:1|2:2,0:0:0:0:
226,373,236495,5,2,2:2:0:0:
206,379,236618,1,2,2:2:0:0:
193,365,236741,2,1,P|191:338|304:277,1,150,2|0,1:2|2:2,0:0:0:0:
344,328,237109,2,1,P|380:358|425:349,1,75,2|0,1:2|1:1,0:0:0:0:
505,289,237355,1,2,2:2:0:0:
505,289,237478,2,1,P|475:275|454:231,1,75,2|0,2:2|2:2,0:0:0:0:
509,108,237724,5,2,1:2:0:0:
509,108,238215,1,0,1:1:0:0:
509,108,238706,2,1,L|496:-8,2,112.5,2|0|2,1:2|1:1|1:2,0:0:0:0:
440,163,239566,5,2,2:2:0:0:
440,163,239689,2,1,P|421:108|422:75,1,75,2|0,1:2|2:2,0:0:0:0:
224,115,239935,2,1,P|243:60|242:27,1,75,2|0,2:2|1:1,0:0:0:0:
350,13,240181,2,1,P|324:153|315:260,1,225,2|0,1:2|2:2,0:0:0:0:
213,297,240672,6,1,P|189:212|118:189,1,150,2|0,1:2|2:2,0:0:0:0:
21,156,241041,2,1,P|93:124|105:48,1,150,2|0,1:2|2:2,0:0:0:0:
7,11,241409,2,1,P|6:50|43:77,1,75,2|0,2:2|2:2,0:0:0:0:
170,4,241655,5,2,1:2:0:0:
170,4,242146,1,0,1:1:0:0:
170,4,242638,1,2,1:2:0:0:
21,156,243129,5,4,2:3:0:0:
210,274,243620,6,1,P|229:302|225:359,1,75,2|0,1:2|2:2,0:0:0:0:
420,281,243866,2,1,B|436:278|444:211|356:169|238:248|293:370|354:383|379:350,1,300,2|2,2:2|2:2,0:0:0:0:
429,201,244603,2,1,P|454:287|484:353,1,150,2|0,1:2|2:2,0:0:0:0:
361,112,244972,2,1,P|336:198|306:264,1,150,2|0,2:2|2:2,0:0:0:0:
448,93,245340,2,1,P|475:116|534:142,1,75,2|0,2:2|2:2,0:0:0:0:
388,26,245586,5,2,1:2:0:0:
388,26,246077,1,0,1:1:0:0:
388,26,246569,6,1,B|226:10|345:92|153:65,1,225,2|0,1:2|2:2,0:0:0:0:
106,109,247060,2,1,P|90:74|104:17,1,75,2|0,1:2|2:2,0:0:0:0:
203,176,247306,2,1,P|225:144|281:128,1,75,2|0,2:2|2:2,0:0:0:0:
119,214,247552,2,1,B|141:209|108:175|14:174|-24:323|96:429|275:382|221:267|183:254,1,375,2|0,1:2|2:2,0:0:0:0:
59,276,248289,2,1,P|46:318|90:358,1,75,2|0,2:2|2:2,0:0:0:0:
189,257,248534,6,1,P|232:319|379:350,2,225,2|2|2,1:2|2:2|2:2,0:0:0:0:
452,356,249517,6,1,B|447:314|413:289|413:289|423:120,1,225,2|0,1:2|2:2,0:0:0:0:
307,96,250009,2,1,B|311:133|342:156|342:156|333:308,1,195.75,2|0,1:2|2:2,0:0:0:0:
422,142,250500,6,1,B|429:114|462:98|462:98|446:-13,1,168.75,2|0,1:2|2:2,0:0:0:0:
342,156,250991,2,1,B|331:127|310:119|310:119|328:23,1,141.75,2|0,1:2|2:2,0:0:0:0:
266,188,251483,6,1,P|226:202|118:24,1,281.250000000001,2|0,1:2|2:2,0:0:0:0:
326,29,252220,2,1,P|314:63|285:76,1,56.2500000000001,2|0,2:2|2:2,0:0:0:0:
171,0,252466,2,1,P|190:82|198:187,2,168.75,2|2|2,1:2|2:2|2:2,0:0:0:0:
4,105,253448,6,1,P|15:183|25:294,1,168.75,2|0,1:2|2:2,0:0:0:0:
70,155,253940,2,1,B|45:184|21:188|21:188|45:184|77:209,1,112.5,2|2,1:2|2:2,0:0:0:0:
200,198,254431,6,1,P|189:276|179:387,1,168.75,2|0,1:2|2:2,0:0:0:0:
134,248,254923,2,1,B|159:277|183:281|183:281|159:277|127:302,1,112.5,2|2,1:2|2:2,0:0:0:0:
294,207,255414,6,1,P|286:290|274:374,1,168.75,2|0,1:2|2:2,0:0:0:0:
375,199,255905,2,1,P|386:234|399:262,1,56.2500000000001,0|0,1:1|2:2,0:0:0:0:
415,326,256151,2,1,P|434:356|454:380,1,56.2500000000001,2|0,2:2|2:2,0:0:0:0:
393,251,256397,6,1,P|465:219|502:137,2,168.75,2|2|2,1:2|2:2|2:2,0:0:0:0:
251,130,257380,5,2,1:2:0:0:
251,130,257871,1,0,1:1:0:0:
251,130,258117,6,1,P|269:102|310:102,1,56.2500000000001,2|0,2:2|2:2,0:0:0:0:
182,85,258362,2,1,B|176:53|143:24|91:33|91:33|89:66|61:77,1,168.75,2|0,1:2|2:2,0:0:0:0:
177,166,258854,1,2,1:2:0:0:
177,166,258977,2,1,P|155:235|153:290,1,112.5,0|0,2:2|2:2,0:0:0:0:
74,321,259367,6,1,P|64:273|52:243,1,75,2|0,2:2|2:2,0:0:0:0:
151,364,260104,1,2,2:2:0:0:
153,356,260349,1,2,2:2:0:0:
284,373,260718,1,2,2:2:0:0:
387,293,261086,2,1,P|406:202|490:7,1,300,2|0,2:2|2:2,0:0:0:0:
426,70,263298,6,1,P|437:102|444:143,1,75,2|2,2:2|2:2,0:0:0:0:
327,37,264035,1,2,2:2:0:0:
317,48,264281,1,2,2:2:0:0:
188,2,264649,1,2,2:2:0:0:
49,77,265018,2,1,P|246:58|348:35,1,300,2|0,2:2|2:2,0:0:0:0:
249,199,267229,6,1,P|187:188|169:188,1,75,2|2,2:2|2:2,0:0:0:0:
89,227,267966,1,2,2:2:0:0:
81,235,268212,1,2,2:2:0:0:
98,317,268580,1,2,2:2:0:0:
13,363,268949,2,1,P|33:292|62:69,1,300,2|2,2:2|2:2,0:0:0:0:
217,231,271160,6,1,P|207:191|200:153,1,75,2|0,2:2|2:2,0:0:0:0:
275,119,271897,1,2,2:2:0:0:
283,134,272143,1,2,2:2:0:0:
396,133,272511,1,2,2:2:0:0:
473,188,272880,2,1,P|466:215|465:230,1,37.5,2|2,2:2|2:2,0:0:0:0:
