osu file format v14

[General]
AudioFilename: audio.mp3
AudioLeadIn: 0
PreviewTime: 15
Countdown: 0
SampleSet: Normal
StackLeniency: 0.7
Mode: 1
LetterboxInBreaks: 0
WidescreenStoryboard: 1

[Editor]
DistanceSpacing: 1.8
BeatDivisor: 8
GridSize: 32
TimelineZoom: 1.9

[Metadata]
Title:Nice For What
TitleUnicode:Nice For What
Artist:Drake
ArtistUnicode:Drake
Creator:My Angel Ayame
Version:Oni
Source:
Tags:scorpion lauryn hill ex-factor showboys drag rap get your roll on big tymers idealism [Zeth] english hip hop
BeatmapID:2339937
BeatmapSetID:1112429

[Difficulty]
HPDrainRate:5
CircleSize:2
OverallDifficulty:5.5
ApproachRate:10
SliderMultiplier:1.8
SliderTickRate:1

[Events]
//Background and Video events
0,0,"71varhlbmYL._SL1200_.jpg",0,0
//Break Periods
2,6070,14215
//Storyboard Layer 0 (Background)
//Storyboard Layer 1 (Fail)
//Storyboard Layer 2 (Pass)
//Storyboard Layer 3 (Foreground)
//Storyboard Layer 4 (Overlay)
//Storyboard Sound Samples

[TimingPoints]
15,641.711229946524,5,1,0,35,1,0
15,-66.6666666666667,5,1,0,35,0,0
3223,618.556701030928,5,1,0,35,1,0
3223,-69.1562932226833,5,1,0,35,0,0
3841,685.714285714286,5,1,0,35,1,8
3841,-64.5577792123951,5,1,0,35,0,8
4526,645.161290322581,5,1,0,35,1,8
4526,-71.4285714285714,5,1,0,35,0,8
5171,699.708454810496,5,1,0,35,1,8
5171,-67.9347826086956,5,1,0,35,0,0
5870,641.711229946524,4,1,0,35,1,0
5870,-76.9230769230769,4,1,0,35,0,0
8436,-83.3333333333333,4,1,0,35,0,0
11003,-90.9090909090909,4,1,0,35,0,0
13570,-100,4,1,0,35,0,0
15415,641.711229946524,4,1,0,35,1,0
34824,-98.7654320987654,5,1,0,35,0,0
34985,-97.5609756097561,5,1,0,35,0,0
35145,-96.3855421686747,5,1,0,35,0,0
35306,-95.2380952380952,5,1,0,35,0,0
35466,-94.1176470588235,5,1,0,35,0,0
35627,-93.0232558139535,5,1,0,35,0,0
35787,-91.9540229885057,5,1,0,35,0,0
35949,-90.9090909090909,5,1,0,35,0,0
54880,-90.9090909090909,5,1,0,35,0,0
55040,-92.5925925925926,5,1,0,35,0,0
55201,-94.3396226415094,5,1,0,35,0,0
55361,-96.1538461538461,5,1,0,35,0,0
55521,-98.0392156862745,5,1,0,35,0,0
55842,-102.040816326531,5,1,0,35,0,0
56003,-104.166666666667,5,1,0,35,0,0
56163,-106.382978723404,5,1,0,35,0,0
56324,-108.695652173913,5,1,0,35,0,0
56484,-111.111111111111,5,1,0,35,0,0
63864,-111.111111111111,5,1,0,35,0,0
64024,-109.768399653571,5,1,0,35,0,0
64185,-108.457752451687,5,1,0,35,0,0
64505,-105.928051548827,5,1,0,35,0,0
64666,-104.706998406359,5,1,0,35,0,0
64826,-103.513775095621,5,1,0,35,0,0
65147,-101.207097046473,5,1,0,35,0,0
65308,-100.09178416608,5,1,0,35,0,0
65468,-74.6268656716418,5,1,0,35,0,0
65628,-76.3358778625954,5,1,0,35,0,0
65789,-78.125,5,1,0,35,0,0
65949,-80,5,1,0,35,0,0
66110,-81.9672131147541,5,1,0,35,0,0
66270,-84.0336134453781,5,1,0,35,0,0
66431,-86.2068965517241,5,1,0,35,0,0
66591,-88.4955752212389,5,1,0,35,0,0
66751,-90.9090909090909,5,1,0,35,0,1
75415,-90.9090909090909,5,1,0,35,0,1
75575,-92.5925925925926,5,1,0,35,0,1
75896,-96.1538461538461,5,1,0,35,0,1
76056,-98.0392156862745,5,1,0,35,0,1
76217,-100,5,1,0,35,0,1
76377,-102.040816326531,5,1,0,35,0,1
76537,-104.166666666667,5,1,0,35,0,1
76698,-106.382978723404,5,1,0,35,0,1
76858,-108.695652173913,5,1,0,35,0,1
77019,-111.111111111111,5,1,0,35,0,0
87286,-105.263157894737,5,1,0,35,0,0
94987,-105.263157894737,5,1,0,35,0,0
95147,-104.239851729235,5,1,0,35,0,0
95308,-103.236143386744,5,1,0,35,0,0
95468,-102.25168434087,5,1,0,35,0,0
95628,-101.285720941633,5,1,0,35,0,0
95949,-99.4076299332279,5,1,0,35,0,0
96270,-97.5980152467619,5,1,0,35,0,0
96431,-96.7175981538545,5,1,0,35,0,0
96591,-95.8530151524446,5,1,0,35,0,0
96751,-95.0036623911852,5,1,0,35,0,0
96912,-94.1693183177216,5,1,0,35,0,0
97233,-92.5437500578398,5,1,0,35,0,0
97554,-90.9733511762399,5,1,0,35,0,0
116805,-90.9090909090909,5,1,0,35,0,0
116965,-93.0232558139535,5,1,0,35,0,0
117126,-95.2380952380952,5,1,0,35,0,0
117286,-97.5609756097561,5,1,0,35,0,0
117447,-100,5,1,0,35,0,0
117607,-102.564102564103,5,1,0,35,0,0
117767,-105.263157894737,5,1,0,35,0,0
117928,-108.108108108108,5,1,0,35,0,0
118088,-111.111111111111,5,1,0,35,0,0
125468,-111.111111111111,5,1,0,35,0,0
125628,-109.489091054413,5,1,0,35,0,0
125789,-107.913630246896,5,1,0,35,0,0
126110,-104.895141571728,5,1,0,35,0,0
126270,-103.448240190262,5,1,0,35,0,0
126431,-102.040816326531,5,1,0,35,0,0
126751,-99.3377154510876,5,1,0,35,0,0
126912,-98.0392156862745,5,1,0,35,0,0
127072,-96.774224765879,5,1,0,35,0,0
127313,-94.9367389040313,5,1,0,35,0,0
127554,-93.1677307974319,5,1,0,35,0,0
127714,-92.0245116489228,5,1,0,35,0,0
128014,653.23897659227,4,1,0,45,1,8
128014,-87.719298245614,4,1,0,45,0,0
128340,653.23897659227,4,1,0,45,1,0
128340,-87.719298245614,4,1,0,45,0,0
129973,-66.6666666666667,4,1,0,45,0,0
130626,645.161290322581,4,1,0,65,1,8
130948,645.161290322581,4,1,0,65,1,0
130948,-86.9565217391304,4,1,0,65,0,0
132561,-66.6666666666667,4,1,0,65,0,0
133206,641.711229946524,4,1,0,65,1,8
133526,641.711229946524,4,1,0,65,1,0
133526,-86.9565217391304,4,1,0,65,0,0
133847,-66.6666666666667,4,1,0,65,0,0
135131,641.711229946524,4,1,0,65,1,8
135131,-66.6666666666667,4,1,0,65,0,0
135772,638.297872340426,4,1,0,65,1,8
136091,666.666666666667,4,1,0,65,1,0
136091,-64.1848523748395,4,1,0,65,0,8
136757,606.060606060606,4,1,0,65,1,8
136757,-70.4225352112676,4,1,0,65,0,8
137363,661.521499448732,4,1,0,65,1,8
137363,-64.1025641025641,4,1,0,65,0,8
138686,641.711229946524,4,1,0,60,1,0
138686,-90.9090909090909,4,1,0,60,0,0
147830,-90.9090909090909,4,1,0,60,0,0
147990,-89.1920626199633,4,1,0,60,0,0
148151,-87.53861547175,4,1,0,60,0,0
148311,-85.9454298087972,4,1,0,60,0,0
148472,-84.4091276654292,4,1,0,60,0,0
148632,-82.9268535395669,4,1,0,60,0,0
148953,-80.1131197250518,4,1,0,60,0,1
166921,-80,4,1,0,60,0,1
167081,-80.6013505562299,4,1,0,60,0,1
167242,-81.2118760999134,4,1,0,60,0,1
167402,-81.8316542841735,4,1,0,60,0,1
167563,-82.4610330388375,4,1,0,60,0,1
167723,-83.1000990553181,4,1,0,60,0,1
167883,-83.749217991677,4,1,0,60,0,1
168044,-84.4084864292256,4,1,0,60,0,1
168204,-85.078216658485,4,1,0,60,0,1
168365,-85.7587332405996,4,1,0,60,0,1
168525,-86.4501493858581,4,1,0,60,0,1
168686,-87.1528809692098,4,1,0,60,0,1
168846,-87.8670536331709,4,1,0,60,0,1
169006,-88.5931060388605,4,1,0,60,0,1
169167,-89.3311774742503,4,1,0,60,0,1
169327,-90.0816500075669,4,1,0,60,0,1
169488,-90.8449213600938,4,1,0,60,0,1
178151,-90.9090909090909,4,1,0,60,0,1
178311,-91.743119266055,4,1,0,60,0,1
178472,-92.5925925925926,4,1,0,60,0,1
178632,-93.4579439252336,4,1,0,60,0,1
178953,-95.2380952380952,4,1,0,60,0,1
179113,-96.1538461538461,4,1,0,60,0,1
179274,-97.0873786407767,4,1,0,60,0,1
179434,-98.0392156862745,4,1,0,60,0,1
179755,-100,4,1,0,60,0,0
184889,-100,4,1,0,60,0,0
185210,-102.362212784426,4,1,0,60,0,0
185370,-103.585616101348,4,1,0,60,0,0
185531,-104.838726586891,4,1,0,60,0,0
185852,-107.438043166457,4,1,0,60,0,0
186012,-108.786583568222,4,1,0,60,0,0
186172,-110.169528871027,4,1,0,60,0,0
186493,-113.043527410229,4,1,0,60,0,0
186654,-114.537434842517,4,1,0,60,0,0
186814,-116.071490752584,4,1,0,60,0,0
187135,-119.265989394868,4,1,0,60,0,0
187296,-120.930243807465,4,1,0,60,0,0
187456,-122.641451584221,4,1,0,60,0,0
187776,-126.213543218041,4,1,0,60,0,0
187937,-128.07885558981,4,1,0,60,0,0
188097,-129.999961000012,4,1,0,60,0,0
188258,-131.979749027309,4,1,0,60,0,0
188418,-134.02059092359,4,1,0,60,0,0
188739,-138.297857627887,4,1,0,60,0,0
188899,-140.540631702031,4,1,0,60,0,0
189060,-142.857142857143,4,1,0,60,0,0
189381,-148.148148148148,4,1,0,60,0,0
190022,-166.666666666667,4,1,0,60,0,0

[HitObjects]
256,192,15,5,4,0:0:0:0:
256,192,3223,1,4,0:0:0:0:
256,192,3841,1,4,0:0:0:0:
256,192,4526,1,4,0:0:0:0:
256,192,5171,1,4,0:0:0:0:
256,192,5870,1,4,0:0:0:0:
256,192,15415,5,0,0:0:0:0:
256,192,15735,1,2,0:0:0:0:
256,192,15896,1,0,0:0:0:0:
256,192,16056,1,2,0:0:0:0:
256,192,16377,1,0,0:0:0:0:
256,192,16537,1,2,0:0:0:0:
256,192,16858,1,2,0:0:0:0:
256,192,17019,1,0,0:0:0:0:
256,192,17179,1,0,0:0:0:0:
256,192,17340,1,2,0:0:0:0:
256,192,17660,1,0,0:0:0:0:
256,192,17821,1,0,0:0:0:0:
256,192,17981,1,0,0:0:0:0:
256,192,18302,1,0,0:0:0:0:
256,192,18463,1,0,0:0:0:0:
256,192,18623,1,2,0:0:0:0:
256,192,18944,1,2,0:0:0:0:
256,192,19104,1,2,0:0:0:0:
256,192,19425,1,0,0:0:0:0:
256,192,19586,1,2,0:0:0:0:
256,192,19746,1,0,0:0:0:0:
256,192,19906,1,2,0:0:0:0:
256,192,20227,1,2,0:0:0:0:
256,192,20388,1,0,0:0:0:0:
256,192,20548,1,0,0:0:0:0:
256,192,20869,1,2,0:0:0:0:
256,192,21029,1,0,0:0:0:0:
256,192,21190,1,2,0:0:0:0:
256,192,21511,1,0,0:0:0:0:
256,192,21671,1,2,0:0:0:0:
256,192,21992,1,2,0:0:0:0:
256,192,22152,1,0,0:0:0:0:
256,192,22313,1,0,0:0:0:0:
256,192,22473,1,2,0:0:0:0:
256,192,22794,1,0,0:0:0:0:
256,192,22955,1,0,0:0:0:0:
256,192,23115,1,0,0:0:0:0:
256,192,23436,1,0,0:0:0:0:
256,192,23596,1,0,0:0:0:0:
256,192,23757,1,2,0:0:0:0:
256,192,24078,1,2,0:0:0:0:
256,192,24238,1,2,0:0:0:0:
256,192,24559,1,0,0:0:0:0:
256,192,24719,1,2,0:0:0:0:
256,192,24880,1,0,0:0:0:0:
256,192,25040,1,2,0:0:0:0:
256,192,25361,1,2,0:0:0:0:
256,192,25521,1,0,0:0:0:0:
256,192,25682,1,0,0:0:0:0:
256,192,26003,1,2,0:0:0:0:
256,192,26164,1,0,0:0:0:0:
256,192,26324,1,2,0:0:0:0:
256,192,26645,1,0,0:0:0:0:
256,192,26805,1,2,0:0:0:0:
256,192,27126,1,2,0:0:0:0:
256,192,27287,1,0,0:0:0:0:
256,192,27447,1,0,0:0:0:0:
256,192,27608,1,2,0:0:0:0:
256,192,27928,1,0,0:0:0:0:
256,192,28089,1,0,0:0:0:0:
256,192,28249,1,0,0:0:0:0:
256,192,28570,1,0,0:0:0:0:
256,192,28731,1,0,0:0:0:0:
256,192,28891,1,2,0:0:0:0:
256,192,29212,1,2,0:0:0:0:
256,192,29372,1,2,0:0:0:0:
256,192,29693,1,0,0:0:0:0:
256,192,29854,1,2,0:0:0:0:
256,192,30014,1,0,0:0:0:0:
256,192,30174,1,2,0:0:0:0:
256,192,30495,1,2,0:0:0:0:
256,192,30656,1,0,0:0:0:0:
256,192,30816,1,0,0:0:0:0:
256,192,31137,1,2,0:0:0:0:
256,192,31297,1,0,0:0:0:0:
256,192,31458,1,2,0:0:0:0:
256,192,31779,1,0,0:0:0:0:
256,192,31939,1,2,0:0:0:0:
256,192,32260,1,2,0:0:0:0:
256,192,32420,1,0,0:0:0:0:
256,192,32581,1,0,0:0:0:0:
256,192,32741,1,2,0:0:0:0:
256,192,33062,1,0,0:0:0:0:
256,192,33223,1,0,0:0:0:0:
256,192,33383,1,0,0:0:0:0:
256,192,33704,1,0,0:0:0:0:
256,192,33864,1,0,0:0:0:0:
256,192,34025,1,2,0:0:0:0:
256,192,34346,1,2,0:0:0:0:
256,192,34506,1,2,0:0:0:0:
256,192,34826,1,0,0:0:0:0:
256,192,34987,1,2,0:0:0:0:
256,192,35147,1,0,0:0:0:0:
256,192,35308,1,0,0:0:0:0:
256,192,35468,1,2,0:0:0:0:
256,192,35629,1,0,0:0:0:0:
256,192,35789,1,2,0:0:0:0:
256,192,35949,1,0,0:0:0:0:
256,192,36270,1,2,0:0:0:0:
256,192,36431,1,0,0:0:0:0:
256,192,36591,1,2,0:0:0:0:
256,192,36912,1,0,0:0:0:0:
256,192,37072,1,2,0:0:0:0:
256,192,37233,1,2,0:0:0:0:
256,192,37393,1,0,0:0:0:0:
256,192,37554,1,0,0:0:0:0:
256,192,37874,1,0,0:0:0:0:
256,192,38035,1,0,0:0:0:0:
256,192,38195,1,2,0:0:0:0:
256,192,38356,1,2,0:0:0:0:
256,192,38516,1,0,0:0:0:0:
256,192,38837,1,2,0:0:0:0:
256,192,39158,1,2,0:0:0:0:
256,192,39479,1,0,0:0:0:0:
256,192,39639,1,0,0:0:0:0:
256,192,39800,1,2,0:0:0:0:
256,192,40120,1,0,0:0:0:0:
256,192,40441,1,2,0:0:0:0:
256,192,40602,1,0,0:0:0:0:
256,192,40762,1,2,0:0:0:0:
256,192,40923,1,2,0:0:0:0:
256,192,41083,1,0,0:0:0:0:
256,192,41404,1,2,0:0:0:0:
256,192,41564,1,0,0:0:0:0:
256,192,41725,1,2,0:0:0:0:
256,192,42046,1,2,0:0:0:0:
256,192,42206,1,0,0:0:0:0:
256,192,42366,1,2,0:0:0:0:
256,192,42527,1,2,0:0:0:0:
256,192,42687,1,0,0:0:0:0:
256,192,43008,1,0,0:0:0:0:
256,192,43329,1,2,0:0:0:0:
256,192,43489,1,0,0:0:0:0:
256,192,43650,1,0,0:0:0:0:
256,192,43971,1,0,0:0:0:0:
256,192,44292,1,2,0:0:0:0:
256,192,44612,1,0,0:0:0:0:
256,192,44773,1,0,0:0:0:0:
256,192,44933,1,2,0:0:0:0:
256,192,45254,1,0,0:0:0:0:
256,192,45575,1,2,0:0:0:0:
256,192,45735,1,0,0:0:0:0:
256,192,45896,1,0,0:0:0:0:
256,192,46056,1,2,0:0:0:0:
256,192,46217,1,0,0:0:0:0:
256,192,46537,1,2,0:0:0:0:
256,192,46698,1,0,0:0:0:0:
256,192,46858,1,2,0:0:0:0:
256,192,47179,1,0,0:0:0:0:
256,192,47340,1,2,0:0:0:0:
256,192,47500,1,0,0:0:0:0:
256,192,47660,1,2,0:0:0:0:
256,192,47821,1,0,0:0:0:0:
256,192,48142,1,2,0:0:0:0:
256,192,48302,1,2,0:0:0:0:
256,192,48463,1,0,0:0:0:0:
256,192,48623,1,2,0:0:0:0:
256,192,48783,1,0,0:0:0:0:
256,192,49104,1,0,0:0:0:0:
256,192,49425,1,2,0:0:0:0:
256,192,49746,1,0,0:0:0:0:
256,192,49906,1,2,0:0:0:0:
256,192,50067,1,2,0:0:0:0:
256,192,50227,1,0,0:0:0:0:
256,192,50388,1,0,0:0:0:0:
256,192,50709,1,2,0:0:0:0:
256,192,50869,1,0,0:0:0:0:
256,192,51029,1,2,0:0:0:0:
256,192,51190,1,0,0:0:0:0:
256,192,51350,1,0,0:0:0:0:
256,192,51671,1,2,0:0:0:0:
256,192,51832,1,0,0:0:0:0:
256,192,51992,1,2,0:0:0:0:
256,192,52313,1,0,0:0:0:0:
256,192,52634,1,2,0:0:0:0:
256,192,52955,1,0,0:0:0:0:
256,192,53275,1,2,0:0:0:0:
256,192,53596,1,0,0:0:0:0:
256,192,53917,1,0,0:0:0:0:
256,192,54238,1,0,0:0:0:0:
256,192,54559,1,2,0:0:0:0:
256,192,54880,1,0,0:0:0:0:
256,192,55040,1,0,0:0:0:0:
256,192,55201,1,2,0:0:0:0:
256,192,55361,1,0,0:0:0:0:
256,192,55521,1,0,0:0:0:0:
256,192,55842,1,2,0:0:0:0:
256,192,56003,1,0,0:0:0:0:
256,192,56163,1,2,0:0:0:0:
256,192,56324,1,0,0:0:0:0:
256,192,56484,1,2,0:0:0:0:
256,192,56805,1,0,0:0:0:0:
256,192,57447,1,0,0:0:0:0:
256,192,57607,1,0,0:0:0:0:
256,192,57767,1,2,0:0:0:0:
256,192,58088,1,2,0:0:0:0:
256,192,58409,1,0,0:0:0:0:
256,192,58570,1,2,0:0:0:0:
256,192,58730,1,2,0:0:0:0:
256,192,58890,1,0,0:0:0:0:
256,192,59051,1,2,0:0:0:0:
256,192,59372,1,0,0:0:0:0:
256,192,60013,1,0,0:0:0:0:
256,192,60174,1,0,0:0:0:0:
256,192,60334,1,2,0:0:0:0:
256,192,60495,1,2,0:0:0:0:
256,192,60655,1,0,0:0:0:0:
256,192,61297,1,0,0:0:0:0:
256,192,61457,1,0,0:0:0:0:
256,192,61618,1,2,0:0:0:0:
256,192,61939,1,2,0:0:0:0:
256,192,62580,1,0,0:0:0:0:
256,192,62741,1,0,0:0:0:0:
256,192,62901,1,2,0:0:0:0:
256,192,63062,1,0,0:0:0:0:
256,192,63222,1,0,0:0:0:0:
256,192,63864,1,0,0:0:0:0:
256,192,64024,1,0,0:0:0:0:
256,192,64185,1,0,0:0:0:0:
256,192,64505,1,2,0:0:0:0:
256,192,64666,1,0,0:0:0:0:
256,192,64826,1,0,0:0:0:0:
256,192,65147,1,2,0:0:0:0:
256,192,65308,1,2,0:0:0:0:
256,192,65468,1,4,0:0:0:0:
256,192,65628,1,4,0:0:0:0:
256,192,65789,1,4,0:0:0:0:
256,192,65949,1,4,0:0:0:0:
256,192,66110,1,4,0:0:0:0:
256,192,66270,1,4,0:0:0:0:
256,192,66431,1,4,0:0:0:0:
256,192,66591,1,4,0:0:0:0:
256,192,66751,1,4,0:0:0:0:
256,192,67072,1,2,0:0:0:0:
256,192,67233,1,0,0:0:0:0:
256,192,67393,1,2,0:0:0:0:
256,192,67714,1,0,0:0:0:0:
256,192,67874,1,2,0:0:0:0:
256,192,68195,1,2,0:0:0:0:
256,192,68356,1,0,0:0:0:0:
256,192,68516,1,0,0:0:0:0:
256,192,68677,1,2,0:0:0:0:
256,192,68837,1,0,0:0:0:0:
256,192,68997,1,2,0:0:0:0:
256,192,69158,1,2,0:0:0:0:
256,192,69318,1,0,0:0:0:0:
256,192,69639,1,0,0:0:0:0:
256,192,69800,1,0,0:0:0:0:
256,192,69960,1,2,0:0:0:0:
256,192,70281,1,2,0:0:0:0:
256,192,70441,1,2,0:0:0:0:
256,192,70762,1,0,0:0:0:0:
256,192,70923,1,2,0:0:0:0:
256,192,71083,1,0,0:0:0:0:
256,192,71243,1,2,0:0:0:0:
256,192,71404,1,0,0:0:0:0:
256,192,71564,1,0,0:0:0:0:
256,192,71725,1,2,0:0:0:0:
256,192,71885,1,0,0:0:0:0:
256,192,72206,1,2,0:0:0:0:
256,192,72366,1,0,0:0:0:0:
256,192,72527,1,2,0:0:0:0:
256,192,72848,1,0,0:0:0:0:
256,192,73008,1,2,0:0:0:0:
256,192,73329,1,2,0:0:0:0:
256,192,73489,1,0,0:0:0:0:
256,192,73650,1,0,0:0:0:0:
256,192,73810,1,2,0:0:0:0:
256,192,73971,1,2,0:0:0:0:
256,192,74131,1,0,0:0:0:0:
256,192,74292,1,2,0:0:0:0:
256,192,74452,1,0,0:0:0:0:
256,192,74773,1,0,0:0:0:0:
256,192,74933,1,2,0:0:0:0:
256,192,75094,1,2,0:0:0:0:
256,192,75415,1,2,0:0:0:0:
256,192,75575,1,0,0:0:0:0:
256,192,75896,1,2,0:0:0:0:
256,192,76056,1,0,0:0:0:0:
256,192,76217,1,0,0:0:0:0:
256,192,76377,1,2,0:0:0:0:
256,192,76537,1,0,0:0:0:0:
256,192,76698,1,2,0:0:0:0:
256,192,76858,1,2,0:0:0:0:
256,192,77019,1,0,0:0:0:0:
256,192,77340,1,0,0:0:0:0:
256,192,77821,1,2,0:0:0:0:
256,192,77981,1,0,0:0:0:0:
256,192,78142,1,0,0:0:0:0:
256,192,78302,1,2,0:0:0:0:
256,192,78623,1,0,0:0:0:0:
256,192,79104,1,2,0:0:0:0:
256,192,79265,1,2,0:0:0:0:
256,192,79425,1,0,0:0:0:0:
256,192,79586,1,2,0:0:0:0:
256,192,79906,1,0,0:0:0:0:
256,192,80388,1,2,0:0:0:0:
256,192,80548,1,0,0:0:0:0:
256,192,80709,1,0,0:0:0:0:
256,192,80869,1,2,0:0:0:0:
256,192,81190,1,0,0:0:0:0:
256,192,81671,1,0,0:0:0:0:
256,192,81832,1,2,0:0:0:0:
256,192,81992,1,0,0:0:0:0:
256,192,82393,1,0,0:0:0:0:
256,192,82634,1,0,0:0:0:0:
256,192,82795,1,2,0:0:0:0:
256,192,83115,1,0,0:0:0:0:
256,192,83275,1,0,0:0:0:0:
256,192,83436,1,2,0:0:0:0:
256,192,83596,1,2,0:0:0:0:
256,192,83917,1,2,0:0:0:0:
256,192,84078,1,2,0:0:0:0:
256,192,84238,1,0,0:0:0:0:
256,192,84398,1,0,0:0:0:0:
256,192,84960,1,2,0:0:0:0:
256,192,85201,1,0,0:0:0:0:
256,192,85361,1,2,0:0:0:0:
256,192,85682,1,0,0:0:0:0:
256,192,85842,1,0,0:0:0:0:
256,192,86003,1,2,0:0:0:0:
256,192,86163,1,0,0:0:0:0:
256,192,86484,1,2,0:0:0:0:
256,192,86644,1,2,0:0:0:0:
256,192,86805,1,0,0:0:0:0:
256,192,86965,1,2,0:0:0:0:
256,192,87447,1,0,0:0:0:0:
256,192,87607,1,2,0:0:0:0:
256,192,87767,1,2,0:0:0:0:
256,192,87928,1,0,0:0:0:0:
256,192,88088,1,2,0:0:0:0:
256,192,88249,1,0,0:0:0:0:
256,192,88730,1,2,0:0:0:0:
256,192,88890,1,0,0:0:0:0:
256,192,89051,1,0,0:0:0:0:
256,192,89211,1,2,0:0:0:0:
256,192,89372,1,0,0:0:0:0:
256,192,89532,1,2,0:0:0:0:
256,192,90013,1,0,0:0:0:0:
256,192,90174,1,2,0:0:0:0:
256,192,90334,1,0,0:0:0:0:
256,192,90495,1,2,0:0:0:0:
256,192,90816,1,2,0:0:0:0:
256,192,91457,1,2,0:0:0:0:
256,192,91778,1,0,0:0:0:0:
256,192,92099,1,2,0:0:0:0:
256,192,92420,1,0,0:0:0:0:
256,192,92580,1,2,0:0:0:0:
256,192,92741,1,2,0:0:0:0:
256,192,92901,1,0,0:0:0:0:
256,192,93062,1,2,0:0:0:0:
256,192,93382,1,2,0:0:0:0:
256,192,94024,1,0,0:0:0:0:
256,192,94345,1,2,0:0:0:0:
256,192,94505,1,0,0:0:0:0:
256,192,94666,1,2,0:0:0:0:
256,192,94826,1,2,0:0:0:0:
256,192,94987,1,0,0:0:0:0:
256,192,95147,1,0,0:0:0:0:
256,192,95308,1,2,0:0:0:0:
256,192,95468,1,2,0:0:0:0:
256,192,95628,1,2,0:0:0:0:
256,192,95949,1,2,0:0:0:0:
256,192,96270,1,0,0:0:0:0:
256,192,96431,1,2,0:0:0:0:
256,192,96591,1,0,0:0:0:0:
256,192,96751,1,2,0:0:0:0:
256,192,96912,1,2,0:0:0:0:
256,192,97233,1,2,0:0:0:0:
256,192,97554,1,0,0:0:0:0:
256,192,97874,1,2,0:0:0:0:
256,192,98035,1,0,0:0:0:0:
256,192,98195,1,0,0:0:0:0:
256,192,98356,1,0,0:0:0:0:
256,192,98516,1,2,0:0:0:0:
256,192,98997,1,2,0:0:0:0:
256,192,99158,1,0,0:0:0:0:
256,192,99318,1,0,0:0:0:0:
256,192,99479,1,2,0:0:0:0:
256,192,99800,1,2,0:0:0:0:
256,192,99960,1,0,0:0:0:0:
256,192,100120,1,0,0:0:0:0:
256,192,100441,1,0,0:0:0:0:
256,192,100602,1,2,0:0:0:0:
256,192,100762,1,2,0:0:0:0:
256,192,101083,1,0,0:0:0:0:
256,192,101404,1,2,0:0:0:0:
256,192,101564,1,0,0:0:0:0:
256,192,101725,1,0,0:0:0:0:
256,192,101885,1,0,0:0:0:0:
256,192,102046,1,2,0:0:0:0:
256,192,102206,1,0,0:0:0:0:
256,192,102366,1,2,0:0:0:0:
256,192,102527,1,2,0:0:0:0:
256,192,102687,1,0,0:0:0:0:
256,192,103008,1,2,0:0:0:0:
256,192,103329,1,2,0:0:0:0:
256,192,103489,1,2,0:0:0:0:
256,192,103650,1,0,0:0:0:0:
256,192,103810,1,0,0:0:0:0:
256,192,103971,1,2,0:0:0:0:
256,192,104131,1,0,0:0:0:0:
256,192,104292,1,0,0:0:0:0:
256,192,104612,1,2,0:0:0:0:
256,192,104933,1,2,0:0:0:0:
256,192,105254,1,0,0:0:0:0:
256,192,105575,1,0,0:0:0:0:
256,192,105735,1,2,0:0:0:0:
256,192,105896,1,2,0:0:0:0:
256,192,106217,1,2,0:0:0:0:
256,192,106698,1,2,0:0:0:0:
256,192,106858,1,0,0:0:0:0:
256,192,107019,1,0,0:0:0:0:
256,192,107179,1,2,0:0:0:0:
256,192,107340,1,0,0:0:0:0:
256,192,107500,1,2,0:0:0:0:
256,192,107660,1,2,0:0:0:0:
256,192,107821,1,0,0:0:0:0:
256,192,108142,1,2,0:0:0:0:
256,192,108302,1,0,0:0:0:0:
256,192,108463,1,2,0:0:0:0:
256,192,108623,1,0,0:0:0:0:
256,192,108783,1,2,0:0:0:0:
256,192,109265,1,2,0:0:0:0:
256,192,109425,1,0,0:0:0:0:
256,192,109586,1,0,0:0:0:0:
256,192,109746,1,2,0:0:0:0:
256,192,110067,1,2,0:0:0:0:
256,192,110227,1,2,0:0:0:0:
256,192,110388,1,0,0:0:0:0:
256,192,110709,1,2,0:0:0:0:
256,192,110869,1,0,0:0:0:0:
256,192,111029,1,2,0:0:0:0:
256,192,111350,1,0,0:0:0:0:
256,192,111511,1,2,0:0:0:0:
256,192,111671,1,2,0:0:0:0:
256,192,111992,1,0,0:0:0:0:
256,192,112152,1,0,0:0:0:0:
256,192,112313,1,2,0:0:0:0:
256,192,112473,1,0,0:0:0:0:
256,192,112634,1,2,0:0:0:0:
256,192,112955,1,0,0:0:0:0:
256,192,113275,1,2,0:0:0:0:
256,192,113436,1,0,0:0:0:0:
256,192,113596,1,2,0:0:0:0:
256,192,113757,1,0,0:0:0:0:
256,192,113917,1,2,0:0:0:0:
256,192,114238,1,2,0:0:0:0:
256,192,114398,1,0,0:0:0:0:
256,192,114559,1,0,0:0:0:0:
256,192,114719,1,0,0:0:0:0:
256,192,114880,1,2,0:0:0:0:
256,192,115040,1,0,0:0:0:0:
256,192,115201,1,2,0:0:0:0:
256,192,115521,1,0,0:0:0:0:
256,192,115842,1,2,0:0:0:0:
256,192,116003,1,0,0:0:0:0:
256,192,116163,1,2,0:0:0:0:
256,192,116324,1,0,0:0:0:0:
256,192,116484,1,2,0:0:0:0:
256,192,116805,1,2,0:0:0:0:
256,192,116965,1,2,0:0:0:0:
256,192,117126,1,2,0:0:0:0:
256,192,117286,1,0,0:0:0:0:
256,192,117447,1,2,0:0:0:0:
256,192,117607,1,0,0:0:0:0:
256,192,117767,1,2,0:0:0:0:
256,192,117928,1,0,0:0:0:0:
256,192,118088,1,2,0:0:0:0:
256,192,118409,1,0,0:0:0:0:
256,192,119051,1,2,0:0:0:0:
256,192,119211,1,2,0:0:0:0:
256,192,119372,1,0,0:0:0:0:
256,192,119693,1,2,0:0:0:0:
256,192,120013,1,0,0:0:0:0:
256,192,120174,1,0,0:0:0:0:
256,192,120334,1,2,0:0:0:0:
256,192,120495,1,0,0:0:0:0:
256,192,120655,1,2,0:0:0:0:
256,192,120976,1,0,0:0:0:0:
256,192,121618,1,2,0:0:0:0:
256,192,121778,1,2,0:0:0:0:
256,192,121939,1,0,0:0:0:0:
256,192,122099,1,2,0:0:0:0:
256,192,122259,1,0,0:0:0:0:
256,192,122901,1,0,0:0:0:0:
256,192,123062,1,0,0:0:0:0:
256,192,123222,1,2,0:0:0:0:
256,192,123543,1,2,0:0:0:0:
256,192,124185,1,0,0:0:0:0:
256,192,124345,1,0,0:0:0:0:
256,192,124505,1,2,0:0:0:0:
256,192,124666,1,2,0:0:0:0:
256,192,124826,1,0,0:0:0:0:
256,192,125468,1,0,0:0:0:0:
256,192,125628,1,0,0:0:0:0:
256,192,125789,1,2,0:0:0:0:
256,192,126110,1,2,0:0:0:0:
256,192,126270,1,0,0:0:0:0:
256,192,126431,1,2,0:0:0:0:
256,192,126751,1,0,0:0:0:0:
256,192,126912,1,0,0:0:0:0:
256,192,127072,1,2,0:0:0:0:
256,192,127313,1,2,0:0:0:0:
256,192,127554,1,2,0:0:0:0:
256,192,127714,1,0,0:0:0:0:
256,192,128014,1,2,0:0:0:0:
256,192,128177,12,0,128993,0:0:0:0:
256,192,129973,5,4,0:0:0:0:
256,192,130300,1,4,0:0:0:0:
256,192,132561,5,4,0:0:0:0:
256,192,132884,1,4,0:0:0:0:
256,192,133847,5,4,0:0:0:0:
256,192,134168,1,4,0:0:0:0:
256,192,135131,5,4,0:0:0:0:
256,192,135451,1,4,0:0:0:0:
256,192,136091,1,4,0:0:0:0:
256,192,136757,1,4,0:0:0:0:
256,192,137060,1,4,0:0:0:0:
256,192,137363,1,4,0:0:0:0:
256,192,138686,1,0,0:0:0:0:
256,192,139006,1,2,0:0:0:0:
256,192,139167,1,0,0:0:0:0:
256,192,139327,1,2,0:0:0:0:
256,192,139488,1,0,0:0:0:0:
256,192,139648,1,0,0:0:0:0:
256,192,139808,1,2,0:0:0:0:
256,192,140129,1,2,0:0:0:0:
256,192,140290,1,0,0:0:0:0:
256,192,140450,1,0,0:0:0:0:
256,192,140611,1,2,0:0:0:0:
256,192,140771,1,0,0:0:0:0:
256,192,140931,1,2,0:0:0:0:
256,192,141092,1,2,0:0:0:0:
256,192,141252,1,0,0:0:0:0:
256,192,141573,1,2,0:0:0:0:
256,192,141734,1,0,0:0:0:0:
256,192,141894,1,2,0:0:0:0:
256,192,142054,1,0,0:0:0:0:
256,192,142215,1,2,0:0:0:0:
256,192,142375,1,2,0:0:0:0:
256,192,142696,1,2,0:0:0:0:
256,192,142857,1,0,0:0:0:0:
256,192,143017,1,2,0:0:0:0:
256,192,143177,1,2,0:0:0:0:
256,192,143338,1,0,0:0:0:0:
256,192,143498,1,0,0:0:0:0:
256,192,143659,1,2,0:0:0:0:
256,192,143819,1,0,0:0:0:0:
256,192,144140,1,2,0:0:0:0:
256,192,144300,1,0,0:0:0:0:
256,192,144461,1,2,0:0:0:0:
256,192,144621,1,0,0:0:0:0:
256,192,144782,1,0,0:0:0:0:
256,192,144942,1,2,0:0:0:0:
256,192,145263,1,2,0:0:0:0:
256,192,145423,1,2,0:0:0:0:
256,192,145584,1,0,0:0:0:0:
256,192,145744,1,2,0:0:0:0:
256,192,145905,1,0,0:0:0:0:
256,192,146065,1,0,0:0:0:0:
256,192,146226,1,2,0:0:0:0:
256,192,146386,1,0,0:0:0:0:
256,192,146707,1,0,0:0:0:0:
256,192,146867,1,0,0:0:0:0:
256,192,147028,1,2,0:0:0:0:
256,192,147188,1,2,0:0:0:0:
256,192,147349,1,0,0:0:0:0:
256,192,147509,1,2,0:0:0:0:
256,192,147830,1,2,0:0:0:0:
256,192,147990,1,0,0:0:0:0:
256,192,148151,1,0,0:0:0:0:
256,192,148311,1,2,0:0:0:0:
256,192,148472,1,0,0:0:0:0:
256,192,148632,1,2,0:0:0:0:
256,192,148953,1,0,0:0:0:0:
256,192,149113,1,2,0:0:0:0:
256,192,149194,1,2,0:0:0:0:
256,192,149274,1,0,0:0:0:0:
256,192,149434,1,0,0:0:0:0:
256,192,149595,1,2,0:0:0:0:
256,192,149915,1,0,0:0:0:0:
256,192,150076,1,2,0:0:0:0:
256,192,150156,1,0,0:0:0:0:
256,192,150236,1,0,0:0:0:0:
256,192,150397,1,0,0:0:0:0:
256,192,150557,1,2,0:0:0:0:
256,192,150718,1,0,0:0:0:0:
256,192,150878,1,2,0:0:0:0:
256,192,151038,1,0,0:0:0:0:
256,192,151199,1,2,0:0:0:0:
256,192,151359,1,0,0:0:0:0:
256,192,151520,1,0,0:0:0:0:
256,192,151680,1,2,0:0:0:0:
256,192,151760,1,2,0:0:0:0:
256,192,151841,1,0,0:0:0:0:
256,192,152001,1,0,0:0:0:0:
256,192,152161,1,2,0:0:0:0:
256,192,152482,1,0,0:0:0:0:
256,192,152643,1,2,0:0:0:0:
256,192,152723,1,0,0:0:0:0:
256,192,152803,1,0,0:0:0:0:
256,192,152964,1,0,0:0:0:0:
256,192,153124,1,2,0:0:0:0:
256,192,153284,1,0,0:0:0:0:
256,192,153445,1,2,0:0:0:0:
256,192,153605,1,0,0:0:0:0:
256,192,153766,1,2,0:0:0:0:
256,192,153926,1,2,0:0:0:0:
256,192,154087,1,2,0:0:0:0:
256,192,154247,1,0,0:0:0:0:
256,192,154407,1,2,0:0:0:0:
256,192,154568,1,0,0:0:0:0:
256,192,154728,1,2,0:0:0:0:
256,192,154889,1,0,0:0:0:0:
256,192,155049,1,2,0:0:0:0:
256,192,155129,1,0,0:0:0:0:
256,192,155210,1,2,0:0:0:0:
256,192,155370,1,2,0:0:0:0:
256,192,155530,1,0,0:0:0:0:
256,192,155691,1,2,0:0:0:0:
256,192,155771,1,0,0:0:0:0:
256,192,155851,1,2,0:0:0:0:
256,192,156012,1,2,0:0:0:0:
256,192,156172,1,0,0:0:0:0:
256,192,156333,1,2,0:0:0:0:
256,192,156493,1,0,0:0:0:0:
256,192,156653,1,2,0:0:0:0:
256,192,156814,1,0,0:0:0:0:
256,192,156974,1,2,0:0:0:0:
256,192,157054,1,0,0:0:0:0:
256,192,157135,1,2,0:0:0:0:
256,192,157295,1,2,0:0:0:0:
256,192,157456,1,0,0:0:0:0:
256,192,157616,1,2,0:0:0:0:
256,192,157776,1,0,0:0:0:0:
256,192,157937,1,2,0:0:0:0:
256,192,158097,1,0,0:0:0:0:
256,192,158258,1,2,0:0:0:0:
256,192,158338,1,0,0:0:0:0:
256,192,158418,1,2,0:0:0:0:
256,192,158579,1,2,0:0:0:0:
256,192,158739,1,0,0:0:0:0:
256,192,158819,1,0,0:0:0:0:
256,192,158899,1,2,0:0:0:0:
256,192,159220,1,0,0:0:0:0:
256,192,159381,1,2,0:0:0:0:
256,192,159541,1,2,0:0:0:0:
256,192,159702,1,0,0:0:0:0:
256,192,159862,1,2,0:0:0:0:
256,192,160022,1,0,0:0:0:0:
256,192,160103,1,0,0:0:0:0:
256,192,160183,1,2,0:0:0:0:
256,192,160504,1,2,0:0:0:0:
256,192,160664,1,0,0:0:0:0:
256,192,160825,1,2,0:0:0:0:
256,192,160985,1,0,0:0:0:0:
256,192,161145,1,2,0:0:0:0:
256,192,161306,1,0,0:0:0:0:
256,192,161386,1,0,0:0:0:0:
256,192,161466,1,2,0:0:0:0:
256,192,161787,1,0,0:0:0:0:
256,192,161948,1,0,0:0:0:0:
256,192,162108,1,2,0:0:0:0:
256,192,162268,1,0,0:0:0:0:
256,192,162429,1,2,0:0:0:0:
256,192,162589,1,0,0:0:0:0:
256,192,162669,1,2,0:0:0:0:
256,192,162750,1,2,0:0:0:0:
256,192,163071,1,2,0:0:0:0:
256,192,163231,1,0,0:0:0:0:
256,192,163391,1,2,0:0:0:0:
256,192,163552,1,0,0:0:0:0:
256,192,163712,1,2,0:0:0:0:
256,192,163873,1,0,0:0:0:0:
256,192,163953,1,2,0:0:0:0:
256,192,164033,1,2,0:0:0:0:
256,192,164354,1,0,0:0:0:0:
256,192,164514,1,2,0:0:0:0:
256,192,164675,1,2,0:0:0:0:
256,192,164755,1,0,0:0:0:0:
256,192,164835,1,0,0:0:0:0:
256,192,164996,1,2,0:0:0:0:
256,192,165156,1,0,0:0:0:0:
256,192,165317,1,2,0:0:0:0:
256,192,165397,1,0,0:0:0:0:
256,192,165477,1,0,0:0:0:0:
256,192,165637,1,2,0:0:0:0:
256,192,165798,1,0,0:0:0:0:
256,192,165958,1,2,0:0:0:0:
256,192,166038,1,2,0:0:0:0:
256,192,166119,1,0,0:0:0:0:
256,192,166279,1,2,0:0:0:0:
256,192,166440,1,0,0:0:0:0:
256,192,166520,1,0,0:0:0:0:
256,192,166600,1,2,0:0:0:0:
256,192,166921,1,2,0:0:0:0:
256,192,167081,1,0,0:0:0:0:
256,192,167242,1,2,0:0:0:0:
256,192,167402,1,2,0:0:0:0:
256,192,167563,1,0,0:0:0:0:
256,192,167723,1,2,0:0:0:0:
256,192,167883,1,0,0:0:0:0:
256,192,168044,1,2,0:0:0:0:
256,192,168204,1,0,0:0:0:0:
256,192,168365,1,0,0:0:0:0:
256,192,168525,1,2,0:0:0:0:
256,192,168686,1,0,0:0:0:0:
256,192,168846,1,2,0:0:0:0:
256,192,169006,1,0,0:0:0:0:
256,192,169167,1,2,0:0:0:0:
256,192,169327,1,0,0:0:0:0:
256,192,169488,1,0,0:0:0:0:
256,192,169808,1,2,0:0:0:0:
256,192,170129,1,2,0:0:0:0:
256,192,170290,1,0,0:0:0:0:
256,192,170450,1,2,0:0:0:0:
256,192,170611,1,2,0:0:0:0:
256,192,170771,1,0,0:0:0:0:
256,192,171092,1,0,0:0:0:0:
256,192,171413,1,2,0:0:0:0:
256,192,171573,1,0,0:0:0:0:
256,192,171734,1,2,0:0:0:0:
256,192,171894,1,0,0:0:0:0:
256,192,172054,1,0,0:0:0:0:
256,192,172375,1,0,0:0:0:0:
256,192,172696,1,2,0:0:0:0:
256,192,172857,1,0,0:0:0:0:
256,192,173017,1,2,0:0:0:0:
256,192,173177,1,2,0:0:0:0:
256,192,173338,1,0,0:0:0:0:
256,192,173659,1,0,0:0:0:0:
256,192,173819,1,0,0:0:0:0:
256,192,173980,1,2,0:0:0:0:
256,192,174140,1,0,0:0:0:0:
256,192,174300,1,2,0:0:0:0:
256,192,174461,1,2,0:0:0:0:
256,192,174621,1,0,0:0:0:0:
256,192,174862,1,2,0:0:0:0:
256,192,175103,1,0,0:0:0:0:
256,192,175263,1,2,0:0:0:0:
256,192,175584,1,0,0:0:0:0:
256,192,175744,1,2,0:0:0:0:
256,192,175905,1,2,0:0:0:0:
256,192,176065,1,0,0:0:0:0:
256,192,176386,1,2,0:0:0:0:
256,192,176546,1,0,0:0:0:0:
256,192,176707,1,0,0:0:0:0:
256,192,176867,1,2,0:0:0:0:
256,192,177188,1,0,0:0:0:0:
256,192,177429,1,2,0:0:0:0:
256,192,177669,1,0,0:0:0:0:
256,192,177830,1,2,0:0:0:0:
256,192,178151,1,2,0:0:0:0:
256,192,178311,1,0,0:0:0:0:
256,192,178472,1,2,0:0:0:0:
256,192,178632,1,2,0:0:0:0:
256,192,178953,1,0,0:0:0:0:
256,192,179113,1,2,0:0:0:0:
256,192,179274,1,0,0:0:0:0:
256,192,179434,1,0,0:0:0:0:
256,192,179755,1,2,0:0:0:0:
256,192,179915,1,2,0:0:0:0:
256,192,180076,1,0,0:0:0:0:
256,192,180237,1,0,0:0:0:0:
256,192,180397,1,2,0:0:0:0:
256,192,180718,1,0,0:0:0:0:
256,192,180878,1,2,0:0:0:0:
256,192,181199,1,2,0:0:0:0:
256,192,181360,1,0,0:0:0:0:
256,192,181520,1,0,0:0:0:0:
256,192,181681,1,2,0:0:0:0:
256,192,181841,1,2,0:0:0:0:
256,192,182001,1,0,0:0:0:0:
256,192,182322,1,0,0:0:0:0:
256,192,182482,1,2,0:0:0:0:
256,192,182643,1,0,0:0:0:0:
256,192,182804,1,0,0:0:0:0:
256,192,182964,1,2,0:0:0:0:
256,192,183285,1,2,0:0:0:0:
256,192,183445,1,2,0:0:0:0:
256,192,183766,1,0,0:0:0:0:
256,192,183927,1,2,0:0:0:0:
256,192,184087,1,0,0:0:0:0:
256,192,184247,1,2,0:0:0:0:
256,192,184407,1,2,0:0:0:0:
256,192,184568,1,0,0:0:0:0:
256,192,184889,1,2,0:0:0:0:
256,192,185210,1,0,0:0:0:0:
256,192,185370,1,0,0:0:0:0:
256,192,185531,1,2,0:0:0:0:
256,192,185852,1,0,0:0:0:0:
256,192,186012,1,0,0:0:0:0:
256,192,186172,1,2,0:0:0:0:
256,192,186493,1,0,0:0:0:0:
256,192,186654,1,0,0:0:0:0:
256,192,186814,1,2,0:0:0:0:
256,192,187135,1,0,0:0:0:0:
256,192,187296,1,0,0:0:0:0:
256,192,187456,1,2,0:0:0:0:
256,192,187776,1,2,0:0:0:0:
256,192,187937,1,2,0:0:0:0:
256,192,188097,1,0,0:0:0:0:
256,192,188258,1,2,0:0:0:0:
256,192,188418,1,2,0:0:0:0:
256,192,188739,1,2,0:0:0:0:
256,192,188899,1,2,0:0:0:0:
256,192,189060,1,2,0:0:0:0:
256,192,189381,12,0,189782,0:0:0:0:
256,192,190022,5,0,0:0:0:0:
