osu file format v14

[General]
AudioFilename: audio.mp3
AudioLeadIn: 0
PreviewTime: 182777
Countdown: 0
SampleSet: None
StackLeniency: 0.7
Mode: 3
LetterboxInBreaks: 0
SpecialStyle: 0
WidescreenStoryboard: 0

[Editor]
DistanceSpacing: 2
BeatDivisor: 4
GridSize: 4
TimelineZoom: 3.199998

[Metadata]
Title:Through the Fire and Flames
TitleUnicode:Through the Fire and Flames
Artist:Dragonforce
ArtistUnicode:Dragonforce
Creator:[KonG-69]
Version:Ex 4K
Source:
Tags:Dragonforce Inhuman Rampage Power Metal [KonG]
BeatmapID:2123945
BeatmapSetID:1014883

[Difficulty]
HPDrainRate:8.5
CircleSize:4
OverallDifficulty:8.5
ApproachRate:5
SliderMultiplier:1.4
SliderTickRate:1

[Events]
//Background and Video events
0,0,"bgmap.jpg",0,0
//Break Periods
//Storyboard Layer 0 (Background)
//Storyboard Layer 1 (Fail)
//Storyboard Layer 2 (Pass)
//Storyboard Layer 3 (Foreground)
//Storyboard Layer 4 (Overlay)
//Storyboard Sound Samples

[TimingPoints]
1390,300,4,3,0,100,1,0
97390,-100,4,3,0,100,0,1
113065,-100,4,3,0,100,0,0
183790,-100,4,3,0,100,0,1
199465,-100,4,3,0,100,0,0
242590,352.941176470588,4,3,0,100,1,0
242590,-83.3333333333333,4,3,0,100,0,1
253884,-83.3333333333333,4,3,0,100,0,0
287766,300,4,3,0,100,1,0
299766,-100,4,3,0,100,0,1
318966,-100,4,3,0,100,0,0
386166,-100,4,3,0,100,0,1
401991,-100,4,3,0,100,0,0

[HitObjects]
64,192,1390,5,0,0:0:0:0:
448,192,1390,1,0,0:0:0:0:
192,192,1390,1,0,0:0:0:0:
320,192,1540,1,0,0:0:0:0:
192,192,1690,1,0,0:0:0:0:
64,192,1840,1,0,0:0:0:0:
448,192,1990,1,0,0:0:0:0:
320,192,2140,1,0,0:0:0:0:
192,192,2290,1,0,0:0:0:0:
64,192,2440,1,0,0:0:0:0:
448,192,2590,1,0,0:0:0:0:
192,192,2740,1,0,0:0:0:0:
64,192,2890,1,0,0:0:0:0:
320,192,3040,1,0,0:0:0:0:
192,192,3190,1,0,0:0:0:0:
64,192,3340,1,0,0:0:0:0:
320,192,3490,1,0,0:0:0:0:
448,192,3640,1,0,0:0:0:0:
64,192,3790,1,0,0:0:0:0:
192,192,3790,1,0,0:0:0:0:
448,192,3790,1,0,0:0:0:0:
320,192,3940,1,0,0:0:0:0:
192,192,4090,1,0,0:0:0:0:
64,192,4240,1,0,0:0:0:0:
448,192,4390,1,0,0:0:0:0:
320,192,4540,1,0,0:0:0:0:
192,192,4690,1,0,0:0:0:0:
64,192,4840,1,0,0:0:0:0:
448,192,4990,1,0,0:0:0:0:
192,192,5140,1,0,0:0:0:0:
64,192,5290,1,0,0:0:0:0:
320,192,5440,1,0,0:0:0:0:
192,192,5590,1,0,0:0:0:0:
64,192,5740,1,0,0:0:0:0:
320,192,5890,1,0,0:0:0:0:
448,192,6040,1,0,0:0:0:0:
64,192,6190,1,0,0:0:0:0:
192,192,6190,1,0,0:0:0:0:
448,192,6190,1,0,0:0:0:0:
320,192,6340,1,0,0:0:0:0:
192,192,6490,1,0,0:0:0:0:
64,192,6640,1,0,0:0:0:0:
448,192,6790,1,0,0:0:0:0:
320,192,6940,1,0,0:0:0:0:
192,192,7090,1,0,0:0:0:0:
64,192,7240,1,0,0:0:0:0:
448,192,7390,1,0,0:0:0:0:
192,192,7540,1,0,0:0:0:0:
64,192,7690,1,0,0:0:0:0:
320,192,7840,1,0,0:0:0:0:
192,192,7990,1,0,0:0:0:0:
64,192,8140,1,0,0:0:0:0:
320,192,8290,1,0,0:0:0:0:
448,192,8440,1,0,0:0:0:0:
64,192,8590,1,0,0:0:0:0:
192,192,8590,1,0,0:0:0:0:
448,192,8590,1,0,0:0:0:0:
320,192,8740,1,0,0:0:0:0:
192,192,8890,1,0,0:0:0:0:
64,192,9040,1,0,0:0:0:0:
448,192,9190,1,0,0:0:0:0:
320,192,9340,1,0,0:0:0:0:
192,192,9490,1,0,0:0:0:0:
64,192,9640,1,0,0:0:0:0:
448,192,9790,1,0,0:0:0:0:
320,192,9790,1,0,0:0:0:0:
192,192,9940,1,0,0:0:0:0:
64,192,10090,1,0,0:0:0:0:
320,192,10240,1,0,0:0:0:0:
192,192,10390,1,0,0:0:0:0:
64,192,10540,1,0,0:0:0:0:
320,192,10690,1,0,0:0:0:0:
448,192,10840,1,0,0:0:0:0:
64,192,10990,1,0,0:0:0:0:
192,192,10990,1,0,0:0:0:0:
448,192,10990,1,0,0:0:0:0:
320,192,11140,1,0,0:0:0:0:
192,192,11290,1,0,0:0:0:0:
64,192,11440,1,0,0:0:0:0:
448,192,11590,1,0,0:0:0:0:
320,192,11740,1,0,0:0:0:0:
192,192,11890,1,0,0:0:0:0:
64,192,12040,1,0,0:0:0:0:
448,192,12190,1,0,0:0:0:0:
192,192,12340,1,0,0:0:0:0:
64,192,12490,1,0,0:0:0:0:
320,192,12640,1,0,0:0:0:0:
192,192,12790,1,0,0:0:0:0:
64,192,12940,1,0,0:0:0:0:
320,192,13090,1,0,0:0:0:0:
448,192,13240,1,0,0:0:0:0:
64,192,13390,1,0,0:0:0:0:
192,192,13390,1,0,0:0:0:0:
448,192,13390,1,0,0:0:0:0:
320,192,13540,1,0,0:0:0:0:
192,192,13690,1,0,0:0:0:0:
64,192,13840,1,0,0:0:0:0:
448,192,13990,1,0,0:0:0:0:
320,192,14140,1,0,0:0:0:0:
192,192,14290,1,0,0:0:0:0:
64,192,14440,1,0,0:0:0:0:
448,192,14590,1,0,0:0:0:0:
192,192,14740,1,0,0:0:0:0:
64,192,14890,1,0,0:0:0:0:
320,192,15040,1,0,0:0:0:0:
192,192,15190,1,0,0:0:0:0:
64,192,15340,1,0,0:0:0:0:
320,192,15490,1,0,0:0:0:0:
448,192,15640,1,0,0:0:0:0:
64,192,15790,1,0,0:0:0:0:
192,192,15790,1,0,0:0:0:0:
320,192,15940,1,0,0:0:0:0:
192,192,16090,1,0,0:0:0:0:
64,192,16240,1,0,0:0:0:0:
448,192,16390,1,0,0:0:0:0:
320,192,16540,1,0,0:0:0:0:
192,192,16690,1,0,0:0:0:0:
64,192,16840,1,0,0:0:0:0:
448,192,16990,1,0,0:0:0:0:
192,192,17140,1,0,0:0:0:0:
64,192,17290,1,0,0:0:0:0:
320,192,17440,1,0,0:0:0:0:
192,192,17590,1,0,0:0:0:0:
64,192,17740,1,0,0:0:0:0:
320,192,17890,1,0,0:0:0:0:
448,192,18040,1,0,0:0:0:0:
64,192,18190,1,0,0:0:0:0:
192,192,18190,1,0,0:0:0:0:
448,192,18190,1,0,0:0:0:0:
320,192,18340,1,0,0:0:0:0:
192,192,18490,1,0,0:0:0:0:
64,192,18640,1,0,0:0:0:0:
448,192,18790,1,0,0:0:0:0:
320,192,18940,1,0,0:0:0:0:
192,192,19090,1,0,0:0:0:0:
64,192,19240,1,0,0:0:0:0:
448,192,19390,1,0,0:0:0:0:
192,192,19390,1,0,0:0:0:0:
320,192,19465,1,0,0:0:0:0:
192,192,19540,1,0,0:0:0:0:
64,192,19615,1,0,0:0:0:0:
320,192,19690,1,0,0:0:0:0:
192,192,19690,1,0,0:0:0:0:
448,192,19765,1,0,0:0:0:0:
64,192,19840,1,0,0:0:0:0:
192,192,19915,1,0,0:0:0:0:
320,192,19990,1,0,0:0:0:0:
64,192,19990,1,0,0:0:0:0:
448,192,20065,1,0,0:0:0:0:
192,192,20140,1,0,0:0:0:0:
64,192,20215,1,0,0:0:0:0:
448,192,20290,1,0,0:0:0:0:
320,192,20365,1,0,0:0:0:0:
192,192,20440,1,0,0:0:0:0:
64,192,20515,1,0,0:0:0:0:
320,192,20590,1,0,0:0:0:0:
448,192,20590,1,0,0:0:0:0:
448,192,20740,1,0,0:0:0:0:
192,192,20740,1,0,0:0:0:0:
64,192,20890,1,0,0:0:0:0:
192,192,20965,1,0,0:0:0:0:
320,192,21040,1,0,0:0:0:0:
448,192,21040,1,0,0:0:0:0:
192,192,21190,1,0,0:0:0:0:
64,192,21340,1,0,0:0:0:0:
320,192,21340,1,0,0:0:0:0:
448,192,21490,1,0,0:0:0:0:
320,192,21565,1,0,0:0:0:0:
192,192,21640,1,0,0:0:0:0:
64,192,21640,1,0,0:0:0:0:
448,192,21790,1,0,0:0:0:0:
320,192,21940,1,0,0:0:0:0:
64,192,21940,1,0,0:0:0:0:
192,192,22090,1,0,0:0:0:0:
320,192,22165,1,0,0:0:0:0:
192,192,22240,1,0,0:0:0:0:
448,192,22240,1,0,0:0:0:0:
64,192,22390,1,0,0:0:0:0:
192,192,22540,1,0,0:0:0:0:
448,192,22540,1,0,0:0:0:0:
320,192,22690,1,0,0:0:0:0:
192,192,22765,1,0,0:0:0:0:
64,192,22840,1,0,0:0:0:0:
320,192,22840,1,0,0:0:0:0:
448,192,22990,1,0,0:0:0:0:
192,192,23140,1,0,0:0:0:0:
64,192,23140,1,0,0:0:0:0:
320,192,23290,1,0,0:0:0:0:
448,192,23365,1,0,0:0:0:0:
320,192,23440,1,0,0:0:0:0:
64,192,23440,1,0,0:0:0:0:
64,192,23590,1,0,0:0:0:0:
320,192,23740,1,0,0:0:0:0:
448,192,23740,1,0,0:0:0:0:
192,192,23890,1,0,0:0:0:0:
64,192,23965,1,0,0:0:0:0:
192,192,24040,1,0,0:0:0:0:
448,192,24040,1,0,0:0:0:0:
448,192,24190,1,0,0:0:0:0:
320,192,24340,1,0,0:0:0:0:
64,192,24340,1,0,0:0:0:0:
192,192,24490,1,0,0:0:0:0:
320,192,24565,1,0,0:0:0:0:
448,192,24640,1,0,0:0:0:0:
64,192,24640,1,0,0:0:0:0:
64,192,24790,1,0,0:0:0:0:
192,192,24940,1,0,0:0:0:0:
448,192,24940,1,0,0:0:0:0:
320,192,25090,1,0,0:0:0:0:
192,192,25165,1,0,0:0:0:0:
64,192,25240,1,0,0:0:0:0:
448,192,25240,1,0,0:0:0:0:
320,192,25390,1,0,0:0:0:0:
320,192,25540,1,0,0:0:0:0:
448,192,25540,1,0,0:0:0:0:
64,192,25690,1,0,0:0:0:0:
192,192,25765,1,0,0:0:0:0:
448,192,25840,1,0,0:0:0:0:
320,192,25840,1,0,0:0:0:0:
192,192,25990,1,0,0:0:0:0:
192,192,26140,1,0,0:0:0:0:
64,192,26140,1,0,0:0:0:0:
448,192,26290,1,0,0:0:0:0:
320,192,26365,1,0,0:0:0:0:
192,192,26440,1,0,0:0:0:0:
64,192,26440,1,0,0:0:0:0:
320,192,26590,1,0,0:0:0:0:
64,192,26740,1,0,0:0:0:0:
448,192,26740,1,0,0:0:0:0:
192,192,26890,1,0,0:0:0:0:
320,192,26965,1,0,0:0:0:0:
448,192,27040,1,0,0:0:0:0:
64,192,27040,1,0,0:0:0:0:
192,192,27190,1,0,0:0:0:0:
64,192,27340,1,0,0:0:0:0:
448,192,27340,1,0,0:0:0:0:
320,192,27490,1,0,0:0:0:0:
192,192,27565,1,0,0:0:0:0:
64,192,27640,1,0,0:0:0:0:
448,192,27640,1,0,0:0:0:0:
192,192,27790,1,0,0:0:0:0:
320,192,27790,1,0,0:0:0:0:
64,192,27865,1,0,0:0:0:0:
448,192,27865,1,0,0:0:0:0:
320,192,27940,1,0,0:0:0:0:
192,192,27940,1,0,0:0:0:0:
64,192,28015,1,0,0:0:0:0:
448,192,28015,1,0,0:0:0:0:
320,192,28090,1,0,0:0:0:0:
192,192,28165,1,0,0:0:0:0:
64,192,28165,1,0,0:0:0:0:
320,192,28240,1,0,0:0:0:0:
448,192,28240,1,0,0:0:0:0:
192,192,28315,1,0,0:0:0:0:
64,192,28315,1,0,0:0:0:0:
320,192,28390,1,0,0:0:0:0:
448,192,28390,1,0,0:0:0:0:
192,192,28465,1,0,0:0:0:0:
64,192,28465,1,0,0:0:0:0:
320,192,28540,1,0,0:0:0:0:
448,192,28540,1,0,0:0:0:0:
192,192,28615,1,0,0:0:0:0:
64,192,28615,1,0,0:0:0:0:
320,192,28690,1,0,0:0:0:0:
448,192,28765,1,0,0:0:0:0:
320,192,28840,1,0,0:0:0:0:
192,192,28915,1,0,0:0:0:0:
64,192,28990,1,0,0:0:0:0:
448,192,28990,1,0,0:0:0:0:
320,192,29065,1,0,0:0:0:0:
192,192,29065,1,0,0:0:0:0:
64,192,29140,1,0,0:0:0:0:
448,192,29140,1,0,0:0:0:0:
320,192,29215,1,0,0:0:0:0:
192,192,29215,1,0,0:0:0:0:
448,192,29290,1,0,0:0:0:0:
64,192,29365,1,0,0:0:0:0:
192,192,29440,1,0,0:0:0:0:
320,192,29515,1,0,0:0:0:0:
448,192,29590,1,0,0:0:0:0:
64,192,29665,1,0,0:0:0:0:
320,192,29740,1,0,0:0:0:0:
448,192,29740,1,0,0:0:0:0:
192,192,29815,1,0,0:0:0:0:
64,192,29815,1,0,0:0:0:0:
320,192,29890,1,0,0:0:0:0:
448,192,29890,1,0,0:0:0:0:
64,192,29965,1,0,0:0:0:0:
192,192,29965,1,0,0:0:0:0:
448,192,30040,1,0,0:0:0:0:
320,192,30115,1,0,0:0:0:0:
192,192,30190,1,0,0:0:0:0:
320,192,30340,1,0,0:0:0:0:
64,192,30340,1,0,0:0:0:0:
448,192,30490,1,0,0:0:0:0:
320,192,30565,1,0,0:0:0:0:
64,192,30640,1,0,0:0:0:0:
192,192,30640,1,0,0:0:0:0:
320,192,30790,1,0,0:0:0:0:
192,192,30940,1,0,0:0:0:0:
448,192,30940,1,0,0:0:0:0:
64,192,31090,1,0,0:0:0:0:
192,192,31165,1,0,0:0:0:0:
448,192,31240,1,0,0:0:0:0:
320,192,31240,1,0,0:0:0:0:
64,192,31390,1,0,0:0:0:0:
448,192,31540,1,0,0:0:0:0:
192,192,31540,1,0,0:0:0:0:
320,192,31690,1,0,0:0:0:0:
192,192,31765,1,0,0:0:0:0:
64,192,31840,1,0,0:0:0:0:
320,192,31840,1,0,0:0:0:0:
448,192,31990,1,0,0:0:0:0:
64,192,32140,1,0,0:0:0:0:
320,192,32140,1,0,0:0:0:0:
192,192,32290,1,0,0:0:0:0:
320,192,32365,1,0,0:0:0:0:
192,192,32440,1,0,0:0:0:0:
448,192,32440,1,0,0:0:0:0:
64,192,32590,1,0,0:0:0:0:
448,192,32740,1,0,0:0:0:0:
320,192,32740,1,0,0:0:0:0:
192,192,32890,1,0,0:0:0:0:
64,192,32965,1,0,0:0:0:0:
448,192,33040,1,0,0:0:0:0:
192,192,33040,1,0,0:0:0:0:
448,192,33190,1,0,0:0:0:0:
64,192,33340,1,0,0:0:0:0:
192,192,33340,1,0,0:0:0:0:
320,192,33490,1,0,0:0:0:0:
448,192,33565,1,0,0:0:0:0:
64,192,33640,1,0,0:0:0:0:
320,192,33640,1,0,0:0:0:0:
64,192,33790,1,0,0:0:0:0:
448,192,33940,1,0,0:0:0:0:
192,192,33940,1,0,0:0:0:0:
320,192,34090,1,0,0:0:0:0:
192,192,34165,1,0,0:0:0:0:
448,192,34240,1,0,0:0:0:0:
64,192,34240,1,0,0:0:0:0:
192,192,34390,1,0,0:0:0:0:
64,192,34390,1,0,0:0:0:0:
320,192,34465,1,0,0:0:0:0:
448,192,34465,1,0,0:0:0:0:
64,192,34540,1,0,0:0:0:0:
192,192,34540,1,0,0:0:0:0:
320,192,34615,1,0,0:0:0:0:
448,192,34615,1,0,0:0:0:0:
192,192,34690,1,0,0:0:0:0:
64,192,34765,1,0,0:0:0:0:
448,192,34840,1,0,0:0:0:0:
320,192,34915,1,0,0:0:0:0:
192,192,34990,1,0,0:0:0:0:
64,192,35140,1,0,0:0:0:0:
192,192,35140,1,0,0:0:0:0:
448,192,35290,1,0,0:0:0:0:
320,192,35365,1,0,0:0:0:0:
192,192,35440,1,0,0:0:0:0:
64,192,35440,1,0,0:0:0:0:
320,192,35590,1,0,0:0:0:0:
448,192,35740,1,0,0:0:0:0:
320,192,35740,1,0,0:0:0:0:
64,192,35890,1,0,0:0:0:0:
192,192,35965,1,0,0:0:0:0:
448,192,36040,1,0,0:0:0:0:
320,192,36040,1,0,0:0:0:0:
192,192,36190,1,0,0:0:0:0:
64,192,36340,5,0,0:0:0:0:
448,192,36340,1,0,0:0:0:0:
320,192,36490,1,0,0:0:0:0:
192,192,36565,1,0,0:0:0:0:
448,192,36640,1,0,0:0:0:0:
64,192,36640,1,0,0:0:0:0:
320,192,36790,1,0,0:0:0:0:
64,192,36940,1,0,0:0:0:0:
448,192,36940,1,0,0:0:0:0:
192,192,37090,1,0,0:0:0:0:
320,192,37165,1,0,0:0:0:0:
64,192,37240,1,0,0:0:0:0:
448,192,37240,1,0,0:0:0:0:
192,192,37390,1,0,0:0:0:0:
320,192,37390,1,0,0:0:0:0:
448,192,37465,1,0,0:0:0:0:
64,192,37465,1,0,0:0:0:0:
320,192,37540,1,0,0:0:0:0:
192,192,37540,1,0,0:0:0:0:
64,192,37615,1,0,0:0:0:0:
448,192,37615,1,0,0:0:0:0:
320,192,37690,1,0,0:0:0:0:
192,192,37765,1,0,0:0:0:0:
64,192,37765,1,0,0:0:0:0:
320,192,37840,1,0,0:0:0:0:
448,192,37840,1,0,0:0:0:0:
192,192,37915,1,0,0:0:0:0:
64,192,37915,1,0,0:0:0:0:
320,192,37990,1,0,0:0:0:0:
64,192,38065,1,0,0:0:0:0:
448,192,38065,1,0,0:0:0:0:
192,192,38140,1,0,0:0:0:0:
320,192,38140,1,0,0:0:0:0:
448,192,38215,1,0,0:0:0:0:
64,192,38215,1,0,0:0:0:0:
192,192,38290,1,0,0:0:0:0:
320,192,38365,1,0,0:0:0:0:
64,192,38365,1,0,0:0:0:0:
192,192,38440,1,0,0:0:0:0:
448,192,38440,1,0,0:0:0:0:
64,192,38515,1,0,0:0:0:0:
320,192,38515,1,0,0:0:0:0:
192,192,38590,1,0,0:0:0:0:
448,192,38665,1,0,0:0:0:0:
320,192,38665,1,0,0:0:0:0:
64,192,38740,1,0,0:0:0:0:
192,192,38740,1,0,0:0:0:0:
320,192,38815,1,0,0:0:0:0:
448,192,38815,1,0,0:0:0:0:
192,192,38890,1,0,0:0:0:0:
64,192,38965,1,0,0:0:0:0:
320,192,39040,1,0,0:0:0:0:
448,192,39040,1,0,0:0:0:0:
64,192,39115,1,0,0:0:0:0:
192,192,39115,1,0,0:0:0:0:
320,192,39190,1,0,0:0:0:0:
448,192,39190,1,0,0:0:0:0:
192,192,39265,1,0,0:0:0:0:
64,192,39265,1,0,0:0:0:0:
448,192,39340,1,0,0:0:0:0:
320,192,39415,1,0,0:0:0:0:
192,192,39490,1,0,0:0:0:0:
64,192,39490,1,0,0:0:0:0:
320,192,39565,1,0,0:0:0:0:
448,192,39565,1,0,0:0:0:0:
64,192,39640,1,0,0:0:0:0:
192,192,39715,1,0,0:0:0:0:
448,192,39790,128,0,40015:0:0:0:0:
320,192,39790,128,0,40015:0:0:0:0:
192,192,42190,128,0,42415:0:0:0:0:
64,192,42190,128,0,42415:0:0:0:0:
320,192,44590,128,0,44815:0:0:0:0:
192,192,44590,128,0,44815:0:0:0:0:
448,192,46990,128,0,47215:0:0:0:0:
64,192,46990,1,0,0:0:0:0:
192,192,47140,1,0,0:0:0:0:
320,192,47215,1,0,0:0:0:0:
192,192,47290,1,0,0:0:0:0:
64,192,47290,128,0,47515:0:0:0:0:
320,192,47440,1,0,0:0:0:0:
448,192,47515,1,0,0:0:0:0:
320,192,47590,1,0,0:0:0:0:
192,192,47590,128,0,47665:0:0:0:0:
64,192,47740,1,0,0:0:0:0:
448,192,47740,128,0,48040:0:0:0:0:
192,192,48040,1,0,0:0:0:0:
448,192,48190,1,0,0:0:0:0:
320,192,48190,1,0,0:0:0:0:
64,192,48340,1,0,0:0:0:0:
192,192,48415,1,0,0:0:0:0:
448,192,48490,1,0,0:0:0:0:
320,192,48490,1,0,0:0:0:0:
64,192,48565,1,0,0:0:0:0:
192,192,48565,1,0,0:0:0:0:
320,192,48640,1,0,0:0:0:0:
448,192,48640,1,0,0:0:0:0:
64,192,48715,1,0,0:0:0:0:
192,192,48715,1,0,0:0:0:0:
320,192,48790,1,0,0:0:0:0:
192,192,48865,1,0,0:0:0:0:
320,192,48940,1,0,0:0:0:0:
448,192,48940,1,0,0:0:0:0:
192,192,49015,1,0,0:0:0:0:
64,192,49015,1,0,0:0:0:0:
320,192,49090,1,0,0:0:0:0:
448,192,49090,1,0,0:0:0:0:
192,192,49165,1,0,0:0:0:0:
64,192,49165,1,0,0:0:0:0:
320,192,49240,1,0,0:0:0:0:
448,192,49315,1,0,0:0:0:0:
64,192,49390,1,0,0:0:0:0:
320,192,49540,1,0,0:0:0:0:
448,192,49540,1,0,0:0:0:0:
192,192,49690,1,0,0:0:0:0:
320,192,49765,1,0,0:0:0:0:
448,192,49840,1,0,0:0:0:0:
64,192,49840,1,0,0:0:0:0:
320,192,49990,1,0,0:0:0:0:
64,192,50140,1,0,0:0:0:0:
192,192,50140,1,0,0:0:0:0:
448,192,50290,1,0,0:0:0:0:
320,192,50365,1,0,0:0:0:0:
192,192,50440,1,0,0:0:0:0:
64,192,50440,1,0,0:0:0:0:
320,192,50590,1,0,0:0:0:0:
448,192,50740,1,0,0:0:0:0:
192,192,50740,1,0,0:0:0:0:
320,192,50890,1,0,0:0:0:0:
192,192,50965,1,0,0:0:0:0:
64,192,51040,1,0,0:0:0:0:
448,192,51040,1,0,0:0:0:0:
320,192,51190,128,0,51265:0:0:0:0:
64,192,51340,128,0,51640:0:0:0:0:
192,192,51340,1,0,0:0:0:0:
320,192,51490,1,0,0:0:0:0:
192,192,51565,1,0,0:0:0:0:
448,192,51640,1,0,0:0:0:0:
320,192,51640,1,0,0:0:0:0:
448,192,51790,1,0,0:0:0:0:
320,192,51940,1,0,0:0:0:0:
64,192,51940,1,0,0:0:0:0:
192,192,52090,1,0,0:0:0:0:
448,192,52165,1,0,0:0:0:0:
192,192,52240,1,0,0:0:0:0:
64,192,52240,1,0,0:0:0:0:
320,192,52390,1,0,0:0:0:0:
64,192,52540,1,0,0:0:0:0:
448,192,52540,1,0,0:0:0:0:
192,192,52690,1,0,0:0:0:0:
320,192,52765,1,0,0:0:0:0:
448,192,52840,1,0,0:0:0:0:
192,192,52840,1,0,0:0:0:0:
320,192,52990,1,0,0:0:0:0:
192,192,53140,1,0,0:0:0:0:
64,192,53140,1,0,0:0:0:0:
64,192,53290,1,0,0:0:0:0:
192,192,53365,1,0,0:0:0:0:
320,192,53440,1,0,0:0:0:0:
448,192,53440,1,0,0:0:0:0:
192,192,53590,1,0,0:0:0:0:
64,192,53740,1,0,0:0:0:0:
320,192,53740,1,0,0:0:0:0:
448,192,53890,1,0,0:0:0:0:
320,192,53965,1,0,0:0:0:0:
192,192,54040,1,0,0:0:0:0:
64,192,54040,1,0,0:0:0:0:
192,192,54190,128,0,54265:0:0:0:0:
448,192,54340,128,0,55090:0:0:0:0:
64,192,54340,1,0,0:0:0:0:
320,192,54490,1,0,0:0:0:0:
192,192,54565,1,0,0:0:0:0:
64,192,54640,1,0,0:0:0:0:
320,192,54640,1,0,0:0:0:0:
192,192,54790,1,0,0:0:0:0:
64,192,54940,1,0,0:0:0:0:
320,192,54940,1,0,0:0:0:0:
64,192,55090,1,0,0:0:0:0:
192,192,55165,1,0,0:0:0:0:
320,192,55240,1,0,0:0:0:0:
448,192,55240,1,0,0:0:0:0:
64,192,55390,128,0,55465:0:0:0:0:
448,192,55540,1,0,0:0:0:0:
320,192,55540,128,0,55990:0:0:0:0:
64,192,55690,1,0,0:0:0:0:
192,192,55765,1,0,0:0:0:0:
64,192,55840,1,0,0:0:0:0:
448,192,55840,1,0,0:0:0:0:
192,192,55990,1,0,0:0:0:0:
320,192,56140,1,0,0:0:0:0:
64,192,56140,1,0,0:0:0:0:
448,192,56290,1,0,0:0:0:0:
320,192,56365,1,0,0:0:0:0:
64,192,56440,1,0,0:0:0:0:
192,192,56440,1,0,0:0:0:0:
448,192,56590,128,0,56665:0:0:0:0:
320,192,56740,128,0,56815:0:0:0:0:
192,192,56740,1,0,0:0:0:0:
64,192,56890,128,0,57040:0:0:0:0:
192,192,56965,1,0,0:0:0:0:
320,192,57040,1,0,0:0:0:0:
448,192,57040,1,0,0:0:0:0:
64,192,57190,128,0,57265:0:0:0:0:
192,192,57340,128,0,57415:0:0:0:0:
448,192,57340,1,0,0:0:0:0:
320,192,57490,128,0,57565:0:0:0:0:
192,192,57565,1,0,0:0:0:0:
448,192,57640,1,0,0:0:0:0:
320,192,57640,1,0,0:0:0:0:
192,192,57790,1,0,0:0:0:0:
64,192,57790,1,0,0:0:0:0:
320,192,57865,1,0,0:0:0:0:
448,192,57865,1,0,0:0:0:0:
192,192,57940,1,0,0:0:0:0:
64,192,57940,1,0,0:0:0:0:
320,192,58015,1,0,0:0:0:0:
448,192,58015,1,0,0:0:0:0:
192,192,58090,1,0,0:0:0:0:
64,192,58165,1,0,0:0:0:0:
192,192,58240,1,0,0:0:0:0:
320,192,58315,1,0,0:0:0:0:
448,192,58390,1,0,0:0:0:0:
64,192,58390,1,0,0:0:0:0:
192,192,58465,1,0,0:0:0:0:
320,192,58465,1,0,0:0:0:0:
64,192,58540,1,0,0:0:0:0:
448,192,58540,1,0,0:0:0:0:
192,192,58615,1,0,0:0:0:0:
320,192,58615,1,0,0:0:0:0:
448,192,58690,1,0,0:0:0:0:
320,192,58765,1,0,0:0:0:0:
64,192,58840,1,0,0:0:0:0:
192,192,58915,1,0,0:0:0:0:
320,192,58990,1,0,0:0:0:0:
448,192,58990,1,0,0:0:0:0:
192,192,59140,1,0,0:0:0:0:
448,192,59140,1,0,0:0:0:0:
320,192,59290,1,0,0:0:0:0:
192,192,59365,1,0,0:0:0:0:
64,192,59440,1,0,0:0:0:0:
320,192,59440,1,0,0:0:0:0:
192,192,59590,1,0,0:0:0:0:
320,192,59740,1,0,0:0:0:0:
448,192,59740,1,0,0:0:0:0:
192,192,59890,1,0,0:0:0:0:
448,192,59965,1,0,0:0:0:0:
320,192,60040,1,0,0:0:0:0:
64,192,60040,1,0,0:0:0:0:
192,192,60190,1,0,0:0:0:0:
192,192,60340,1,0,0:0:0:0:
64,192,60340,1,0,0:0:0:0:
320,192,60490,1,0,0:0:0:0:
192,192,60565,1,0,0:0:0:0:
320,192,60640,1,0,0:0:0:0:
448,192,60640,1,0,0:0:0:0:
64,192,60790,1,0,0:0:0:0:
448,192,60940,1,0,0:0:0:0:
320,192,60940,1,0,0:0:0:0:
64,192,61090,128,0,61390:0:0:0:0:
448,192,61165,1,0,0:0:0:0:
320,192,61240,1,0,0:0:0:0:
192,192,61240,1,0,0:0:0:0:
448,192,61390,128,0,61465:0:0:0:0:
192,192,61540,128,0,61615:0:0:0:0:
64,192,61540,1,0,0:0:0:0:
448,192,61690,1,0,0:0:0:0:
192,192,61765,1,0,0:0:0:0:
64,192,61840,1,0,0:0:0:0:
320,192,61840,1,0,0:0:0:0:
192,192,61990,1,0,0:0:0:0:
320,192,62140,1,0,0:0:0:0:
448,192,62140,1,0,0:0:0:0:
192,192,62290,1,0,0:0:0:0:
320,192,62365,1,0,0:0:0:0:
64,192,62440,1,0,0:0:0:0:
448,192,62440,1,0,0:0:0:0:
192,192,62590,128,0,62665:0:0:0:0:
448,192,62740,128,0,62815:0:0:0:0:
64,192,62740,1,0,0:0:0:0:
320,192,62890,1,0,0:0:0:0:
192,192,62965,1,0,0:0:0:0:
64,192,63040,1,0,0:0:0:0:
320,192,63040,1,0,0:0:0:0:
192,192,63190,1,0,0:0:0:0:
64,192,63340,1,0,0:0:0:0:
320,192,63340,1,0,0:0:0:0:
448,192,63490,1,0,0:0:0:0:
320,192,63565,1,0,0:0:0:0:
192,192,63640,1,0,0:0:0:0:
64,192,63640,1,0,0:0:0:0:
320,192,63790,128,0,63865:0:0:0:0:
448,192,63940,1,0,0:0:0:0:
192,192,63940,128,0,64015:0:0:0:0:
64,192,64090,128,0,64165:0:0:0:0:
192,192,64165,1,0,0:0:0:0:
448,192,64240,1,0,0:0:0:0:
320,192,64240,128,0,64315:0:0:0:0:
192,192,64390,128,0,64540:0:0:0:0:
64,192,64540,1,0,0:0:0:0:
320,192,64540,1,0,0:0:0:0:
448,192,64690,128,0,64990:0:0:0:0:
320,192,64765,1,0,0:0:0:0:
192,192,64840,1,0,0:0:0:0:
64,192,64840,1,0,0:0:0:0:
320,192,64990,128,0,65065:0:0:0:0:
448,192,65140,1,0,0:0:0:0:
192,192,65140,128,0,65215:0:0:0:0:
64,192,65290,1,0,0:0:0:0:
320,192,65365,1,0,0:0:0:0:
192,192,65440,1,0,0:0:0:0:
448,192,65440,128,0,65515:0:0:0:0:
64,192,65590,128,0,65740:0:0:0:0:
448,192,65740,128,0,65890:0:0:0:0:
192,192,65740,1,0,0:0:0:0:
320,192,65890,128,0,66040:0:0:0:0:
448,192,65965,1,0,0:0:0:0:
192,192,66040,1,0,0:0:0:0:
64,192,66040,128,0,66190:0:0:0:0:
448,192,66190,1,0,0:0:0:0:
320,192,66190,1,0,0:0:0:0:
64,192,66265,1,0,0:0:0:0:
192,192,66265,1,0,0:0:0:0:
320,192,66340,1,0,0:0:0:0:
448,192,66340,1,0,0:0:0:0:
192,192,66415,1,0,0:0:0:0:
64,192,66415,1,0,0:0:0:0:
320,192,66490,1,0,0:0:0:0:
448,192,66490,1,0,0:0:0:0:
192,192,66565,1,0,0:0:0:0:
64,192,66565,1,0,0:0:0:0:
320,192,66640,1,0,0:0:0:0:
448,192,66640,1,0,0:0:0:0:
192,192,66715,1,0,0:0:0:0:
64,192,66715,1,0,0:0:0:0:
320,192,66790,1,0,0:0:0:0:
448,192,66790,1,0,0:0:0:0:
192,192,66865,1,0,0:0:0:0:
64,192,66865,1,0,0:0:0:0:
320,192,66940,1,0,0:0:0:0:
448,192,66940,1,0,0:0:0:0:
192,192,67015,1,0,0:0:0:0:
64,192,67015,1,0,0:0:0:0:
320,192,67090,1,0,0:0:0:0:
448,192,67090,1,0,0:0:0:0:
64,192,67240,1,0,0:0:0:0:
192,192,67240,1,0,0:0:0:0:
192,192,67390,1,0,0:0:0:0:
320,192,67390,1,0,0:0:0:0:
192,192,67540,1,0,0:0:0:0:
448,192,67540,128,0,67690:0:0:0:0:
320,192,67540,128,0,67615:0:0:0:0:
192,192,67840,1,0,0:0:0:0:
320,192,67840,128,0,67915:0:0:0:0:
448,192,67840,128,0,67990:0:0:0:0:
192,192,68140,1,0,0:0:0:0:
320,192,68140,128,0,68215:0:0:0:0:
448,192,68140,128,0,68290:0:0:0:0:
320,192,68440,128,0,68515:0:0:0:0:
448,192,68440,128,0,68590:0:0:0:0:
192,192,68440,1,0,0:0:0:0:
192,192,68590,128,0,68740:0:0:0:0:
64,192,68665,1,0,0:0:0:0:
320,192,68740,1,0,0:0:0:0:
448,192,68815,1,0,0:0:0:0:
320,192,68890,1,0,0:0:0:0:
64,192,68890,1,0,0:0:0:0:
192,192,68965,1,0,0:0:0:0:
64,192,69040,128,0,69190:0:0:0:0:
320,192,69115,1,0,0:0:0:0:
192,192,69190,1,0,0:0:0:0:
448,192,69190,1,0,0:0:0:0:
64,192,69265,1,0,0:0:0:0:
192,192,69340,1,0,0:0:0:0:
320,192,69415,1,0,0:0:0:0:
448,192,69490,128,0,69640:0:0:0:0:
192,192,69490,1,0,0:0:0:0:
64,192,69565,1,0,0:0:0:0:
320,192,69640,1,0,0:0:0:0:
448,192,69715,1,0,0:0:0:0:
320,192,69790,128,0,69940:0:0:0:0:
192,192,69790,1,0,0:0:0:0:
64,192,69865,1,0,0:0:0:0:
192,192,69940,1,0,0:0:0:0:
448,192,70015,1,0,0:0:0:0:
320,192,70090,1,0,0:0:0:0:
64,192,70090,1,0,0:0:0:0:
192,192,70165,1,0,0:0:0:0:
64,192,70240,128,0,70390:0:0:0:0:
192,192,70315,1,0,0:0:0:0:
320,192,70390,1,0,0:0:0:0:
448,192,70390,1,0,0:0:0:0:
64,192,70465,1,0,0:0:0:0:
192,192,70540,1,0,0:0:0:0:
448,192,70615,1,0,0:0:0:0:
320,192,70690,128,0,70840:0:0:0:0:
64,192,70690,1,0,0:0:0:0:
192,192,70765,1,0,0:0:0:0:
448,192,70840,1,0,0:0:0:0:
320,192,70915,1,0,0:0:0:0:
64,192,70990,1,0,0:0:0:0:
192,192,71040,1,0,0:0:0:0:
448,192,71090,1,0,0:0:0:0:
320,192,71140,1,0,0:0:0:0:
64,192,71190,1,0,0:0:0:0:
192,192,71240,1,0,0:0:0:0:
448,192,71290,1,0,0:0:0:0:
320,192,71340,1,0,0:0:0:0:
64,192,71390,1,0,0:0:0:0:
192,192,71440,1,0,0:0:0:0:
448,192,71490,1,0,0:0:0:0:
320,192,71540,1,0,0:0:0:0:
64,192,71590,1,0,0:0:0:0:
192,192,71640,1,0,0:0:0:0:
448,192,71690,1,0,0:0:0:0:
320,192,71740,1,0,0:0:0:0:
64,192,71790,1,0,0:0:0:0:
192,192,71840,1,0,0:0:0:0:
448,192,71890,1,0,0:0:0:0:
320,192,71940,1,0,0:0:0:0:
64,192,71990,1,0,0:0:0:0:
192,192,72040,1,0,0:0:0:0:
448,192,72090,1,0,0:0:0:0:
320,192,72140,1,0,0:0:0:0:
64,192,72190,1,0,0:0:0:0:
192,192,72190,1,0,0:0:0:0:
320,192,72265,1,0,0:0:0:0:
448,192,72340,1,0,0:0:0:0:
64,192,72415,1,0,0:0:0:0:
192,192,72490,1,0,0:0:0:0:
320,192,72565,1,0,0:0:0:0:
448,192,72640,1,0,0:0:0:0:
192,192,72640,1,0,0:0:0:0:
64,192,72715,1,0,0:0:0:0:
192,192,72790,1,0,0:0:0:0:
320,192,72865,1,0,0:0:0:0:
448,192,72940,1,0,0:0:0:0:
64,192,73015,1,0,0:0:0:0:
192,192,73090,1,0,0:0:0:0:
448,192,73090,1,0,0:0:0:0:
320,192,73165,1,0,0:0:0:0:
448,192,73240,1,0,0:0:0:0:
320,192,73315,1,0,0:0:0:0:
192,192,73390,1,0,0:0:0:0:
64,192,73390,1,0,0:0:0:0:
448,192,73465,1,0,0:0:0:0:
320,192,73540,1,0,0:0:0:0:
192,192,73615,1,0,0:0:0:0:
64,192,73690,1,0,0:0:0:0:
320,192,73690,1,0,0:0:0:0:
448,192,73765,1,0,0:0:0:0:
320,192,73840,1,0,0:0:0:0:
64,192,73915,1,0,0:0:0:0:
192,192,73990,1,0,0:0:0:0:
320,192,73990,1,0,0:0:0:0:
448,192,74065,1,0,0:0:0:0:
64,192,74140,1,0,0:0:0:0:
192,192,74215,1,0,0:0:0:0:
320,192,74290,1,0,0:0:0:0:
448,192,74290,1,0,0:0:0:0:
192,192,74365,1,0,0:0:0:0:
64,192,74440,1,0,0:0:0:0:
448,192,74515,1,0,0:0:0:0:
192,192,74590,1,0,0:0:0:0:
64,192,74590,1,0,0:0:0:0:
320,192,74665,1,0,0:0:0:0:
448,192,74665,1,0,0:0:0:0:
192,192,74740,1,0,0:0:0:0:
64,192,74740,1,0,0:0:0:0:
320,192,74815,1,0,0:0:0:0:
448,192,74815,1,0,0:0:0:0:
192,192,74890,1,0,0:0:0:0:
64,192,74965,1,0,0:0:0:0:
320,192,75040,1,0,0:0:0:0:
448,192,75040,1,0,0:0:0:0:
192,192,75115,1,0,0:0:0:0:
64,192,75115,1,0,0:0:0:0:
448,192,75190,1,0,0:0:0:0:
320,192,75265,1,0,0:0:0:0:
64,192,75340,1,0,0:0:0:0:
448,192,75340,1,0,0:0:0:0:
192,192,75415,1,0,0:0:0:0:
320,192,75415,1,0,0:0:0:0:
64,192,75490,1,0,0:0:0:0:
448,192,75490,1,0,0:0:0:0:
320,192,75565,1,0,0:0:0:0:
192,192,75640,1,0,0:0:0:0:
64,192,75715,1,0,0:0:0:0:
192,192,75790,1,0,0:0:0:0:
448,192,75790,1,0,0:0:0:0:
320,192,75790,1,0,0:0:0:0:
320,192,76090,1,0,0:0:0:0:
64,192,76090,1,0,0:0:0:0:
448,192,76090,1,0,0:0:0:0:
192,192,76240,1,0,0:0:0:0:
64,192,76240,1,0,0:0:0:0:
448,192,76240,1,0,0:0:0:0:
192,192,76390,1,0,0:0:0:0:
64,192,76390,1,0,0:0:0:0:
320,192,76390,1,0,0:0:0:0:
64,192,76540,1,0,0:0:0:0:
192,192,76540,1,0,0:0:0:0:
448,192,76540,1,0,0:0:0:0:
320,192,76690,1,0,0:0:0:0:
64,192,76690,1,0,0:0:0:0:
448,192,76690,1,0,0:0:0:0:
320,192,76840,1,0,0:0:0:0:
448,192,76840,1,0,0:0:0:0:
192,192,76840,1,0,0:0:0:0:
64,192,76990,1,0,0:0:0:0:
320,192,76990,1,0,0:0:0:0:
448,192,76990,1,0,0:0:0:0:
192,192,77290,1,0,0:0:0:0:
448,192,77290,1,0,0:0:0:0:
64,192,77290,128,0,77590:0:0:0:0:
320,192,77590,1,0,0:0:0:0:
448,192,77590,1,0,0:0:0:0:
192,192,77590,128,0,77890:0:0:0:0:
64,192,77890,1,0,0:0:0:0:
320,192,77890,1,0,0:0:0:0:
448,192,77890,128,0,78190:0:0:0:0:
192,192,78190,128,0,79390:0:0:0:0:
448,192,78340,1,0,0:0:0:0:
320,192,78340,1,0,0:0:0:0:
64,192,78490,1,0,0:0:0:0:
320,192,78565,1,0,0:0:0:0:
448,192,78640,1,0,0:0:0:0:
64,192,78640,1,0,0:0:0:0:
448,192,78790,1,0,0:0:0:0:
320,192,78940,1,0,0:0:0:0:
64,192,78940,1,0,0:0:0:0:
448,192,79090,1,0,0:0:0:0:
320,192,79165,1,0,0:0:0:0:
64,192,79240,1,0,0:0:0:0:
448,192,79240,1,0,0:0:0:0:
448,192,79390,128,0,80215:0:0:0:0:
192,192,79540,1,0,0:0:0:0:
64,192,79540,1,0,0:0:0:0:
64,192,79690,1,0,0:0:0:0:
192,192,79765,1,0,0:0:0:0:
320,192,79840,1,0,0:0:0:0:
64,192,79840,1,0,0:0:0:0:
192,192,79990,1,0,0:0:0:0:
64,192,80140,1,0,0:0:0:0:
320,192,80140,1,0,0:0:0:0:
320,192,80290,128,0,80365:0:0:0:0:
448,192,80365,1,0,0:0:0:0:
192,192,80440,128,0,80515:0:0:0:0:
64,192,80440,1,0,0:0:0:0:
64,192,80590,128,0,81790:0:0:0:0:
320,192,80740,1,0,0:0:0:0:
448,192,80740,1,0,0:0:0:0:
192,192,80890,1,0,0:0:0:0:
448,192,80965,1,0,0:0:0:0:
320,192,81040,1,0,0:0:0:0:
192,192,81040,1,0,0:0:0:0:
320,192,81190,1,0,0:0:0:0:
192,192,81340,1,0,0:0:0:0:
448,192,81340,1,0,0:0:0:0:
448,192,81490,1,0,0:0:0:0:
320,192,81565,1,0,0:0:0:0:
192,192,81640,1,0,0:0:0:0:
448,192,81640,1,0,0:0:0:0:
448,192,81790,128,0,81865:0:0:0:0:
64,192,81940,1,0,0:0:0:0:
320,192,81940,128,0,82015:0:0:0:0:
64,192,82090,128,0,82165:0:0:0:0:
320,192,82165,1,0,0:0:0:0:
448,192,82240,1,0,0:0:0:0:
192,192,82240,128,0,82315:0:0:0:0:
448,192,82390,128,0,82465:0:0:0:0:
448,192,82540,128,0,82615:0:0:0:0:
192,192,82540,1,0,0:0:0:0:
64,192,82690,128,0,82990:0:0:0:0:
192,192,82765,1,0,0:0:0:0:
320,192,82840,1,0,0:0:0:0:
448,192,82840,1,0,0:0:0:0:
192,192,82990,128,0,83140:0:0:0:0:
448,192,83140,1,0,0:0:0:0:
64,192,83140,1,0,0:0:0:0:
320,192,83290,128,0,83365:0:0:0:0:
192,192,83365,1,0,0:0:0:0:
448,192,83440,128,0,83590:0:0:0:0:
64,192,83440,1,0,0:0:0:0:
320,192,83590,1,0,0:0:0:0:
192,192,83740,128,0,83815:0:0:0:0:
448,192,83740,1,0,0:0:0:0:
64,192,83890,128,0,84040:0:0:0:0:
448,192,83965,1,0,0:0:0:0:
320,192,84040,1,0,0:0:0:0:
192,192,84040,128,0,84190:0:0:0:0:
320,192,84190,128,0,84340:0:0:0:0:
64,192,84340,1,0,0:0:0:0:
192,192,84340,1,0,0:0:0:0:
64,192,84490,128,0,84565:0:0:0:0:
192,192,84565,1,0,0:0:0:0:
448,192,84640,128,0,84790:0:0:0:0:
320,192,84640,1,0,0:0:0:0:
192,192,84790,128,0,84865:0:0:0:0:
320,192,84940,128,0,85015:0:0:0:0:
448,192,84940,1,0,0:0:0:0:
64,192,85090,128,0,85390:0:0:0:0:
320,192,85165,1,0,0:0:0:0:
192,192,85240,1,0,0:0:0:0:
448,192,85240,1,0,0:0:0:0:
192,192,85390,1,0,0:0:0:0:
448,192,85540,1,0,0:0:0:0:
320,192,85540,1,0,0:0:0:0:
192,192,85690,1,0,0:0:0:0:
320,192,85765,1,0,0:0:0:0:
192,192,85840,1,0,0:0:0:0:
64,192,85840,1,0,0:0:0:0:
320,192,85990,1,0,0:0:0:0:
192,192,86140,1,0,0:0:0:0:
448,192,86140,1,0,0:0:0:0:
448,192,86290,1,0,0:0:0:0:
320,192,86365,1,0,0:0:0:0:
192,192,86440,1,0,0:0:0:0:
64,192,86440,1,0,0:0:0:0:
320,192,86590,1,0,0:0:0:0:
448,192,86590,1,0,0:0:0:0:
192,192,86665,1,0,0:0:0:0:
64,192,86665,1,0,0:0:0:0:
320,192,86740,1,0,0:0:0:0:
448,192,86740,1,0,0:0:0:0:
192,192,86815,1,0,0:0:0:0:
64,192,86815,1,0,0:0:0:0:
320,192,86890,1,0,0:0:0:0:
448,192,86965,1,0,0:0:0:0:
64,192,86965,1,0,0:0:0:0:
320,192,87040,1,0,0:0:0:0:
192,192,87040,1,0,0:0:0:0:
448,192,87115,1,0,0:0:0:0:
64,192,87115,1,0,0:0:0:0:
192,192,87190,1,0,0:0:0:0:
320,192,87265,1,0,0:0:0:0:
448,192,87340,1,0,0:0:0:0:
320,192,87415,1,0,0:0:0:0:
64,192,87490,1,0,0:0:0:0:
448,192,87490,1,0,0:0:0:0:
192,192,87565,1,0,0:0:0:0:
64,192,87640,1,0,0:0:0:0:
448,192,87715,1,0,0:0:0:0:
320,192,87790,1,0,0:0:0:0:
192,192,87790,1,0,0:0:0:0:
192,192,87940,1,0,0:0:0:0:
64,192,87940,1,0,0:0:0:0:
320,192,88090,1,0,0:0:0:0:
64,192,88165,1,0,0:0:0:0:
192,192,88240,1,0,0:0:0:0:
448,192,88240,1,0,0:0:0:0:
320,192,88390,1,0,0:0:0:0:
64,192,88540,1,0,0:0:0:0:
192,192,88540,1,0,0:0:0:0:
192,192,88690,1,0,0:0:0:0:
320,192,88765,1,0,0:0:0:0:
448,192,88840,1,0,0:0:0:0:
192,192,88840,1,0,0:0:0:0:
320,192,88990,1,0,0:0:0:0:
192,192,89140,1,0,0:0:0:0:
64,192,89140,1,0,0:0:0:0:
64,192,89290,1,0,0:0:0:0:
192,192,89365,1,0,0:0:0:0:
448,192,89440,1,0,0:0:0:0:
320,192,89440,1,0,0:0:0:0:
192,192,89590,1,0,0:0:0:0:
192,192,89740,1,0,0:0:0:0:
64,192,89740,1,0,0:0:0:0:
320,192,89890,1,0,0:0:0:0:
448,192,89965,1,0,0:0:0:0:
320,192,90040,1,0,0:0:0:0:
192,192,90040,1,0,0:0:0:0:
64,192,90190,1,0,0:0:0:0:
448,192,90340,1,0,0:0:0:0:
192,192,90340,1,0,0:0:0:0:
320,192,90490,1,0,0:0:0:0:
64,192,90565,1,0,0:0:0:0:
192,192,90640,1,0,0:0:0:0:
320,192,90640,1,0,0:0:0:0:
448,192,90790,1,0,0:0:0:0:
320,192,90940,1,0,0:0:0:0:
64,192,90940,1,0,0:0:0:0:
192,192,91090,1,0,0:0:0:0:
320,192,91165,1,0,0:0:0:0:
448,192,91240,1,0,0:0:0:0:
64,192,91240,1,0,0:0:0:0:
320,192,91390,1,0,0:0:0:0:
192,192,91540,1,0,0:0:0:0:
64,192,91540,1,0,0:0:0:0:
448,192,91690,1,0,0:0:0:0:
320,192,91765,1,0,0:0:0:0:
64,192,91840,1,0,0:0:0:0:
448,192,91840,1,0,0:0:0:0:
320,192,91990,1,0,0:0:0:0:
64,192,92140,1,0,0:0:0:0:
320,192,92140,1,0,0:0:0:0:
192,192,92290,1,0,0:0:0:0:
320,192,92365,1,0,0:0:0:0:
448,192,92440,1,0,0:0:0:0:
64,192,92440,1,0,0:0:0:0:
320,192,92590,1,0,0:0:0:0:
192,192,92590,1,0,0:0:0:0:
448,192,92665,1,0,0:0:0:0:
64,192,92740,1,0,0:0:0:0:
192,192,92815,1,0,0:0:0:0:
320,192,92890,1,0,0:0:0:0:
448,192,92890,1,0,0:0:0:0:
64,192,92890,1,0,0:0:0:0:
192,192,92965,1,0,0:0:0:0:
64,192,93040,1,0,0:0:0:0:
320,192,93115,1,0,0:0:0:0:
448,192,93190,1,0,0:0:0:0:
192,192,93190,1,0,0:0:0:0:
64,192,93190,1,0,0:0:0:0:
320,192,93265,1,0,0:0:0:0:
448,192,93340,1,0,0:0:0:0:
192,192,93415,1,0,0:0:0:0:
64,192,93490,1,0,0:0:0:0:
320,192,93490,1,0,0:0:0:0:
448,192,93490,1,0,0:0:0:0:
192,192,93565,1,0,0:0:0:0:
64,192,93640,1,0,0:0:0:0:
320,192,93715,1,0,0:0:0:0:
448,192,93790,1,0,0:0:0:0:
192,192,93790,1,0,0:0:0:0:
64,192,93790,1,0,0:0:0:0:
320,192,93865,1,0,0:0:0:0:
448,192,93940,1,0,0:0:0:0:
192,192,94015,1,0,0:0:0:0:
64,192,94090,1,0,0:0:0:0:
320,192,94090,1,0,0:0:0:0:
448,192,94090,1,0,0:0:0:0:
192,192,94165,1,0,0:0:0:0:
64,192,94240,1,0,0:0:0:0:
320,192,94315,1,0,0:0:0:0:
448,192,94390,1,0,0:0:0:0:
192,192,94390,1,0,0:0:0:0:
64,192,94390,1,0,0:0:0:0:
320,192,94465,1,0,0:0:0:0:
448,192,94540,1,0,0:0:0:0:
192,192,94615,1,0,0:0:0:0:
64,192,94690,1,0,0:0:0:0:
320,192,94690,1,0,0:0:0:0:
448,192,94690,1,0,0:0:0:0:
192,192,94765,1,0,0:0:0:0:
448,192,94840,1,0,0:0:0:0:
320,192,94915,1,0,0:0:0:0:
192,192,94990,1,0,0:0:0:0:
64,192,94990,1,0,0:0:0:0:
320,192,95065,1,0,0:0:0:0:
448,192,95065,1,0,0:0:0:0:
192,192,95140,1,0,0:0:0:0:
64,192,95140,1,0,0:0:0:0:
320,192,95215,1,0,0:0:0:0:
448,192,95215,1,0,0:0:0:0:
192,192,95290,1,0,0:0:0:0:
64,192,95365,1,0,0:0:0:0:
320,192,95440,1,0,0:0:0:0:
448,192,95440,1,0,0:0:0:0:
192,192,95515,1,0,0:0:0:0:
64,192,95515,1,0,0:0:0:0:
320,192,95590,1,0,0:0:0:0:
448,192,95590,1,0,0:0:0:0:
192,192,95665,1,0,0:0:0:0:
64,192,95665,1,0,0:0:0:0:
320,192,95740,1,0,0:0:0:0:
448,192,95815,1,0,0:0:0:0:
192,192,95890,1,0,0:0:0:0:
64,192,95890,1,0,0:0:0:0:
320,192,95965,1,0,0:0:0:0:
448,192,95965,1,0,0:0:0:0:
64,192,96040,1,0,0:0:0:0:
192,192,96115,1,0,0:0:0:0:
64,192,96190,1,0,0:0:0:0:
448,192,96190,128,0,97390:0:0:0:0:
320,192,96190,128,0,97390:0:0:0:0:
64,192,97390,128,0,99640:0:0:0:0:
192,192,97540,1,0,0:0:0:0:
448,192,97540,1,0,0:0:0:0:
320,192,97690,1,0,0:0:0:0:
448,192,97765,1,0,0:0:0:0:
320,192,97840,1,0,0:0:0:0:
192,192,97840,1,0,0:0:0:0:
192,192,97990,1,0,0:0:0:0:
448,192,98140,1,0,0:0:0:0:
320,192,98140,1,0,0:0:0:0:
448,192,98290,1,0,0:0:0:0:
320,192,98365,1,0,0:0:0:0:
192,192,98440,1,0,0:0:0:0:
448,192,98440,1,0,0:0:0:0:
320,192,98590,1,0,0:0:0:0:
192,192,98740,1,0,0:0:0:0:
448,192,98740,1,0,0:0:0:0:
320,192,98890,1,0,0:0:0:0:
448,192,98965,1,0,0:0:0:0:
320,192,99040,1,0,0:0:0:0:
192,192,99040,1,0,0:0:0:0:
192,192,99190,1,0,0:0:0:0:
448,192,99340,1,0,0:0:0:0:
320,192,99340,1,0,0:0:0:0:
448,192,99490,1,0,0:0:0:0:
320,192,99565,1,0,0:0:0:0:
192,192,99640,1,0,0:0:0:0:
448,192,99640,1,0,0:0:0:0:
448,192,99790,128,0,102190:0:0:0:0:
192,192,99940,1,0,0:0:0:0:
64,192,99940,1,0,0:0:0:0:
64,192,100090,1,0,0:0:0:0:
192,192,100165,1,0,0:0:0:0:
320,192,100240,1,0,0:0:0:0:
64,192,100240,1,0,0:0:0:0:
192,192,100390,1,0,0:0:0:0:
320,192,100540,1,0,0:0:0:0:
192,192,100540,1,0,0:0:0:0:
64,192,100690,1,0,0:0:0:0:
320,192,100765,1,0,0:0:0:0:
192,192,100840,1,0,0:0:0:0:
64,192,100840,1,0,0:0:0:0:
320,192,100990,1,0,0:0:0:0:
64,192,101140,1,0,0:0:0:0:
320,192,101140,1,0,0:0:0:0:
192,192,101290,1,0,0:0:0:0:
64,192,101365,1,0,0:0:0:0:
320,192,101440,1,0,0:0:0:0:
192,192,101440,1,0,0:0:0:0:
320,192,101590,1,0,0:0:0:0:
64,192,101740,1,0,0:0:0:0:
192,192,101740,1,0,0:0:0:0:
64,192,101890,1,0,0:0:0:0:
192,192,101965,1,0,0:0:0:0:
320,192,102040,1,0,0:0:0:0:
64,192,102040,1,0,0:0:0:0:
192,192,102190,1,0,0:0:0:0:
64,192,102190,1,0,0:0:0:0:
320,192,102265,1,0,0:0:0:0:
448,192,102340,1,0,0:0:0:0:
192,192,102340,1,0,0:0:0:0:
64,192,102415,1,0,0:0:0:0:
320,192,102490,1,0,0:0:0:0:
448,192,102490,1,0,0:0:0:0:
192,192,102565,1,0,0:0:0:0:
64,192,102640,1,0,0:0:0:0:
320,192,102640,1,0,0:0:0:0:
448,192,102715,1,0,0:0:0:0:
192,192,102790,1,0,0:0:0:0:
64,192,102790,1,0,0:0:0:0:
448,192,102865,1,0,0:0:0:0:
320,192,102940,1,0,0:0:0:0:
64,192,102940,1,0,0:0:0:0:
192,192,103015,1,0,0:0:0:0:
320,192,103090,1,0,0:0:0:0:
448,192,103090,1,0,0:0:0:0:
64,192,103165,1,0,0:0:0:0:
192,192,103240,1,0,0:0:0:0:
448,192,103240,1,0,0:0:0:0:
320,192,103315,1,0,0:0:0:0:
192,192,103390,1,0,0:0:0:0:
64,192,103390,1,0,0:0:0:0:
320,192,103465,1,0,0:0:0:0:
448,192,103540,1,0,0:0:0:0:
192,192,103540,1,0,0:0:0:0:
64,192,103615,1,0,0:0:0:0:
448,192,103690,1,0,0:0:0:0:
192,192,103690,1,0,0:0:0:0:
320,192,103765,1,0,0:0:0:0:
64,192,103840,1,0,0:0:0:0:
448,192,103840,1,0,0:0:0:0:
192,192,103915,1,0,0:0:0:0:
448,192,103990,1,0,0:0:0:0:
320,192,103990,1,0,0:0:0:0:
192,192,104065,1,0,0:0:0:0:
64,192,104140,1,0,0:0:0:0:
320,192,104140,1,0,0:0:0:0:
448,192,104215,1,0,0:0:0:0:
320,192,104290,1,0,0:0:0:0:
192,192,104290,1,0,0:0:0:0:
64,192,104365,1,0,0:0:0:0:
320,192,104440,1,0,0:0:0:0:
448,192,104440,1,0,0:0:0:0:
192,192,104515,1,0,0:0:0:0:
64,192,104590,1,0,0:0:0:0:
320,192,104590,1,0,0:0:0:0:
448,192,104665,1,0,0:0:0:0:
320,192,104740,1,0,0:0:0:0:
64,192,104740,1,0,0:0:0:0:
192,192,104815,1,0,0:0:0:0:
448,192,104890,1,0,0:0:0:0:
320,192,104890,1,0,0:0:0:0:
192,192,104965,1,0,0:0:0:0:
64,192,105040,1,0,0:0:0:0:
320,192,105040,1,0,0:0:0:0:
448,192,105115,1,0,0:0:0:0:
64,192,105190,1,0,0:0:0:0:
192,192,105190,1,0,0:0:0:0:
320,192,105265,1,0,0:0:0:0:
448,192,105340,1,0,0:0:0:0:
64,192,105340,1,0,0:0:0:0:
192,192,105415,1,0,0:0:0:0:
320,192,105490,1,0,0:0:0:0:
448,192,105490,1,0,0:0:0:0:
64,192,105565,1,0,0:0:0:0:
192,192,105640,1,0,0:0:0:0:
320,192,105640,1,0,0:0:0:0:
448,192,105715,1,0,0:0:0:0:
64,192,105790,1,0,0:0:0:0:
320,192,105790,1,0,0:0:0:0:
192,192,105865,1,0,0:0:0:0:
320,192,105940,1,0,0:0:0:0:
448,192,106015,1,0,0:0:0:0:
320,192,106090,1,0,0:0:0:0:
64,192,106090,1,0,0:0:0:0:
192,192,106165,1,0,0:0:0:0:
64,192,106240,1,0,0:0:0:0:
448,192,106315,1,0,0:0:0:0:
320,192,106390,1,0,0:0:0:0:
64,192,106390,1,0,0:0:0:0:
192,192,106465,1,0,0:0:0:0:
64,192,106540,1,0,0:0:0:0:
192,192,106615,1,0,0:0:0:0:
320,192,106690,1,0,0:0:0:0:
64,192,106690,1,0,0:0:0:0:
448,192,106765,1,0,0:0:0:0:
64,192,106840,1,0,0:0:0:0:
192,192,106915,1,0,0:0:0:0:
448,192,106990,128,0,109240:0:0:0:0:
320,192,106990,1,0,0:0:0:0:
320,192,107140,1,0,0:0:0:0:
64,192,107140,1,0,0:0:0:0:
192,192,107290,1,0,0:0:0:0:
64,192,107365,1,0,0:0:0:0:
192,192,107440,1,0,0:0:0:0:
320,192,107440,1,0,0:0:0:0:
320,192,107590,1,0,0:0:0:0:
64,192,107740,1,0,0:0:0:0:
192,192,107740,1,0,0:0:0:0:
64,192,107890,1,0,0:0:0:0:
192,192,107965,1,0,0:0:0:0:
320,192,108040,1,0,0:0:0:0:
64,192,108040,1,0,0:0:0:0:
192,192,108190,1,0,0:0:0:0:
320,192,108340,1,0,0:0:0:0:
64,192,108340,1,0,0:0:0:0:
192,192,108490,1,0,0:0:0:0:
64,192,108565,1,0,0:0:0:0:
192,192,108640,1,0,0:0:0:0:
320,192,108640,1,0,0:0:0:0:
320,192,108790,1,0,0:0:0:0:
64,192,108940,1,0,0:0:0:0:
192,192,108940,1,0,0:0:0:0:
64,192,109090,1,0,0:0:0:0:
192,192,109165,1,0,0:0:0:0:
320,192,109240,1,0,0:0:0:0:
64,192,109240,1,0,0:0:0:0:
64,192,109390,128,0,111790:0:0:0:0:
320,192,109540,1,0,0:0:0:0:
448,192,109540,1,0,0:0:0:0:
448,192,109690,1,0,0:0:0:0:
320,192,109765,1,0,0:0:0:0:
192,192,109840,1,0,0:0:0:0:
448,192,109840,1,0,0:0:0:0:
320,192,109990,1,0,0:0:0:0:
192,192,110140,1,0,0:0:0:0:
320,192,110140,1,0,0:0:0:0:
448,192,110290,1,0,0:0:0:0:
192,192,110365,1,0,0:0:0:0:
320,192,110440,1,0,0:0:0:0:
448,192,110440,1,0,0:0:0:0:
192,192,110590,1,0,0:0:0:0:
448,192,110740,1,0,0:0:0:0:
192,192,110740,1,0,0:0:0:0:
320,192,110890,1,0,0:0:0:0:
448,192,110965,1,0,0:0:0:0:
192,192,111040,1,0,0:0:0:0:
320,192,111040,1,0,0:0:0:0:
192,192,111190,1,0,0:0:0:0:
448,192,111340,1,0,0:0:0:0:
320,192,111340,1,0,0:0:0:0:
448,192,111490,1,0,0:0:0:0:
320,192,111565,1,0,0:0:0:0:
192,192,111640,1,0,0:0:0:0:
448,192,111640,1,0,0:0:0:0:
320,192,111790,1,0,0:0:0:0:
448,192,111790,1,0,0:0:0:0:
192,192,111865,1,0,0:0:0:0:
64,192,111865,1,0,0:0:0:0:
320,192,111940,1,0,0:0:0:0:
448,192,111940,1,0,0:0:0:0:
192,192,112015,1,0,0:0:0:0:
64,192,112015,1,0,0:0:0:0:
448,192,112090,1,0,0:0:0:0:
320,192,112165,1,0,0:0:0:0:
64,192,112240,1,0,0:0:0:0:
448,192,112240,1,0,0:0:0:0:
320,192,112315,1,0,0:0:0:0:
192,192,112315,1,0,0:0:0:0:
64,192,112390,1,0,0:0:0:0:
448,192,112390,1,0,0:0:0:0:
320,192,112465,1,0,0:0:0:0:
192,192,112465,1,0,0:0:0:0:
64,192,112540,1,0,0:0:0:0:
192,192,112615,1,0,0:0:0:0:
320,192,112690,1,0,0:0:0:0:
448,192,112690,1,0,0:0:0:0:
192,192,112765,1,0,0:0:0:0:
64,192,112765,1,0,0:0:0:0:
320,192,112840,1,0,0:0:0:0:
448,192,112915,1,0,0:0:0:0:
192,192,112990,1,0,0:0:0:0:
64,192,112990,1,0,0:0:0:0:
320,192,112990,1,0,0:0:0:0:
448,192,114190,128,0,114340:0:0:0:0:
320,192,114340,128,0,114490:0:0:0:0:
64,192,114340,1,0,0:0:0:0:
192,192,114490,1,0,0:0:0:0:
320,192,114565,1,0,0:0:0:0:
64,192,114640,128,0,114790:0:0:0:0:
448,192,114640,1,0,0:0:0:0:
320,192,114790,128,0,114940:0:0:0:0:
192,192,114940,128,0,115090:0:0:0:0:
64,192,114940,1,0,0:0:0:0:
448,192,115090,128,0,115390:0:0:0:0:
192,192,115165,1,0,0:0:0:0:
320,192,115240,1,0,0:0:0:0:
64,192,115240,1,0,0:0:0:0:
64,192,115390,128,0,115540:0:0:0:0:
192,192,115540,128,0,115840:0:0:0:0:
448,192,115540,1,0,0:0:0:0:
64,192,115690,1,0,0:0:0:0:
320,192,115765,1,0,0:0:0:0:
448,192,115840,128,0,115915:0:0:0:0:
64,192,115840,1,0,0:0:0:0:
320,192,115990,128,0,116065:0:0:0:0:
192,192,116140,128,0,116215:0:0:0:0:
448,192,116140,1,0,0:0:0:0:
64,192,116290,128,0,116590:0:0:0:0:
192,192,116365,1,0,0:0:0:0:
448,192,116440,1,0,0:0:0:0:
320,192,116440,1,0,0:0:0:0:
320,192,116590,128,0,116740:0:0:0:0:
64,192,116740,128,0,117040:0:0:0:0:
448,192,116740,1,0,0:0:0:0:
192,192,116890,1,0,0:0:0:0:
320,192,116965,1,0,0:0:0:0:
448,192,117040,1,0,0:0:0:0:
192,192,117040,1,0,0:0:0:0:
448,192,117115,1,0,0:0:0:0:
64,192,117190,1,0,0:0:0:0:
64,192,117265,1,0,0:0:0:0:
320,192,117340,1,0,0:0:0:0:
448,192,117340,1,0,0:0:0:0:
320,192,117415,1,0,0:0:0:0:
64,192,117490,1,0,0:0:0:0:
64,192,117565,1,0,0:0:0:0:
192,192,117640,1,0,0:0:0:0:
320,192,117640,1,0,0:0:0:0:
320,192,117715,1,0,0:0:0:0:
448,192,117790,128,0,117940:0:0:0:0:
192,192,117940,128,0,118090:0:0:0:0:
64,192,117940,1,0,0:0:0:0:
320,192,118090,128,0,118240:0:0:0:0:
192,192,118165,1,0,0:0:0:0:
64,192,118240,128,0,118840:0:0:0:0:
448,192,118240,1,0,0:0:0:0:
192,192,118390,1,0,0:0:0:0:
192,192,118540,1,0,0:0:0:0:
448,192,118540,1,0,0:0:0:0:
448,192,118690,1,0,0:0:0:0:
320,192,118765,1,0,0:0:0:0:
192,192,118840,1,0,0:0:0:0:
448,192,118840,1,0,0:0:0:0:
64,192,118990,128,0,119140:0:0:0:0:
320,192,119140,128,0,119290:0:0:0:0:
448,192,119140,1,0,0:0:0:0:
192,192,119290,128,0,119440:0:0:0:0:
320,192,119365,1,0,0:0:0:0:
448,192,119440,128,0,119740:0:0:0:0:
64,192,119440,1,0,0:0:0:0:
192,192,119590,1,0,0:0:0:0:
64,192,119740,128,0,119815:0:0:0:0:
320,192,119740,1,0,0:0:0:0:
192,192,119890,128,0,119965:0:0:0:0:
64,192,119965,1,0,0:0:0:0:
320,192,120040,128,0,120115:0:0:0:0:
448,192,120040,1,0,0:0:0:0:
448,192,120190,128,0,120340:0:0:0:0:
192,192,120340,128,0,120490:0:0:0:0:
320,192,120340,1,0,0:0:0:0:
64,192,120490,128,0,120640:0:0:0:0:
192,192,120565,1,0,0:0:0:0:
320,192,120640,128,0,120790:0:0:0:0:
448,192,120640,1,0,0:0:0:0:
64,192,120790,1,0,0:0:0:0:
448,192,120940,128,0,121090:0:0:0:0:
192,192,120940,1,0,0:0:0:0:
64,192,121090,128,0,121165:0:0:0:0:
192,192,121165,128,0,121240:0:0:0:0:
320,192,121240,128,0,121390:0:0:0:0:
448,192,121240,1,0,0:0:0:0:
64,192,121390,1,0,0:0:0:0:
192,192,121390,1,0,0:0:0:0:
448,192,121465,1,0,0:0:0:0:
320,192,121465,1,0,0:0:0:0:
192,192,121540,1,0,0:0:0:0:
64,192,121540,1,0,0:0:0:0:
320,192,121615,1,0,0:0:0:0:
448,192,121615,1,0,0:0:0:0:
64,192,121690,1,0,0:0:0:0:
192,192,121765,1,0,0:0:0:0:
320,192,121840,1,0,0:0:0:0:
448,192,121840,1,0,0:0:0:0:
192,192,121915,1,0,0:0:0:0:
64,192,121915,1,0,0:0:0:0:
320,192,121990,1,0,0:0:0:0:
448,192,121990,1,0,0:0:0:0:
192,192,122065,1,0,0:0:0:0:
64,192,122065,1,0,0:0:0:0:
320,192,122140,1,0,0:0:0:0:
448,192,122140,1,0,0:0:0:0:
192,192,122215,1,0,0:0:0:0:
64,192,122215,1,0,0:0:0:0:
320,192,122290,1,0,0:0:0:0:
448,192,122365,1,0,0:0:0:0:
320,192,122440,1,0,0:0:0:0:
192,192,122515,1,0,0:0:0:0:
64,192,122590,1,0,0:0:0:0:
448,192,122590,1,0,0:0:0:0:
192,192,122665,1,0,0:0:0:0:
320,192,122665,1,0,0:0:0:0:
448,192,122740,1,0,0:0:0:0:
64,192,122740,1,0,0:0:0:0:
320,192,122815,1,0,0:0:0:0:
192,192,122815,1,0,0:0:0:0:
64,192,122890,1,0,0:0:0:0:
192,192,122965,1,0,0:0:0:0:
448,192,122965,1,0,0:0:0:0:
320,192,123040,1,0,0:0:0:0:
64,192,123040,1,0,0:0:0:0:
192,192,123115,1,0,0:0:0:0:
448,192,123115,1,0,0:0:0:0:
320,192,123190,1,0,0:0:0:0:
192,192,123265,1,0,0:0:0:0:
64,192,123265,1,0,0:0:0:0:
320,192,123340,1,0,0:0:0:0:
448,192,123340,1,0,0:0:0:0:
192,192,123415,1,0,0:0:0:0:
64,192,123415,1,0,0:0:0:0:
448,192,123490,1,0,0:0:0:0:
320,192,123565,1,0,0:0:0:0:
192,192,123565,1,0,0:0:0:0:
64,192,123640,1,0,0:0:0:0:
448,192,123640,1,0,0:0:0:0:
320,192,123715,1,0,0:0:0:0:
192,192,123715,1,0,0:0:0:0:
64,192,123790,128,0,123940:0:0:0:0:
192,192,123940,128,0,124240:0:0:0:0:
448,192,123940,1,0,0:0:0:0:
448,192,124090,1,0,0:0:0:0:
320,192,124165,1,0,0:0:0:0:
64,192,124240,1,0,0:0:0:0:
448,192,124240,1,0,0:0:0:0:
64,192,124315,1,0,0:0:0:0:
320,192,124390,1,0,0:0:0:0:
320,192,124465,1,0,0:0:0:0:
448,192,124540,1,0,0:0:0:0:
192,192,124540,1,0,0:0:0:0:
448,192,124615,1,0,0:0:0:0:
64,192,124690,1,0,0:0:0:0:
64,192,124765,1,0,0:0:0:0:
320,192,124840,1,0,0:0:0:0:
192,192,124840,1,0,0:0:0:0:
320,192,124915,1,0,0:0:0:0:
448,192,124990,128,0,125140:0:0:0:0:
320,192,125140,128,0,125440:0:0:0:0:
64,192,125140,1,0,0:0:0:0:
448,192,125290,1,0,0:0:0:0:
192,192,125365,1,0,0:0:0:0:
64,192,125440,128,0,125515:0:0:0:0:
448,192,125440,1,0,0:0:0:0:
192,192,125590,128,0,125665:0:0:0:0:
320,192,125740,128,0,125815:0:0:0:0:
64,192,125740,1,0,0:0:0:0:
448,192,125890,128,0,126190:0:0:0:0:
320,192,125965,1,0,0:0:0:0:
64,192,126040,1,0,0:0:0:0:
192,192,126040,1,0,0:0:0:0:
192,192,126190,128,0,126265:0:0:0:0:
320,192,126265,128,0,126340:0:0:0:0:
64,192,126340,128,0,126415:0:0:0:0:
192,192,126340,1,0,0:0:0:0:
448,192,126415,128,0,126490:0:0:0:0:
192,192,126490,128,0,126565:0:0:0:0:
320,192,126565,128,0,126640:0:0:0:0:
64,192,126640,128,0,126790:0:0:0:0:
448,192,126640,1,0,0:0:0:0:
320,192,126790,128,0,126940:0:0:0:0:
192,192,126940,1,0,0:0:0:0:
448,192,126940,128,0,127090:0:0:0:0:
64,192,127090,128,0,127240:0:0:0:0:
448,192,127165,1,0,0:0:0:0:
320,192,127240,128,0,127390:0:0:0:0:
192,192,127240,1,0,0:0:0:0:
448,192,127390,128,0,127690:0:0:0:0:
320,192,127540,1,0,0:0:0:0:
64,192,127540,128,0,127690:0:0:0:0:
320,192,127690,128,0,127840:0:0:0:0:
192,192,127765,1,0,0:0:0:0:
64,192,127840,128,0,128440:0:0:0:0:
448,192,127840,1,0,0:0:0:0:
192,192,127990,1,0,0:0:0:0:
320,192,128140,1,0,0:0:0:0:
448,192,128140,1,0,0:0:0:0:
192,192,128290,1,0,0:0:0:0:
448,192,128365,1,0,0:0:0:0:
320,192,128440,1,0,0:0:0:0:
192,192,128440,1,0,0:0:0:0:
320,192,128590,128,0,128740:0:0:0:0:
192,192,128740,1,0,0:0:0:0:
64,192,128740,128,0,129040:0:0:0:0:
192,192,128890,1,0,0:0:0:0:
320,192,128965,1,0,0:0:0:0:
448,192,129040,128,0,129115:0:0:0:0:
192,192,129040,1,0,0:0:0:0:
320,192,129115,128,0,129190:0:0:0:0:
192,192,129190,128,0,129340:0:0:0:0:
448,192,129340,128,0,129490:0:0:0:0:
64,192,129340,1,0,0:0:0:0:
64,192,129490,128,0,129565:0:0:0:0:
192,192,129565,128,0,129640:0:0:0:0:
320,192,129640,128,0,129790:0:0:0:0:
448,192,129640,1,0,0:0:0:0:
448,192,129790,128,0,129940:0:0:0:0:
64,192,129940,128,0,130240:0:0:0:0:
192,192,129940,1,0,0:0:0:0:
320,192,130090,1,0,0:0:0:0:
448,192,130165,1,0,0:0:0:0:
320,192,130240,128,0,130315:0:0:0:0:
192,192,130240,1,0,0:0:0:0:
448,192,130315,128,0,130390:0:0:0:0:
192,192,130390,128,0,130540:0:0:0:0:
320,192,130540,128,0,130690:0:0:0:0:
448,192,130540,1,0,0:0:0:0:
64,192,130690,128,0,130990:0:0:0:0:
320,192,130765,1,0,0:0:0:0:
192,192,130840,1,0,0:0:0:0:
448,192,130840,1,0,0:0:0:0:
192,192,130990,1,0,0:0:0:0:
320,192,131040,1,0,0:0:0:0:
448,192,131090,1,0,0:0:0:0:
64,192,131140,1,0,0:0:0:0:
192,192,131190,1,0,0:0:0:0:
448,192,131240,1,0,0:0:0:0:
192,192,131290,1,0,0:0:0:0:
320,192,131340,1,0,0:0:0:0:
448,192,131390,1,0,0:0:0:0:
64,192,131440,1,0,0:0:0:0:
192,192,131490,1,0,0:0:0:0:
448,192,131540,1,0,0:0:0:0:
192,192,131590,1,0,0:0:0:0:
320,192,131640,1,0,0:0:0:0:
448,192,131690,1,0,0:0:0:0:
64,192,131740,1,0,0:0:0:0:
192,192,131790,1,0,0:0:0:0:
448,192,131840,1,0,0:0:0:0:
192,192,131890,1,0,0:0:0:0:
320,192,131940,1,0,0:0:0:0:
448,192,131990,1,0,0:0:0:0:
64,192,132040,1,0,0:0:0:0:
192,192,132090,1,0,0:0:0:0:
448,192,132140,1,0,0:0:0:0:
64,192,132190,1,0,0:0:0:0:
320,192,132240,1,0,0:0:0:0:
64,192,132290,1,0,0:0:0:0:
320,192,132340,1,0,0:0:0:0:
64,192,132415,1,0,0:0:0:0:
192,192,132490,1,0,0:0:0:0:
320,192,132565,128,0,132715:0:0:0:0:
448,192,132790,128,0,132940:0:0:0:0:
64,192,132790,1,0,0:0:0:0:
192,192,133015,128,0,133165:0:0:0:0:
448,192,133015,1,0,0:0:0:0:
320,192,133240,128,0,133390:0:0:0:0:
192,192,133240,1,0,0:0:0:0:
448,192,133390,1,0,0:0:0:0:
64,192,133390,128,0,133840:0:0:0:0:
320,192,133615,1,0,0:0:0:0:
448,192,133765,1,0,0:0:0:0:
192,192,133915,1,0,0:0:0:0:
192,192,134065,1,0,0:0:0:0:
64,192,134215,1,0,0:0:0:0:
448,192,134365,1,0,0:0:0:0:
448,192,134515,1,0,0:0:0:0:
192,192,134665,1,0,0:0:0:0:
320,192,134815,1,0,0:0:0:0:
320,192,134965,1,0,0:0:0:0:
448,192,135115,1,0,0:0:0:0:
64,192,135265,1,0,0:0:0:0:
64,192,135415,1,0,0:0:0:0:
192,192,135565,1,0,0:0:0:0:
192,192,135715,1,0,0:0:0:0:
320,192,135790,1,0,0:0:0:0:
64,192,135790,128,0,136090:0:0:0:0:
448,192,135940,1,0,0:0:0:0:
448,192,136090,1,0,0:0:0:0:
192,192,136090,1,0,0:0:0:0:
320,192,136090,1,0,0:0:0:0:
192,192,136240,1,0,0:0:0:0:
64,192,136390,1,0,0:0:0:0:
320,192,136390,1,0,0:0:0:0:
448,192,136540,1,0,0:0:0:0:
192,192,136540,1,0,0:0:0:0:
64,192,136690,1,0,0:0:0:0:
320,192,136690,1,0,0:0:0:0:
448,192,136690,1,0,0:0:0:0:
64,192,136840,1,0,0:0:0:0:
448,192,136990,1,0,0:0:0:0:
320,192,136990,1,0,0:0:0:0:
320,192,137140,1,0,0:0:0:0:
64,192,137290,1,0,0:0:0:0:
448,192,137290,1,0,0:0:0:0:
192,192,137290,1,0,0:0:0:0:
192,192,137440,1,0,0:0:0:0:
320,192,137590,1,0,0:0:0:0:
448,192,137590,1,0,0:0:0:0:
64,192,137740,1,0,0:0:0:0:
320,192,137740,1,0,0:0:0:0:
64,192,137890,1,0,0:0:0:0:
448,192,137890,1,0,0:0:0:0:
192,192,137890,1,0,0:0:0:0:
320,192,138040,1,0,0:0:0:0:
448,192,138190,1,0,0:0:0:0:
64,192,138190,128,0,138490:0:0:0:0:
192,192,138340,1,0,0:0:0:0:
320,192,138490,1,0,0:0:0:0:
192,192,138490,1,0,0:0:0:0:
448,192,138490,1,0,0:0:0:0:
320,192,138640,1,0,0:0:0:0:
192,192,138790,1,0,0:0:0:0:
448,192,138790,1,0,0:0:0:0:
64,192,138940,1,0,0:0:0:0:
192,192,138940,1,0,0:0:0:0:
320,192,139090,1,0,0:0:0:0:
448,192,139090,1,0,0:0:0:0:
64,192,139090,1,0,0:0:0:0:
448,192,139240,1,0,0:0:0:0:
192,192,139390,1,0,0:0:0:0:
64,192,139390,1,0,0:0:0:0:
64,192,139540,1,0,0:0:0:0:
448,192,139690,1,0,0:0:0:0:
320,192,139690,1,0,0:0:0:0:
192,192,139690,1,0,0:0:0:0:
192,192,139840,1,0,0:0:0:0:
64,192,139990,1,0,0:0:0:0:
320,192,139990,1,0,0:0:0:0:
448,192,140140,1,0,0:0:0:0:
320,192,140140,1,0,0:0:0:0:
64,192,140290,1,0,0:0:0:0:
448,192,140290,1,0,0:0:0:0:
192,192,140290,128,0,140590:0:0:0:0:
320,192,140590,1,0,0:0:0:0:
64,192,140590,1,0,0:0:0:0:
64,192,140740,1,0,0:0:0:0:
448,192,140890,1,0,0:0:0:0:
320,192,140890,1,0,0:0:0:0:
192,192,140890,1,0,0:0:0:0:
320,192,141040,1,0,0:0:0:0:
64,192,141190,1,0,0:0:0:0:
448,192,141190,1,0,0:0:0:0:
192,192,141340,1,0,0:0:0:0:
320,192,141340,1,0,0:0:0:0:
192,192,141490,1,0,0:0:0:0:
64,192,141490,1,0,0:0:0:0:
448,192,141490,1,0,0:0:0:0:
320,192,141640,1,0,0:0:0:0:
64,192,141790,1,0,0:0:0:0:
192,192,141865,5,0,0:0:0:0:
320,192,141940,1,0,0:0:0:0:
448,192,142015,1,0,0:0:0:0:
64,192,142090,1,0,0:0:0:0:
192,192,142090,1,0,0:0:0:0:
320,192,142240,1,0,0:0:0:0:
448,192,142240,1,0,0:0:0:0:
64,192,142315,1,0,0:0:0:0:
192,192,142390,1,0,0:0:0:0:
320,192,142465,1,0,0:0:0:0:
448,192,142540,1,0,0:0:0:0:
64,192,142540,1,0,0:0:0:0:
320,192,142615,1,0,0:0:0:0:
192,192,142615,1,0,0:0:0:0:
64,192,142690,1,0,0:0:0:0:
448,192,142690,1,0,0:0:0:0:
320,192,142765,1,0,0:0:0:0:
192,192,142765,1,0,0:0:0:0:
64,192,142840,1,0,0:0:0:0:
192,192,142915,1,0,0:0:0:0:
448,192,142990,128,0,143065:0:0:0:0:
192,192,143065,128,0,143140:0:0:0:0:
320,192,143140,128,0,143215:0:0:0:0:
64,192,143215,128,0,143290:0:0:0:0:
448,192,143290,128,0,143365:0:0:0:0:
64,192,143365,128,0,143440:0:0:0:0:
320,192,143440,128,0,143515:0:0:0:0:
192,192,143515,128,0,143590:0:0:0:0:
448,192,143590,128,0,143665:0:0:0:0:
64,192,143665,128,0,143740:0:0:0:0:
448,192,143740,128,0,143815:0:0:0:0:
192,192,143815,128,0,143890:0:0:0:0:
320,192,143890,128,0,143965:0:0:0:0:
64,192,143965,128,0,144040:0:0:0:0:
448,192,144040,128,0,144115:0:0:0:0:
64,192,144115,128,0,144190:0:0:0:0:
448,192,144190,128,0,145390:0:0:0:0:
320,192,144490,1,0,0:0:0:0:
64,192,144790,1,0,0:0:0:0:
320,192,144940,1,0,0:0:0:0:
192,192,145090,1,0,0:0:0:0:
64,192,145240,1,0,0:0:0:0:
192,192,145390,1,0,0:0:0:0:
320,192,145540,1,0,0:0:0:0:
448,192,145540,1,0,0:0:0:0:
192,192,145690,1,0,0:0:0:0:
320,192,145765,1,0,0:0:0:0:
192,192,145840,1,0,0:0:0:0:
64,192,145840,1,0,0:0:0:0:
448,192,145990,1,0,0:0:0:0:
192,192,146140,1,0,0:0:0:0:
64,192,146140,1,0,0:0:0:0:
320,192,146290,1,0,0:0:0:0:
192,192,146365,1,0,0:0:0:0:
320,192,146440,1,0,0:0:0:0:
448,192,146440,1,0,0:0:0:0:
192,192,146590,1,0,0:0:0:0:
192,192,146740,1,0,0:0:0:0:
448,192,146740,1,0,0:0:0:0:
64,192,146890,1,0,0:0:0:0:
320,192,146965,1,0,0:0:0:0:
192,192,147040,1,0,0:0:0:0:
448,192,147040,1,0,0:0:0:0:
320,192,147190,1,0,0:0:0:0:
64,192,147340,1,0,0:0:0:0:
320,192,147340,1,0,0:0:0:0:
448,192,147490,1,0,0:0:0:0:
192,192,147565,1,0,0:0:0:0:
64,192,147640,1,0,0:0:0:0:
320,192,147640,1,0,0:0:0:0:
192,192,147790,1,0,0:0:0:0:
320,192,147940,1,0,0:0:0:0:
448,192,147940,1,0,0:0:0:0:
192,192,148090,1,0,0:0:0:0:
320,192,148165,1,0,0:0:0:0:
64,192,148240,1,0,0:0:0:0:
448,192,148240,1,0,0:0:0:0:
320,192,148390,1,0,0:0:0:0:
192,192,148540,1,0,0:0:0:0:
64,192,148540,1,0,0:0:0:0:
320,192,148690,1,0,0:0:0:0:
192,192,148765,1,0,0:0:0:0:
64,192,148840,1,0,0:0:0:0:
448,192,148840,1,0,0:0:0:0:
192,192,148990,1,0,0:0:0:0:
192,192,149140,1,0,0:0:0:0:
64,192,149140,1,0,0:0:0:0:
320,192,149290,1,0,0:0:0:0:
64,192,149365,1,0,0:0:0:0:
192,192,149440,1,0,0:0:0:0:
448,192,149440,1,0,0:0:0:0:
320,192,149590,1,0,0:0:0:0:
320,192,149740,1,0,0:0:0:0:
448,192,149740,1,0,0:0:0:0:
192,192,149890,1,0,0:0:0:0:
448,192,149965,1,0,0:0:0:0:
320,192,150040,1,0,0:0:0:0:
64,192,150040,1,0,0:0:0:0:
192,192,150190,1,0,0:0:0:0:
64,192,150340,1,0,0:0:0:0:
448,192,150340,1,0,0:0:0:0:
192,192,150490,1,0,0:0:0:0:
320,192,150565,1,0,0:0:0:0:
192,192,150640,1,0,0:0:0:0:
64,192,150640,1,0,0:0:0:0:
320,192,150790,1,0,0:0:0:0:
64,192,150940,1,0,0:0:0:0:
448,192,150940,1,0,0:0:0:0:
320,192,151090,1,0,0:0:0:0:
192,192,151165,1,0,0:0:0:0:
448,192,151240,1,0,0:0:0:0:
320,192,151240,1,0,0:0:0:0:
64,192,151390,1,0,0:0:0:0:
192,192,151540,1,0,0:0:0:0:
448,192,151540,1,0,0:0:0:0:
448,192,151690,1,0,0:0:0:0:
320,192,151765,1,0,0:0:0:0:
192,192,151840,1,0,0:0:0:0:
64,192,151840,1,0,0:0:0:0:
448,192,151990,1,0,0:0:0:0:
64,192,152140,1,0,0:0:0:0:
320,192,152140,1,0,0:0:0:0:
64,192,152290,1,0,0:0:0:0:
192,192,152365,1,0,0:0:0:0:
320,192,152440,1,0,0:0:0:0:
448,192,152440,1,0,0:0:0:0:
192,192,152590,1,0,0:0:0:0:
192,192,152740,1,0,0:0:0:0:
64,192,152740,1,0,0:0:0:0:
320,192,152890,1,0,0:0:0:0:
192,192,152965,1,0,0:0:0:0:
64,192,153040,1,0,0:0:0:0:
448,192,153040,1,0,0:0:0:0:
320,192,153190,1,0,0:0:0:0:
320,192,153340,1,0,0:0:0:0:
448,192,153340,1,0,0:0:0:0:
192,192,153490,1,0,0:0:0:0:
320,192,153565,1,0,0:0:0:0:
448,192,153640,1,0,0:0:0:0:
64,192,153640,1,0,0:0:0:0:
64,192,153790,1,0,0:0:0:0:
192,192,153790,1,0,0:0:0:0:
320,192,153865,1,0,0:0:0:0:
448,192,153865,1,0,0:0:0:0:
192,192,153940,1,0,0:0:0:0:
64,192,153940,1,0,0:0:0:0:
320,192,154015,1,0,0:0:0:0:
448,192,154015,1,0,0:0:0:0:
192,192,154090,1,0,0:0:0:0:
64,192,154090,1,0,0:0:0:0:
320,192,154165,1,0,0:0:0:0:
448,192,154165,1,0,0:0:0:0:
192,192,154240,1,0,0:0:0:0:
64,192,154315,1,0,0:0:0:0:
448,192,154315,1,0,0:0:0:0:
320,192,154390,1,0,0:0:0:0:
192,192,154390,1,0,0:0:0:0:
64,192,154465,1,0,0:0:0:0:
448,192,154465,1,0,0:0:0:0:
320,192,154540,1,0,0:0:0:0:
192,192,154540,1,0,0:0:0:0:
64,192,154615,1,0,0:0:0:0:
448,192,154615,1,0,0:0:0:0:
320,192,154690,1,0,0:0:0:0:
192,192,154765,1,0,0:0:0:0:
64,192,154765,1,0,0:0:0:0:
320,192,154840,1,0,0:0:0:0:
448,192,154840,1,0,0:0:0:0:
192,192,154915,1,0,0:0:0:0:
64,192,154915,1,0,0:0:0:0:
320,192,154990,128,0,155140:0:0:0:0:
448,192,155065,1,0,0:0:0:0:
192,192,155140,1,0,0:0:0:0:
64,192,155215,1,0,0:0:0:0:
192,192,155290,1,0,0:0:0:0:
448,192,155290,1,0,0:0:0:0:
320,192,155365,1,0,0:0:0:0:
448,192,155440,128,0,155590:0:0:0:0:
192,192,155515,1,0,0:0:0:0:
320,192,155590,1,0,0:0:0:0:
64,192,155590,1,0,0:0:0:0:
448,192,155665,1,0,0:0:0:0:
320,192,155740,1,0,0:0:0:0:
192,192,155815,1,0,0:0:0:0:
64,192,155890,128,0,156040:0:0:0:0:
320,192,155890,1,0,0:0:0:0:
448,192,155965,1,0,0:0:0:0:
192,192,156040,1,0,0:0:0:0:
64,192,156115,1,0,0:0:0:0:
192,192,156190,128,0,156340:0:0:0:0:
320,192,156190,1,0,0:0:0:0:
448,192,156265,1,0,0:0:0:0:
320,192,156340,1,0,0:0:0:0:
64,192,156415,1,0,0:0:0:0:
192,192,156490,1,0,0:0:0:0:
448,192,156490,1,0,0:0:0:0:
320,192,156565,1,0,0:0:0:0:
448,192,156640,128,0,156790:0:0:0:0:
320,192,156715,1,0,0:0:0:0:
192,192,156790,1,0,0:0:0:0:
64,192,156790,1,0,0:0:0:0:
448,192,156865,1,0,0:0:0:0:
320,192,156940,1,0,0:0:0:0:
64,192,157015,1,0,0:0:0:0:
192,192,157090,128,0,157240:0:0:0:0:
448,192,157090,1,0,0:0:0:0:
320,192,157165,1,0,0:0:0:0:
64,192,157240,1,0,0:0:0:0:
192,192,157315,1,0,0:0:0:0:
448,192,157390,1,0,0:0:0:0:
192,192,157440,1,0,0:0:0:0:
320,192,157490,1,0,0:0:0:0:
64,192,157540,1,0,0:0:0:0:
448,192,157590,1,0,0:0:0:0:
192,192,157640,1,0,0:0:0:0:
320,192,157690,1,0,0:0:0:0:
64,192,157740,1,0,0:0:0:0:
448,192,157790,1,0,0:0:0:0:
192,192,157840,1,0,0:0:0:0:
320,192,157890,1,0,0:0:0:0:
64,192,157940,1,0,0:0:0:0:
448,192,157990,1,0,0:0:0:0:
192,192,158040,1,0,0:0:0:0:
320,192,158090,1,0,0:0:0:0:
64,192,158140,1,0,0:0:0:0:
448,192,158190,1,0,0:0:0:0:
192,192,158240,1,0,0:0:0:0:
320,192,158290,1,0,0:0:0:0:
64,192,158340,1,0,0:0:0:0:
448,192,158390,1,0,0:0:0:0:
192,192,158440,1,0,0:0:0:0:
320,192,158490,1,0,0:0:0:0:
64,192,158540,1,0,0:0:0:0:
448,192,158590,1,0,0:0:0:0:
192,192,158590,1,0,0:0:0:0:
448,192,158740,1,0,0:0:0:0:
320,192,158740,1,0,0:0:0:0:
64,192,158740,1,0,0:0:0:0:
192,192,158965,1,0,0:0:0:0:
320,192,158965,1,0,0:0:0:0:
448,192,158965,1,0,0:0:0:0:
448,192,159190,1,0,0:0:0:0:
64,192,159190,1,0,0:0:0:0:
192,192,159190,1,0,0:0:0:0:
192,192,159415,1,0,0:0:0:0:
64,192,159415,1,0,0:0:0:0:
320,192,159415,1,0,0:0:0:0:
448,192,159640,1,0,0:0:0:0:
320,192,159640,1,0,0:0:0:0:
64,192,159640,1,0,0:0:0:0:
192,192,159790,1,0,0:0:0:0:
64,192,159790,1,0,0:0:0:0:
320,192,159865,1,0,0:0:0:0:
448,192,159940,1,0,0:0:0:0:
64,192,160015,1,0,0:0:0:0:
320,192,160090,1,0,0:0:0:0:
448,192,160090,1,0,0:0:0:0:
192,192,160090,1,0,0:0:0:0:
64,192,160165,1,0,0:0:0:0:
192,192,160240,1,0,0:0:0:0:
448,192,160315,1,0,0:0:0:0:
320,192,160390,1,0,0:0:0:0:
192,192,160390,1,0,0:0:0:0:
64,192,160390,1,0,0:0:0:0:
448,192,160465,1,0,0:0:0:0:
320,192,160540,1,0,0:0:0:0:
64,192,160615,1,0,0:0:0:0:
192,192,160690,1,0,0:0:0:0:
448,192,160690,1,0,0:0:0:0:
320,192,160690,1,0,0:0:0:0:
64,192,160765,1,0,0:0:0:0:
192,192,160840,1,0,0:0:0:0:
448,192,160915,1,0,0:0:0:0:
320,192,160990,1,0,0:0:0:0:
192,192,160990,1,0,0:0:0:0:
64,192,160990,1,0,0:0:0:0:
448,192,161065,1,0,0:0:0:0:
64,192,161140,1,0,0:0:0:0:
192,192,161215,1,0,0:0:0:0:
64,192,161290,1,0,0:0:0:0:
320,192,161290,1,0,0:0:0:0:
448,192,161290,1,0,0:0:0:0:
192,192,161365,1,0,0:0:0:0:
448,192,161440,1,0,0:0:0:0:
320,192,161515,1,0,0:0:0:0:
192,192,161590,1,0,0:0:0:0:
64,192,161590,1,0,0:0:0:0:
448,192,161590,1,0,0:0:0:0:
320,192,161665,1,0,0:0:0:0:
448,192,161740,1,0,0:0:0:0:
192,192,161815,1,0,0:0:0:0:
64,192,161890,1,0,0:0:0:0:
320,192,161890,1,0,0:0:0:0:
448,192,161890,1,0,0:0:0:0:
192,192,161965,1,0,0:0:0:0:
64,192,162040,1,0,0:0:0:0:
320,192,162115,1,0,0:0:0:0:
448,192,162190,1,0,0:0:0:0:
192,192,162190,1,0,0:0:0:0:
64,192,162190,1,0,0:0:0:0:
192,192,162490,1,0,0:0:0:0:
64,192,162490,1,0,0:0:0:0:
320,192,162490,1,0,0:0:0:0:
448,192,162640,1,0,0:0:0:0:
192,192,162640,1,0,0:0:0:0:
64,192,162640,1,0,0:0:0:0:
320,192,162790,1,0,0:0:0:0:
448,192,162790,1,0,0:0:0:0:
64,192,162790,1,0,0:0:0:0:
192,192,162940,1,0,0:0:0:0:
320,192,162940,1,0,0:0:0:0:
448,192,162940,1,0,0:0:0:0:
64,192,163090,1,0,0:0:0:0:
192,192,163090,1,0,0:0:0:0:
320,192,163090,1,0,0:0:0:0:
448,192,163240,1,0,0:0:0:0:
192,192,163240,1,0,0:0:0:0:
64,192,163240,1,0,0:0:0:0:
320,192,163390,1,0,0:0:0:0:
448,192,163390,1,0,0:0:0:0:
64,192,163390,1,0,0:0:0:0:
320,192,163690,1,0,0:0:0:0:
448,192,163690,1,0,0:0:0:0:
192,192,163690,128,0,163990:0:0:0:0:
64,192,163990,1,0,0:0:0:0:
448,192,163990,1,0,0:0:0:0:
320,192,163990,128,0,164290:0:0:0:0:
192,192,164290,1,0,0:0:0:0:
448,192,164290,1,0,0:0:0:0:
64,192,164290,128,0,164590:0:0:0:0:
320,192,164590,128,0,165790:0:0:0:0:
64,192,164740,1,0,0:0:0:0:
192,192,164740,1,0,0:0:0:0:
448,192,164890,1,0,0:0:0:0:
192,192,164965,1,0,0:0:0:0:
64,192,165040,1,0,0:0:0:0:
448,192,165040,1,0,0:0:0:0:
64,192,165190,1,0,0:0:0:0:
192,192,165340,1,0,0:0:0:0:
448,192,165340,1,0,0:0:0:0:
64,192,165490,1,0,0:0:0:0:
192,192,165565,1,0,0:0:0:0:
448,192,165640,1,0,0:0:0:0:
64,192,165640,1,0,0:0:0:0:
64,192,165790,128,0,166615:0:0:0:0:
320,192,165940,1,0,0:0:0:0:
448,192,165940,1,0,0:0:0:0:
448,192,166090,1,0,0:0:0:0:
320,192,166165,1,0,0:0:0:0:
192,192,166240,1,0,0:0:0:0:
448,192,166240,1,0,0:0:0:0:
320,192,166390,1,0,0:0:0:0:
448,192,166540,1,0,0:0:0:0:
192,192,166540,1,0,0:0:0:0:
320,192,166690,128,0,166765:0:0:0:0:
64,192,166765,1,0,0:0:0:0:
192,192,166840,128,0,166915:0:0:0:0:
448,192,166840,1,0,0:0:0:0:
448,192,166990,128,0,168190:0:0:0:0:
192,192,167140,1,0,0:0:0:0:
64,192,167140,1,0,0:0:0:0:
320,192,167290,1,0,0:0:0:0:
64,192,167365,1,0,0:0:0:0:
192,192,167440,1,0,0:0:0:0:
320,192,167440,1,0,0:0:0:0:
192,192,167590,1,0,0:0:0:0:
320,192,167740,1,0,0:0:0:0:
64,192,167740,1,0,0:0:0:0:
64,192,167890,1,0,0:0:0:0:
192,192,167965,1,0,0:0:0:0:
320,192,168040,1,0,0:0:0:0:
64,192,168040,1,0,0:0:0:0:
192,192,168190,128,0,168265:0:0:0:0:
64,192,168340,128,0,168415:0:0:0:0:
448,192,168340,1,0,0:0:0:0:
320,192,168490,128,0,168565:0:0:0:0:
192,192,168565,1,0,0:0:0:0:
320,192,168640,128,0,168715:0:0:0:0:
64,192,168640,1,0,0:0:0:0:
64,192,168790,128,0,168865:0:0:0:0:
192,192,168940,128,0,169015:0:0:0:0:
320,192,168940,1,0,0:0:0:0:
448,192,169090,128,0,169390:0:0:0:0:
320,192,169165,1,0,0:0:0:0:
192,192,169240,1,0,0:0:0:0:
64,192,169240,1,0,0:0:0:0:
320,192,169390,128,0,169540:0:0:0:0:
64,192,169540,1,0,0:0:0:0:
448,192,169540,1,0,0:0:0:0:
192,192,169690,128,0,169765:0:0:0:0:
320,192,169765,1,0,0:0:0:0:
64,192,169840,128,0,169990:0:0:0:0:
448,192,169840,1,0,0:0:0:0:
192,192,169990,1,0,0:0:0:0:
320,192,170140,128,0,170215:0:0:0:0:
64,192,170140,1,0,0:0:0:0:
448,192,170290,128,0,170440:0:0:0:0:
64,192,170365,1,0,0:0:0:0:
192,192,170440,1,0,0:0:0:0:
320,192,170440,128,0,170590:0:0:0:0:
192,192,170590,128,0,170740:0:0:0:0:
64,192,170740,1,0,0:0:0:0:
320,192,170740,1,0,0:0:0:0:
448,192,170890,128,0,170965:0:0:0:0:
320,192,170965,1,0,0:0:0:0:
64,192,171040,128,0,171190:0:0:0:0:
192,192,171040,1,0,0:0:0:0:
320,192,171190,128,0,171265:0:0:0:0:
192,192,171340,128,0,171415:0:0:0:0:
64,192,171340,1,0,0:0:0:0:
448,192,171490,128,0,171790:0:0:0:0:
192,192,171565,1,0,0:0:0:0:
320,192,171640,1,0,0:0:0:0:
64,192,171640,1,0,0:0:0:0:
320,192,171790,1,0,0:0:0:0:
64,192,171940,1,0,0:0:0:0:
192,192,171940,1,0,0:0:0:0:
320,192,172090,1,0,0:0:0:0:
192,192,172165,1,0,0:0:0:0:
320,192,172240,1,0,0:0:0:0:
448,192,172240,1,0,0:0:0:0:
192,192,172390,1,0,0:0:0:0:
320,192,172540,1,0,0:0:0:0:
64,192,172540,1,0,0:0:0:0:
64,192,172690,1,0,0:0:0:0:
192,192,172765,1,0,0:0:0:0:
320,192,172840,1,0,0:0:0:0:
448,192,172840,1,0,0:0:0:0:
192,192,172990,1,0,0:0:0:0:
64,192,172990,1,0,0:0:0:0:
320,192,173065,1,0,0:0:0:0:
448,192,173065,1,0,0:0:0:0:
192,192,173140,1,0,0:0:0:0:
64,192,173140,1,0,0:0:0:0:
320,192,173215,1,0,0:0:0:0:
448,192,173215,1,0,0:0:0:0:
64,192,173290,1,0,0:0:0:0:
192,192,173365,1,0,0:0:0:0:
448,192,173440,1,0,0:0:0:0:
64,192,173515,1,0,0:0:0:0:
192,192,173590,1,0,0:0:0:0:
448,192,173590,1,0,0:0:0:0:
320,192,173665,1,0,0:0:0:0:
448,192,173740,1,0,0:0:0:0:
320,192,173815,1,0,0:0:0:0:
192,192,173890,1,0,0:0:0:0:
64,192,173890,1,0,0:0:0:0:
320,192,173965,1,0,0:0:0:0:
448,192,174040,1,0,0:0:0:0:
64,192,174115,1,0,0:0:0:0:
192,192,174190,1,0,0:0:0:0:
320,192,174190,1,0,0:0:0:0:
320,192,174340,1,0,0:0:0:0:
448,192,174340,1,0,0:0:0:0:
192,192,174490,1,0,0:0:0:0:
448,192,174565,1,0,0:0:0:0:
320,192,174640,1,0,0:0:0:0:
64,192,174640,1,0,0:0:0:0:
192,192,174790,1,0,0:0:0:0:
448,192,174940,1,0,0:0:0:0:
320,192,174940,1,0,0:0:0:0:
320,192,175090,1,0,0:0:0:0:
192,192,175165,1,0,0:0:0:0:
64,192,175240,1,0,0:0:0:0:
320,192,175240,1,0,0:0:0:0:
192,192,175390,1,0,0:0:0:0:
320,192,175540,1,0,0:0:0:0:
448,192,175540,1,0,0:0:0:0:
448,192,175690,1,0,0:0:0:0:
320,192,175765,1,0,0:0:0:0:
64,192,175840,1,0,0:0:0:0:
192,192,175840,1,0,0:0:0:0:
320,192,175990,1,0,0:0:0:0:
320,192,176140,1,0,0:0:0:0:
448,192,176140,1,0,0:0:0:0:
192,192,176290,1,0,0:0:0:0:
64,192,176365,1,0,0:0:0:0:
192,192,176440,1,0,0:0:0:0:
320,192,176440,1,0,0:0:0:0:
448,192,176590,1,0,0:0:0:0:
64,192,176740,1,0,0:0:0:0:
320,192,176740,1,0,0:0:0:0:
192,192,176890,1,0,0:0:0:0:
448,192,176965,1,0,0:0:0:0:
320,192,177040,1,0,0:0:0:0:
192,192,177040,1,0,0:0:0:0:
64,192,177190,1,0,0:0:0:0:
192,192,177340,1,0,0:0:0:0:
448,192,177340,1,0,0:0:0:0:
320,192,177490,1,0,0:0:0:0:
192,192,177565,1,0,0:0:0:0:
64,192,177640,1,0,0:0:0:0:
448,192,177640,1,0,0:0:0:0:
192,192,177790,1,0,0:0:0:0:
320,192,177940,1,0,0:0:0:0:
448,192,177940,1,0,0:0:0:0:
64,192,178090,1,0,0:0:0:0:
192,192,178165,1,0,0:0:0:0:
448,192,178240,1,0,0:0:0:0:
64,192,178240,1,0,0:0:0:0:
192,192,178390,1,0,0:0:0:0:
448,192,178540,1,0,0:0:0:0:
192,192,178540,1,0,0:0:0:0:
320,192,178690,1,0,0:0:0:0:
192,192,178765,1,0,0:0:0:0:
64,192,178840,1,0,0:0:0:0:
320,192,178840,1,0,0:0:0:0:
192,192,178990,1,0,0:0:0:0:
448,192,178990,1,0,0:0:0:0:
320,192,179065,1,0,0:0:0:0:
64,192,179140,1,0,0:0:0:0:
320,192,179215,1,0,0:0:0:0:
192,192,179290,1,0,0:0:0:0:
64,192,179290,1,0,0:0:0:0:
448,192,179290,1,0,0:0:0:0:
320,192,179365,1,0,0:0:0:0:
448,192,179440,1,0,0:0:0:0:
192,192,179515,1,0,0:0:0:0:
64,192,179590,1,0,0:0:0:0:
320,192,179590,1,0,0:0:0:0:
448,192,179590,1,0,0:0:0:0:
192,192,179665,1,0,0:0:0:0:
64,192,179740,1,0,0:0:0:0:
320,192,179815,1,0,0:0:0:0:
448,192,179890,1,0,0:0:0:0:
192,192,179890,1,0,0:0:0:0:
64,192,179890,1,0,0:0:0:0:
320,192,179965,1,0,0:0:0:0:
448,192,180040,1,0,0:0:0:0:
192,192,180115,1,0,0:0:0:0:
64,192,180190,1,0,0:0:0:0:
320,192,180190,1,0,0:0:0:0:
448,192,180190,1,0,0:0:0:0:
192,192,180265,1,0,0:0:0:0:
64,192,180340,1,0,0:0:0:0:
320,192,180415,1,0,0:0:0:0:
448,192,180490,1,0,0:0:0:0:
192,192,180490,1,0,0:0:0:0:
64,192,180490,1,0,0:0:0:0:
320,192,180565,1,0,0:0:0:0:
448,192,180640,1,0,0:0:0:0:
192,192,180715,1,0,0:0:0:0:
64,192,180790,1,0,0:0:0:0:
320,192,180790,1,0,0:0:0:0:
448,192,180790,1,0,0:0:0:0:
192,192,180865,1,0,0:0:0:0:
64,192,180940,1,0,0:0:0:0:
320,192,181015,1,0,0:0:0:0:
448,192,181090,1,0,0:0:0:0:
192,192,181090,1,0,0:0:0:0:
64,192,181090,1,0,0:0:0:0:
320,192,181165,1,0,0:0:0:0:
192,192,181240,1,0,0:0:0:0:
64,192,181315,1,0,0:0:0:0:
320,192,181390,1,0,0:0:0:0:
448,192,181390,1,0,0:0:0:0:
64,192,181540,1,0,0:0:0:0:
192,192,181615,1,0,0:0:0:0:
448,192,181690,1,0,0:0:0:0:
320,192,181690,1,0,0:0:0:0:
192,192,181765,1,0,0:0:0:0:
64,192,181765,1,0,0:0:0:0:
320,192,181840,1,0,0:0:0:0:
448,192,181840,1,0,0:0:0:0:
192,192,181915,1,0,0:0:0:0:
64,192,181915,1,0,0:0:0:0:
320,192,181990,1,0,0:0:0:0:
448,192,182065,1,0,0:0:0:0:
192,192,182140,1,0,0:0:0:0:
320,192,182140,1,0,0:0:0:0:
64,192,182215,1,0,0:0:0:0:
320,192,182290,1,0,0:0:0:0:
448,192,182290,1,0,0:0:0:0:
192,192,182365,1,0,0:0:0:0:
64,192,182440,1,0,0:0:0:0:
320,192,182440,1,0,0:0:0:0:
448,192,182515,1,0,0:0:0:0:
64,192,182590,128,0,183790:0:0:0:0:
192,192,182590,128,0,183790:0:0:0:0:
320,192,182590,1,0,0:0:0:0:
448,192,183790,128,0,186040:0:0:0:0:
320,192,183940,1,0,0:0:0:0:
64,192,183940,1,0,0:0:0:0:
192,192,184090,1,0,0:0:0:0:
64,192,184165,1,0,0:0:0:0:
192,192,184240,1,0,0:0:0:0:
320,192,184240,1,0,0:0:0:0:
320,192,184390,1,0,0:0:0:0:
64,192,184540,1,0,0:0:0:0:
192,192,184540,1,0,0:0:0:0:
64,192,184690,1,0,0:0:0:0:
192,192,184765,1,0,0:0:0:0:
320,192,184840,1,0,0:0:0:0:
64,192,184840,1,0,0:0:0:0:
192,192,184990,1,0,0:0:0:0:
320,192,185140,1,0,0:0:0:0:
64,192,185140,1,0,0:0:0:0:
192,192,185290,1,0,0:0:0:0:
64,192,185365,1,0,0:0:0:0:
192,192,185440,1,0,0:0:0:0:
320,192,185440,1,0,0:0:0:0:
320,192,185590,1,0,0:0:0:0:
64,192,185740,1,0,0:0:0:0:
192,192,185740,1,0,0:0:0:0:
64,192,185890,1,0,0:0:0:0:
192,192,185965,1,0,0:0:0:0:
320,192,186040,1,0,0:0:0:0:
64,192,186040,1,0,0:0:0:0:
64,192,186190,128,0,188590:0:0:0:0:
320,192,186340,1,0,0:0:0:0:
448,192,186340,1,0,0:0:0:0:
448,192,186490,1,0,0:0:0:0:
320,192,186565,1,0,0:0:0:0:
192,192,186640,1,0,0:0:0:0:
448,192,186640,1,0,0:0:0:0:
320,192,186790,1,0,0:0:0:0:
192,192,186940,1,0,0:0:0:0:
320,192,186940,1,0,0:0:0:0:
448,192,187090,1,0,0:0:0:0:
192,192,187165,1,0,0:0:0:0:
320,192,187240,1,0,0:0:0:0:
448,192,187240,1,0,0:0:0:0:
192,192,187390,1,0,0:0:0:0:
448,192,187540,1,0,0:0:0:0:
192,192,187540,1,0,0:0:0:0:
320,192,187690,1,0,0:0:0:0:
448,192,187765,1,0,0:0:0:0:
192,192,187840,1,0,0:0:0:0:
320,192,187840,1,0,0:0:0:0:
192,192,187990,1,0,0:0:0:0:
448,192,188140,1,0,0:0:0:0:
320,192,188140,1,0,0:0:0:0:
448,192,188290,1,0,0:0:0:0:
320,192,188365,1,0,0:0:0:0:
192,192,188440,1,0,0:0:0:0:
448,192,188440,1,0,0:0:0:0:
320,192,188590,1,0,0:0:0:0:
448,192,188590,1,0,0:0:0:0:
192,192,188665,1,0,0:0:0:0:
64,192,188740,1,0,0:0:0:0:
320,192,188740,1,0,0:0:0:0:
448,192,188815,1,0,0:0:0:0:
192,192,188890,1,0,0:0:0:0:
64,192,188890,1,0,0:0:0:0:
320,192,188965,1,0,0:0:0:0:
448,192,189040,1,0,0:0:0:0:
192,192,189040,1,0,0:0:0:0:
64,192,189115,1,0,0:0:0:0:
320,192,189190,1,0,0:0:0:0:
448,192,189190,1,0,0:0:0:0:
64,192,189265,1,0,0:0:0:0:
192,192,189340,1,0,0:0:0:0:
448,192,189340,1,0,0:0:0:0:
320,192,189415,1,0,0:0:0:0:
192,192,189490,1,0,0:0:0:0:
64,192,189490,1,0,0:0:0:0:
448,192,189565,1,0,0:0:0:0:
320,192,189640,1,0,0:0:0:0:
64,192,189640,1,0,0:0:0:0:
192,192,189715,1,0,0:0:0:0:
320,192,189790,1,0,0:0:0:0:
448,192,189790,1,0,0:0:0:0:
192,192,189865,1,0,0:0:0:0:
64,192,189940,1,0,0:0:0:0:
320,192,189940,1,0,0:0:0:0:
448,192,190015,1,0,0:0:0:0:
64,192,190090,1,0,0:0:0:0:
320,192,190090,1,0,0:0:0:0:
192,192,190165,1,0,0:0:0:0:
448,192,190240,1,0,0:0:0:0:
64,192,190240,1,0,0:0:0:0:
320,192,190315,1,0,0:0:0:0:
64,192,190390,1,0,0:0:0:0:
192,192,190390,1,0,0:0:0:0:
320,192,190465,1,0,0:0:0:0:
448,192,190540,1,0,0:0:0:0:
192,192,190540,1,0,0:0:0:0:
64,192,190615,1,0,0:0:0:0:
192,192,190690,1,0,0:0:0:0:
320,192,190690,1,0,0:0:0:0:
448,192,190765,1,0,0:0:0:0:
192,192,190840,1,0,0:0:0:0:
64,192,190840,1,0,0:0:0:0:
320,192,190915,1,0,0:0:0:0:
448,192,190990,1,0,0:0:0:0:
192,192,190990,1,0,0:0:0:0:
64,192,191065,1,0,0:0:0:0:
192,192,191140,1,0,0:0:0:0:
448,192,191140,1,0,0:0:0:0:
320,192,191215,1,0,0:0:0:0:
64,192,191290,1,0,0:0:0:0:
192,192,191290,1,0,0:0:0:0:
320,192,191365,1,0,0:0:0:0:
448,192,191440,1,0,0:0:0:0:
192,192,191440,1,0,0:0:0:0:
64,192,191515,1,0,0:0:0:0:
448,192,191590,1,0,0:0:0:0:
320,192,191590,1,0,0:0:0:0:
192,192,191665,1,0,0:0:0:0:
64,192,191740,1,0,0:0:0:0:
448,192,191740,1,0,0:0:0:0:
320,192,191815,1,0,0:0:0:0:
192,192,191890,1,0,0:0:0:0:
64,192,191890,1,0,0:0:0:0:
448,192,191965,1,0,0:0:0:0:
320,192,192040,1,0,0:0:0:0:
192,192,192040,1,0,0:0:0:0:
64,192,192115,1,0,0:0:0:0:
320,192,192190,1,0,0:0:0:0:
192,192,192190,1,0,0:0:0:0:
448,192,192265,1,0,0:0:0:0:
320,192,192340,1,0,0:0:0:0:
64,192,192415,1,0,0:0:0:0:
192,192,192490,1,0,0:0:0:0:
448,192,192490,1,0,0:0:0:0:
320,192,192565,1,0,0:0:0:0:
448,192,192640,1,0,0:0:0:0:
320,192,192715,1,0,0:0:0:0:
192,192,192790,1,0,0:0:0:0:
448,192,192790,1,0,0:0:0:0:
64,192,192865,1,0,0:0:0:0:
448,192,192940,1,0,0:0:0:0:
320,192,193015,1,0,0:0:0:0:
192,192,193090,1,0,0:0:0:0:
448,192,193090,1,0,0:0:0:0:
64,192,193165,1,0,0:0:0:0:
448,192,193240,1,0,0:0:0:0:
320,192,193315,1,0,0:0:0:0:
64,192,193390,128,0,195640:0:0:0:0:
192,192,193390,1,0,0:0:0:0:
192,192,193540,1,0,0:0:0:0:
448,192,193540,1,0,0:0:0:0:
320,192,193690,1,0,0:0:0:0:
448,192,193765,1,0,0:0:0:0:
320,192,193840,1,0,0:0:0:0:
192,192,193840,1,0,0:0:0:0:
192,192,193990,1,0,0:0:0:0:
448,192,194140,1,0,0:0:0:0:
320,192,194140,1,0,0:0:0:0:
448,192,194290,1,0,0:0:0:0:
320,192,194365,1,0,0:0:0:0:
192,192,194440,1,0,0:0:0:0:
448,192,194440,1,0,0:0:0:0:
320,192,194590,1,0,0:0:0:0:
192,192,194740,1,0,0:0:0:0:
448,192,194740,1,0,0:0:0:0:
320,192,194890,1,0,0:0:0:0:
448,192,194965,1,0,0:0:0:0:
320,192,195040,1,0,0:0:0:0:
192,192,195040,1,0,0:0:0:0:
192,192,195190,1,0,0:0:0:0:
448,192,195340,1,0,0:0:0:0:
320,192,195340,1,0,0:0:0:0:
448,192,195490,1,0,0:0:0:0:
320,192,195565,1,0,0:0:0:0:
192,192,195640,1,0,0:0:0:0:
448,192,195640,1,0,0:0:0:0:
448,192,195790,128,0,198190:0:0:0:0:
192,192,195940,1,0,0:0:0:0:
64,192,195940,1,0,0:0:0:0:
64,192,196090,1,0,0:0:0:0:
192,192,196165,1,0,0:0:0:0:
320,192,196240,1,0,0:0:0:0:
64,192,196240,1,0,0:0:0:0:
192,192,196390,1,0,0:0:0:0:
320,192,196540,1,0,0:0:0:0:
192,192,196540,1,0,0:0:0:0:
64,192,196690,1,0,0:0:0:0:
320,192,196765,1,0,0:0:0:0:
192,192,196840,1,0,0:0:0:0:
64,192,196840,1,0,0:0:0:0:
320,192,196990,1,0,0:0:0:0:
64,192,197140,1,0,0:0:0:0:
320,192,197140,1,0,0:0:0:0:
192,192,197290,1,0,0:0:0:0:
64,192,197365,1,0,0:0:0:0:
320,192,197440,1,0,0:0:0:0:
192,192,197440,1,0,0:0:0:0:
320,192,197590,1,0,0:0:0:0:
64,192,197740,1,0,0:0:0:0:
192,192,197740,1,0,0:0:0:0:
64,192,197890,1,0,0:0:0:0:
192,192,197965,1,0,0:0:0:0:
320,192,198040,1,0,0:0:0:0:
64,192,198040,1,0,0:0:0:0:
64,192,198190,1,0,0:0:0:0:
192,192,198190,1,0,0:0:0:0:
320,192,198265,1,0,0:0:0:0:
448,192,198340,1,0,0:0:0:0:
192,192,198415,1,0,0:0:0:0:
64,192,198490,1,0,0:0:0:0:
320,192,198490,1,0,0:0:0:0:
448,192,198490,1,0,0:0:0:0:
192,192,198565,1,0,0:0:0:0:
448,192,198640,1,0,0:0:0:0:
320,192,198715,1,0,0:0:0:0:
192,192,198790,1,0,0:0:0:0:
64,192,198790,1,0,0:0:0:0:
448,192,198790,1,0,0:0:0:0:
320,192,198865,1,0,0:0:0:0:
192,192,198940,1,0,0:0:0:0:
64,192,199015,1,0,0:0:0:0:
320,192,199090,1,0,0:0:0:0:
192,192,199090,1,0,0:0:0:0:
448,192,199090,1,0,0:0:0:0:
64,192,199165,1,0,0:0:0:0:
320,192,199240,1,0,0:0:0:0:
448,192,199315,1,0,0:0:0:0:
192,192,199390,1,0,0:0:0:0:
64,192,199390,1,0,0:0:0:0:
320,192,199390,1,0,0:0:0:0:
64,192,200590,128,0,200740:0:0:0:0:
448,192,200740,128,0,201040:0:0:0:0:
320,192,200740,1,0,0:0:0:0:
64,192,200890,1,0,0:0:0:0:
320,192,200965,1,0,0:0:0:0:
192,192,201040,128,0,201190:0:0:0:0:
64,192,201040,1,0,0:0:0:0:
64,192,201190,128,0,201340:0:0:0:0:
320,192,201340,128,0,201490:0:0:0:0:
448,192,201340,1,0,0:0:0:0:
448,192,201490,128,0,201790:0:0:0:0:
320,192,201565,1,0,0:0:0:0:
192,192,201640,1,0,0:0:0:0:
64,192,201640,1,0,0:0:0:0:
320,192,201790,128,0,201940:0:0:0:0:
64,192,201940,128,0,202240:0:0:0:0:
448,192,201940,1,0,0:0:0:0:
192,192,202090,1,0,0:0:0:0:
320,192,202165,1,0,0:0:0:0:
448,192,202240,128,0,202390:0:0:0:0:
192,192,202240,1,0,0:0:0:0:
192,192,202390,128,0,202540:0:0:0:0:
320,192,202540,128,0,202690:0:0:0:0:
448,192,202540,1,0,0:0:0:0:
64,192,202690,128,0,202990:0:0:0:0:
192,192,202765,1,0,0:0:0:0:
320,192,202840,1,0,0:0:0:0:
448,192,202840,1,0,0:0:0:0:
448,192,202990,128,0,203140:0:0:0:0:
64,192,203140,128,0,203440:0:0:0:0:
192,192,203140,1,0,0:0:0:0:
448,192,203290,1,0,0:0:0:0:
192,192,203365,1,0,0:0:0:0:
320,192,203440,128,0,203590:0:0:0:0:
448,192,203440,1,0,0:0:0:0:
448,192,203590,128,0,203740:0:0:0:0:
64,192,203740,128,0,203965:0:0:0:0:
320,192,203740,1,0,0:0:0:0:
448,192,203890,1,0,0:0:0:0:
192,192,203965,128,0,204115:0:0:0:0:
64,192,204040,1,0,0:0:0:0:
320,192,204040,1,0,0:0:0:0:
448,192,204115,128,0,204265:0:0:0:0:
320,192,204190,1,0,0:0:0:0:
64,192,204265,128,0,204490:0:0:0:0:
192,192,204340,1,0,0:0:0:0:
320,192,204340,1,0,0:0:0:0:
192,192,204490,128,0,204640:0:0:0:0:
320,192,204565,1,0,0:0:0:0:
448,192,204640,128,0,205390:0:0:0:0:
64,192,204640,1,0,0:0:0:0:
320,192,204790,1,0,0:0:0:0:
192,192,204940,1,0,0:0:0:0:
64,192,204940,1,0,0:0:0:0:
64,192,205090,1,0,0:0:0:0:
192,192,205165,1,0,0:0:0:0:
320,192,205240,1,0,0:0:0:0:
64,192,205240,1,0,0:0:0:0:
64,192,205390,128,0,205540:0:0:0:0:
448,192,205540,1,0,0:0:0:0:
192,192,205540,128,0,205615:0:0:0:0:
192,192,205690,128,0,205765:0:0:0:0:
320,192,205765,1,0,0:0:0:0:
448,192,205840,128,0,206140:0:0:0:0:
64,192,205840,1,0,0:0:0:0:
320,192,205990,1,0,0:0:0:0:
192,192,206140,128,0,206215:0:0:0:0:
64,192,206140,1,0,0:0:0:0:
320,192,206290,128,0,206365:0:0:0:0:
192,192,206365,1,0,0:0:0:0:
64,192,206440,128,0,206515:0:0:0:0:
448,192,206440,1,0,0:0:0:0:
448,192,206590,128,0,206740:0:0:0:0:
192,192,206740,128,0,206890:0:0:0:0:
320,192,206740,1,0,0:0:0:0:
64,192,206890,128,0,207040:0:0:0:0:
192,192,206965,1,0,0:0:0:0:
448,192,207040,128,0,207190:0:0:0:0:
320,192,207040,1,0,0:0:0:0:
64,192,207190,1,0,0:0:0:0:
320,192,207340,128,0,207490:0:0:0:0:
448,192,207340,1,0,0:0:0:0:
192,192,207490,128,0,207565:0:0:0:0:
64,192,207565,128,0,207640:0:0:0:0:
448,192,207640,128,0,207790:0:0:0:0:
320,192,207640,1,0,0:0:0:0:
320,192,207790,128,0,207865:0:0:0:0:
192,192,207865,128,0,208090:0:0:0:0:
64,192,207940,1,0,0:0:0:0:
320,192,207940,1,0,0:0:0:0:
448,192,208090,128,0,208240:0:0:0:0:
320,192,208165,1,0,0:0:0:0:
64,192,208240,128,0,208390:0:0:0:0:
192,192,208240,1,0,0:0:0:0:
320,192,208390,128,0,208465:0:0:0:0:
192,192,208465,128,0,208540:0:0:0:0:
448,192,208540,128,0,208690:0:0:0:0:
64,192,208540,1,0,0:0:0:0:
192,192,208690,128,0,208840:0:0:0:0:
320,192,208765,1,0,0:0:0:0:
64,192,208840,128,0,208990:0:0:0:0:
448,192,208840,1,0,0:0:0:0:
320,192,208990,1,0,0:0:0:0:
448,192,208990,1,0,0:0:0:0:
192,192,209065,1,0,0:0:0:0:
64,192,209065,1,0,0:0:0:0:
320,192,209140,1,0,0:0:0:0:
448,192,209140,1,0,0:0:0:0:
192,192,209215,1,0,0:0:0:0:
64,192,209215,1,0,0:0:0:0:
320,192,209290,1,0,0:0:0:0:
448,192,209365,1,0,0:0:0:0:
64,192,209440,1,0,0:0:0:0:
192,192,209515,1,0,0:0:0:0:
448,192,209590,1,0,0:0:0:0:
320,192,209590,1,0,0:0:0:0:
192,192,209665,1,0,0:0:0:0:
64,192,209665,1,0,0:0:0:0:
320,192,209740,1,0,0:0:0:0:
448,192,209740,1,0,0:0:0:0:
192,192,209815,1,0,0:0:0:0:
64,192,209815,1,0,0:0:0:0:
448,192,209890,1,0,0:0:0:0:
320,192,209965,1,0,0:0:0:0:
192,192,210040,1,0,0:0:0:0:
64,192,210115,1,0,0:0:0:0:
448,192,210190,1,0,0:0:0:0:
320,192,210340,1,0,0:0:0:0:
64,192,210340,128,0,210490:0:0:0:0:
448,192,210490,128,0,210565:0:0:0:0:
320,192,210565,128,0,210640:0:0:0:0:
64,192,210640,128,0,210940:0:0:0:0:
192,192,210640,1,0,0:0:0:0:
192,192,210790,128,0,210940:0:0:0:0:
448,192,210940,128,0,211090:0:0:0:0:
320,192,210940,1,0,0:0:0:0:
320,192,211090,128,0,211240:0:0:0:0:
448,192,211165,1,0,0:0:0:0:
64,192,211240,128,0,211390:0:0:0:0:
192,192,211240,1,0,0:0:0:0:
320,192,211390,1,0,0:0:0:0:
448,192,211540,128,0,211690:0:0:0:0:
192,192,211540,1,0,0:0:0:0:
64,192,211690,128,0,211990:0:0:0:0:
192,192,211765,1,0,0:0:0:0:
320,192,211840,1,0,0:0:0:0:
448,192,211840,1,0,0:0:0:0:
192,192,211990,128,0,212140:0:0:0:0:
448,192,212140,128,0,212290:0:0:0:0:
64,192,212140,1,0,0:0:0:0:
320,192,212290,128,0,212590:0:0:0:0:
192,192,212365,1,0,0:0:0:0:
64,192,212440,1,0,0:0:0:0:
448,192,212440,1,0,0:0:0:0:
64,192,212590,1,0,0:0:0:0:
192,192,212640,1,0,0:0:0:0:
448,192,212690,1,0,0:0:0:0:
192,192,212740,1,0,0:0:0:0:
64,192,212740,1,0,0:0:0:0:
320,192,212790,1,0,0:0:0:0:
448,192,212840,1,0,0:0:0:0:
192,192,212890,1,0,0:0:0:0:
320,192,212940,1,0,0:0:0:0:
64,192,212990,1,0,0:0:0:0:
448,192,213040,128,0,213190:0:0:0:0:
192,192,213040,1,0,0:0:0:0:
64,192,213190,128,0,213340:0:0:0:0:
320,192,213340,128,0,213490:0:0:0:0:
448,192,213340,1,0,0:0:0:0:
192,192,213490,128,0,213640:0:0:0:0:
320,192,213565,1,0,0:0:0:0:
448,192,213640,128,0,213790:0:0:0:0:
64,192,213640,1,0,0:0:0:0:
64,192,213790,128,0,213940:0:0:0:0:
320,192,213940,128,0,214090:0:0:0:0:
192,192,213940,1,0,0:0:0:0:
448,192,214090,128,0,214240:0:0:0:0:
320,192,214165,1,0,0:0:0:0:
64,192,214240,128,0,214990:0:0:0:0:
192,192,214240,1,0,0:0:0:0:
320,192,214390,1,0,0:0:0:0:
192,192,214540,1,0,0:0:0:0:
448,192,214540,1,0,0:0:0:0:
448,192,214690,1,0,0:0:0:0:
320,192,214765,1,0,0:0:0:0:
192,192,214840,1,0,0:0:0:0:
448,192,214840,1,0,0:0:0:0:
448,192,214990,128,0,215140:0:0:0:0:
320,192,215140,128,0,215440:0:0:0:0:
64,192,215140,1,0,0:0:0:0:
192,192,215290,1,0,0:0:0:0:
448,192,215365,1,0,0:0:0:0:
64,192,215440,128,0,215515:0:0:0:0:
192,192,215440,1,0,0:0:0:0:
448,192,215515,128,0,215590:0:0:0:0:
192,192,215590,128,0,215665:0:0:0:0:
320,192,215665,128,0,215740:0:0:0:0:
64,192,215740,128,0,215890:0:0:0:0:
448,192,215740,1,0,0:0:0:0:
192,192,215890,128,0,216040:0:0:0:0:
320,192,215965,1,0,0:0:0:0:
448,192,216040,128,0,216190:0:0:0:0:
64,192,216040,1,0,0:0:0:0:
320,192,216190,128,0,216340:0:0:0:0:
64,192,216340,128,0,216640:0:0:0:0:
192,192,216340,1,0,0:0:0:0:
448,192,216490,1,0,0:0:0:0:
320,192,216565,1,0,0:0:0:0:
448,192,216640,128,0,216715:0:0:0:0:
192,192,216640,1,0,0:0:0:0:
320,192,216715,128,0,216790:0:0:0:0:
64,192,216790,128,0,217090:0:0:0:0:
192,192,216940,128,0,217090:0:0:0:0:
448,192,216940,1,0,0:0:0:0:
448,192,217090,128,0,217390:0:0:0:0:
320,192,217165,1,0,0:0:0:0:
192,192,217240,1,0,0:0:0:0:
64,192,217240,1,0,0:0:0:0:
192,192,217390,1,0,0:0:0:0:
64,192,217390,1,0,0:0:0:0:
320,192,217465,1,0,0:0:0:0:
448,192,217540,1,0,0:0:0:0:
64,192,217615,1,0,0:0:0:0:
192,192,217690,1,0,0:0:0:0:
448,192,217690,1,0,0:0:0:0:
320,192,217765,1,0,0:0:0:0:
448,192,217840,1,0,0:0:0:0:
320,192,217915,1,0,0:0:0:0:
64,192,217990,1,0,0:0:0:0:
192,192,217990,1,0,0:0:0:0:
448,192,218065,1,0,0:0:0:0:
320,192,218140,1,0,0:0:0:0:
192,192,218215,1,0,0:0:0:0:
64,192,218290,1,0,0:0:0:0:
320,192,218290,1,0,0:0:0:0:
448,192,218365,1,0,0:0:0:0:
192,192,218440,1,0,0:0:0:0:
64,192,218515,1,0,0:0:0:0:
448,192,218590,1,0,0:0:0:0:
192,192,218590,1,0,0:0:0:0:
320,192,218665,1,0,0:0:0:0:
192,192,218740,1,0,0:0:0:0:
320,192,218815,1,0,0:0:0:0:
64,192,218890,1,0,0:0:0:0:
448,192,218890,1,0,0:0:0:0:
192,192,218890,1,0,0:0:0:0:
64,192,219190,1,0,0:0:0:0:
192,192,219190,1,0,0:0:0:0:
448,192,219190,1,0,0:0:0:0:
64,192,219415,1,0,0:0:0:0:
448,192,219415,1,0,0:0:0:0:
320,192,219415,1,0,0:0:0:0:
192,192,219565,1,0,0:0:0:0:
448,192,219565,1,0,0:0:0:0:
64,192,219565,1,0,0:0:0:0:
320,192,219790,1,0,0:0:0:0:
192,192,219790,1,0,0:0:0:0:
448,192,219790,1,0,0:0:0:0:
320,192,221890,128,0,222190:0:0:0:0:
64,192,221890,1,0,0:0:0:0:
448,192,221890,1,0,0:0:0:0:
64,192,222190,1,0,0:0:0:0:
448,192,222190,1,0,0:0:0:0:
192,192,222190,128,0,222415:0:0:0:0:
64,192,224440,1,0,0:0:0:0:
448,192,224440,1,0,0:0:0:0:
320,192,224440,128,0,224590:0:0:0:0:
64,192,224590,1,0,0:0:0:0:
448,192,224590,1,0,0:0:0:0:
192,192,224590,128,0,224740:0:0:0:0:
320,192,226690,1,0,0:0:0:0:
64,192,226690,1,0,0:0:0:0:
448,192,226690,128,0,226990:0:0:0:0:
192,192,226990,1,0,0:0:0:0:
64,192,226990,128,0,227215:0:0:0:0:
448,192,229390,128,0,231490:0:0:0:0:
64,192,229390,1,0,0:0:0:0:
192,192,229390,1,0,0:0:0:0:
320,192,231490,1,0,0:0:0:0:
192,192,231490,1,0,0:0:0:0:
64,192,231490,128,0,231790:0:0:0:0:
320,192,231790,128,0,232015:0:0:0:0:
448,192,231790,1,0,0:0:0:0:
192,192,231790,1,0,0:0:0:0:
448,192,233890,1,0,0:0:0:0:
192,192,233890,1,0,0:0:0:0:
64,192,233890,128,0,234190:0:0:0:0:
448,192,234190,1,0,0:0:0:0:
192,192,234190,1,0,0:0:0:0:
320,192,234190,128,0,234415:0:0:0:0:
448,192,236440,1,0,0:0:0:0:
192,192,236440,1,0,0:0:0:0:
320,192,236440,128,0,236590:0:0:0:0:
192,192,236590,1,0,0:0:0:0:
448,192,236590,1,0,0:0:0:0:
64,192,236590,128,0,236740:0:0:0:0:
448,192,238990,1,0,0:0:0:0:
192,192,238990,1,0,0:0:0:0:
64,192,238990,128,0,240190:0:0:0:0:
448,192,240190,1,0,0:0:0:0:
320,192,240190,1,0,0:0:0:0:
192,192,240265,1,0,0:0:0:0:
64,192,240265,1,0,0:0:0:0:
320,192,240340,1,0,0:0:0:0:
448,192,240340,1,0,0:0:0:0:
192,192,240415,1,0,0:0:0:0:
64,192,240415,1,0,0:0:0:0:
320,192,240490,1,0,0:0:0:0:
448,192,240565,1,0,0:0:0:0:
64,192,240640,1,0,0:0:0:0:
320,192,240640,1,0,0:0:0:0:
192,192,240715,1,0,0:0:0:0:
448,192,240715,1,0,0:0:0:0:
64,192,240790,1,0,0:0:0:0:
320,192,240790,1,0,0:0:0:0:
192,192,240865,1,0,0:0:0:0:
448,192,240865,1,0,0:0:0:0:
64,192,240940,1,0,0:0:0:0:
320,192,241015,1,0,0:0:0:0:
64,192,241090,1,0,0:0:0:0:
448,192,241090,1,0,0:0:0:0:
192,192,241165,1,0,0:0:0:0:
320,192,241165,1,0,0:0:0:0:
448,192,241240,1,0,0:0:0:0:
320,192,241315,1,0,0:0:0:0:
192,192,241390,1,0,0:0:0:0:
64,192,241390,1,0,0:0:0:0:
320,192,241465,1,0,0:0:0:0:
448,192,241465,1,0,0:0:0:0:
192,192,241540,1,0,0:0:0:0:
64,192,241540,1,0,0:0:0:0:
320,192,241615,1,0,0:0:0:0:
448,192,241615,1,0,0:0:0:0:
192,192,241690,1,0,0:0:0:0:
64,192,241765,1,0,0:0:0:0:
448,192,241840,1,0,0:0:0:0:
320,192,241840,1,0,0:0:0:0:
64,192,241915,1,0,0:0:0:0:
192,192,241915,1,0,0:0:0:0:
320,192,241990,1,0,0:0:0:0:
448,192,242065,1,0,0:0:0:0:
64,192,242140,1,0,0:0:0:0:
192,192,242140,1,0,0:0:0:0:
320,192,242215,1,0,0:0:0:0:
448,192,242215,1,0,0:0:0:0:
192,192,242290,1,0,0:0:0:0:
64,192,242365,1,0,0:0:0:0:
448,192,242440,1,0,0:0:0:0:
320,192,242515,1,0,0:0:0:0:
64,192,242590,1,0,0:0:0:0:
192,192,242590,1,0,0:0:0:0:
448,192,242678,1,0,0:0:0:0:
64,192,242766,1,0,0:0:0:0:
320,192,242766,1,0,0:0:0:0:
192,192,242854,1,0,0:0:0:0:
448,192,242942,1,0,0:0:0:0:
192,192,243031,1,0,0:0:0:0:
320,192,243119,1,0,0:0:0:0:
64,192,243119,1,0,0:0:0:0:
448,192,243207,1,0,0:0:0:0:
64,192,243295,1,0,0:0:0:0:
320,192,243384,1,0,0:0:0:0:
192,192,243472,1,0,0:0:0:0:
448,192,243472,1,0,0:0:0:0:
64,192,243560,1,0,0:0:0:0:
320,192,243648,1,0,0:0:0:0:
64,192,243737,1,0,0:0:0:0:
192,192,243825,1,0,0:0:0:0:
448,192,243825,1,0,0:0:0:0:
320,192,243913,1,0,0:0:0:0:
64,192,244001,1,0,0:0:0:0:
64,192,244090,1,0,0:0:0:0:
448,192,244178,1,0,0:0:0:0:
320,192,244178,1,0,0:0:0:0:
448,192,244266,1,0,0:0:0:0:
192,192,244354,1,0,0:0:0:0:
192,192,244442,1,0,0:0:0:0:
320,192,244531,1,0,0:0:0:0:
64,192,244531,1,0,0:0:0:0:
320,192,244619,1,0,0:0:0:0:
64,192,244707,1,0,0:0:0:0:
64,192,244795,1,0,0:0:0:0:
448,192,244884,1,0,0:0:0:0:
192,192,244884,1,0,0:0:0:0:
192,192,244972,1,0,0:0:0:0:
448,192,245060,1,0,0:0:0:0:
448,192,245148,1,0,0:0:0:0:
320,192,245237,1,0,0:0:0:0:
64,192,245237,1,0,0:0:0:0:
320,192,245325,1,0,0:0:0:0:
64,192,245413,1,0,0:0:0:0:
192,192,245501,1,0,0:0:0:0:
448,192,245590,1,0,0:0:0:0:
320,192,245590,1,0,0:0:0:0:
192,192,245678,1,0,0:0:0:0:
64,192,245766,1,0,0:0:0:0:
320,192,245854,1,0,0:0:0:0:
192,192,245942,1,0,0:0:0:0:
64,192,245942,1,0,0:0:0:0:
320,192,246031,1,0,0:0:0:0:
448,192,246119,1,0,0:0:0:0:
64,192,246207,1,0,0:0:0:0:
320,192,246295,1,0,0:0:0:0:
448,192,246295,1,0,0:0:0:0:
192,192,246384,1,0,0:0:0:0:
64,192,246472,1,0,0:0:0:0:
448,192,246560,1,0,0:0:0:0:
192,192,246648,1,0,0:0:0:0:
64,192,246648,1,0,0:0:0:0:
448,192,246737,1,0,0:0:0:0:
320,192,246825,1,0,0:0:0:0:
320,192,246913,1,0,0:0:0:0:
64,192,247001,1,0,0:0:0:0:
448,192,247001,1,0,0:0:0:0:
64,192,247090,1,0,0:0:0:0:
320,192,247178,1,0,0:0:0:0:
320,192,247266,1,0,0:0:0:0:
64,192,247354,1,0,0:0:0:0:
192,192,247354,1,0,0:0:0:0:
192,192,247442,1,0,0:0:0:0:
448,192,247531,1,0,0:0:0:0:
448,192,247619,1,0,0:0:0:0:
64,192,247707,1,0,0:0:0:0:
192,192,247707,1,0,0:0:0:0:
64,192,247795,1,0,0:0:0:0:
320,192,247884,1,0,0:0:0:0:
320,192,247972,1,0,0:0:0:0:
192,192,248060,1,0,0:0:0:0:
448,192,248060,1,0,0:0:0:0:
192,192,248148,1,0,0:0:0:0:
64,192,248237,1,0,0:0:0:0:
192,192,248325,1,0,0:0:0:0:
448,192,248413,1,0,0:0:0:0:
64,192,248413,1,0,0:0:0:0:
320,192,248501,1,0,0:0:0:0:
64,192,248590,1,0,0:0:0:0:
320,192,248678,1,0,0:0:0:0:
448,192,248766,1,0,0:0:0:0:
192,192,248766,1,0,0:0:0:0:
64,192,248854,1,0,0:0:0:0:
320,192,248942,1,0,0:0:0:0:
192,192,249031,1,0,0:0:0:0:
448,192,249119,1,0,0:0:0:0:
64,192,249119,1,0,0:0:0:0:
192,192,249207,1,0,0:0:0:0:
448,192,249295,1,0,0:0:0:0:
320,192,249384,1,0,0:0:0:0:
64,192,249472,1,0,0:0:0:0:
192,192,249472,1,0,0:0:0:0:
320,192,249560,1,0,0:0:0:0:
448,192,249648,1,0,0:0:0:0:
448,192,249737,1,0,0:0:0:0:
64,192,249825,1,0,0:0:0:0:
320,192,249825,1,0,0:0:0:0:
64,192,249913,1,0,0:0:0:0:
320,192,250001,1,0,0:0:0:0:
320,192,250090,1,0,0:0:0:0:
64,192,250178,1,0,0:0:0:0:
192,192,250178,1,0,0:0:0:0:
192,192,250266,1,0,0:0:0:0:
448,192,250354,1,0,0:0:0:0:
448,192,250442,1,0,0:0:0:0:
320,192,250531,1,0,0:0:0:0:
64,192,250531,1,0,0:0:0:0:
320,192,250619,1,0,0:0:0:0:
64,192,250707,1,0,0:0:0:0:
64,192,250795,1,0,0:0:0:0:
320,192,250884,1,0,0:0:0:0:
448,192,250884,1,0,0:0:0:0:
320,192,250972,1,0,0:0:0:0:
64,192,251060,1,0,0:0:0:0:
320,192,251148,1,0,0:0:0:0:
448,192,251237,1,0,0:0:0:0:
64,192,251237,1,0,0:0:0:0:
192,192,251325,1,0,0:0:0:0:
448,192,251413,1,0,0:0:0:0:
320,192,251501,1,0,0:0:0:0:
64,192,251590,1,0,0:0:0:0:
192,192,251590,1,0,0:0:0:0:
448,192,251678,1,0,0:0:0:0:
192,192,251766,1,0,0:0:0:0:
448,192,251854,1,0,0:0:0:0:
320,192,251942,1,0,0:0:0:0:
64,192,251942,1,0,0:0:0:0:
192,192,252031,1,0,0:0:0:0:
320,192,252119,1,0,0:0:0:0:
64,192,252207,1,0,0:0:0:0:
192,192,252295,1,0,0:0:0:0:
448,192,252295,1,0,0:0:0:0:
64,192,252384,1,0,0:0:0:0:
448,192,252472,1,0,0:0:0:0:
320,192,252472,1,0,0:0:0:0:
192,192,252560,1,0,0:0:0:0:
64,192,252560,1,0,0:0:0:0:
320,192,252648,1,0,0:0:0:0:
448,192,252648,1,0,0:0:0:0:
192,192,252737,1,0,0:0:0:0:
64,192,252737,1,0,0:0:0:0:
320,192,252825,1,0,0:0:0:0:
448,192,252913,1,0,0:0:0:0:
320,192,253001,1,0,0:0:0:0:
192,192,253090,1,0,0:0:0:0:
64,192,253178,1,0,0:0:0:0:
448,192,253178,1,0,0:0:0:0:
320,192,253266,1,0,0:0:0:0:
192,192,253266,1,0,0:0:0:0:
64,192,253354,1,0,0:0:0:0:
448,192,253354,1,0,0:0:0:0:
192,192,253442,1,0,0:0:0:0:
320,192,253442,1,0,0:0:0:0:
448,192,253531,1,0,0:0:0:0:
320,192,253619,1,0,0:0:0:0:
192,192,253707,1,0,0:0:0:0:
64,192,253795,1,0,0:0:0:0:
192,192,253884,1,0,0:0:0:0:
448,192,253884,128,0,254060:0:0:0:0:
64,192,254060,128,0,254413:0:0:0:0:
320,192,254060,1,0,0:0:0:0:
192,192,254325,128,0,254413:0:0:0:0:
320,192,254413,128,0,254590:0:0:0:0:
448,192,254413,1,0,0:0:0:0:
448,192,254590,128,0,254766:0:0:0:0:
192,192,254766,128,0,254942:0:0:0:0:
64,192,254766,1,0,0:0:0:0:
320,192,254854,1,0,0:0:0:0:
64,192,254942,128,0,255119:0:0:0:0:
448,192,255031,1,0,0:0:0:0:
320,192,255119,1,0,0:0:0:0:
192,192,255119,1,0,0:0:0:0:
320,192,255295,128,0,255472:0:0:0:0:
448,192,255472,128,0,255825:0:0:0:0:
64,192,255472,1,0,0:0:0:0:
64,192,255737,1,0,0:0:0:0:
192,192,255825,128,0,255913:0:0:0:0:
320,192,255825,1,0,0:0:0:0:
64,192,255913,128,0,256001:0:0:0:0:
448,192,256001,128,0,256090:0:0:0:0:
320,192,256090,128,0,256178:0:0:0:0:
192,192,256178,128,0,256266:0:0:0:0:
448,192,256178,1,0,0:0:0:0:
64,192,256266,128,0,256354:0:0:0:0:
448,192,256354,128,0,256707:0:0:0:0:
320,192,256442,1,0,0:0:0:0:
192,192,256531,1,0,0:0:0:0:
64,192,256531,1,0,0:0:0:0:
64,192,256707,1,0,0:0:0:0:
192,192,256795,1,0,0:0:0:0:
320,192,256884,1,0,0:0:0:0:
448,192,256884,1,0,0:0:0:0:
192,192,256972,1,0,0:0:0:0:
64,192,257060,1,0,0:0:0:0:
448,192,257148,1,0,0:0:0:0:
64,192,257237,1,0,0:0:0:0:
320,192,257237,1,0,0:0:0:0:
192,192,257325,1,0,0:0:0:0:
64,192,257413,1,0,0:0:0:0:
192,192,257501,1,0,0:0:0:0:
448,192,257590,1,0,0:0:0:0:
320,192,257590,1,0,0:0:0:0:
64,192,257678,1,0,0:0:0:0:
192,192,257766,1,0,0:0:0:0:
320,192,257854,1,0,0:0:0:0:
448,192,257942,1,0,0:0:0:0:
192,192,257942,1,0,0:0:0:0:
64,192,258031,1,0,0:0:0:0:
192,192,258119,1,0,0:0:0:0:
192,192,258207,1,0,0:0:0:0:
64,192,258295,1,0,0:0:0:0:
448,192,258295,1,0,0:0:0:0:
448,192,258384,1,0,0:0:0:0:
64,192,258472,1,0,0:0:0:0:
64,192,258560,1,0,0:0:0:0:
448,192,258648,1,0,0:0:0:0:
320,192,258648,1,0,0:0:0:0:
192,192,258737,1,0,0:0:0:0:
448,192,258825,1,0,0:0:0:0:
192,192,258913,1,0,0:0:0:0:
448,192,259001,1,0,0:0:0:0:
64,192,259001,1,0,0:0:0:0:
192,192,259090,1,0,0:0:0:0:
64,192,259178,1,0,0:0:0:0:
448,192,259266,1,0,0:0:0:0:
64,192,259354,128,0,259531:0:0:0:0:
192,192,259354,1,0,0:0:0:0:
320,192,259442,1,0,0:0:0:0:
448,192,259442,1,0,0:0:0:0:
192,192,259531,128,0,259707:0:0:0:0:
448,192,259531,1,0,0:0:0:0:
448,192,259707,128,0,260060:0:0:0:0:
192,192,259972,1,0,0:0:0:0:
320,192,260060,128,0,260237:0:0:0:0:
64,192,260060,1,0,0:0:0:0:
64,192,260237,128,0,260501:0:0:0:0:
192,192,260413,1,0,0:0:0:0:
320,192,260413,1,0,0:0:0:0:
448,192,260501,128,0,260766:0:0:0:0:
320,192,260678,1,0,0:0:0:0:
192,192,260766,128,0,260942:0:0:0:0:
64,192,260766,1,0,0:0:0:0:
320,192,260942,128,0,261295:0:0:0:0:
64,192,261119,1,0,0:0:0:0:
448,192,261119,1,0,0:0:0:0:
448,192,261295,128,0,261648:0:0:0:0:
320,192,261384,1,0,0:0:0:0:
192,192,261472,1,0,0:0:0:0:
64,192,261472,1,0,0:0:0:0:
320,192,261560,128,0,261648:0:0:0:0:
64,192,261648,128,0,261737:0:0:0:0:
192,192,261737,128,0,261825:0:0:0:0:
320,192,261825,128,0,261913:0:0:0:0:
64,192,261825,1,0,0:0:0:0:
448,192,261913,128,0,262001:0:0:0:0:
64,192,262001,128,0,262354:0:0:0:0:
320,192,262090,1,0,0:0:0:0:
192,192,262178,1,0,0:0:0:0:
448,192,262178,1,0,0:0:0:0:
448,192,262354,1,0,0:0:0:0:
448,192,262442,1,0,0:0:0:0:
64,192,262531,1,0,0:0:0:0:
192,192,262531,1,0,0:0:0:0:
64,192,262619,1,0,0:0:0:0:
448,192,262707,1,0,0:0:0:0:
64,192,262795,1,0,0:0:0:0:
192,192,262884,1,0,0:0:0:0:
320,192,262884,1,0,0:0:0:0:
320,192,262972,1,0,0:0:0:0:
64,192,263060,1,0,0:0:0:0:
64,192,263148,1,0,0:0:0:0:
448,192,263237,1,0,0:0:0:0:
192,192,263237,1,0,0:0:0:0:
448,192,263325,1,0,0:0:0:0:
320,192,263413,1,0,0:0:0:0:
64,192,263501,1,0,0:0:0:0:
192,192,263590,1,0,0:0:0:0:
448,192,263590,1,0,0:0:0:0:
192,192,263678,1,0,0:0:0:0:
448,192,263766,1,0,0:0:0:0:
320,192,263766,1,0,0:0:0:0:
192,192,263854,1,0,0:0:0:0:
64,192,263854,1,0,0:0:0:0:
320,192,263942,1,0,0:0:0:0:
448,192,263942,1,0,0:0:0:0:
64,192,264031,1,0,0:0:0:0:
192,192,264031,1,0,0:0:0:0:
320,192,264119,1,0,0:0:0:0:
448,192,264207,1,0,0:0:0:0:
64,192,264295,1,0,0:0:0:0:
192,192,264384,1,0,0:0:0:0:
320,192,264472,1,0,0:0:0:0:
448,192,264560,1,0,0:0:0:0:
320,192,264648,1,0,0:0:0:0:
192,192,264648,1,0,0:0:0:0:
64,192,264737,1,0,0:0:0:0:
448,192,264737,1,0,0:0:0:0:
320,192,264825,1,0,0:0:0:0:
192,192,264825,1,0,0:0:0:0:
448,192,264913,1,0,0:0:0:0:
64,192,264913,1,0,0:0:0:0:
192,192,265001,1,0,0:0:0:0:
320,192,265090,1,0,0:0:0:0:
192,192,265178,1,0,0:0:0:0:
448,192,265178,1,0,0:0:0:0:
64,192,265266,1,0,0:0:0:0:
448,192,265354,1,0,0:0:0:0:
192,192,265354,1,0,0:0:0:0:
320,192,265442,1,0,0:0:0:0:
64,192,265531,1,0,0:0:0:0:
320,192,265619,1,0,0:0:0:0:
192,192,265707,1,0,0:0:0:0:
448,192,265707,1,0,0:0:0:0:
64,192,265795,1,0,0:0:0:0:
448,192,265884,1,0,0:0:0:0:
192,192,265972,1,0,0:0:0:0:
320,192,266060,1,0,0:0:0:0:
64,192,266060,1,0,0:0:0:0:
448,192,266148,1,0,0:0:0:0:
192,192,266237,1,0,0:0:0:0:
448,192,266325,1,0,0:0:0:0:
320,192,266413,1,0,0:0:0:0:
64,192,266413,1,0,0:0:0:0:
192,192,266501,1,0,0:0:0:0:
320,192,266590,1,0,0:0:0:0:
320,192,266678,1,0,0:0:0:0:
64,192,266766,1,0,0:0:0:0:
448,192,266766,1,0,0:0:0:0:
64,192,266854,1,0,0:0:0:0:
320,192,266942,1,0,0:0:0:0:
320,192,267031,1,0,0:0:0:0:
64,192,267119,1,0,0:0:0:0:
192,192,267119,1,0,0:0:0:0:
192,192,267207,1,0,0:0:0:0:
448,192,267295,1,0,0:0:0:0:
448,192,267384,1,0,0:0:0:0:
192,192,267472,1,0,0:0:0:0:
64,192,267472,1,0,0:0:0:0:
64,192,267560,1,0,0:0:0:0:
448,192,267648,1,0,0:0:0:0:
448,192,267737,1,0,0:0:0:0:
64,192,267825,1,0,0:0:0:0:
320,192,267825,1,0,0:0:0:0:
320,192,267913,1,0,0:0:0:0:
448,192,268001,1,0,0:0:0:0:
320,192,268090,1,0,0:0:0:0:
64,192,268178,1,0,0:0:0:0:
192,192,268178,1,0,0:0:0:0:
320,192,268266,1,0,0:0:0:0:
448,192,268354,1,0,0:0:0:0:
192,192,268442,1,0,0:0:0:0:
320,192,268531,1,0,0:0:0:0:
448,192,268531,1,0,0:0:0:0:
192,192,268619,1,0,0:0:0:0:
64,192,268707,1,0,0:0:0:0:
448,192,268795,1,0,0:0:0:0:
192,192,268884,1,0,0:0:0:0:
64,192,268884,1,0,0:0:0:0:
320,192,268972,1,0,0:0:0:0:
448,192,269060,1,0,0:0:0:0:
64,192,269148,1,0,0:0:0:0:
320,192,269237,1,0,0:0:0:0:
448,192,269237,1,0,0:0:0:0:
64,192,269325,1,0,0:0:0:0:
192,192,269413,1,0,0:0:0:0:
192,192,269501,1,0,0:0:0:0:
448,192,269590,1,0,0:0:0:0:
64,192,269590,1,0,0:0:0:0:
448,192,269678,1,0,0:0:0:0:
192,192,269766,1,0,0:0:0:0:
192,192,269854,1,0,0:0:0:0:
448,192,269942,1,0,0:0:0:0:
320,192,269942,1,0,0:0:0:0:
320,192,270031,1,0,0:0:0:0:
64,192,270119,1,0,0:0:0:0:
64,192,270207,1,0,0:0:0:0:
448,192,270295,1,0,0:0:0:0:
192,192,270295,1,0,0:0:0:0:
448,192,270384,1,0,0:0:0:0:
320,192,270472,1,0,0:0:0:0:
320,192,270560,1,0,0:0:0:0:
192,192,270648,1,0,0:0:0:0:
64,192,270648,1,0,0:0:0:0:
64,192,270737,1,0,0:0:0:0:
448,192,270825,1,0,0:0:0:0:
320,192,270913,1,0,0:0:0:0:
64,192,271001,1,0,0:0:0:0:
448,192,271001,1,0,0:0:0:0:
192,192,271090,1,0,0:0:0:0:
448,192,271178,1,0,0:0:0:0:
192,192,271266,1,0,0:0:0:0:
64,192,271354,1,0,0:0:0:0:
320,192,271354,1,0,0:0:0:0:
448,192,271442,1,0,0:0:0:0:
192,192,271531,1,0,0:0:0:0:
320,192,271619,1,0,0:0:0:0:
64,192,271707,1,0,0:0:0:0:
448,192,271707,1,0,0:0:0:0:
320,192,271795,1,0,0:0:0:0:
64,192,271884,1,0,0:0:0:0:
192,192,271972,1,0,0:0:0:0:
448,192,272060,1,0,0:0:0:0:
320,192,272060,1,0,0:0:0:0:
192,192,272148,1,0,0:0:0:0:
64,192,272237,1,0,0:0:0:0:
64,192,272325,1,0,0:0:0:0:
320,192,272413,1,0,0:0:0:0:
448,192,272413,1,0,0:0:0:0:
320,192,272501,1,0,0:0:0:0:
64,192,272590,1,0,0:0:0:0:
64,192,272678,1,0,0:0:0:0:
320,192,272766,1,0,0:0:0:0:
192,192,272766,1,0,0:0:0:0:
192,192,272854,1,0,0:0:0:0:
448,192,272942,1,0,0:0:0:0:
448,192,273031,1,0,0:0:0:0:
192,192,273119,1,0,0:0:0:0:
64,192,273119,1,0,0:0:0:0:
64,192,273207,1,0,0:0:0:0:
448,192,273295,1,0,0:0:0:0:
448,192,273384,1,0,0:0:0:0:
192,192,273472,1,0,0:0:0:0:
64,192,273472,1,0,0:0:0:0:
192,192,273560,1,0,0:0:0:0:
448,192,273648,1,0,0:0:0:0:
192,192,273737,1,0,0:0:0:0:
320,192,273825,1,0,0:0:0:0:
448,192,273825,1,0,0:0:0:0:
192,192,273913,1,0,0:0:0:0:
64,192,274001,1,0,0:0:0:0:
320,192,274090,1,0,0:0:0:0:
448,192,274178,1,0,0:0:0:0:
192,192,274178,1,0,0:0:0:0:
64,192,274266,1,0,0:0:0:0:
448,192,274354,1,0,0:0:0:0:
64,192,274442,1,0,0:0:0:0:
192,192,274531,1,0,0:0:0:0:
448,192,274531,1,0,0:0:0:0:
320,192,274619,1,0,0:0:0:0:
192,192,274707,1,0,0:0:0:0:
448,192,274795,1,0,0:0:0:0:
320,192,274884,1,0,0:0:0:0:
64,192,274884,1,0,0:0:0:0:
448,192,274972,1,0,0:0:0:0:
192,192,275060,1,0,0:0:0:0:
64,192,275060,1,0,0:0:0:0:
320,192,275148,1,0,0:0:0:0:
448,192,275148,1,0,0:0:0:0:
192,192,275237,1,0,0:0:0:0:
64,192,275237,1,0,0:0:0:0:
320,192,275325,1,0,0:0:0:0:
448,192,275325,1,0,0:0:0:0:
192,192,275413,1,0,0:0:0:0:
64,192,275413,1,0,0:0:0:0:
320,192,275501,1,0,0:0:0:0:
448,192,275501,1,0,0:0:0:0:
192,192,275590,1,0,0:0:0:0:
64,192,275590,1,0,0:0:0:0:
320,192,275678,1,0,0:0:0:0:
448,192,275678,1,0,0:0:0:0:
192,192,275766,1,0,0:0:0:0:
64,192,275766,1,0,0:0:0:0:
320,192,275854,1,0,0:0:0:0:
448,192,275854,1,0,0:0:0:0:
192,192,275942,1,0,0:0:0:0:
64,192,275942,1,0,0:0:0:0:
320,192,276031,1,0,0:0:0:0:
448,192,276031,1,0,0:0:0:0:
192,192,276119,1,0,0:0:0:0:
64,192,276119,1,0,0:0:0:0:
320,192,276207,1,0,0:0:0:0:
448,192,276207,1,0,0:0:0:0:
192,192,276295,1,0,0:0:0:0:
64,192,276295,1,0,0:0:0:0:
320,192,276384,1,0,0:0:0:0:
448,192,276384,1,0,0:0:0:0:
64,192,276472,1,0,0:0:0:0:
192,192,276560,1,0,0:0:0:0:
64,192,276648,1,0,0:0:0:0:
448,192,276648,1,0,0:0:0:0:
192,192,276737,1,0,0:0:0:0:
448,192,276825,128,0,277001:0:0:0:0:
320,192,276913,1,0,0:0:0:0:
192,192,277001,1,0,0:0:0:0:
64,192,277001,1,0,0:0:0:0:
448,192,277178,128,0,277354:0:0:0:0:
320,192,277354,1,0,0:0:0:0:
64,192,277354,1,0,0:0:0:0:
192,192,277442,1,0,0:0:0:0:
320,192,277619,1,0,0:0:0:0:
64,192,277707,128,0,277884:0:0:0:0:
448,192,277707,1,0,0:0:0:0:
448,192,277884,128,0,278237:0:0:0:0:
64,192,278060,1,0,0:0:0:0:
320,192,278060,1,0,0:0:0:0:
64,192,278237,128,0,278413:0:0:0:0:
448,192,278325,1,0,0:0:0:0:
192,192,278413,128,0,278590:0:0:0:0:
320,192,278413,1,0,0:0:0:0:
448,192,278590,128,0,279295:0:0:0:0:
192,192,278766,1,0,0:0:0:0:
320,192,278766,1,0,0:0:0:0:
64,192,278854,1,0,0:0:0:0:
320,192,279031,1,0,0:0:0:0:
192,192,279119,1,0,0:0:0:0:
64,192,279119,1,0,0:0:0:0:
64,192,279295,1,0,0:0:0:0:
192,192,279384,1,0,0:0:0:0:
320,192,279472,1,0,0:0:0:0:
64,192,279472,1,0,0:0:0:0:
448,192,279560,1,0,0:0:0:0:
192,192,279648,1,0,0:0:0:0:
320,192,279737,1,0,0:0:0:0:
448,192,279825,1,0,0:0:0:0:
64,192,279825,1,0,0:0:0:0:
192,192,279913,1,0,0:0:0:0:
64,192,280001,1,0,0:0:0:0:
448,192,280090,1,0,0:0:0:0:
320,192,280178,1,0,0:0:0:0:
64,192,280178,1,0,0:0:0:0:
192,192,280266,1,0,0:0:0:0:
64,192,280354,1,0,0:0:0:0:
448,192,280442,1,0,0:0:0:0:
320,192,280531,1,0,0:0:0:0:
192,192,280531,1,0,0:0:0:0:
64,192,280619,1,0,0:0:0:0:
448,192,280707,1,0,0:0:0:0:
192,192,280795,1,0,0:0:0:0:
64,192,280884,1,0,0:0:0:0:
448,192,280884,1,0,0:0:0:0:
192,192,280972,1,0,0:0:0:0:
320,192,281060,1,0,0:0:0:0:
64,192,281148,1,0,0:0:0:0:
192,192,281237,1,0,0:0:0:0:
448,192,281237,1,0,0:0:0:0:
320,192,281325,1,0,0:0:0:0:
64,192,281413,1,0,0:0:0:0:
448,192,281501,1,0,0:0:0:0:
64,192,281590,1,0,0:0:0:0:
320,192,281590,1,0,0:0:0:0:
192,192,281678,1,0,0:0:0:0:
64,192,281766,128,0,282119:0:0:0:0:
192,192,281854,1,0,0:0:0:0:
320,192,281942,1,0,0:0:0:0:
448,192,281942,1,0,0:0:0:0:
192,192,282031,1,0,0:0:0:0:
448,192,282119,128,0,282384:0:0:0:0:
192,192,282295,1,0,0:0:0:0:
64,192,282295,1,0,0:0:0:0:
320,192,282384,128,0,282648:0:0:0:0:
192,192,282560,1,0,0:0:0:0:
64,192,282648,128,0,282825:0:0:0:0:
448,192,282648,1,0,0:0:0:0:
320,192,282825,128,0,283090:0:0:0:0:
448,192,283001,1,0,0:0:0:0:
64,192,283001,1,0,0:0:0:0:
192,192,283090,128,0,283354:0:0:0:0:
64,192,283266,1,0,0:0:0:0:
448,192,283354,128,0,283531:0:0:0:0:
320,192,283354,1,0,0:0:0:0:
64,192,283531,128,0,283707:0:0:0:0:
192,192,283531,1,0,0:0:0:0:
192,192,283707,128,0,283795:0:0:0:0:
448,192,283707,1,0,0:0:0:0:
320,192,283795,128,0,283884:0:0:0:0:
448,192,283884,128,0,284237:0:0:0:0:
320,192,283972,1,0,0:0:0:0:
192,192,284060,1,0,0:0:0:0:
64,192,284060,1,0,0:0:0:0:
64,192,284237,128,0,284325:0:0:0:0:
192,192,284325,128,0,284413:0:0:0:0:
448,192,284413,1,0,0:0:0:0:
320,192,284413,128,0,284501:0:0:0:0:
64,192,284501,128,0,284942:0:0:0:0:
320,192,284678,1,0,0:0:0:0:
192,192,284766,1,0,0:0:0:0:
448,192,284766,1,0,0:0:0:0:
448,192,284942,1,0,0:0:0:0:
192,192,285031,1,0,0:0:0:0:
448,192,285119,1,0,0:0:0:0:
64,192,285119,1,0,0:0:0:0:
320,192,285207,1,0,0:0:0:0:
192,192,285295,1,0,0:0:0:0:
64,192,285384,1,0,0:0:0:0:
192,192,285472,1,0,0:0:0:0:
448,192,285472,1,0,0:0:0:0:
320,192,285560,1,0,0:0:0:0:
448,192,285648,1,0,0:0:0:0:
320,192,285737,1,0,0:0:0:0:
192,192,285825,1,0,0:0:0:0:
64,192,285825,1,0,0:0:0:0:
320,192,285913,1,0,0:0:0:0:
448,192,286001,1,0,0:0:0:0:
64,192,286090,1,0,0:0:0:0:
192,192,286178,1,0,0:0:0:0:
448,192,286178,1,0,0:0:0:0:
320,192,286266,1,0,0:0:0:0:
64,192,286354,1,0,0:0:0:0:
448,192,286354,1,0,0:0:0:0:
192,192,286442,1,0,0:0:0:0:
320,192,286442,1,0,0:0:0:0:
448,192,286531,1,0,0:0:0:0:
64,192,286531,1,0,0:0:0:0:
192,192,286619,1,0,0:0:0:0:
320,192,286619,1,0,0:0:0:0:
64,192,286707,1,0,0:0:0:0:
192,192,286795,1,0,0:0:0:0:
320,192,286884,1,0,0:0:0:0:
448,192,286972,1,0,0:0:0:0:
192,192,287060,1,0,0:0:0:0:
320,192,287060,1,0,0:0:0:0:
64,192,287148,1,0,0:0:0:0:
448,192,287237,1,0,0:0:0:0:
320,192,287325,1,0,0:0:0:0:
192,192,287413,1,0,0:0:0:0:
448,192,287413,1,0,0:0:0:0:
64,192,287501,1,0,0:0:0:0:
192,192,287590,1,0,0:0:0:0:
320,192,287678,1,0,0:0:0:0:
448,192,287766,1,0,0:0:0:0:
192,192,287766,1,0,0:0:0:0:
64,192,287766,1,0,0:0:0:0:
320,192,287841,1,0,0:0:0:0:
64,192,287916,1,0,0:0:0:0:
320,192,287991,1,0,0:0:0:0:
64,192,288066,1,0,0:0:0:0:
192,192,288216,1,0,0:0:0:0:
320,192,288366,1,0,0:0:0:0:
448,192,288516,1,0,0:0:0:0:
192,192,288666,1,0,0:0:0:0:
64,192,288816,1,0,0:0:0:0:
448,192,288966,1,0,0:0:0:0:
320,192,288966,1,0,0:0:0:0:
64,192,288966,1,0,0:0:0:0:
192,192,289041,1,0,0:0:0:0:
448,192,289116,1,0,0:0:0:0:
192,192,289191,1,0,0:0:0:0:
448,192,289266,1,0,0:0:0:0:
320,192,289416,1,0,0:0:0:0:
192,192,289566,1,0,0:0:0:0:
64,192,289716,1,0,0:0:0:0:
320,192,289866,128,0,290166:0:0:0:0:
64,192,290166,1,0,0:0:0:0:
192,192,290166,1,0,0:0:0:0:
448,192,290166,1,0,0:0:0:0:
320,192,290241,1,0,0:0:0:0:
64,192,290316,1,0,0:0:0:0:
320,192,290391,1,0,0:0:0:0:
64,192,290466,1,0,0:0:0:0:
448,192,290616,1,0,0:0:0:0:
320,192,290766,1,0,0:0:0:0:
192,192,290916,1,0,0:0:0:0:
64,192,291066,1,0,0:0:0:0:
192,192,291216,1,0,0:0:0:0:
320,192,291366,1,0,0:0:0:0:
448,192,291366,1,0,0:0:0:0:
64,192,291366,1,0,0:0:0:0:
192,192,291441,1,0,0:0:0:0:
64,192,291516,1,0,0:0:0:0:
448,192,291591,1,0,0:0:0:0:
320,192,291666,1,0,0:0:0:0:
64,192,291741,1,0,0:0:0:0:
192,192,291816,1,0,0:0:0:0:
320,192,291891,1,0,0:0:0:0:
448,192,291966,1,0,0:0:0:0:
64,192,292041,1,0,0:0:0:0:
192,192,292116,1,0,0:0:0:0:
320,192,292191,1,0,0:0:0:0:
448,192,292266,128,0,292566:0:0:0:0:
192,192,292566,1,0,0:0:0:0:
64,192,292566,1,0,0:0:0:0:
320,192,292566,1,0,0:0:0:0:
448,192,292641,1,0,0:0:0:0:
64,192,292716,1,0,0:0:0:0:
448,192,292791,1,0,0:0:0:0:
64,192,292866,1,0,0:0:0:0:
192,192,293016,1,0,0:0:0:0:
320,192,293166,1,0,0:0:0:0:
448,192,293316,1,0,0:0:0:0:
192,192,293466,1,0,0:0:0:0:
64,192,293616,1,0,0:0:0:0:
320,192,293766,1,0,0:0:0:0:
448,192,293766,1,0,0:0:0:0:
64,192,293766,1,0,0:0:0:0:
192,192,293841,1,0,0:0:0:0:
448,192,293916,1,0,0:0:0:0:
192,192,293991,1,0,0:0:0:0:
448,192,294066,1,0,0:0:0:0:
320,192,294216,1,0,0:0:0:0:
192,192,294366,1,0,0:0:0:0:
64,192,294516,1,0,0:0:0:0:
448,192,294666,128,0,294966:0:0:0:0:
192,192,294966,1,0,0:0:0:0:
320,192,294966,1,0,0:0:0:0:
64,192,294966,1,0,0:0:0:0:
448,192,295041,1,0,0:0:0:0:
64,192,295116,1,0,0:0:0:0:
448,192,295191,1,0,0:0:0:0:
64,192,295266,1,0,0:0:0:0:
192,192,295416,1,0,0:0:0:0:
64,192,295566,1,0,0:0:0:0:
448,192,295716,1,0,0:0:0:0:
64,192,295866,1,0,0:0:0:0:
192,192,296016,1,0,0:0:0:0:
448,192,296166,1,0,0:0:0:0:
320,192,296166,1,0,0:0:0:0:
64,192,296166,1,0,0:0:0:0:
192,192,296241,1,0,0:0:0:0:
320,192,296316,1,0,0:0:0:0:
448,192,296391,1,0,0:0:0:0:
192,192,296466,1,0,0:0:0:0:
64,192,296541,1,0,0:0:0:0:
448,192,296616,1,0,0:0:0:0:
320,192,296691,1,0,0:0:0:0:
64,192,296766,1,0,0:0:0:0:
192,192,296803,1,0,0:0:0:0:
448,192,296916,1,0,0:0:0:0:
320,192,296953,1,0,0:0:0:0:
64,192,296991,1,0,0:0:0:0:
192,192,297066,1,0,0:0:0:0:
320,192,297103,1,0,0:0:0:0:
448,192,297216,1,0,0:0:0:0:
192,192,297253,1,0,0:0:0:0:
64,192,297291,1,0,0:0:0:0:
448,192,297366,1,0,0:0:0:0:
192,192,297366,1,0,0:0:0:0:
320,192,297416,1,0,0:0:0:0:
448,192,297466,1,0,0:0:0:0:
192,192,297516,1,0,0:0:0:0:
64,192,297566,1,0,0:0:0:0:
320,192,297616,1,0,0:0:0:0:
448,192,297666,1,0,0:0:0:0:
192,192,297716,1,0,0:0:0:0:
320,192,297766,1,0,0:0:0:0:
64,192,297816,1,0,0:0:0:0:
192,192,297866,1,0,0:0:0:0:
448,192,297916,1,0,0:0:0:0:
64,192,297966,1,0,0:0:0:0:
192,192,298003,1,0,0:0:0:0:
448,192,298041,1,0,0:0:0:0:
64,192,298116,1,0,0:0:0:0:
192,192,298153,1,0,0:0:0:0:
320,192,298191,1,0,0:0:0:0:
448,192,298266,1,0,0:0:0:0:
64,192,298303,1,0,0:0:0:0:
192,192,298341,1,0,0:0:0:0:
448,192,298416,1,0,0:0:0:0:
320,192,298453,1,0,0:0:0:0:
192,192,298491,1,0,0:0:0:0:
64,192,298566,1,0,0:0:0:0:
448,192,298566,1,0,0:0:0:0:
192,192,298603,1,0,0:0:0:0:
320,192,298641,1,0,0:0:0:0:
448,192,298678,1,0,0:0:0:0:
192,192,298716,1,0,0:0:0:0:
64,192,298766,1,0,0:0:0:0:
448,192,298866,1,0,0:0:0:0:
320,192,298903,1,0,0:0:0:0:
192,192,298941,1,0,0:0:0:0:
64,192,298978,1,0,0:0:0:0:
320,192,299016,1,0,0:0:0:0:
448,192,299066,1,0,0:0:0:0:
64,192,299166,1,0,0:0:0:0:
192,192,299203,1,0,0:0:0:0:
320,192,299241,1,0,0:0:0:0:
448,192,299278,1,0,0:0:0:0:
192,192,299316,1,0,0:0:0:0:
64,192,299353,1,0,0:0:0:0:
448,192,299466,1,0,0:0:0:0:
320,192,299503,1,0,0:0:0:0:
192,192,299541,1,0,0:0:0:0:
64,192,299578,1,0,0:0:0:0:
320,192,299616,1,0,0:0:0:0:
448,192,299653,1,0,0:0:0:0:
192,192,299766,1,0,0:0:0:0:
320,192,299766,1,0,0:0:0:0:
64,192,299841,1,0,0:0:0:0:
448,192,299916,1,0,0:0:0:0:
320,192,299916,1,0,0:0:0:0:
192,192,300016,1,0,0:0:0:0:
64,192,300116,1,0,0:0:0:0:
320,192,300216,1,0,0:0:0:0:
192,192,300216,1,0,0:0:0:0:
448,192,300291,1,0,0:0:0:0:
320,192,300366,1,0,0:0:0:0:
64,192,300466,1,0,0:0:0:0:
192,192,300516,1,0,0:0:0:0:
320,192,300516,1,0,0:0:0:0:
448,192,300566,1,0,0:0:0:0:
192,192,300666,1,0,0:0:0:0:
64,192,300741,1,0,0:0:0:0:
448,192,300816,1,0,0:0:0:0:
320,192,300816,1,0,0:0:0:0:
192,192,300866,1,0,0:0:0:0:
64,192,300916,1,0,0:0:0:0:
448,192,300966,1,0,0:0:0:0:
64,192,301041,1,0,0:0:0:0:
320,192,301116,1,0,0:0:0:0:
448,192,301116,1,0,0:0:0:0:
64,192,301191,1,0,0:0:0:0:
192,192,301266,1,0,0:0:0:0:
320,192,301341,1,0,0:0:0:0:
448,192,301416,1,0,0:0:0:0:
192,192,301416,1,0,0:0:0:0:
64,192,301491,1,0,0:0:0:0:
320,192,301566,1,0,0:0:0:0:
192,192,301641,1,0,0:0:0:0:
448,192,301716,1,0,0:0:0:0:
320,192,301716,1,0,0:0:0:0:
64,192,301791,1,0,0:0:0:0:
192,192,301866,1,0,0:0:0:0:
448,192,301941,1,0,0:0:0:0:
320,192,302016,1,0,0:0:0:0:
64,192,302016,1,0,0:0:0:0:
192,192,302166,1,0,0:0:0:0:
448,192,302241,1,0,0:0:0:0:
64,192,302316,1,0,0:0:0:0:
320,192,302316,1,0,0:0:0:0:
192,192,302391,1,0,0:0:0:0:
64,192,302466,1,0,0:0:0:0:
448,192,302541,1,0,0:0:0:0:
320,192,302616,1,0,0:0:0:0:
192,192,302616,1,0,0:0:0:0:
64,192,302691,1,0,0:0:0:0:
192,192,302766,1,0,0:0:0:0:
320,192,302841,1,0,0:0:0:0:
448,192,302916,1,0,0:0:0:0:
192,192,302916,1,0,0:0:0:0:
64,192,302966,1,0,0:0:0:0:
448,192,303066,1,0,0:0:0:0:
320,192,303141,1,0,0:0:0:0:
64,192,303216,1,0,0:0:0:0:
192,192,303216,1,0,0:0:0:0:
320,192,303291,1,0,0:0:0:0:
448,192,303366,1,0,0:0:0:0:
64,192,303441,1,0,0:0:0:0:
192,192,303516,1,0,0:0:0:0:
448,192,303516,1,0,0:0:0:0:
320,192,303591,1,0,0:0:0:0:
64,192,303666,1,0,0:0:0:0:
192,192,303741,1,0,0:0:0:0:
320,192,303816,1,0,0:0:0:0:
448,192,303816,1,0,0:0:0:0:
192,192,303891,1,0,0:0:0:0:
64,192,303966,128,0,304416:0:0:0:0:
320,192,304116,1,0,0:0:0:0:
192,192,304116,1,0,0:0:0:0:
448,192,304266,1,0,0:0:0:0:
320,192,304341,1,0,0:0:0:0:
192,192,304416,1,0,0:0:0:0:
448,192,304416,1,0,0:0:0:0:
320,192,304566,1,0,0:0:0:0:
192,192,304641,1,0,0:0:0:0:
64,192,304716,1,0,0:0:0:0:
448,192,304716,1,0,0:0:0:0:
320,192,304816,1,0,0:0:0:0:
192,192,304866,1,0,0:0:0:0:
64,192,304941,1,0,0:0:0:0:
320,192,305016,1,0,0:0:0:0:
448,192,305016,1,0,0:0:0:0:
192,192,305066,1,0,0:0:0:0:
64,192,305116,1,0,0:0:0:0:
448,192,305166,1,0,0:0:0:0:
320,192,305216,1,0,0:0:0:0:
192,192,305316,1,0,0:0:0:0:
64,192,305316,1,0,0:0:0:0:
448,192,305391,1,0,0:0:0:0:
192,192,305466,1,0,0:0:0:0:
64,192,305541,1,0,0:0:0:0:
192,192,305616,1,0,0:0:0:0:
448,192,305616,1,0,0:0:0:0:
64,192,305691,1,0,0:0:0:0:
320,192,305766,1,0,0:0:0:0:
192,192,305841,1,0,0:0:0:0:
448,192,305916,1,0,0:0:0:0:
64,192,305916,1,0,0:0:0:0:
320,192,305991,1,0,0:0:0:0:
192,192,306066,1,0,0:0:0:0:
448,192,306141,1,0,0:0:0:0:
320,192,306216,1,0,0:0:0:0:
64,192,306216,1,0,0:0:0:0:
192,192,306291,1,0,0:0:0:0:
320,192,306366,1,0,0:0:0:0:
64,192,306441,1,0,0:0:0:0:
320,192,306516,1,0,0:0:0:0:
448,192,306516,1,0,0:0:0:0:
192,192,306566,1,0,0:0:0:0:
64,192,306666,1,0,0:0:0:0:
192,192,306741,1,0,0:0:0:0:
320,192,306816,1,0,0:0:0:0:
448,192,306816,1,0,0:0:0:0:
192,192,306966,1,0,0:0:0:0:
64,192,306966,1,0,0:0:0:0:
320,192,307041,1,0,0:0:0:0:
448,192,307116,1,0,0:0:0:0:
64,192,307191,1,0,0:0:0:0:
448,192,307266,1,0,0:0:0:0:
320,192,307266,1,0,0:0:0:0:
192,192,307341,1,0,0:0:0:0:
64,192,307416,1,0,0:0:0:0:
192,192,307491,1,0,0:0:0:0:
320,192,307566,1,0,0:0:0:0:
448,192,307566,1,0,0:0:0:0:
192,192,307641,1,0,0:0:0:0:
64,192,307716,1,0,0:0:0:0:
448,192,307791,1,0,0:0:0:0:
320,192,307866,1,0,0:0:0:0:
192,192,307866,1,0,0:0:0:0:
64,192,307941,1,0,0:0:0:0:
448,192,308016,1,0,0:0:0:0:
320,192,308091,1,0,0:0:0:0:
64,192,308166,1,0,0:0:0:0:
192,192,308166,1,0,0:0:0:0:
320,192,308241,1,0,0:0:0:0:
448,192,308241,1,0,0:0:0:0:
192,192,308316,1,0,0:0:0:0:
64,192,308316,1,0,0:0:0:0:
320,192,308391,1,0,0:0:0:0:
448,192,308391,1,0,0:0:0:0:
192,192,308466,1,0,0:0:0:0:
64,192,308541,1,0,0:0:0:0:
320,192,308616,1,0,0:0:0:0:
448,192,308691,1,0,0:0:0:0:
64,192,308766,1,0,0:0:0:0:
320,192,308766,1,0,0:0:0:0:
192,192,308841,1,0,0:0:0:0:
320,192,308916,1,0,0:0:0:0:
448,192,308991,1,0,0:0:0:0:
320,192,309066,1,0,0:0:0:0:
64,192,309066,1,0,0:0:0:0:
192,192,309141,1,0,0:0:0:0:
64,192,309216,1,0,0:0:0:0:
448,192,309291,1,0,0:0:0:0:
320,192,309366,1,0,0:0:0:0:
64,192,309366,128,0,309666:0:0:0:0:
192,192,309516,1,0,0:0:0:0:
448,192,309516,1,0,0:0:0:0:
192,192,309666,128,0,309816:0:0:0:0:
320,192,309741,1,0,0:0:0:0:
448,192,309816,128,0,310266:0:0:0:0:
64,192,309816,1,0,0:0:0:0:
320,192,309966,1,0,0:0:0:0:
192,192,310116,128,0,310266:0:0:0:0:
64,192,310116,1,0,0:0:0:0:
320,192,310266,128,0,310416:0:0:0:0:
192,192,310341,1,0,0:0:0:0:
448,192,310416,1,0,0:0:0:0:
64,192,310416,128,0,310566:0:0:0:0:
448,192,310566,128,0,310716:0:0:0:0:
64,192,310716,1,0,0:0:0:0:
320,192,310716,128,0,310791:0:0:0:0:
64,192,310941,128,0,311166:0:0:0:0:
448,192,311016,1,0,0:0:0:0:
320,192,311016,1,0,0:0:0:0:
448,192,311166,128,0,311316:0:0:0:0:
192,192,311316,128,0,311466:0:0:0:0:
64,192,311316,1,0,0:0:0:0:
320,192,311466,128,0,311616:0:0:0:0:
192,192,311541,1,0,0:0:0:0:
64,192,311616,1,0,0:0:0:0:
448,192,311616,1,0,0:0:0:0:
64,192,311766,128,0,311841:0:0:0:0:
64,192,311916,128,0,312066:0:0:0:0:
320,192,311916,1,0,0:0:0:0:
448,192,311916,1,0,0:0:0:0:
192,192,312066,128,0,312141:0:0:0:0:
320,192,312141,1,0,0:0:0:0:
448,192,312216,128,0,312516:0:0:0:0:
192,192,312216,1,0,0:0:0:0:
64,192,312366,128,0,312516:0:0:0:0:
320,192,312516,128,0,312666:0:0:0:0:
192,192,312516,1,0,0:0:0:0:
192,192,312666,128,0,312966:0:0:0:0:
448,192,312741,1,0,0:0:0:0:
320,192,312816,1,0,0:0:0:0:
64,192,312816,1,0,0:0:0:0:
64,192,312966,128,0,313116:0:0:0:0:
448,192,313116,128,0,313266:0:0:0:0:
192,192,313116,1,0,0:0:0:0:
64,192,313266,128,0,313416:0:0:0:0:
448,192,313341,1,0,0:0:0:0:
320,192,313416,128,0,313566:0:0:0:0:
192,192,313416,1,0,0:0:0:0:
448,192,313566,128,0,313716:0:0:0:0:
192,192,313716,1,0,0:0:0:0:
64,192,313716,128,0,313866:0:0:0:0:
448,192,313866,128,0,314016:0:0:0:0:
320,192,313941,1,0,0:0:0:0:
192,192,314016,1,0,0:0:0:0:
64,192,314016,1,0,0:0:0:0:
320,192,314166,1,0,0:0:0:0:
192,192,314216,1,0,0:0:0:0:
64,192,314266,1,0,0:0:0:0:
320,192,314316,1,0,0:0:0:0:
448,192,314316,1,0,0:0:0:0:
192,192,314366,1,0,0:0:0:0:
64,192,314416,1,0,0:0:0:0:
320,192,314466,1,0,0:0:0:0:
448,192,314516,1,0,0:0:0:0:
64,192,314566,1,0,0:0:0:0:
192,192,314616,1,0,0:0:0:0:
320,192,314616,1,0,0:0:0:0:
448,192,314666,1,0,0:0:0:0:
64,192,314766,1,0,0:0:0:0:
448,192,314816,1,0,0:0:0:0:
320,192,314866,1,0,0:0:0:0:
64,192,314916,1,0,0:0:0:0:
192,192,314916,1,0,0:0:0:0:
448,192,314966,1,0,0:0:0:0:
320,192,315066,1,0,0:0:0:0:
64,192,315116,1,0,0:0:0:0:
192,192,315216,1,0,0:0:0:0:
320,192,315216,1,0,0:0:0:0:
448,192,315266,1,0,0:0:0:0:
64,192,315366,1,0,0:0:0:0:
320,192,315416,1,0,0:0:0:0:
192,192,315516,1,0,0:0:0:0:
64,192,315516,1,0,0:0:0:0:
320,192,315566,1,0,0:0:0:0:
448,192,315616,1,0,0:0:0:0:
192,192,315666,1,0,0:0:0:0:
64,192,315716,1,0,0:0:0:0:
448,192,315766,1,0,0:0:0:0:
320,192,315816,1,0,0:0:0:0:
192,192,315816,1,0,0:0:0:0:
64,192,315866,1,0,0:0:0:0:
448,192,315916,1,0,0:0:0:0:
320,192,315966,1,0,0:0:0:0:
64,192,316066,1,0,0:0:0:0:
320,192,316116,1,0,0:0:0:0:
448,192,316116,1,0,0:0:0:0:
192,192,316166,1,0,0:0:0:0:
64,192,316216,1,0,0:0:0:0:
448,192,316266,128,0,316566:0:0:0:0:
64,192,316566,1,0,0:0:0:0:
192,192,316616,1,0,0:0:0:0:
448,192,316666,1,0,0:0:0:0:
320,192,316716,1,0,0:0:0:0:
64,192,316766,1,0,0:0:0:0:
448,192,316816,1,0,0:0:0:0:
320,192,316866,1,0,0:0:0:0:
192,192,316866,1,0,0:0:0:0:
64,192,316916,1,0,0:0:0:0:
320,192,317016,1,0,0:0:0:0:
192,192,317091,1,0,0:0:0:0:
64,192,317116,1,0,0:0:0:0:
448,192,317166,1,0,0:0:0:0:
320,192,317166,1,0,0:0:0:0:
192,192,317216,1,0,0:0:0:0:
64,192,317266,1,0,0:0:0:0:
320,192,317316,1,0,0:0:0:0:
192,192,317366,1,0,0:0:0:0:
448,192,317416,1,0,0:0:0:0:
64,192,317466,1,0,0:0:0:0:
320,192,317516,1,0,0:0:0:0:
192,192,317566,1,0,0:0:0:0:
448,192,317616,1,0,0:0:0:0:
320,192,317666,1,0,0:0:0:0:
64,192,317716,1,0,0:0:0:0:
448,192,317766,1,0,0:0:0:0:
192,192,317816,1,0,0:0:0:0:
320,192,317866,1,0,0:0:0:0:
64,192,317916,1,0,0:0:0:0:
192,192,317966,1,0,0:0:0:0:
448,192,318016,1,0,0:0:0:0:
320,192,318066,1,0,0:0:0:0:
192,192,318116,1,0,0:0:0:0:
64,192,318166,1,0,0:0:0:0:
448,192,318216,1,0,0:0:0:0:
320,192,318216,1,0,0:0:0:0:
192,192,318291,1,0,0:0:0:0:
64,192,318291,1,0,0:0:0:0:
320,192,318366,1,0,0:0:0:0:
448,192,318366,1,0,0:0:0:0:
192,192,318441,1,0,0:0:0:0:
64,192,318441,1,0,0:0:0:0:
320,192,318516,1,0,0:0:0:0:
448,192,318591,1,0,0:0:0:0:
192,192,318666,1,0,0:0:0:0:
64,192,318666,1,0,0:0:0:0:
320,192,318741,1,0,0:0:0:0:
448,192,318741,1,0,0:0:0:0:
192,192,318816,1,0,0:0:0:0:
64,192,318891,1,0,0:0:0:0:
448,192,318966,128,0,319041:0:0:0:0:
192,192,318966,1,0,0:0:0:0:
320,192,319041,128,0,319116:0:0:0:0:
64,192,319116,128,0,319191:0:0:0:0:
448,192,319116,1,0,0:0:0:0:
192,192,319191,128,0,319266:0:0:0:0:
320,192,319266,128,0,319341:0:0:0:0:
448,192,319341,128,0,319416:0:0:0:0:
192,192,319416,128,0,319491:0:0:0:0:
320,192,319416,1,0,0:0:0:0:
64,192,319491,128,0,319566:0:0:0:0:
448,192,319566,128,0,319641:0:0:0:0:
320,192,319641,128,0,319716:0:0:0:0:
192,192,319716,128,0,319791:0:0:0:0:
448,192,319716,1,0,0:0:0:0:
64,192,319791,128,0,319866:0:0:0:0:
448,192,319866,128,0,319941:0:0:0:0:
320,192,319941,128,0,320016:0:0:0:0:
192,192,320016,128,0,320091:0:0:0:0:
448,192,320016,1,0,0:0:0:0:
64,192,320091,128,0,320166:0:0:0:0:
320,192,320166,128,0,320316:0:0:0:0:
64,192,320316,128,0,320616:0:0:0:0:
448,192,320316,1,0,0:0:0:0:
320,192,320466,1,0,0:0:0:0:
192,192,320541,1,0,0:0:0:0:
448,192,320616,128,0,320766:0:0:0:0:
320,192,320616,1,0,0:0:0:0:
192,192,320766,128,0,320916:0:0:0:0:
64,192,320916,128,0,321066:0:0:0:0:
448,192,320916,1,0,0:0:0:0:
320,192,321066,128,0,321216:0:0:0:0:
192,192,321141,1,0,0:0:0:0:
64,192,321216,1,0,0:0:0:0:
448,192,321216,1,0,0:0:0:0:
64,192,321366,1,0,0:0:0:0:
448,192,321416,1,0,0:0:0:0:
192,192,321516,1,0,0:0:0:0:
64,192,321516,1,0,0:0:0:0:
320,192,321566,1,0,0:0:0:0:
64,192,321666,1,0,0:0:0:0:
320,192,321716,1,0,0:0:0:0:
448,192,321766,1,0,0:0:0:0:
320,192,321816,1,0,0:0:0:0:
192,192,321816,1,0,0:0:0:0:
64,192,321866,1,0,0:0:0:0:
448,192,321916,1,0,0:0:0:0:
192,192,321966,1,0,0:0:0:0:
320,192,322016,1,0,0:0:0:0:
64,192,322066,1,0,0:0:0:0:
448,192,322116,1,0,0:0:0:0:
192,192,322116,1,0,0:0:0:0:
320,192,322216,1,0,0:0:0:0:
64,192,322266,1,0,0:0:0:0:
448,192,322316,1,0,0:0:0:0:
320,192,322366,1,0,0:0:0:0:
64,192,322416,1,0,0:0:0:0:
192,192,322416,1,0,0:0:0:0:
320,192,322566,1,0,0:0:0:0:
192,192,322641,1,0,0:0:0:0:
448,192,322716,1,0,0:0:0:0:
320,192,322716,1,0,0:0:0:0:
192,192,322791,1,0,0:0:0:0:
64,192,322866,128,0,323016:0:0:0:0:
448,192,322941,1,0,0:0:0:0:
320,192,323016,128,0,323166:0:0:0:0:
192,192,323016,1,0,0:0:0:0:
192,192,323166,128,0,323316:0:0:0:0:
448,192,323316,128,0,323466:0:0:0:0:
64,192,323316,1,0,0:0:0:0:
320,192,323466,128,0,323616:0:0:0:0:
448,192,323541,1,0,0:0:0:0:
64,192,323616,128,0,323766:0:0:0:0:
192,192,323616,1,0,0:0:0:0:
320,192,323766,1,0,0:0:0:0:
448,192,323841,1,0,0:0:0:0:
64,192,323878,1,0,0:0:0:0:
192,192,323916,1,0,0:0:0:0:
320,192,323916,1,0,0:0:0:0:
448,192,323953,1,0,0:0:0:0:
64,192,323991,1,0,0:0:0:0:
320,192,324066,1,0,0:0:0:0:
192,192,324103,1,0,0:0:0:0:
64,192,324141,1,0,0:0:0:0:
448,192,324216,1,0,0:0:0:0:
320,192,324216,1,0,0:0:0:0:
192,192,324253,1,0,0:0:0:0:
64,192,324291,1,0,0:0:0:0:
320,192,324366,1,0,0:0:0:0:
448,192,324403,1,0,0:0:0:0:
192,192,324441,1,0,0:0:0:0:
64,192,324478,1,0,0:0:0:0:
320,192,324516,1,0,0:0:0:0:
448,192,324516,1,0,0:0:0:0:
192,192,324553,1,0,0:0:0:0:
64,192,324591,1,0,0:0:0:0:
320,192,324628,1,0,0:0:0:0:
448,192,324666,1,0,0:0:0:0:
64,192,324703,1,0,0:0:0:0:
192,192,324741,1,0,0:0:0:0:
320,192,324778,1,0,0:0:0:0:
448,192,324816,1,0,0:0:0:0:
192,192,324816,1,0,0:0:0:0:
64,192,324853,1,0,0:0:0:0:
192,192,324891,1,0,0:0:0:0:
320,192,324928,1,0,0:0:0:0:
448,192,324966,1,0,0:0:0:0:
192,192,325041,1,0,0:0:0:0:
320,192,325116,1,0,0:0:0:0:
448,192,325116,1,0,0:0:0:0:
192,192,325191,1,0,0:0:0:0:
64,192,325266,1,0,0:0:0:0:
192,192,325341,1,0,0:0:0:0:
320,192,325416,1,0,0:0:0:0:
448,192,325416,1,0,0:0:0:0:
64,192,325491,1,0,0:0:0:0:
448,192,325566,1,0,0:0:0:0:
320,192,325641,1,0,0:0:0:0:
192,192,325716,1,0,0:0:0:0:
64,192,325716,1,0,0:0:0:0:
448,192,325791,1,0,0:0:0:0:
64,192,325866,1,0,0:0:0:0:
192,192,325941,1,0,0:0:0:0:
448,192,326016,1,0,0:0:0:0:
320,192,326016,1,0,0:0:0:0:
64,192,326166,1,0,0:0:0:0:
448,192,326266,1,0,0:0:0:0:
320,192,326316,1,0,0:0:0:0:
192,192,326316,1,0,0:0:0:0:
64,192,326416,1,0,0:0:0:0:
192,192,326466,1,0,0:0:0:0:
448,192,326541,1,0,0:0:0:0:
320,192,326616,1,0,0:0:0:0:
192,192,326616,1,0,0:0:0:0:
64,192,326691,1,0,0:0:0:0:
448,192,326766,128,0,327366:0:0:0:0:
192,192,326916,1,0,0:0:0:0:
64,192,326916,1,0,0:0:0:0:
320,192,327066,1,0,0:0:0:0:
64,192,327141,1,0,0:0:0:0:
192,192,327216,1,0,0:0:0:0:
320,192,327216,1,0,0:0:0:0:
192,192,327366,1,0,0:0:0:0:
64,192,327366,1,0,0:0:0:0:
320,192,327441,1,0,0:0:0:0:
448,192,327441,1,0,0:0:0:0:
192,192,327516,1,0,0:0:0:0:
64,192,327591,1,0,0:0:0:0:
448,192,327666,1,0,0:0:0:0:
320,192,327666,1,0,0:0:0:0:
64,192,327741,1,0,0:0:0:0:
192,192,327816,1,0,0:0:0:0:
448,192,327891,1,0,0:0:0:0:
64,192,327966,1,0,0:0:0:0:
192,192,327966,1,0,0:0:0:0:
320,192,328041,1,0,0:0:0:0:
448,192,328041,1,0,0:0:0:0:
64,192,328116,1,0,0:0:0:0:
448,192,328191,1,0,0:0:0:0:
320,192,328266,1,0,0:0:0:0:
64,192,328266,1,0,0:0:0:0:
192,192,328341,1,0,0:0:0:0:
64,192,328416,1,0,0:0:0:0:
320,192,328491,1,0,0:0:0:0:
448,192,328566,1,0,0:0:0:0:
64,192,328566,128,0,329166:0:0:0:0:
320,192,328716,1,0,0:0:0:0:
192,192,328716,1,0,0:0:0:0:
448,192,328866,1,0,0:0:0:0:
320,192,328941,1,0,0:0:0:0:
192,192,329016,128,0,329166:0:0:0:0:
448,192,329016,1,0,0:0:0:0:
448,192,329166,128,0,329766:0:0:0:0:
320,192,329316,1,0,0:0:0:0:
64,192,329316,1,0,0:0:0:0:
64,192,329466,1,0,0:0:0:0:
192,192,329541,1,0,0:0:0:0:
320,192,329616,1,0,0:0:0:0:
64,192,329616,1,0,0:0:0:0:
192,192,329691,128,0,329766:0:0:0:0:
64,192,329766,128,0,329916:0:0:0:0:
320,192,329916,128,0,330066:0:0:0:0:
448,192,329916,1,0,0:0:0:0:
192,192,330066,128,0,330216:0:0:0:0:
320,192,330141,1,0,0:0:0:0:
448,192,330216,128,0,330666:0:0:0:0:
64,192,330216,1,0,0:0:0:0:
320,192,330366,1,0,0:0:0:0:
192,192,330516,1,0,0:0:0:0:
64,192,330516,1,0,0:0:0:0:
192,192,330666,128,0,330966:0:0:0:0:
448,192,330741,1,0,0:0:0:0:
320,192,330816,128,0,330966:0:0:0:0:
64,192,330816,1,0,0:0:0:0:
64,192,330966,128,0,331116:0:0:0:0:
192,192,331116,128,0,331266:0:0:0:0:
448,192,331116,1,0,0:0:0:0:
448,192,331266,128,0,331416:0:0:0:0:
320,192,331341,1,0,0:0:0:0:
192,192,331416,128,0,331566:0:0:0:0:
64,192,331416,1,0,0:0:0:0:
320,192,331566,1,0,0:0:0:0:
64,192,331641,128,0,331716:0:0:0:0:
192,192,331716,128,0,331866:0:0:0:0:
448,192,331716,1,0,0:0:0:0:
448,192,331866,128,0,332016:0:0:0:0:
64,192,331941,1,0,0:0:0:0:
320,192,332016,128,0,332316:0:0:0:0:
192,192,332016,1,0,0:0:0:0:
192,192,332166,128,0,332316:0:0:0:0:
448,192,332316,128,0,332466:0:0:0:0:
64,192,332316,1,0,0:0:0:0:
64,192,332466,128,0,332766:0:0:0:0:
320,192,332541,1,0,0:0:0:0:
192,192,332616,128,0,332766:0:0:0:0:
448,192,332616,1,0,0:0:0:0:
448,192,332766,128,0,333366:0:0:0:0:
192,192,332916,1,0,0:0:0:0:
64,192,332916,1,0,0:0:0:0:
64,192,333066,1,0,0:0:0:0:
192,192,333141,1,0,0:0:0:0:
320,192,333216,1,0,0:0:0:0:
64,192,333216,1,0,0:0:0:0:
192,192,333366,1,0,0:0:0:0:
64,192,333516,1,0,0:0:0:0:
320,192,333516,1,0,0:0:0:0:
192,192,333666,128,0,333966:0:0:0:0:
448,192,333741,1,0,0:0:0:0:
320,192,333816,1,0,0:0:0:0:
64,192,333816,1,0,0:0:0:0:
320,192,333966,128,0,334116:0:0:0:0:
192,192,334116,1,0,0:0:0:0:
448,192,334116,1,0,0:0:0:0:
64,192,334266,128,0,334416:0:0:0:0:
192,192,334341,1,0,0:0:0:0:
448,192,334416,1,0,0:0:0:0:
320,192,334416,1,0,0:0:0:0:
448,192,334566,128,0,335016:0:0:0:0:
320,192,334716,1,0,0:0:0:0:
64,192,334716,1,0,0:0:0:0:
192,192,334866,1,0,0:0:0:0:
64,192,334941,1,0,0:0:0:0:
320,192,335016,128,0,335316:0:0:0:0:
192,192,335016,1,0,0:0:0:0:
448,192,335166,1,0,0:0:0:0:
192,192,335316,128,0,335616:0:0:0:0:
64,192,335316,1,0,0:0:0:0:
64,192,335466,1,0,0:0:0:0:
320,192,335541,1,0,0:0:0:0:
448,192,335616,128,0,335766:0:0:0:0:
64,192,335616,1,0,0:0:0:0:
64,192,335766,128,0,335916:0:0:0:0:
192,192,335916,128,0,336066:0:0:0:0:
448,192,335916,1,0,0:0:0:0:
448,192,336066,128,0,336216:0:0:0:0:
320,192,336141,1,0,0:0:0:0:
64,192,336216,128,0,336366:0:0:0:0:
192,192,336216,1,0,0:0:0:0:
320,192,336366,128,0,336516:0:0:0:0:
448,192,336516,128,0,336666:0:0:0:0:
64,192,336516,1,0,0:0:0:0:
192,192,336666,128,0,336816:0:0:0:0:
448,192,336741,1,0,0:0:0:0:
320,192,336816,1,0,0:0:0:0:
64,192,336816,128,0,336966:0:0:0:0:
320,192,336966,1,0,0:0:0:0:
448,192,336966,1,0,0:0:0:0:
64,192,337041,1,0,0:0:0:0:
192,192,337041,1,0,0:0:0:0:
320,192,337116,1,0,0:0:0:0:
448,192,337116,1,0,0:0:0:0:
64,192,337191,1,0,0:0:0:0:
192,192,337191,1,0,0:0:0:0:
448,192,337266,1,0,0:0:0:0:
320,192,337266,1,0,0:0:0:0:
192,192,337341,1,0,0:0:0:0:
64,192,337341,1,0,0:0:0:0:
320,192,337416,1,0,0:0:0:0:
448,192,337491,1,0,0:0:0:0:
64,192,337491,1,0,0:0:0:0:
192,192,337566,1,0,0:0:0:0:
320,192,337566,1,0,0:0:0:0:
448,192,337641,1,0,0:0:0:0:
64,192,337641,1,0,0:0:0:0:
320,192,337716,1,0,0:0:0:0:
192,192,337716,1,0,0:0:0:0:
448,192,337791,1,0,0:0:0:0:
64,192,337791,1,0,0:0:0:0:
320,192,337866,1,0,0:0:0:0:
192,192,337941,1,0,0:0:0:0:
64,192,337941,1,0,0:0:0:0:
320,192,338016,1,0,0:0:0:0:
448,192,338016,1,0,0:0:0:0:
192,192,338091,1,0,0:0:0:0:
64,192,338091,1,0,0:0:0:0:
448,192,338166,128,0,338316:0:0:0:0:
320,192,338316,1,0,0:0:0:0:
64,192,338316,128,0,338466:0:0:0:0:
192,192,338466,128,0,338616:0:0:0:0:
64,192,338541,1,0,0:0:0:0:
448,192,338616,128,0,338766:0:0:0:0:
320,192,338616,1,0,0:0:0:0:
64,192,338766,128,0,338916:0:0:0:0:
320,192,338916,128,0,339066:0:0:0:0:
192,192,338916,1,0,0:0:0:0:
192,192,339066,128,0,339216:0:0:0:0:
320,192,339141,1,0,0:0:0:0:
448,192,339216,128,0,339366:0:0:0:0:
64,192,339216,1,0,0:0:0:0:
320,192,339366,128,0,339516:0:0:0:0:
192,192,339516,128,0,339666:0:0:0:0:
64,192,339516,1,0,0:0:0:0:
64,192,339666,128,0,339816:0:0:0:0:
448,192,339741,1,0,0:0:0:0:
320,192,339816,128,0,339966:0:0:0:0:
192,192,339816,1,0,0:0:0:0:
448,192,339966,128,0,340116:0:0:0:0:
320,192,340116,128,0,340191:0:0:0:0:
192,192,340116,1,0,0:0:0:0:
64,192,340191,128,0,340266:0:0:0:0:
192,192,340266,128,0,340566:0:0:0:0:
448,192,340341,1,0,0:0:0:0:
320,192,340416,1,0,0:0:0:0:
64,192,340416,1,0,0:0:0:0:
448,192,340566,128,0,340866:0:0:0:0:
192,192,340716,128,0,340866:0:0:0:0:
64,192,340716,1,0,0:0:0:0:
320,192,340866,128,0,341166:0:0:0:0:
448,192,340941,1,0,0:0:0:0:
64,192,341016,128,0,341166:0:0:0:0:
192,192,341016,1,0,0:0:0:0:
192,192,341166,128,0,341466:0:0:0:0:
448,192,341316,128,0,341466:0:0:0:0:
320,192,341316,1,0,0:0:0:0:
64,192,341466,128,0,341766:0:0:0:0:
192,192,341541,1,0,0:0:0:0:
320,192,341616,128,0,341766:0:0:0:0:
448,192,341616,1,0,0:0:0:0:
448,192,341766,128,0,341841:0:0:0:0:
192,192,341841,1,0,0:0:0:0:
320,192,341916,1,0,0:0:0:0:
448,192,341916,128,0,341991:0:0:0:0:
192,192,341991,1,0,0:0:0:0:
448,192,342066,128,0,342141:0:0:0:0:
192,192,342141,1,0,0:0:0:0:
320,192,342216,1,0,0:0:0:0:
64,192,342216,128,0,342291:0:0:0:0:
448,192,342366,128,0,342441:0:0:0:0:
320,192,342516,1,0,0:0:0:0:
64,192,342516,128,0,342591:0:0:0:0:
448,192,342666,128,0,342741:0:0:0:0:
192,192,342741,1,0,0:0:0:0:
320,192,342816,1,0,0:0:0:0:
64,192,342816,128,0,342891:0:0:0:0:
192,192,342966,1,0,0:0:0:0:
320,192,343041,1,0,0:0:0:0:
64,192,343116,1,0,0:0:0:0:
448,192,343116,1,0,0:0:0:0:
320,192,343191,1,0,0:0:0:0:
192,192,343228,1,0,0:0:0:0:
64,192,343303,1,0,0:0:0:0:
448,192,343341,1,0,0:0:0:0:
64,192,343416,1,0,0:0:0:0:
192,192,343416,1,0,0:0:0:0:
320,192,343453,1,0,0:0:0:0:
448,192,343491,1,0,0:0:0:0:
192,192,343566,1,0,0:0:0:0:
64,192,343641,1,0,0:0:0:0:
448,192,343716,1,0,0:0:0:0:
320,192,343716,1,0,0:0:0:0:
192,192,343766,1,0,0:0:0:0:
64,192,343816,1,0,0:0:0:0:
192,192,343866,1,0,0:0:0:0:
448,192,343903,1,0,0:0:0:0:
320,192,343941,1,0,0:0:0:0:
64,192,344016,1,0,0:0:0:0:
448,192,344016,1,0,0:0:0:0:
192,192,344066,1,0,0:0:0:0:
64,192,344116,1,0,0:0:0:0:
320,192,344166,1,0,0:0:0:0:
448,192,344216,1,0,0:0:0:0:
64,192,344266,1,0,0:0:0:0:
448,192,344316,1,0,0:0:0:0:
192,192,344316,1,0,0:0:0:0:
320,192,344366,1,0,0:0:0:0:
64,192,344416,1,0,0:0:0:0:
448,192,344466,1,0,0:0:0:0:
192,192,344541,1,0,0:0:0:0:
448,192,344616,1,0,0:0:0:0:
320,192,344616,1,0,0:0:0:0:
64,192,344653,1,0,0:0:0:0:
192,192,344728,1,0,0:0:0:0:
448,192,344766,1,0,0:0:0:0:
64,192,344878,1,0,0:0:0:0:
192,192,344916,1,0,0:0:0:0:
320,192,344916,1,0,0:0:0:0:
448,192,344991,1,0,0:0:0:0:
192,192,345066,1,0,0:0:0:0:
448,192,345141,1,0,0:0:0:0:
320,192,345216,1,0,0:0:0:0:
64,192,345216,1,0,0:0:0:0:
448,192,345366,1,0,0:0:0:0:
64,192,345366,1,0,0:0:0:0:
320,192,345441,1,0,0:0:0:0:
192,192,345441,1,0,0:0:0:0:
448,192,345516,1,0,0:0:0:0:
64,192,345516,1,0,0:0:0:0:
320,192,345591,1,0,0:0:0:0:
192,192,345591,1,0,0:0:0:0:
64,192,345666,1,0,0:0:0:0:
448,192,345741,1,0,0:0:0:0:
192,192,345741,1,0,0:0:0:0:
320,192,345816,1,0,0:0:0:0:
64,192,345816,1,0,0:0:0:0:
448,192,345891,1,0,0:0:0:0:
192,192,345891,1,0,0:0:0:0:
320,192,345966,1,0,0:0:0:0:
192,192,346041,1,0,0:0:0:0:
64,192,346116,1,0,0:0:0:0:
192,192,346191,1,0,0:0:0:0:
320,192,346266,1,0,0:0:0:0:
64,192,346266,1,0,0:0:0:0:
448,192,346341,1,0,0:0:0:0:
64,192,346416,1,0,0:0:0:0:
192,192,346491,1,0,0:0:0:0:
448,192,346566,1,0,0:0:0:0:
320,192,346566,1,0,0:0:0:0:
192,192,346641,1,0,0:0:0:0:
64,192,346641,1,0,0:0:0:0:
320,192,346716,1,0,0:0:0:0:
448,192,346716,1,0,0:0:0:0:
192,192,346791,1,0,0:0:0:0:
64,192,346791,1,0,0:0:0:0:
320,192,346866,1,0,0:0:0:0:
448,192,346941,1,0,0:0:0:0:
64,192,346941,1,0,0:0:0:0:
320,192,347016,1,0,0:0:0:0:
192,192,347016,1,0,0:0:0:0:
64,192,347091,1,0,0:0:0:0:
448,192,347091,1,0,0:0:0:0:
320,192,347166,1,0,0:0:0:0:
192,192,347166,1,0,0:0:0:0:
64,192,347241,1,0,0:0:0:0:
448,192,347241,1,0,0:0:0:0:
320,192,347316,1,0,0:0:0:0:
192,192,347316,1,0,0:0:0:0:
64,192,347391,1,0,0:0:0:0:
448,192,347391,1,0,0:0:0:0:
320,192,347466,1,0,0:0:0:0:
192,192,347541,1,0,0:0:0:0:
64,192,347541,1,0,0:0:0:0:
320,192,347616,1,0,0:0:0:0:
448,192,347616,1,0,0:0:0:0:
192,192,347691,1,0,0:0:0:0:
64,192,347691,1,0,0:0:0:0:
448,192,347766,128,0,348666:0:0:0:0:
64,192,347916,1,0,0:0:0:0:
320,192,347916,1,0,0:0:0:0:
64,192,348066,1,0,0:0:0:0:
320,192,348141,1,0,0:0:0:0:
192,192,348216,1,0,0:0:0:0:
64,192,348216,1,0,0:0:0:0:
320,192,348366,1,0,0:0:0:0:
64,192,348516,128,0,348666:0:0:0:0:
192,192,348516,1,0,0:0:0:0:
320,192,348666,1,0,0:0:0:0:
448,192,348741,1,0,0:0:0:0:
64,192,348816,128,0,348966:0:0:0:0:
320,192,348816,1,0,0:0:0:0:
192,192,348966,128,0,349116:0:0:0:0:
448,192,349116,128,0,349266:0:0:0:0:
64,192,349116,1,0,0:0:0:0:
64,192,349266,1,0,0:0:0:0:
320,192,349341,1,0,0:0:0:0:
64,192,349416,128,0,349716:0:0:0:0:
448,192,349416,1,0,0:0:0:0:
192,192,349566,1,0,0:0:0:0:
448,192,349716,128,0,350016:0:0:0:0:
320,192,349716,1,0,0:0:0:0:
64,192,349866,1,0,0:0:0:0:
192,192,349941,1,0,0:0:0:0:
320,192,350016,128,0,350166:0:0:0:0:
64,192,350016,1,0,0:0:0:0:
192,192,350166,128,0,350316:0:0:0:0:
64,192,350316,128,0,350391:0:0:0:0:
448,192,350316,1,0,0:0:0:0:
192,192,350391,128,0,350466:0:0:0:0:
448,192,350466,128,0,350541:0:0:0:0:
64,192,350541,128,0,350616:0:0:0:0:
192,192,350616,128,0,350691:0:0:0:0:
448,192,350616,1,0,0:0:0:0:
320,192,350691,128,0,350766:0:0:0:0:
448,192,350766,1,0,0:0:0:0:
192,192,350803,1,0,0:0:0:0:
64,192,350841,1,0,0:0:0:0:
448,192,350916,1,0,0:0:0:0:
320,192,350916,1,0,0:0:0:0:
192,192,350953,1,0,0:0:0:0:
64,192,350991,1,0,0:0:0:0:
448,192,351066,1,0,0:0:0:0:
192,192,351103,1,0,0:0:0:0:
64,192,351141,1,0,0:0:0:0:
448,192,351216,1,0,0:0:0:0:
320,192,351216,1,0,0:0:0:0:
192,192,351253,1,0,0:0:0:0:
64,192,351291,1,0,0:0:0:0:
448,192,351366,128,0,351516:0:0:0:0:
320,192,351516,128,0,351666:0:0:0:0:
64,192,351516,1,0,0:0:0:0:
192,192,351666,128,0,351816:0:0:0:0:
448,192,351741,1,0,0:0:0:0:
64,192,351816,128,0,352566:0:0:0:0:
320,192,351816,1,0,0:0:0:0:
192,192,351966,1,0,0:0:0:0:
448,192,352116,1,0,0:0:0:0:
320,192,352116,1,0,0:0:0:0:
448,192,352266,1,0,0:0:0:0:
192,192,352341,1,0,0:0:0:0:
320,192,352416,1,0,0:0:0:0:
448,192,352416,1,0,0:0:0:0:
192,192,352491,1,0,0:0:0:0:
448,192,352566,128,0,352716:0:0:0:0:
320,192,352641,1,0,0:0:0:0:
192,192,352716,128,0,352866:0:0:0:0:
64,192,352716,1,0,0:0:0:0:
320,192,352791,1,0,0:0:0:0:
64,192,352866,128,0,353016:0:0:0:0:
192,192,352941,1,0,0:0:0:0:
448,192,353016,128,0,353316:0:0:0:0:
320,192,353016,1,0,0:0:0:0:
192,192,353091,1,0,0:0:0:0:
64,192,353166,1,0,0:0:0:0:
192,192,353241,1,0,0:0:0:0:
320,192,353316,128,0,353466:0:0:0:0:
64,192,353316,1,0,0:0:0:0:
448,192,353391,1,0,0:0:0:0:
192,192,353466,128,0,353616:0:0:0:0:
64,192,353541,1,0,0:0:0:0:
448,192,353616,128,0,353766:0:0:0:0:
320,192,353616,1,0,0:0:0:0:
192,192,353691,1,0,0:0:0:0:
64,192,353766,128,0,353916:0:0:0:0:
320,192,353841,1,0,0:0:0:0:
192,192,353916,128,0,354066:0:0:0:0:
448,192,353916,1,0,0:0:0:0:
320,192,353991,1,0,0:0:0:0:
64,192,354066,1,0,0:0:0:0:
192,192,354141,1,0,0:0:0:0:
448,192,354216,128,0,354366:0:0:0:0:
320,192,354216,1,0,0:0:0:0:
192,192,354291,1,0,0:0:0:0:
64,192,354366,1,0,0:0:0:0:
448,192,354441,1,0,0:0:0:0:
320,192,354516,128,0,354666:0:0:0:0:
64,192,354516,1,0,0:0:0:0:
192,192,354591,1,0,0:0:0:0:
64,192,354666,128,0,354966:0:0:0:0:
448,192,354741,1,0,0:0:0:0:
192,192,354816,1,0,0:0:0:0:
320,192,354816,1,0,0:0:0:0:
448,192,354891,1,0,0:0:0:0:
192,192,354966,128,0,355041:0:0:0:0:
320,192,355041,128,0,355116:0:0:0:0:
448,192,355116,128,0,355191:0:0:0:0:
192,192,355116,1,0,0:0:0:0:
64,192,355191,128,0,355266:0:0:0:0:
192,192,355266,128,0,355341:0:0:0:0:
448,192,355341,128,0,355416:0:0:0:0:
64,192,355416,1,0,0:0:0:0:
192,192,355416,128,0,355491:0:0:0:0:
320,192,355491,128,0,355566:0:0:0:0:
64,192,355566,128,0,355641:0:0:0:0:
448,192,355641,128,0,355716:0:0:0:0:
320,192,355716,128,0,355791:0:0:0:0:
64,192,355716,1,0,0:0:0:0:
192,192,355791,128,0,355866:0:0:0:0:
448,192,355866,128,0,355941:0:0:0:0:
320,192,355941,128,0,356016:0:0:0:0:
192,192,356016,1,0,0:0:0:0:
64,192,356016,128,0,356091:0:0:0:0:
320,192,356091,128,0,356166:0:0:0:0:
192,192,356166,1,0,0:0:0:0:
64,192,356166,1,0,0:0:0:0:
448,192,356241,1,0,0:0:0:0:
320,192,356241,1,0,0:0:0:0:
64,192,356316,1,0,0:0:0:0:
192,192,356316,1,0,0:0:0:0:
320,192,356391,1,0,0:0:0:0:
448,192,356391,1,0,0:0:0:0:
64,192,356466,1,0,0:0:0:0:
448,192,356541,1,0,0:0:0:0:
192,192,356616,1,0,0:0:0:0:
320,192,356691,1,0,0:0:0:0:
448,192,356766,1,0,0:0:0:0:
64,192,356766,1,0,0:0:0:0:
192,192,356841,1,0,0:0:0:0:
320,192,356841,1,0,0:0:0:0:
448,192,356916,1,0,0:0:0:0:
64,192,356916,1,0,0:0:0:0:
320,192,356991,1,0,0:0:0:0:
192,192,356991,1,0,0:0:0:0:
64,192,357066,1,0,0:0:0:0:
192,192,357141,1,0,0:0:0:0:
448,192,357216,1,0,0:0:0:0:
320,192,357291,1,0,0:0:0:0:
64,192,357366,1,0,0:0:0:0:
320,192,357441,1,0,0:0:0:0:
192,192,357516,1,0,0:0:0:0:
448,192,357516,1,0,0:0:0:0:
448,192,357591,1,0,0:0:0:0:
64,192,357666,1,0,0:0:0:0:
64,192,357741,1,0,0:0:0:0:
320,192,357816,1,0,0:0:0:0:
192,192,357816,1,0,0:0:0:0:
320,192,357891,1,0,0:0:0:0:
448,192,357966,1,0,0:0:0:0:
448,192,358041,1,0,0:0:0:0:
192,192,358116,1,0,0:0:0:0:
64,192,358116,1,0,0:0:0:0:
192,192,358191,1,0,0:0:0:0:
320,192,358266,1,0,0:0:0:0:
320,192,358341,1,0,0:0:0:0:
64,192,358416,1,0,0:0:0:0:
448,192,358416,1,0,0:0:0:0:
64,192,358491,1,0,0:0:0:0:
320,192,358566,1,0,0:0:0:0:
448,192,358641,1,0,0:0:0:0:
192,192,358716,1,0,0:0:0:0:
64,192,358716,1,0,0:0:0:0:
320,192,358791,1,0,0:0:0:0:
64,192,358866,1,0,0:0:0:0:
320,192,358941,1,0,0:0:0:0:
192,192,359016,1,0,0:0:0:0:
448,192,359016,1,0,0:0:0:0:
64,192,359091,1,0,0:0:0:0:
320,192,359166,1,0,0:0:0:0:
448,192,359241,1,0,0:0:0:0:
64,192,359316,1,0,0:0:0:0:
192,192,359316,1,0,0:0:0:0:
320,192,359391,1,0,0:0:0:0:
64,192,359466,1,0,0:0:0:0:
320,192,359541,1,0,0:0:0:0:
192,192,359616,1,0,0:0:0:0:
448,192,359616,1,0,0:0:0:0:
64,192,359691,1,0,0:0:0:0:
320,192,359766,128,0,359841:0:0:0:0:
64,192,359841,128,0,359916:0:0:0:0:
448,192,359916,128,0,359991:0:0:0:0:
320,192,359916,1,0,0:0:0:0:
192,192,359991,128,0,360066:0:0:0:0:
64,192,360066,128,0,360141:0:0:0:0:
320,192,360141,128,0,360216:0:0:0:0:
448,192,360216,128,0,360366:0:0:0:0:
64,192,360216,1,0,0:0:0:0:
320,192,360291,1,0,0:0:0:0:
192,192,360366,128,0,360441:0:0:0:0:
64,192,360441,128,0,360516:0:0:0:0:
320,192,360516,128,0,360591:0:0:0:0:
448,192,360516,1,0,0:0:0:0:
192,192,360591,128,0,360666:0:0:0:0:
448,192,360666,128,0,360741:0:0:0:0:
320,192,360741,128,0,360816:0:0:0:0:
64,192,360816,128,0,360891:0:0:0:0:
448,192,360816,1,0,0:0:0:0:
320,192,360891,128,0,360966:0:0:0:0:
192,192,360966,128,0,361041:0:0:0:0:
448,192,361041,128,0,361116:0:0:0:0:
192,192,361116,128,0,361191:0:0:0:0:
320,192,361116,1,0,0:0:0:0:
64,192,361191,128,0,361266:0:0:0:0:
448,192,361266,128,0,361341:0:0:0:0:
64,192,361341,128,0,361416:0:0:0:0:
448,192,361416,128,0,361491:0:0:0:0:
320,192,361416,1,0,0:0:0:0:
192,192,361491,128,0,361566:0:0:0:0:
448,192,361566,128,0,361641:0:0:0:0:
64,192,361641,128,0,361716:0:0:0:0:
448,192,361716,1,0,0:0:0:0:
320,192,361716,128,0,361791:0:0:0:0:
192,192,361791,128,0,361866:0:0:0:0:
64,192,361866,128,0,362166:0:0:0:0:
448,192,361941,1,0,0:0:0:0:
320,192,362016,1,0,0:0:0:0:
192,192,362016,1,0,0:0:0:0:
448,192,362091,1,0,0:0:0:0:
192,192,362166,128,0,362316:0:0:0:0:
64,192,362241,1,0,0:0:0:0:
448,192,362316,128,0,362466:0:0:0:0:
320,192,362316,1,0,0:0:0:0:
64,192,362391,1,0,0:0:0:0:
192,192,362466,128,0,362616:0:0:0:0:
320,192,362541,1,0,0:0:0:0:
64,192,362616,128,0,362766:0:0:0:0:
448,192,362616,1,0,0:0:0:0:
320,192,362691,1,0,0:0:0:0:
192,192,362766,1,0,0:0:0:0:
64,192,362841,1,0,0:0:0:0:
448,192,362916,128,0,363066:0:0:0:0:
192,192,362916,1,0,0:0:0:0:
320,192,362991,1,0,0:0:0:0:
192,192,363066,128,0,363216:0:0:0:0:
64,192,363141,1,0,0:0:0:0:
320,192,363216,128,0,363366:0:0:0:0:
448,192,363216,1,0,0:0:0:0:
192,192,363291,1,0,0:0:0:0:
64,192,363366,128,0,363441:0:0:0:0:
192,192,363441,1,0,0:0:0:0:
64,192,363516,128,0,363591:0:0:0:0:
320,192,363516,1,0,0:0:0:0:
448,192,363516,1,0,0:0:0:0:
192,192,363591,1,0,0:0:0:0:
64,192,363666,128,0,363741:0:0:0:0:
192,192,363741,1,0,0:0:0:0:
448,192,363816,128,0,363966:0:0:0:0:
320,192,363816,1,0,0:0:0:0:
64,192,363891,1,0,0:0:0:0:
192,192,363966,128,0,364116:0:0:0:0:
448,192,364041,1,0,0:0:0:0:
320,192,364116,128,0,364266:0:0:0:0:
64,192,364116,1,0,0:0:0:0:
192,192,364191,1,0,0:0:0:0:
448,192,364266,1,0,0:0:0:0:
64,192,364341,1,0,0:0:0:0:
192,192,364416,1,0,0:0:0:0:
448,192,364416,1,0,0:0:0:0:
64,192,364491,1,0,0:0:0:0:
448,192,364566,1,0,0:0:0:0:
320,192,364566,1,0,0:0:0:0:
192,192,364641,1,0,0:0:0:0:
64,192,364641,1,0,0:0:0:0:
448,192,364716,1,0,0:0:0:0:
64,192,364791,1,0,0:0:0:0:
192,192,364866,1,0,0:0:0:0:
448,192,364866,1,0,0:0:0:0:
320,192,364941,1,0,0:0:0:0:
64,192,364941,1,0,0:0:0:0:
448,192,365016,1,0,0:0:0:0:
320,192,365091,1,0,0:0:0:0:
192,192,365166,1,0,0:0:0:0:
448,192,365166,1,0,0:0:0:0:
64,192,365241,1,0,0:0:0:0:
192,192,365316,1,0,0:0:0:0:
320,192,365391,1,0,0:0:0:0:
64,192,365466,1,0,0:0:0:0:
192,192,365466,1,0,0:0:0:0:
448,192,365541,1,0,0:0:0:0:
320,192,365541,1,0,0:0:0:0:
192,192,365616,1,0,0:0:0:0:
64,192,365691,1,0,0:0:0:0:
448,192,365766,1,0,0:0:0:0:
192,192,365841,1,0,0:0:0:0:
64,192,365916,1,0,0:0:0:0:
448,192,365966,1,0,0:0:0:0:
192,192,366016,1,0,0:0:0:0:
64,192,366066,1,0,0:0:0:0:
448,192,366116,1,0,0:0:0:0:
192,192,366166,1,0,0:0:0:0:
320,192,366216,1,0,0:0:0:0:
64,192,366266,1,0,0:0:0:0:
448,192,366316,1,0,0:0:0:0:
320,192,366366,1,0,0:0:0:0:
64,192,366416,1,0,0:0:0:0:
448,192,366466,1,0,0:0:0:0:
192,192,366516,1,0,0:0:0:0:
320,192,366566,1,0,0:0:0:0:
64,192,366616,1,0,0:0:0:0:
448,192,366666,1,0,0:0:0:0:
192,192,366716,1,0,0:0:0:0:
320,192,366766,1,0,0:0:0:0:
64,192,366816,1,0,0:0:0:0:
320,192,366866,1,0,0:0:0:0:
448,192,366916,1,0,0:0:0:0:
192,192,366966,128,0,369216:0:0:0:0:
320,192,366966,128,0,369216:0:0:0:0:
64,192,366966,128,0,369216:0:0:0:0:
448,192,369366,128,0,371616:0:0:0:0:
192,192,369366,128,0,371616:0:0:0:0:
320,192,369366,128,0,371616:0:0:0:0:
192,192,371766,128,0,374016:0:0:0:0:
448,192,371766,128,0,374016:0:0:0:0:
64,192,371766,128,0,374016:0:0:0:0:
320,192,374166,128,0,376416:0:0:0:0:
448,192,374166,128,0,376416:0:0:0:0:
64,192,374166,128,0,376416:0:0:0:0:
192,192,376566,128,0,378816:0:0:0:0:
320,192,376566,128,0,378816:0:0:0:0:
448,192,376566,128,0,378816:0:0:0:0:
320,192,378966,128,0,381216:0:0:0:0:
192,192,378966,128,0,381216:0:0:0:0:
64,192,378966,128,0,381216:0:0:0:0:
448,192,381366,128,0,383616:0:0:0:0:
320,192,381366,128,0,383616:0:0:0:0:
192,192,381366,128,0,383616:0:0:0:0:
64,192,381366,128,0,383616:0:0:0:0:
64,192,383766,1,0,0:0:0:0:
192,192,383766,1,0,0:0:0:0:
448,192,383766,1,0,0:0:0:0:
320,192,383766,1,0,0:0:0:0:
192,192,383916,1,0,0:0:0:0:
64,192,383991,1,0,0:0:0:0:
448,192,384066,1,0,0:0:0:0:
320,192,384141,1,0,0:0:0:0:
64,192,384216,1,0,0:0:0:0:
448,192,384291,1,0,0:0:0:0:
192,192,384366,1,0,0:0:0:0:
64,192,384441,1,0,0:0:0:0:
448,192,384516,1,0,0:0:0:0:
320,192,384591,1,0,0:0:0:0:
64,192,384666,1,0,0:0:0:0:
448,192,384741,1,0,0:0:0:0:
192,192,384816,1,0,0:0:0:0:
64,192,384891,1,0,0:0:0:0:
448,192,384966,1,0,0:0:0:0:
320,192,384966,1,0,0:0:0:0:
192,192,385041,1,0,0:0:0:0:
64,192,385041,1,0,0:0:0:0:
320,192,385116,1,0,0:0:0:0:
448,192,385191,1,0,0:0:0:0:
192,192,385266,1,0,0:0:0:0:
64,192,385266,1,0,0:0:0:0:
320,192,385341,1,0,0:0:0:0:
448,192,385341,1,0,0:0:0:0:
192,192,385416,1,0,0:0:0:0:
64,192,385416,1,0,0:0:0:0:
320,192,385491,1,0,0:0:0:0:
448,192,385491,1,0,0:0:0:0:
192,192,385566,1,0,0:0:0:0:
64,192,385641,1,0,0:0:0:0:
448,192,385716,1,0,0:0:0:0:
320,192,385716,1,0,0:0:0:0:
192,192,385791,1,0,0:0:0:0:
64,192,385791,1,0,0:0:0:0:
320,192,385866,1,0,0:0:0:0:
448,192,385866,1,0,0:0:0:0:
192,192,385941,1,0,0:0:0:0:
64,192,385941,1,0,0:0:0:0:
448,192,386016,1,0,0:0:0:0:
320,192,386091,1,0,0:0:0:0:
192,192,386166,1,0,0:0:0:0:
64,192,386166,128,0,388416:0:0:0:0:
448,192,386316,1,0,0:0:0:0:
320,192,386316,1,0,0:0:0:0:
192,192,386466,1,0,0:0:0:0:
320,192,386541,1,0,0:0:0:0:
448,192,386616,1,0,0:0:0:0:
192,192,386616,1,0,0:0:0:0:
448,192,386766,1,0,0:0:0:0:
320,192,386916,1,0,0:0:0:0:
192,192,386916,1,0,0:0:0:0:
192,192,387066,1,0,0:0:0:0:
448,192,387141,1,0,0:0:0:0:
320,192,387216,1,0,0:0:0:0:
192,192,387216,1,0,0:0:0:0:
320,192,387366,1,0,0:0:0:0:
320,192,387516,1,0,0:0:0:0:
448,192,387516,1,0,0:0:0:0:
448,192,387666,1,0,0:0:0:0:
192,192,387741,1,0,0:0:0:0:
320,192,387816,1,0,0:0:0:0:
448,192,387816,1,0,0:0:0:0:
192,192,387966,1,0,0:0:0:0:
448,192,388116,1,0,0:0:0:0:
320,192,388116,1,0,0:0:0:0:
448,192,388266,1,0,0:0:0:0:
320,192,388341,1,0,0:0:0:0:
192,192,388416,1,0,0:0:0:0:
448,192,388416,1,0,0:0:0:0:
320,192,388566,128,0,390816:0:0:0:0:
192,192,388716,1,0,0:0:0:0:
64,192,388716,1,0,0:0:0:0:
448,192,388866,1,0,0:0:0:0:
64,192,388941,1,0,0:0:0:0:
192,192,389016,1,0,0:0:0:0:
448,192,389016,1,0,0:0:0:0:
64,192,389166,1,0,0:0:0:0:
64,192,389316,1,0,0:0:0:0:
448,192,389316,1,0,0:0:0:0:
192,192,389466,1,0,0:0:0:0:
448,192,389541,1,0,0:0:0:0:
192,192,389616,1,0,0:0:0:0:
64,192,389616,1,0,0:0:0:0:
448,192,389766,1,0,0:0:0:0:
192,192,389916,1,0,0:0:0:0:
448,192,389916,1,0,0:0:0:0:
64,192,390066,1,0,0:0:0:0:
192,192,390141,1,0,0:0:0:0:
448,192,390216,1,0,0:0:0:0:
64,192,390216,1,0,0:0:0:0:
192,192,390366,1,0,0:0:0:0:
64,192,390516,1,0,0:0:0:0:
448,192,390516,1,0,0:0:0:0:
448,192,390666,1,0,0:0:0:0:
192,192,390741,1,0,0:0:0:0:
64,192,390816,1,0,0:0:0:0:
448,192,390816,1,0,0:0:0:0:
448,192,390966,1,0,0:0:0:0:
64,192,390966,1,0,0:0:0:0:
320,192,391041,1,0,0:0:0:0:
64,192,391116,1,0,0:0:0:0:
192,192,391116,1,0,0:0:0:0:
448,192,391116,1,0,0:0:0:0:
320,192,391191,1,0,0:0:0:0:
192,192,391266,1,0,0:0:0:0:
448,192,391266,1,0,0:0:0:0:
64,192,391341,1,0,0:0:0:0:
192,192,391416,1,0,0:0:0:0:
320,192,391416,1,0,0:0:0:0:
448,192,391416,1,0,0:0:0:0:
64,192,391491,1,0,0:0:0:0:
192,192,391566,1,0,0:0:0:0:
448,192,391566,1,0,0:0:0:0:
320,192,391641,1,0,0:0:0:0:
192,192,391716,1,0,0:0:0:0:
64,192,391716,1,0,0:0:0:0:
448,192,391716,1,0,0:0:0:0:
320,192,391791,1,0,0:0:0:0:
192,192,391866,1,0,0:0:0:0:
64,192,391866,1,0,0:0:0:0:
448,192,391941,1,0,0:0:0:0:
320,192,392016,1,0,0:0:0:0:
192,192,392016,1,0,0:0:0:0:
64,192,392016,1,0,0:0:0:0:
448,192,392091,1,0,0:0:0:0:
64,192,392166,1,0,0:0:0:0:
320,192,392166,1,0,0:0:0:0:
192,192,392241,1,0,0:0:0:0:
64,192,392316,1,0,0:0:0:0:
320,192,392316,1,0,0:0:0:0:
448,192,392316,1,0,0:0:0:0:
192,192,392391,1,0,0:0:0:0:
448,192,392466,1,0,0:0:0:0:
64,192,392466,1,0,0:0:0:0:
320,192,392541,1,0,0:0:0:0:
192,192,392616,1,0,0:0:0:0:
64,192,392616,1,0,0:0:0:0:
448,192,392616,1,0,0:0:0:0:
320,192,392691,1,0,0:0:0:0:
64,192,392766,1,0,0:0:0:0:
192,192,392766,1,0,0:0:0:0:
320,192,392841,1,0,0:0:0:0:
192,192,392916,1,0,0:0:0:0:
448,192,392916,1,0,0:0:0:0:
64,192,392916,1,0,0:0:0:0:
320,192,392991,1,0,0:0:0:0:
448,192,393066,1,0,0:0:0:0:
192,192,393066,1,0,0:0:0:0:
64,192,393141,1,0,0:0:0:0:
192,192,393216,1,0,0:0:0:0:
320,192,393216,1,0,0:0:0:0:
448,192,393216,1,0,0:0:0:0:
64,192,393291,1,0,0:0:0:0:
192,192,393366,1,0,0:0:0:0:
320,192,393366,1,0,0:0:0:0:
448,192,393441,1,0,0:0:0:0:
64,192,393441,1,0,0:0:0:0:
320,192,393516,1,0,0:0:0:0:
192,192,393516,1,0,0:0:0:0:
64,192,393591,1,0,0:0:0:0:
448,192,393591,1,0,0:0:0:0:
320,192,393666,1,0,0:0:0:0:
192,192,393741,1,0,0:0:0:0:
64,192,393816,1,0,0:0:0:0:
192,192,393891,1,0,0:0:0:0:
448,192,393966,1,0,0:0:0:0:
320,192,393966,1,0,0:0:0:0:
192,192,394041,1,0,0:0:0:0:
64,192,394041,1,0,0:0:0:0:
320,192,394116,1,0,0:0:0:0:
448,192,394116,1,0,0:0:0:0:
192,192,394191,1,0,0:0:0:0:
64,192,394191,1,0,0:0:0:0:
320,192,394266,1,0,0:0:0:0:
448,192,394341,1,0,0:0:0:0:
320,192,394416,1,0,0:0:0:0:
192,192,394491,1,0,0:0:0:0:
64,192,394566,1,0,0:0:0:0:
448,192,394566,1,0,0:0:0:0:
320,192,394641,1,0,0:0:0:0:
192,192,394641,1,0,0:0:0:0:
64,192,394716,1,0,0:0:0:0:
448,192,394716,1,0,0:0:0:0:
320,192,394791,1,0,0:0:0:0:
192,192,394791,1,0,0:0:0:0:
64,192,394866,1,0,0:0:0:0:
448,192,394941,1,0,0:0:0:0:
192,192,395016,1,0,0:0:0:0:
320,192,395091,1,0,0:0:0:0:
64,192,395166,1,0,0:0:0:0:
448,192,395241,1,0,0:0:0:0:
320,192,395316,1,0,0:0:0:0:
192,192,395391,1,0,0:0:0:0:
64,192,395466,1,0,0:0:0:0:
448,192,395541,1,0,0:0:0:0:
64,192,395616,1,0,0:0:0:0:
320,192,395691,1,0,0:0:0:0:
192,192,395766,128,0,395916:0:0:0:0:
448,192,395916,1,0,0:0:0:0:
64,192,395916,128,0,396516:0:0:0:0:
192,192,396066,1,0,0:0:0:0:
320,192,396141,1,0,0:0:0:0:
448,192,396216,1,0,0:0:0:0:
192,192,396216,1,0,0:0:0:0:
448,192,396366,1,0,0:0:0:0:
320,192,396516,1,0,0:0:0:0:
448,192,396516,1,0,0:0:0:0:
448,192,396666,128,0,396816:0:0:0:0:
320,192,396741,1,0,0:0:0:0:
192,192,396816,128,0,396966:0:0:0:0:
64,192,396816,1,0,0:0:0:0:
448,192,396966,128,0,397266:0:0:0:0:
320,192,397041,1,0,0:0:0:0:
64,192,397116,1,0,0:0:0:0:
192,192,397116,1,0,0:0:0:0:
64,192,397266,1,0,0:0:0:0:
192,192,397416,128,0,397716:0:0:0:0:
448,192,397416,1,0,0:0:0:0:
320,192,397566,1,0,0:0:0:0:
448,192,397641,1,0,0:0:0:0:
320,192,397716,1,0,0:0:0:0:
64,192,397716,1,0,0:0:0:0:
64,192,397866,128,0,398016:0:0:0:0:
192,192,397941,1,0,0:0:0:0:
320,192,398016,1,0,0:0:0:0:
448,192,398016,1,0,0:0:0:0:
64,192,398166,1,0,0:0:0:0:
448,192,398216,1,0,0:0:0:0:
320,192,398266,1,0,0:0:0:0:
64,192,398316,1,0,0:0:0:0:
192,192,398316,1,0,0:0:0:0:
448,192,398366,1,0,0:0:0:0:
320,192,398416,1,0,0:0:0:0:
64,192,398466,1,0,0:0:0:0:
448,192,398516,1,0,0:0:0:0:
320,192,398566,1,0,0:0:0:0:
192,192,398616,1,0,0:0:0:0:
64,192,398616,1,0,0:0:0:0:
448,192,398666,1,0,0:0:0:0:
192,192,398716,1,0,0:0:0:0:
320,192,398766,1,0,0:0:0:0:
64,192,398816,1,0,0:0:0:0:
192,192,398866,1,0,0:0:0:0:
320,192,398916,1,0,0:0:0:0:
448,192,398916,1,0,0:0:0:0:
64,192,398966,1,0,0:0:0:0:
192,192,399016,1,0,0:0:0:0:
448,192,399066,1,0,0:0:0:0:
320,192,399116,1,0,0:0:0:0:
192,192,399166,1,0,0:0:0:0:
320,192,399216,1,0,0:0:0:0:
64,192,399216,1,0,0:0:0:0:
448,192,399266,1,0,0:0:0:0:
192,192,399316,1,0,0:0:0:0:
64,192,399366,1,0,0:0:0:0:
192,192,399441,1,0,0:0:0:0:
320,192,399516,1,0,0:0:0:0:
448,192,399516,1,0,0:0:0:0:
64,192,399591,1,0,0:0:0:0:
192,192,399666,1,0,0:0:0:0:
448,192,399741,1,0,0:0:0:0:
192,192,399816,1,0,0:0:0:0:
64,192,399816,1,0,0:0:0:0:
448,192,399891,1,0,0:0:0:0:
192,192,399966,128,0,400116:0:0:0:0:
64,192,400041,1,0,0:0:0:0:
320,192,400116,128,0,400266:0:0:0:0:
448,192,400116,1,0,0:0:0:0:
192,192,400191,1,0,0:0:0:0:
64,192,400266,128,0,400416:0:0:0:0:
192,192,400341,1,0,0:0:0:0:
448,192,400416,1,0,0:0:0:0:
320,192,400416,1,0,0:0:0:0:
192,192,400491,1,0,0:0:0:0:
448,192,400566,128,0,400866:0:0:0:0:
64,192,400566,1,0,0:0:0:0:
320,192,400641,1,0,0:0:0:0:
192,192,400716,1,0,0:0:0:0:
64,192,400791,1,0,0:0:0:0:
320,192,400866,1,0,0:0:0:0:
192,192,400941,1,0,0:0:0:0:
320,192,401016,128,0,401316:0:0:0:0:
448,192,401016,1,0,0:0:0:0:
64,192,401016,1,0,0:0:0:0:
192,192,401091,1,0,0:0:0:0:
448,192,401166,1,0,0:0:0:0:
64,192,401241,1,0,0:0:0:0:
192,192,401316,1,0,0:0:0:0:
448,192,401391,1,0,0:0:0:0:
320,192,401391,1,0,0:0:0:0:
192,192,401466,128,0,401766:0:0:0:0:
64,192,401466,1,0,0:0:0:0:
320,192,401541,1,0,0:0:0:0:
448,192,401616,1,0,0:0:0:0:
64,192,401766,128,0,401991:0:0:0:0:
320,192,401766,128,0,401991:0:0:0:0:
448,192,401766,128,0,401991:0:0:0:0:
64,192,402966,1,0,0:0:0:0:
192,192,403041,1,0,0:0:0:0:
320,192,403116,1,0,0:0:0:0:
448,192,403116,1,0,0:0:0:0:
192,192,403166,1,0,0:0:0:0:
64,192,403216,1,0,0:0:0:0:
448,192,403266,1,0,0:0:0:0:
192,192,403341,1,0,0:0:0:0:
64,192,403416,1,0,0:0:0:0:
320,192,403416,1,0,0:0:0:0:
448,192,403466,1,0,0:0:0:0:
192,192,403516,1,0,0:0:0:0:
64,192,403566,1,0,0:0:0:0:
192,192,403641,1,0,0:0:0:0:
448,192,403716,1,0,0:0:0:0:
320,192,403716,1,0,0:0:0:0:
64,192,403791,1,0,0:0:0:0:
320,192,403866,1,0,0:0:0:0:
192,192,403916,1,0,0:0:0:0:
64,192,403966,1,0,0:0:0:0:
320,192,404016,1,0,0:0:0:0:
448,192,404016,1,0,0:0:0:0:
192,192,404091,1,0,0:0:0:0:
448,192,404166,1,0,0:0:0:0:
64,192,404216,1,0,0:0:0:0:
192,192,404266,1,0,0:0:0:0:
448,192,404316,1,0,0:0:0:0:
320,192,404316,1,0,0:0:0:0:
64,192,404391,1,0,0:0:0:0:
192,192,404466,1,0,0:0:0:0:
320,192,404541,1,0,0:0:0:0:
64,192,404616,1,0,0:0:0:0:
192,192,404616,1,0,0:0:0:0:
448,192,404666,1,0,0:0:0:0:
320,192,404716,1,0,0:0:0:0:
64,192,404766,1,0,0:0:0:0:
448,192,404841,1,0,0:0:0:0:
320,192,404916,1,0,0:0:0:0:
64,192,404916,1,0,0:0:0:0:
192,192,404991,1,0,0:0:0:0:
448,192,405066,1,0,0:0:0:0:
64,192,405116,1,0,0:0:0:0:
192,192,405166,1,0,0:0:0:0:
448,192,405216,1,0,0:0:0:0:
320,192,405216,1,0,0:0:0:0:
192,192,405291,1,0,0:0:0:0:
448,192,405366,1,0,0:0:0:0:
320,192,405416,1,0,0:0:0:0:
64,192,405466,1,0,0:0:0:0:
448,192,405516,1,0,0:0:0:0:
192,192,405516,1,0,0:0:0:0:
320,192,405591,1,0,0:0:0:0:
64,192,405666,1,0,0:0:0:0:
192,192,405741,1,0,0:0:0:0:
320,192,405816,1,0,0:0:0:0:
448,192,405816,1,0,0:0:0:0:
192,192,405866,1,0,0:0:0:0:
64,192,405916,1,0,0:0:0:0:
448,192,405966,1,0,0:0:0:0:
320,192,406041,1,0,0:0:0:0:
64,192,406116,1,0,0:0:0:0:
448,192,406116,1,0,0:0:0:0:
192,192,406191,1,0,0:0:0:0:
64,192,406266,1,0,0:0:0:0:
448,192,406316,1,0,0:0:0:0:
320,192,406366,1,0,0:0:0:0:
192,192,406416,1,0,0:0:0:0:
64,192,406416,1,0,0:0:0:0:
320,192,406491,1,0,0:0:0:0:
448,192,406566,1,0,0:0:0:0:
192,192,406616,1,0,0:0:0:0:
64,192,406666,1,0,0:0:0:0:
448,192,406716,1,0,0:0:0:0:
320,192,406716,1,0,0:0:0:0:
192,192,406791,1,0,0:0:0:0:
448,192,406866,1,0,0:0:0:0:
192,192,406941,1,0,0:0:0:0:
64,192,407016,1,0,0:0:0:0:
448,192,407016,1,0,0:0:0:0:
320,192,407066,1,0,0:0:0:0:
192,192,407116,1,0,0:0:0:0:
448,192,407166,1,0,0:0:0:0:
64,192,407241,1,0,0:0:0:0:
320,192,407316,1,0,0:0:0:0:
448,192,407316,1,0,0:0:0:0:
64,192,407366,1,0,0:0:0:0:
192,192,407416,1,0,0:0:0:0:
320,192,407466,1,0,0:0:0:0:
64,192,407541,1,0,0:0:0:0:
320,192,407616,1,0,0:0:0:0:
448,192,407616,1,0,0:0:0:0:
64,192,407691,1,0,0:0:0:0:
192,192,407766,1,0,0:0:0:0:
448,192,407816,1,0,0:0:0:0:
320,192,407866,1,0,0:0:0:0:
192,192,407916,1,0,0:0:0:0:
64,192,407916,1,0,0:0:0:0:
448,192,407991,1,0,0:0:0:0:
192,192,408066,1,0,0:0:0:0:
320,192,408141,1,0,0:0:0:0:
64,192,408216,1,0,0:0:0:0:
448,192,408216,1,0,0:0:0:0:
192,192,408266,1,0,0:0:0:0:
320,192,408316,1,0,0:0:0:0:
64,192,408366,1,0,0:0:0:0:
448,192,408441,1,0,0:0:0:0:
64,192,408516,1,0,0:0:0:0:
320,192,408516,1,0,0:0:0:0:
448,192,408591,1,0,0:0:0:0:
64,192,408666,1,0,0:0:0:0:
192,192,408716,1,0,0:0:0:0:
448,192,408766,1,0,0:0:0:0:
320,192,408816,1,0,0:0:0:0:
64,192,408816,1,0,0:0:0:0:
192,192,408891,1,0,0:0:0:0:
448,192,408966,1,0,0:0:0:0:
64,192,409016,1,0,0:0:0:0:
192,192,409066,1,0,0:0:0:0:
320,192,409116,1,0,0:0:0:0:
448,192,409116,1,0,0:0:0:0:
64,192,409191,1,0,0:0:0:0:
320,192,409266,1,0,0:0:0:0:
64,192,409341,1,0,0:0:0:0:
320,192,409416,1,0,0:0:0:0:
192,192,409416,1,0,0:0:0:0:
448,192,409466,1,0,0:0:0:0:
64,192,409516,1,0,0:0:0:0:
192,192,409566,1,0,0:0:0:0:
448,192,409641,1,0,0:0:0:0:
192,192,409716,1,0,0:0:0:0:
64,192,409716,1,0,0:0:0:0:
320,192,409791,1,0,0:0:0:0:
64,192,409866,1,0,0:0:0:0:
448,192,409916,1,0,0:0:0:0:
320,192,409966,1,0,0:0:0:0:
192,192,410016,1,0,0:0:0:0:
64,192,410016,1,0,0:0:0:0:
448,192,410091,1,0,0:0:0:0:
320,192,410166,1,0,0:0:0:0:
64,192,410216,1,0,0:0:0:0:
192,192,410266,1,0,0:0:0:0:
448,192,410316,1,0,0:0:0:0:
320,192,410316,1,0,0:0:0:0:
192,192,410391,1,0,0:0:0:0:
64,192,410466,1,0,0:0:0:0:
448,192,410541,1,0,0:0:0:0:
192,192,410616,1,0,0:0:0:0:
64,192,410616,1,0,0:0:0:0:
320,192,410666,1,0,0:0:0:0:
448,192,410716,1,0,0:0:0:0:
192,192,410766,1,0,0:0:0:0:
64,192,410841,1,0,0:0:0:0:
320,192,410916,1,0,0:0:0:0:
448,192,410916,1,0,0:0:0:0:
192,192,410991,1,0,0:0:0:0:
64,192,411066,1,0,0:0:0:0:
448,192,411116,1,0,0:0:0:0:
320,192,411166,1,0,0:0:0:0:
64,192,411216,1,0,0:0:0:0:
192,192,411216,1,0,0:0:0:0:
448,192,411291,1,0,0:0:0:0:
192,192,411366,1,0,0:0:0:0:
64,192,411366,1,0,0:0:0:0:
320,192,411441,1,0,0:0:0:0:
448,192,411441,1,0,0:0:0:0:
192,192,411516,1,0,0:0:0:0:
64,192,411516,1,0,0:0:0:0:
320,192,411591,1,0,0:0:0:0:
448,192,411591,1,0,0:0:0:0:
64,192,411666,1,0,0:0:0:0:
192,192,411741,1,0,0:0:0:0:
448,192,411816,1,0,0:0:0:0:
192,192,411891,1,0,0:0:0:0:
64,192,411966,1,0,0:0:0:0:
320,192,411966,1,0,0:0:0:0:
448,192,412041,1,0,0:0:0:0:
192,192,412116,1,0,0:0:0:0:
64,192,412191,1,0,0:0:0:0:
192,192,412266,1,0,0:0:0:0:
448,192,412266,1,0,0:0:0:0:
320,192,412266,1,0,0:0:0:0:
64,192,412341,1,0,0:0:0:0:
448,192,412416,1,0,0:0:0:0:
320,192,412491,1,0,0:0:0:0:
64,192,412566,1,0,0:0:0:0:
192,192,412566,1,0,0:0:0:0:
320,192,412641,1,0,0:0:0:0:
64,192,412716,1,0,0:0:0:0:
192,192,412716,1,0,0:0:0:0:
448,192,412716,1,0,0:0:0:0:
320,192,412791,1,0,0:0:0:0:
448,192,412866,1,0,0:0:0:0:
64,192,412866,1,0,0:0:0:0:
192,192,412941,1,0,0:0:0:0:
448,192,413016,1,0,0:0:0:0:
64,192,413016,1,0,0:0:0:0:
320,192,413016,1,0,0:0:0:0:
192,192,413091,1,0,0:0:0:0:
448,192,413166,1,0,0:0:0:0:
64,192,413166,1,0,0:0:0:0:
320,192,413241,1,0,0:0:0:0:
192,192,413316,1,0,0:0:0:0:
64,192,413316,1,0,0:0:0:0:
448,192,413316,1,0,0:0:0:0:
320,192,413391,1,0,0:0:0:0:
64,192,413466,1,0,0:0:0:0:
192,192,413466,1,0,0:0:0:0:
320,192,413541,1,0,0:0:0:0:
64,192,413616,1,0,0:0:0:0:
448,192,413616,1,0,0:0:0:0:
192,192,413616,1,0,0:0:0:0:
320,192,413691,1,0,0:0:0:0:
64,192,413766,1,0,0:0:0:0:
448,192,413766,1,0,0:0:0:0:
320,192,413841,1,0,0:0:0:0:
192,192,413916,1,0,0:0:0:0:
64,192,413916,1,0,0:0:0:0:
448,192,413916,1,0,0:0:0:0:
320,192,413991,1,0,0:0:0:0:
64,192,414066,1,0,0:0:0:0:
448,192,414066,1,0,0:0:0:0:
192,192,414141,1,0,0:0:0:0:
320,192,414216,1,0,0:0:0:0:
448,192,414216,1,0,0:0:0:0:
192,192,414291,1,0,0:0:0:0:
320,192,414366,1,0,0:0:0:0:
448,192,414366,1,0,0:0:0:0:
192,192,414441,1,0,0:0:0:0:
448,192,414516,1,0,0:0:0:0:
64,192,414516,1,0,0:0:0:0:
320,192,414516,1,0,0:0:0:0:
192,192,414591,1,0,0:0:0:0:
448,192,414666,1,0,0:0:0:0:
64,192,414666,1,0,0:0:0:0:
192,192,414741,1,0,0:0:0:0:
320,192,414816,1,0,0:0:0:0:
448,192,414816,1,0,0:0:0:0:
64,192,414816,1,0,0:0:0:0:
192,192,414891,1,0,0:0:0:0:
64,192,414966,1,0,0:0:0:0:
448,192,414966,1,0,0:0:0:0:
320,192,415041,1,0,0:0:0:0:
64,192,415116,1,0,0:0:0:0:
192,192,415116,1,0,0:0:0:0:
448,192,415116,1,0,0:0:0:0:
320,192,415191,1,0,0:0:0:0:
448,192,415266,1,0,0:0:0:0:
192,192,415266,1,0,0:0:0:0:
320,192,415341,1,0,0:0:0:0:
64,192,415416,1,0,0:0:0:0:
192,192,415416,1,0,0:0:0:0:
448,192,415491,1,0,0:0:0:0:
192,192,415566,1,0,0:0:0:0:
320,192,415566,1,0,0:0:0:0:
64,192,415641,1,0,0:0:0:0:
448,192,415716,1,0,0:0:0:0:
192,192,415716,1,0,0:0:0:0:
320,192,415716,1,0,0:0:0:0:
64,192,415791,1,0,0:0:0:0:
448,192,415866,1,0,0:0:0:0:
192,192,415866,1,0,0:0:0:0:
320,192,415941,1,0,0:0:0:0:
64,192,416016,1,0,0:0:0:0:
192,192,416016,1,0,0:0:0:0:
448,192,416016,1,0,0:0:0:0:
320,192,416091,1,0,0:0:0:0:
64,192,416166,1,0,0:0:0:0:
448,192,416166,1,0,0:0:0:0:
192,192,416241,1,0,0:0:0:0:
448,192,416316,1,0,0:0:0:0:
64,192,416316,1,0,0:0:0:0:
320,192,416316,1,0,0:0:0:0:
192,192,416391,1,0,0:0:0:0:
320,192,416466,1,0,0:0:0:0:
64,192,416466,1,0,0:0:0:0:
192,192,416541,1,0,0:0:0:0:
64,192,416616,1,0,0:0:0:0:
448,192,416616,1,0,0:0:0:0:
320,192,416616,1,0,0:0:0:0:
192,192,416691,1,0,0:0:0:0:
448,192,416766,1,0,0:0:0:0:
320,192,416766,1,0,0:0:0:0:
64,192,416841,1,0,0:0:0:0:
448,192,416916,1,0,0:0:0:0:
192,192,416916,1,0,0:0:0:0:
320,192,416916,1,0,0:0:0:0:
64,192,416991,1,0,0:0:0:0:
320,192,417066,1,0,0:0:0:0:
192,192,417066,1,0,0:0:0:0:
448,192,417141,1,0,0:0:0:0:
64,192,417216,1,0,0:0:0:0:
320,192,417216,1,0,0:0:0:0:
192,192,417216,1,0,0:0:0:0:
448,192,417291,1,0,0:0:0:0:
64,192,417366,1,0,0:0:0:0:
320,192,417366,1,0,0:0:0:0:
192,192,417441,1,0,0:0:0:0:
448,192,417516,1,0,0:0:0:0:
320,192,417516,1,0,0:0:0:0:
64,192,417516,1,0,0:0:0:0:
192,192,417591,1,0,0:0:0:0:
64,192,417666,1,0,0:0:0:0:
448,192,417666,1,0,0:0:0:0:
320,192,417741,1,0,0:0:0:0:
64,192,417816,1,0,0:0:0:0:
448,192,417816,1,0,0:0:0:0:
192,192,417816,1,0,0:0:0:0:
320,192,417891,1,0,0:0:0:0:
192,192,417966,1,0,0:0:0:0:
64,192,417966,1,0,0:0:0:0:
448,192,418041,1,0,0:0:0:0:
192,192,418116,1,0,0:0:0:0:
320,192,418116,1,0,0:0:0:0:
64,192,418116,1,0,0:0:0:0:
448,192,418191,1,0,0:0:0:0:
64,192,418266,1,0,0:0:0:0:
320,192,418266,1,0,0:0:0:0:
192,192,418341,1,0,0:0:0:0:
320,192,418416,1,0,0:0:0:0:
64,192,418416,1,0,0:0:0:0:
448,192,418416,1,0,0:0:0:0:
192,192,418491,1,0,0:0:0:0:
320,192,418566,1,0,0:0:0:0:
448,192,418566,1,0,0:0:0:0:
64,192,418641,1,0,0:0:0:0:
192,192,418716,1,0,0:0:0:0:
320,192,418716,1,0,0:0:0:0:
448,192,418716,1,0,0:0:0:0:
64,192,418791,1,0,0:0:0:0:
192,192,418866,1,0,0:0:0:0:
320,192,418866,1,0,0:0:0:0:
448,192,418941,1,0,0:0:0:0:
192,192,419016,1,0,0:0:0:0:
320,192,419016,1,0,0:0:0:0:
64,192,419016,1,0,0:0:0:0:
448,192,419091,1,0,0:0:0:0:
320,192,419166,1,0,0:0:0:0:
64,192,419166,1,0,0:0:0:0:
192,192,419241,1,0,0:0:0:0:
448,192,419316,1,0,0:0:0:0:
64,192,419316,1,0,0:0:0:0:
320,192,419316,1,0,0:0:0:0:
192,192,419391,1,0,0:0:0:0:
448,192,419466,1,0,0:0:0:0:
320,192,419466,1,0,0:0:0:0:
192,192,419541,1,0,0:0:0:0:
64,192,419616,1,0,0:0:0:0:
448,192,419616,1,0,0:0:0:0:
320,192,419616,1,0,0:0:0:0:
192,192,419691,1,0,0:0:0:0:
320,192,419766,1,0,0:0:0:0:
448,192,419766,1,0,0:0:0:0:
192,192,419841,1,0,0:0:0:0:
64,192,419841,1,0,0:0:0:0:
320,192,419916,1,0,0:0:0:0:
448,192,419916,1,0,0:0:0:0:
192,192,419991,1,0,0:0:0:0:
64,192,419991,1,0,0:0:0:0:
320,192,420066,1,0,0:0:0:0:
448,192,420141,1,0,0:0:0:0:
64,192,420216,1,0,0:0:0:0:
192,192,420291,1,0,0:0:0:0:
320,192,420366,1,0,0:0:0:0:
448,192,420366,1,0,0:0:0:0:
192,192,420441,1,0,0:0:0:0:
64,192,420441,1,0,0:0:0:0:
320,192,420516,1,0,0:0:0:0:
448,192,420516,1,0,0:0:0:0:
192,192,420591,1,0,0:0:0:0:
64,192,420591,1,0,0:0:0:0:
448,192,420666,1,0,0:0:0:0:
320,192,420741,1,0,0:0:0:0:
64,192,420816,1,0,0:0:0:0:
192,192,420891,1,0,0:0:0:0:
448,192,420966,1,0,0:0:0:0:
64,192,420966,1,0,0:0:0:0:
320,192,421041,5,0,0:0:0:0:
192,192,421041,1,0,0:0:0:0:
448,192,421116,1,0,0:0:0:0:
64,192,421116,1,0,0:0:0:0:
192,192,421191,1,0,0:0:0:0:
320,192,421266,1,0,0:0:0:0:
448,192,421266,1,0,0:0:0:0:
192,192,421341,1,0,0:0:0:0:
64,192,421416,1,0,0:0:0:0:
320,192,421491,1,0,0:0:0:0:
64,192,421566,1,0,0:0:0:0:
448,192,421566,1,0,0:0:0:0:
320,192,421641,1,0,0:0:0:0:
64,192,421716,1,0,0:0:0:0:
192,192,421791,1,0,0:0:0:0:
320,192,421866,1,0,0:0:0:0:
64,192,421866,1,0,0:0:0:0:
448,192,421941,1,0,0:0:0:0:
64,192,422016,1,0,0:0:0:0:
192,192,422091,1,0,0:0:0:0:
448,192,422166,5,0,0:0:0:0:
320,192,422166,1,0,0:0:0:0:
64,192,422166,1,0,0:0:0:0:
64,192,422316,1,0,0:0:0:0:
192,192,422316,1,0,0:0:0:0:
448,192,422316,1,0,0:0:0:0:
192,192,422466,1,0,0:0:0:0:
320,192,422466,1,0,0:0:0:0:
448,192,422466,1,0,0:0:0:0:
320,192,422616,1,0,0:0:0:0:
192,192,422616,1,0,0:0:0:0:
64,192,422616,1,0,0:0:0:0:
64,192,422766,1,0,0:0:0:0:
448,192,422766,1,0,0:0:0:0:
448,192,422916,1,0,0:0:0:0:
320,192,422916,1,0,0:0:0:0:
192,192,422916,1,0,0:0:0:0:
64,192,423066,1,0,0:0:0:0:
192,192,423066,1,0,0:0:0:0:
64,192,423216,1,0,0:0:0:0:
320,192,423216,1,0,0:0:0:0:
448,192,423216,1,0,0:0:0:0:
192,192,423366,1,0,0:0:0:0:
448,192,423366,1,0,0:0:0:0:
320,192,423516,1,0,0:0:0:0:
192,192,423516,1,0,0:0:0:0:
64,192,423516,1,0,0:0:0:0:
448,192,423666,1,0,0:0:0:0:
64,192,423666,1,0,0:0:0:0:
320,192,423816,1,0,0:0:0:0:
192,192,423816,1,0,0:0:0:0:
448,192,423816,1,0,0:0:0:0:
192,192,423966,1,0,0:0:0:0:
64,192,423966,1,0,0:0:0:0:
320,192,423966,1,0,0:0:0:0:
448,192,424116,1,0,0:0:0:0:
64,192,424116,1,0,0:0:0:0:
320,192,424116,1,0,0:0:0:0:
192,192,424266,1,0,0:0:0:0:
64,192,424266,1,0,0:0:0:0:
448,192,424266,1,0,0:0:0:0:
320,192,424416,1,0,0:0:0:0:
192,192,424416,1,0,0:0:0:0:
64,192,424566,1,0,0:0:0:0:
320,192,424566,1,0,0:0:0:0:
448,192,424566,1,0,0:0:0:0:
192,192,424716,1,0,0:0:0:0:
64,192,424716,1,0,0:0:0:0:
448,192,424716,1,0,0:0:0:0:
192,192,424866,1,0,0:0:0:0:
320,192,424866,1,0,0:0:0:0:
448,192,424866,1,0,0:0:0:0:
192,192,425016,1,0,0:0:0:0:
64,192,425016,1,0,0:0:0:0:
320,192,425016,1,0,0:0:0:0:
448,192,425166,1,0,0:0:0:0:
64,192,425166,1,0,0:0:0:0:
192,192,425316,1,0,0:0:0:0:
320,192,425316,1,0,0:0:0:0:
448,192,425316,1,0,0:0:0:0:
64,192,425466,1,0,0:0:0:0:
192,192,425466,1,0,0:0:0:0:
320,192,425616,1,0,0:0:0:0:
64,192,425616,1,0,0:0:0:0:
448,192,425616,1,0,0:0:0:0:
192,192,425766,1,0,0:0:0:0:
448,192,425766,1,0,0:0:0:0:
320,192,425916,1,0,0:0:0:0:
192,192,425916,1,0,0:0:0:0:
64,192,425916,1,0,0:0:0:0:
448,192,426066,1,0,0:0:0:0:
320,192,426066,1,0,0:0:0:0:
192,192,426216,1,0,0:0:0:0:
64,192,426216,1,0,0:0:0:0:
448,192,426216,1,0,0:0:0:0:
64,192,426366,1,0,0:0:0:0:
320,192,426366,1,0,0:0:0:0:
192,192,426366,1,0,0:0:0:0:
320,192,426516,1,0,0:0:0:0:
448,192,426516,1,0,0:0:0:0:
192,192,426516,1,0,0:0:0:0:
64,192,426666,1,0,0:0:0:0:
448,192,426666,1,0,0:0:0:0:
320,192,426666,1,0,0:0:0:0:
448,192,426816,1,0,0:0:0:0:
64,192,426816,1,0,0:0:0:0:
192,192,426816,1,0,0:0:0:0:
448,192,426966,1,0,0:0:0:0:
320,192,426966,1,0,0:0:0:0:
192,192,427003,1,0,0:0:0:0:
64,192,427041,1,0,0:0:0:0:
448,192,427116,1,0,0:0:0:0:
320,192,427116,1,0,0:0:0:0:
192,192,427153,1,0,0:0:0:0:
64,192,427191,1,0,0:0:0:0:
320,192,427266,1,0,0:0:0:0:
448,192,427266,1,0,0:0:0:0:
192,192,427303,1,0,0:0:0:0:
64,192,427341,1,0,0:0:0:0:
448,192,427416,1,0,0:0:0:0:
320,192,427416,1,0,0:0:0:0:
192,192,427453,1,0,0:0:0:0:
64,192,427491,1,0,0:0:0:0:
64,192,427716,1,0,0:0:0:0:
192,192,427716,1,0,0:0:0:0:
320,192,427753,1,0,0:0:0:0:
448,192,427791,1,0,0:0:0:0:
64,192,428016,1,0,0:0:0:0:
192,192,428016,1,0,0:0:0:0:
320,192,428053,1,0,0:0:0:0:
448,192,428091,1,0,0:0:0:0:
64,192,428316,1,0,0:0:0:0:
192,192,428316,1,0,0:0:0:0:
320,192,428353,1,0,0:0:0:0:
448,192,428391,1,0,0:0:0:0:
192,192,428616,1,0,0:0:0:0:
64,192,428616,1,0,0:0:0:0:
320,192,428653,1,0,0:0:0:0:
448,192,428691,1,0,0:0:0:0:
64,192,428766,1,0,0:0:0:0:
192,192,428766,1,0,0:0:0:0:
320,192,428803,1,0,0:0:0:0:
448,192,428841,1,0,0:0:0:0:
64,192,428916,1,0,0:0:0:0:
192,192,428916,1,0,0:0:0:0:
320,192,428953,1,0,0:0:0:0:
448,192,428991,1,0,0:0:0:0:
64,192,429066,1,0,0:0:0:0:
192,192,429066,1,0,0:0:0:0:
320,192,429103,1,0,0:0:0:0:
448,192,429141,1,0,0:0:0:0:
64,192,429366,1,0,0:0:0:0:
448,192,429416,1,0,0:0:0:0:
192,192,429466,1,0,0:0:0:0:
320,192,429516,1,0,0:0:0:0:
64,192,429566,1,0,0:0:0:0:
448,192,429616,1,0,0:0:0:0:
64,192,429666,1,0,0:0:0:0:
320,192,429716,1,0,0:0:0:0:
192,192,429766,1,0,0:0:0:0:
448,192,429816,1,0,0:0:0:0:
64,192,429866,1,0,0:0:0:0:
448,192,429916,1,0,0:0:0:0:
192,192,429966,1,0,0:0:0:0:
320,192,430016,1,0,0:0:0:0:
64,192,430066,1,0,0:0:0:0:
448,192,430116,1,0,0:0:0:0:
64,192,430166,1,0,0:0:0:0:
320,192,430216,1,0,0:0:0:0:
192,192,430266,1,0,0:0:0:0:
448,192,430316,1,0,0:0:0:0:
64,192,430366,1,0,0:0:0:0:
448,192,430416,1,0,0:0:0:0:
192,192,430466,1,0,0:0:0:0:
320,192,430516,1,0,0:0:0:0:
64,192,430566,1,0,0:0:0:0:
448,192,430616,1,0,0:0:0:0:
64,192,430666,1,0,0:0:0:0:
320,192,430716,1,0,0:0:0:0:
192,192,430766,1,0,0:0:0:0:
448,192,430816,1,0,0:0:0:0:
64,192,430866,1,0,0:0:0:0:
448,192,430916,1,0,0:0:0:0:
192,192,430966,1,0,0:0:0:0:
320,192,431016,1,0,0:0:0:0:
64,192,431066,1,0,0:0:0:0:
448,192,431116,1,0,0:0:0:0:
64,192,431166,1,0,0:0:0:0:
320,192,431216,1,0,0:0:0:0:
192,192,431266,1,0,0:0:0:0:
448,192,431316,1,0,0:0:0:0:
64,192,431366,1,0,0:0:0:0:
448,192,431416,1,0,0:0:0:0:
192,192,431466,1,0,0:0:0:0:
320,192,431516,1,0,0:0:0:0:
64,192,431566,1,0,0:0:0:0:
448,192,431616,1,0,0:0:0:0:
64,192,431666,1,0,0:0:0:0:
320,192,431716,1,0,0:0:0:0:
192,192,431766,1,0,0:0:0:0:
448,192,431816,1,0,0:0:0:0:
64,192,431866,1,0,0:0:0:0:
448,192,431916,1,0,0:0:0:0:
192,192,431966,1,0,0:0:0:0:
320,192,432016,1,0,0:0:0:0:
64,192,432066,1,0,0:0:0:0:
448,192,432116,1,0,0:0:0:0:
64,192,432166,1,0,0:0:0:0:
320,192,432216,1,0,0:0:0:0:
192,192,432266,1,0,0:0:0:0:
448,192,432316,1,0,0:0:0:0:
64,192,432366,1,0,0:0:0:0:
448,192,432416,1,0,0:0:0:0:
192,192,432466,1,0,0:0:0:0:
320,192,432516,1,0,0:0:0:0:
64,192,432566,1,0,0:0:0:0:
448,192,432616,1,0,0:0:0:0:
64,192,432666,1,0,0:0:0:0:
320,192,432716,1,0,0:0:0:0:
192,192,432766,1,0,0:0:0:0:
448,192,432816,1,0,0:0:0:0:
64,192,432866,1,0,0:0:0:0:
448,192,432916,1,0,0:0:0:0:
192,192,432966,1,0,0:0:0:0:
320,192,433016,1,0,0:0:0:0:
64,192,433066,1,0,0:0:0:0:
448,192,433116,1,0,0:0:0:0:
64,192,433166,1,0,0:0:0:0:
320,192,433216,1,0,0:0:0:0:
192,192,433266,1,0,0:0:0:0:
448,192,433316,1,0,0:0:0:0:
64,192,433366,1,0,0:0:0:0:
448,192,433416,1,0,0:0:0:0:
192,192,433466,1,0,0:0:0:0:
320,192,433516,1,0,0:0:0:0:
64,192,433566,1,0,0:0:0:0:
448,192,433616,1,0,0:0:0:0:
64,192,433666,1,0,0:0:0:0:
320,192,433716,1,0,0:0:0:0:
192,192,433766,1,0,0:0:0:0:
448,192,433816,1,0,0:0:0:0:
64,192,433866,1,0,0:0:0:0:
448,192,433916,1,0,0:0:0:0:
192,192,433966,1,0,0:0:0:0:
320,192,434016,1,0,0:0:0:0:
64,192,434066,1,0,0:0:0:0:
448,192,434116,1,0,0:0:0:0:
64,192,434166,1,0,0:0:0:0:
320,192,434216,1,0,0:0:0:0:
192,192,434266,1,0,0:0:0:0:
448,192,434316,1,0,0:0:0:0:
64,192,434366,1,0,0:0:0:0:
448,192,434416,1,0,0:0:0:0:
192,192,434466,1,0,0:0:0:0:
320,192,434516,1,0,0:0:0:0:
64,192,434566,1,0,0:0:0:0:
448,192,434616,1,0,0:0:0:0:
64,192,434666,1,0,0:0:0:0:
320,192,434716,1,0,0:0:0:0:
192,192,434766,1,0,0:0:0:0:
448,192,434816,1,0,0:0:0:0:
64,192,434866,1,0,0:0:0:0:
448,192,434916,1,0,0:0:0:0:
192,192,434966,1,0,0:0:0:0:
320,192,435016,1,0,0:0:0:0:
64,192,435066,1,0,0:0:0:0:
448,192,435116,1,0,0:0:0:0:
64,192,435166,1,0,0:0:0:0:
320,192,435216,1,0,0:0:0:0:
192,192,435266,1,0,0:0:0:0:
448,192,435316,1,0,0:0:0:0:
64,192,435366,1,0,0:0:0:0:
448,192,435416,1,0,0:0:0:0:
192,192,435466,1,0,0:0:0:0:
320,192,435516,1,0,0:0:0:0:
64,192,435566,1,0,0:0:0:0:
448,192,435616,1,0,0:0:0:0:
64,192,435666,1,0,0:0:0:0:
320,192,435716,1,0,0:0:0:0:
192,192,435766,1,0,0:0:0:0:
448,192,435816,1,0,0:0:0:0:
64,192,435866,1,0,0:0:0:0:
448,192,435916,1,0,0:0:0:0:
192,192,435966,1,0,0:0:0:0:
320,192,436016,1,0,0:0:0:0:
64,192,436066,1,0,0:0:0:0:
448,192,436116,1,0,0:0:0:0:
64,192,436166,1,0,0:0:0:0:
320,192,436216,1,0,0:0:0:0:
192,192,436266,1,0,0:0:0:0:
448,192,436316,1,0,0:0:0:0:
64,192,436366,1,0,0:0:0:0:
448,192,436416,1,0,0:0:0:0:
64,192,436466,1,0,0:0:0:0:
320,192,436516,1,0,0:0:0:0:
192,192,436566,1,0,0:0:0:0:
64,192,436566,1,0,0:0:0:0:
448,192,436566,1,0,0:0:0:0:
448,192,436716,1,0,0:0:0:0:
320,192,436716,1,0,0:0:0:0:
64,192,436716,1,0,0:0:0:0:
192,192,436866,1,0,0:0:0:0:
320,192,436866,1,0,0:0:0:0:
448,192,436866,1,0,0:0:0:0:
64,192,437016,1,0,0:0:0:0:
320,192,437016,1,0,0:0:0:0:
448,192,437016,1,0,0:0:0:0:
64,192,437166,1,0,0:0:0:0:
192,192,437166,1,0,0:0:0:0:
448,192,437166,1,0,0:0:0:0:
192,192,437316,1,0,0:0:0:0:
64,192,437316,1,0,0:0:0:0:
320,192,437316,1,0,0:0:0:0:
448,192,437466,1,0,0:0:0:0:
192,192,437466,1,0,0:0:0:0:
64,192,437466,1,0,0:0:0:0:
320,192,437616,1,0,0:0:0:0:
448,192,437616,1,0,0:0:0:0:
64,192,437616,1,0,0:0:0:0:
192,192,437766,1,0,0:0:0:0:
448,192,437766,128,0,438891:0:0:0:0:
320,192,437766,1,0,0:0:0:0:
320,192,438066,128,0,438366:0:0:0:0:
64,192,438366,128,0,438891:0:0:0:0:
192,192,438366,128,0,438891:0:0:0:0:
320,192,438966,1,0,0:0:0:0:
448,192,438966,1,0,0:0:0:0:
192,192,439041,1,0,0:0:0:0:
64,192,439041,1,0,0:0:0:0:
320,192,439116,1,0,0:0:0:0:
448,192,439116,1,0,0:0:0:0:
192,192,439191,1,0,0:0:0:0:
64,192,439191,1,0,0:0:0:0:
448,192,439266,1,0,0:0:0:0:
320,192,439266,1,0,0:0:0:0:
64,192,439341,1,0,0:0:0:0:
320,192,439416,1,0,0:0:0:0:
192,192,439491,1,0,0:0:0:0:
448,192,439566,1,0,0:0:0:0:
320,192,439566,1,0,0:0:0:0:
64,192,439566,1,0,0:0:0:0:
64,192,439791,1,0,0:0:0:0:
192,192,439791,1,0,0:0:0:0:
448,192,439791,1,0,0:0:0:0:
320,192,439941,1,0,0:0:0:0:
448,192,439941,1,0,0:0:0:0:
64,192,439941,1,0,0:0:0:0:
192,192,440166,1,0,0:0:0:0:
320,192,440166,1,0,0:0:0:0:
448,192,440166,1,0,0:0:0:0:
64,192,440166,1,0,0:0:0:0:
