osu file format v14

[General]
AudioFilename: audio.mp3
AudioLeadIn: 0
PreviewTime: 98306
Countdown: 1
SampleSet: Normal
StackLeniency: 0.7
Mode: 0
LetterboxInBreaks: 0
WidescreenStoryboard: 0

[Editor]
Bookmarks: 63986,98546
DistanceSpacing: 1
BeatDivisor: 3
GridSize: 4
TimelineZoom: 2.699999

[Metadata]
Title:Three Hammers
TitleUnicode:Three Hammers
Artist:Dragonforce
ArtistUnicode:Dragonforce
Creator:srijanfromsd
Version:Whole Song
Source:
Tags:
BeatmapID:1549383
BeatmapSetID:734313

[Difficulty]
HPDrainRate:7
CircleSize:4.5
OverallDifficulty:8
ApproachRate:9.6
SliderMultiplier:2.5
SliderTickRate:1

[Events]
//Background and Video events
//Break Periods
2,33280,47876
2,133146,180169
//Storyboard Layer 0 (Background)
//Storyboard Layer 1 (Fail)
//Storyboard Layer 2 (Pass)
//Storyboard Layer 3 (Foreground)
//Storyboard Sound Samples

[TimingPoints]
441,480,4,1,0,100,1,0
29241,-125,4,1,0,100,0,0
31161,-108.695652173913,4,1,0,100,0,0
33081,487.80487804878,4,1,0,100,1,0
40885,483.870967741935,4,1,0,100,1,0
48626,480,4,1,0,100,1,0
48626,-200,4,1,0,100,0,0
60146,-133.333333333333,4,1,0,100,0,0
62066,-117.647058823529,4,1,0,100,0,0
63986,-100,4,1,0,100,0,0
98546,-83.3333333333333,4,1,0,100,0,1
113906,-100,4,1,0,100,0,0
179186,266.666666666667,4,1,0,100,1,0
183186,-200,4,1,0,100,0,0
185386,-133.333333333333,4,1,0,100,0,0
185852,-100,4,1,0,100,0,0
187586,-100,4,1,0,100,0,1
213319,-100,4,1,0,100,0,0
247452,-200,4,1,0,100,0,0
264519,480,4,1,0,100,1,0
264519,-333.333333333333,4,1,0,100,0,0
269799,480,4,1,0,100,1,0

[HitObjects]
107,116,441,6,0,P|103:172|147:296,1,166.666666666667
235,280,921,1,0,0:0:0:0:
271,200,1081,1,0,0:0:0:0:
184,209,1241,1,0,0:0:0:0:
331,270,1401,2,0,P|363:200|215:112,1,250
284,196,2361,6,0,P|166:153|344:56,1,416.666666666667
129,254,3321,2,0,P|113:98|268:116,1,333.333333333333
227,274,4121,1,0,0:0:0:0:
129,254,4281,6,0,P|154:338|230:383,1,166.666666666667
288,320,4761,1,0,0:0:0:0:
352,256,4921,1,0,0:0:0:0:
375,343,5081,1,0,0:0:0:0:
265,233,5241,1,0,0:0:0:0:
415,192,5721,1,0,0:0:0:0:
351,255,6201,6,0,P|427:103|456:271,1,416.666666666667
228,300,7161,2,0,L|236:192,1,83.3333333333334
345,166,7481,2,0,L|351:255,1,83.3333333333334
234,210,7801,2,0,L|242:102,1,83.3333333333334
316,33,8121,6,0,B|337:82|337:82|388:80|424:118|425:155,1,166.666666666667
398,234,8601,1,0,0:0:0:0:
344,164,8761,1,0,0:0:0:0:
432,152,8921,1,0,0:0:0:0:
311,246,9081,2,0,P|214:253|124:272,1,166.666666666667
160,180,9561,2,0,P|254:171|338:155,1,166.666666666667
215,276,10041,6,0,P|64:172|234:102,1,416.666666666667
433,152,11001,2,0,L|144:186,1,250
64,208,11641,1,0,0:0:0:0:
100,320,11801,1,0,0:0:0:0:
56,180,11961,6,0,P|56:108|148:28,1,166.666666666667
244,40,12441,1,0,0:0:0:0:
292,116,12601,1,0,0:0:0:0:
202,119,12761,1,0,0:0:0:0:
336,40,12921,2,0,B|392:124|392:124|344:288,1,250
176,40,13881,6,0,B|120:124|120:124|168:288,1,250
332,232,14841,6,0,L|320:116,1,83.3333333333334
212,112,15161,2,0,L|202:201,1,83.3333333333334
322,142,15481,2,0,L|310:26,1,83.3333333333334
104,212,15801,6,0,L|320:228,1,166.666666666667
384,232,16281,1,0,0:0:0:0:
336,328,16441,1,0,0:0:0:0:
228,336,16601,1,0,0:0:0:0:
152,248,16761,1,0,0:0:0:0:
140,228,17081,1,0,0:0:0:0:
124,200,17401,1,0,0:0:0:0:
104,172,17721,6,0,P|96:104|176:40,1,166.666666666667
264,72,18201,1,0,0:0:0:0:
384,144,18361,1,0,0:0:0:0:
236,160,18521,1,0,0:0:0:0:
352,64,18681,2,0,P|416:68|468:164,1,166.666666666667
420,264,19161,1,0,0:0:0:0:
344,184,19321,1,0,0:0:0:0:
248,256,19481,1,0,0:0:0:0:
156,176,19641,6,0,P|160:116|272:64,1,166.666666666667
240,152,20121,1,0,0:0:0:0:
196,248,20281,1,0,0:0:0:0:
88,240,20441,1,0,0:0:0:0:
56,136,20601,1,0,0:0:0:0:
76,148,20921,1,0,0:0:0:0:
96,160,21241,1,0,0:0:0:0:
184,188,21561,6,0,L|140:384,1,166.666666666667
248,320,22041,1,0,0:0:0:0:
364,300,22201,1,0,0:0:0:0:
316,376,22361,1,0,0:0:0:0:
296,240,22521,2,0,L|476:216,1,166.666666666667
408,144,23001,1,0,0:0:0:0:
300,160,23161,1,0,0:0:0:0:
192,172,23321,1,0,0:0:0:0:
88,184,23481,6,0,P|92:240|216:300,1,166.666666666667
284,296,23960,1,0,0:0:0:0:
264,192,24121,1,0,0:0:0:0:
328,96,24281,1,0,0:0:0:0:
436,72,24441,1,0,0:0:0:0:
404,64,24761,1,0,0:0:0:0:
372,56,25081,1,0,0:0:0:0:
192,52,25401,6,0,B|160:132|220:152|196:236,1,166.666666666667
120,240,25881,1,0,0:0:0:0:
64,148,26041,1,0,0:0:0:0:
13,243,26201,1,0,0:0:0:0:
171,145,26361,2,0,P|212:128|371:115,1,166.666666666667
448,148,26841,1,0,0:0:0:0:
499,243,27001,1,0,0:0:0:0:
392,240,27161,1,0,0:0:0:0:
280,232,27321,6,0,B|212:240|188:286|112:296,1,166.666666666667
48,232,27801,1,0,0:0:0:0:
156,204,27961,1,0,0:0:0:0:
76,128,28122,1,0,0:0:0:0:
192,116,28282,1,0,0:0:0:0:
192,116,28601,1,0,0:0:0:0:
192,116,28921,1,0,0:0:0:0:
192,116,29241,6,0,B|264:140|356:96|356:96|132:296|132:296|272:240|400:280|400:280,1,733.333333333333
332,332,31161,6,0,B|172:108|288:8|288:8|412:156|208:304|208:304|204:256|176:216|176:216|284:244,1,919.999969116212
380,205,48626,6,0,B|112:217|112:217|204:132,1,375
391,125,50546,2,0,B|475:141|487:237|423:281|423:281|334:341|334:341|356:256,1,375
121,125,52466,2,0,B|37:141|25:237|89:281|89:281|178:341|178:341|156:256,1,375
160,104,54386,6,0,P|192:144|224:316,1,208.333333333333
256,320,55346,2,0,P|267:242|304:204,1,125
412,184,56306,5,0,0:0:0:0:
412,184,56786,1,0,0:0:0:0:
352,232,56946,1,0,0:0:0:0:
280,208,57106,1,0,0:0:0:0:
272,132,57266,5,0,0:0:0:0:
272,132,57746,1,0,0:0:0:0:
220,80,57906,1,0,0:0:0:0:
148,96,58066,1,0,0:0:0:0:
128,168,58226,6,0,L|128:248,1,41.6666666666667
199,222,58546,2,0,L|213:301,1,41.6666666666667
278,263,58866,2,0,L|305:338,1,41.6666666666667
372,276,59186,5,0,0:0:0:0:
372,276,59666,1,0,0:0:0:0:
376,200,59826,1,0,0:0:0:0:
332,140,59986,1,0,0:0:0:0:
264,120,60146,6,0,L|232:200,1,62.5000023841859
260,268,60466,1,0,0:0:0:0:
344,288,60625,1,0,0:0:0:0:
416,240,60785,1,0,0:0:0:0:
420,152,60946,1,0,0:0:0:0:
336,196,61106,6,0,L|264:180,1,62.5000023841859
192,160,61425,1,0,0:0:0:0:
112,196,61585,1,0,0:0:0:0:
192,236,61746,1,0,0:0:0:0:
112,276,61906,1,0,0:0:0:0:
196,312,62066,6,0,L|268:336,1,70.833334684372
356,260,62385,1,0,0:0:0:0:
272,180,62545,1,0,0:0:0:0:
384,152,62705,1,0,0:0:0:0:
356,260,62866,1,0,0:0:0:0:
272,180,63026,5,0,0:0:0:0:
72,40,63506,1,0,0:0:0:0:
56,168,63666,1,0,0:0:0:0:
40,296,63826,1,0,0:0:0:0:
168,76,63986,6,0,L|140:284,1,166.666666666667
232,328,64466,1,0,0:0:0:0:
376,196,64626,1,0,0:0:0:0:
248,208,64786,1,0,0:0:0:0:
376,296,64946,2,0,P|448:260|456:140,1,166.666666666667
336,40,65426,1,0,0:0:0:0:
152,160,65586,1,0,0:0:0:0:
376,196,65746,1,0,0:0:0:0:
184,44,65906,6,0,P|104:52|32:136,1,166.666666666667
60,276,66386,1,0,0:0:0:0:
224,160,66546,1,0,0:0:0:0:
100,168,66706,1,0,0:0:0:0:
180,256,66866,2,0,P|196:320|84:360,1,166.666666666667
40,184,67346,1,0,0:0:0:0:
120,72,67506,1,0,0:0:0:0:
88,276,67666,1,0,0:0:0:0:
204,180,67826,6,0,L|368:68,1,166.666666666667
400,236,68306,1,0,0:0:0:0:
180,112,68466,1,0,0:0:0:0:
232,268,68626,1,0,0:0:0:0:
72,152,68786,6,0,P|72:88|172:16,1,166.666666666667
248,124,69266,1,0,0:0:0:0:
88,264,69426,1,0,0:0:0:0:
320,256,69586,1,0,0:0:0:0:
224,56,69746,5,0,0:0:0:0:
164,184,69906,1,0,0:0:0:0:
244,308,70066,1,0,0:0:0:0:
256,40,70226,5,0,0:0:0:0:
214,194,70386,1,0,0:0:0:0:
327,316,70546,1,0,0:0:0:0:
364,20,70706,5,0,0:0:0:0:
372,228,70866,1,0,0:0:0:0:
372,228,70946,1,0,0:0:0:0:
372,228,71026,1,0,0:0:0:0:
409,119,71186,5,0,0:0:0:0:
282,162,71346,1,0,0:0:0:0:
241,289,71506,1,0,0:0:0:0:
400,224,71666,6,0,P|456:209|507:87,1,166.666666666667
228,82,72146,1,0,0:0:0:0:
202,223,72306,1,0,0:0:0:0:
299,148,72466,1,0,0:0:0:0:
72,165,72626,2,0,P|32:262|60:336,1,166.666666666667
149,284,73106,1,0,0:0:0:0:
247,211,73266,1,0,0:0:0:0:
345,285,73426,1,0,0:0:0:0:
234,184,73586,6,0,P|243:86|291:21,1,166.666666666667
366,120,74066,1,0,0:0:0:0:
259,229,74226,1,0,0:0:0:0:
435,258,74386,1,0,0:0:0:0:
346,203,74546,6,0,P|255:145|166:190,1,166.666666666667
68,289,75026,1,0,0:0:0:0:
277,298,75186,1,0,0:0:0:0:
92,176,75346,1,0,0:0:0:0:
295,191,75506,6,0,P|343:225|381:332,1,166.666666666667
201,322,75986,1,0,0:0:0:0:
294,190,76146,1,0,0:0:0:0:
301,292,76306,1,0,0:0:0:0:
138,195,76466,6,0,P|108:134|147:32,1,166.666666666667
258,123,76946,1,0,0:0:0:0:
137,195,77106,1,0,0:0:0:0:
199,28,77266,1,0,0:0:0:0:
377,133,77426,5,0,0:0:0:0:
195,286,77586,1,0,0:0:0:0:
195,286,77666,1,0,0:0:0:0:
195,286,77746,1,0,0:0:0:0:
187,169,77906,5,0,0:0:0:0:
268,97,78066,1,0,0:0:0:0:
376,88,78226,1,0,0:0:0:0:
149,160,78386,5,0,0:0:0:0:
254,62,78546,1,0,0:0:0:0:
395,53,78706,1,0,0:0:0:0:
114,154,78866,5,0,0:0:0:0:
241,24,79026,1,0,0:0:0:0:
416,17,79186,1,0,0:0:0:0:
164,220,79346,6,0,P|224:316|176:132,1,833.333333333333
368,328,81266,5,0,0:0:0:0:
248,96,81426,1,0,0:0:0:0:
248,96,81586,1,0,0:0:0:0:
120,316,81746,5,0,0:0:0:0:
360,160,81906,1,0,0:0:0:0:
360,160,82066,1,0,0:0:0:0:
96,100,82226,5,0,0:0:0:0:
288,360,82386,1,0,0:0:0:0:
288,360,82546,1,0,0:0:0:0:
312,40,82706,5,0,0:0:0:0:
56,248,82866,1,0,0:0:0:0:
56,248,83026,1,0,0:0:0:0:
313,307,83186,5,0,0:0:0:0:
371,135,83346,1,0,0:0:0:0:
199,77,83506,1,0,0:0:0:0:
141,249,83666,1,0,0:0:0:0:
141,249,84146,5,0,0:0:0:0:
361,184,84306,1,0,0:0:0:0:
146,75,84466,1,0,0:0:0:0:
294,331,84626,1,0,0:0:0:0:
294,331,85106,5,0,0:0:0:0:
294,29,85266,1,0,0:0:0:0:
95,249,85426,1,0,0:0:0:0:
417,181,85586,1,0,0:0:0:0:
134,51,85746,1,0,0:0:0:0:
219,357,85906,1,0,0:0:0:0:
240,177,86066,6,0,L|263:4,1,166.666666666667
335,183,86546,2,0,P|292:258|189:265,1,166.666666666667
123,268,87026,6,0,P|166:193|269:186,1,166.666666666667
396,192,87506,1,0,0:0:0:0:
280,272,87666,1,0,0:0:0:0:
308,84,87826,1,0,0:0:0:0:
496,152,87986,6,0,P|492:248|424:312,1,166.666666666667
352,140,88466,1,0,0:0:0:0:
248,288,88626,1,0,0:0:0:0:
368,256,88786,1,0,0:0:0:0:
232,168,88946,6,0,P|120:188|60:264,1,166.666666666667
200,296,89426,1,0,0:0:0:0:
180,88,89586,1,0,0:0:0:0:
44,200,89746,1,0,0:0:0:0:
196,68,89906,6,0,P|264:36|364:72,1,166.666666666667
384,184,90386,1,0,0:0:0:0:
200,196,90546,1,0,0:0:0:0:
292,116,90706,1,0,0:0:0:0:
295,265,90866,6,0,P|234:344|135:347,1,166.666666666667
62,201,91346,1,0,0:0:0:0:
177,246,91506,1,0,0:0:0:0:
32,304,91666,1,0,0:0:0:0:
152,135,91826,6,0,P|243:121|347:149,1,166.666666666667
450,240,92306,5,0,0:0:0:0:
429,208,92386,1,0,0:0:0:0:
419,171,92466,1,0,0:0:0:0:
420,133,92546,1,0,0:0:0:0:
431,97,92626,1,0,0:0:0:0:
455,68,92706,1,0,0:0:0:0:
491,57,92786,6,0,P|450:112|336:120,1,166.666666666667
200,73,93266,1,0,0:0:0:0:
376,46,93426,1,0,0:0:0:0:
242,223,93586,1,0,0:0:0:0:
43,96,93746,6,0,P|113:28|231:39,1,166.666666666667
126,230,94226,1,0,0:0:0:0:
249,88,94386,1,0,0:0:0:0:
29,177,94546,1,0,0:0:0:0:
120,302,94706,6,0,P|226:319|321:309,1,166.666666666667
286,92,95186,2,0,P|195:158|141:235,1,166.666666666667
401,184,95666,2,0,P|389:72|349:-13,1,166.666666666667
263,237,96146,2,0,P|365:282|459:291,1,166.666666666667
447,290,96546,1,0,0:0:0:0:
478,282,96626,5,0,0:0:0:0:
310,42,96786,1,0,0:0:0:0:
171,308,96946,1,0,0:0:0:0:
474,182,97106,5,0,0:0:0:0:
129,32,97266,1,0,0:0:0:0:
254,355,97426,1,0,0:0:0:0:
271,99,97586,5,0,0:0:0:0:
271,99,98546,6,0,L|251:326,1,199.999993896485
413,145,99026,1,0,0:0:0:0:
201,82,99186,1,0,0:0:0:0:
253,298,99346,1,0,0:0:0:0:
309,113,99506,6,0,P|282:36|200:89,1,199.999993896485
186,253,99986,1,0,0:0:0:0:
65,110,100146,1,0,0:0:0:0:
242,173,100306,1,0,0:0:0:0:
56,268,100466,6,0,L|74:162,1,99.9999969482423
185,127,100786,2,0,L|195:226,1,99.9999969482423
72,169,101106,2,0,L|90:63,1,99.9999969482423
283,38,101426,6,0,L|330:286,1,199.999993896485
336,358,101906,1,0,0:0:0:0:
168,216,102066,1,0,0:0:0:0:
420,229,102226,1,0,0:0:0:0:
203,324,102386,6,0,L|75:361,1,99.9999969482423
168,216,102706,2,0,L|264:243,1,99.9999969482423
96,245,103026,2,0,P|89:196|114:154,1,99.9999969482423
339,174,103346,6,0,P|367:249|286:346,1,199.999993896485
144,227,103826,1,0,0:0:0:0:
174,40,103986,1,0,0:0:0:0:
276,176,104146,1,0,0:0:0:0:
102,137,104306,6,0,L|78:22,1,99.9999969482423
183,209,104626,2,0,L|203:306,1,99.9999969482423
27,203,104946,2,0,L|101:136,1,99.9999969482423
307,97,105266,5,0,0:0:0:0:
162,330,105426,1,0,0:0:0:0:
162,330,105586,1,0,0:0:0:0:
139,59,105746,5,0,0:0:0:0:
388,176,105906,1,0,0:0:0:0:
388,176,106066,1,0,0:0:0:0:
213,280,106226,6,0,L|4:315,1,199.999993896485
72,115,106706,1,0,0:0:0:0:
226,208,106866,1,0,0:0:0:0:
25,224,107026,1,0,0:0:0:0:
199,113,107186,6,0,P|318:104|423:143,1,199.999993896485
348,312,107666,1,0,0:0:0:0:
199,113,107826,1,0,0:0:0:0:
432,220,107986,1,0,0:0:0:0:
209,308,108146,6,0,L|109:314,1,99.9999969482423
241,218,108466,2,0,L|296:301,1,99.9999969482423
148,236,108786,2,0,L|192:146,1,99.9999969482423
386,44,109106,6,0,L|395:262,1,199.999993896485
232,264,109586,1,0,0:0:0:0:
153,80,109746,1,0,0:0:0:0:
346,141,109906,1,0,0:0:0:0:
79,276,110066,6,0,L|48:142,1,99.9999969482423
153,80,110386,2,0,L|284:120,1,99.9999969482423
285,242,110706,2,0,L|184:335,1,99.9999969482423
163,217,111026,6,0,P|209:114|320:82,1,199.999993896485
461,227,111506,1,0,0:0:0:0:
207,342,111666,1,0,0:0:0:0:
292,119,111826,1,0,0:0:0:0:
351,207,111986,6,0,L|360:354,1,99.9999969482423
199,146,112306,2,0,L|191:293,1,99.9999969482423
370,78,112626,1,0,0:0:0:0:
171,33,112786,1,0,0:0:0:0:
219,254,112946,6,0,L|361:245,1,99.9999969482423
346,244,113186,1,0,0:0:0:0:
346,244,113266,1,0,0:0:0:0:
265,20,113426,1,0,0:0:0:0:
68,216,113586,1,0,0:0:0:0:
341,145,113746,1,0,0:0:0:0:
97,92,113906,5,0,0:0:0:0:
150,239,114066,2,0,L|134:304,2,41.6666666666667
263,162,114386,1,0,0:0:0:0:
377,222,114546,1,0,0:0:0:0:
268,290,114706,1,0,3:0:0:0:
263,162,114866,5,0,0:0:0:0:
381,97,115026,2,0,L|434:68,2,41.6666666666667
263,162,115346,1,0,0:0:0:0:
261,28,115506,1,0,0:0:0:0:
152,96,115666,1,0,0:0:0:0:
263,162,115826,5,0,0:0:0:0:
152,96,115986,1,0,0:0:0:0:
151,226,116146,1,0,0:0:0:0:
263,162,116306,5,0,0:0:0:0:
114,132,116466,1,0,0:0:0:0:
164,276,116626,1,0,0:0:0:0:
263,162,116786,5,0,0:0:0:0:
98,186,116946,1,0,0:0:0:0:
203,316,117106,1,0,0:0:0:0:
263,162,117266,5,0,0:0:0:0:
391,54,117426,1,0,0:0:0:0:
418,219,117586,1,0,0:0:0:0:
292,324,117746,5,0,0:0:0:0:
228,124,117906,1,0,0:0:0:0:
228,124,117986,1,0,0:0:0:0:
228,124,118066,1,0,0:0:0:0:
156,288,118226,1,0,0:0:0:0:
144,188,118386,1,0,0:0:0:0:
228,124,118546,1,0,0:0:0:0:
236,228,118706,5,0,0:0:0:0:
104,60,118866,1,0,0:0:0:0:
104,60,118946,1,0,0:0:0:0:
104,60,119026,1,0,0:0:0:0:
72,168,119186,1,0,0:0:0:0:
196,136,119346,1,0,0:0:0:0:
312,188,119506,1,0,0:0:0:0:
176,288,119666,5,0,0:0:0:0:
212,92,119826,1,0,0:0:0:0:
320,264,119986,1,0,0:0:0:0:
124,120,120146,5,0,0:0:0:0:
368,80,120306,1,0,0:0:0:0:
240,220,120466,1,0,0:0:0:0:
304,120,120626,6,0,P|348:184|356:288,1,166.666666666667
55,197,121106,6,0,P|66:279|112:348,1,166.666666666667
256,280,121586,6,0,P|244:216|168:156,1,166.666666666667
16,160,122066,1,0,0:0:0:0:
148,272,122226,1,0,0:0:0:0:
152,72,122386,1,0,0:0:0:0:
60,268,122546,6,0,P|96:340|176:360,1,166.666666666667
216,256,123026,1,0,0:0:0:0:
272,140,123186,1,0,0:0:0:0:
400,120,123346,1,0,0:0:0:0:
359,279,123506,6,0,P|320:233|264:117,1,166.666666666667
280,32,123986,1,0,0:0:0:0:
344,144,124146,1,0,0:0:0:0:
215,143,124306,1,0,0:0:0:0:
409,33,124466,6,0,L|464:196,1,166.666666666667
436,312,124946,1,0,0:0:0:0:
296,236,125106,1,0,0:0:0:0:
328,84,125266,1,0,0:0:0:0:
380,212,125426,6,0,P|340:304|240:308,1,166.666666666667
156,252,125906,1,0,0:0:0:0:
213,123,126066,1,0,0:0:0:0:
296,236,126226,1,0,0:0:0:0:
353,107,126386,6,0,P|300:20|176:12,1,166.666666666667
104,104,126866,1,0,0:0:0:0:
244,236,127026,1,0,0:0:0:0:
236,124,127186,1,0,0:0:0:0:
69,241,127346,5,0,0:0:0:0:
238,334,127506,2,0,L|361:340,1,83.3333333333333
376,338,127826,2,0,P|408:276|352:304,1,166.666666666667
423,88,128306,5,0,0:0:0:0:
279,102,128466,1,0,0:0:0:0:
406,196,128626,1,0,0:0:0:0:
251,193,128786,2,0,P|120:166|47:231,1,166.666666666667
165,262,129266,6,0,L|180:79,1,166.666666666667
288,44,129746,1,0,0:0:0:0:
380,168,129906,1,0,0:0:0:0:
272,152,130066,1,0,0:0:0:0:
396,60,130226,6,0,P|472:120|468:224,1,166.666666666667
412,280,130706,1,0,0:0:0:0:
336,244,130866,1,0,0:0:0:0:
404,196,131026,1,0,0:0:0:0:
344,324,131186,6,0,P|268:284|272:200,1,166.666666666667
272,88,131666,1,0,0:0:0:0:
352,20,131826,1,0,0:0:0:0:
352,152,131986,1,0,0:0:0:0:
184,160,132146,6,0,L|-4:196,1,166.666666666667
88,296,132626,1,0,0:0:0:0:
96,176,132786,1,0,0:0:0:0:
104,56,132946,1,0,0:0:0:0:
135,84,180919,5,0,0:0:0:0:
100,203,181052,1,0,0:0:0:0:
66,324,181186,1,0,0:0:0:0:
377,84,183186,5,0,0:0:0:0:
412,203,183319,1,0,0:0:0:0:
446,324,183452,2,0,P|184:119|490:175,1,875
464,192,185452,6,0,B|445:323|445:323|417:275,1,187.500007152558
83,66,186652,5,0,0:0:0:0:
88,90,186719,1,0,0:0:0:0:
93,114,186786,1,0,0:0:0:0:
98,138,186852,1,0,0:0:0:0:
121,128,186919,5,0,0:0:0:0:
126,152,186986,1,0,0:0:0:0:
131,176,187053,1,0,0:0:0:0:
136,200,187119,1,0,0:0:0:0:
139,224,187186,6,0,L|171:302,1,62.5
214,138,187319,2,0,L|217:217,1,62.5
303,97,187452,1,0,0:0:0:0:
368,180,187586,6,0,L|165:337,1,250
85,124,187986,6,0,P|107:194|165:248,1,125
220,55,188252,2,0,P|271:108|291:184,1,125
64,111,188519,6,0,P|74:184|122:247,1,125
223,27,188785,2,0,P|283:70|316:142,1,125
42,95,189052,6,0,P|39:169|75:239,1,125
266,209,189319,5,0,0:0:0:0:
111,135,189452,1,0,0:0:0:0:
159,302,189586,1,0,0:0:0:0:
261,88,189719,6,0,P|194:57|260:105,1,250
391,225,190119,6,0,P|375:290|341:353,1,125,0|0,0:0|0:0,3:0:0:0:
280,151,190386,2,0,P|222:186|174:239,1,125
381,122,190652,2,0,L|277:272,1,125
174,351,190919,5,0,0:0:0:0:
108,81,191052,1,0,0:0:0:0:
173,369,191186,1,0,0:0:0:0:
237,135,191319,1,0,0:0:0:0:
37,261,191452,5,0,0:0:0:0:
296,293,191586,1,0,0:0:0:0:
155,157,191719,1,0,0:0:0:0:
115,344,191852,6,0,P|204:362|377:371,1,250
303,113,192252,6,0,P|254:167|226:222,1,125
425,148,192519,2,0,P|424:220|406:280,1,125
307,84,192786,6,0,P|245:123|204:169,1,125
442,132,193052,2,0,P|459:202|458:264,1,125
313,58,193319,6,0,P|243:80|191:113,1,125
305,318,193586,5,0,0:0:0:0:
300,96,193719,1,0,0:0:0:0:
198,254,193852,1,0,0:0:0:0:
404,132,193986,6,0,P|384:40|236:8,1,250
96,132,194386,2,0,L|224:184,1,125
304,136,194652,2,0,L|188:88,1,125
116,228,194919,2,0,L|231:275,1,125
372,240,195186,5,0,0:0:0:0:
383,217,195252,1,0,0:0:0:0:
390,193,195319,1,0,0:0:0:0:
393,168,195386,1,0,0:0:0:0:
393,143,195452,1,0,0:0:0:0:
389,118,195519,1,0,0:0:0:0:
382,93,195586,1,0,0:0:0:0:
371,70,195652,1,0,0:0:0:0:
354,50,195719,5,0,0:0:0:0:
212,204,195852,1,0,0:0:0:0:
338,178,195986,1,0,0:0:0:0:
228,69,196119,6,0,P|101:118|68:220,1,250
204,328,196519,2,0,L|212:190,1,125
339,162,196786,2,0,L|331:286,1,125
177,103,197052,5,0,0:0:0:0:
177,103,197186,2,0,L|337:84,1,125
282,211,197452,2,0,L|157:225,1,125
301,88,197719,2,0,L|280:230,1,125
157,225,197986,2,0,L|175:101,1,125
302,89,198252,6,0,L|263:341,1,250
128,322,198652,2,0,P|71:268|47:197,1,125
154,91,198919,2,0,P|161:189|130:269,1,125
296,171,199186,5,0,0:0:0:0:
296,171,199319,2,0,P|320:255|379:288,1,125
404,80,199586,2,0,P|368:159|392:222,1,125,0|0,0:0|3:0,0:0:0:0:
324,57,199852,2,0,P|288:136|312:199,1,125
465,56,200119,2,0,P|386:94|364:158,1,125,0|0,0:0|3:0,0:0:0:0:
223,106,200386,6,0,L|207:366,1,250
97,270,200786,5,0,0:0:0:0:
204,21,200919,1,0,0:0:0:0:
66,232,201052,5,0,0:0:0:0:
296,89,201185,1,0,0:0:0:0:
62,183,201319,5,0,0:0:0:0:
332,197,201452,1,0,0:0:0:0:
86,140,201586,5,0,0:0:0:0:
299,306,201719,1,0,0:0:0:0:
130,118,201853,5,0,0:0:0:0:
209,376,201986,1,0,0:0:0:0:
183,118,202119,5,0,0:0:0:0:
71,316,202252,1,0,0:0:0:0:
299,306,202386,1,0,0:0:0:0:
297,107,202519,6,0,L|55:168,1,250
383,301,202919,5,0,0:0:0:0:
245,45,203052,1,0,0:0:0:0:
457,243,203186,5,0,0:0:0:0:
189,165,203319,1,0,0:0:0:0:
477,154,203452,5,0,0:0:0:0:
213,291,203586,1,0,0:0:0:0:
381,162,203719,5,0,0:0:0:0:
365,134,203786,1,0,0:0:0:0:
337,119,203852,1,0,0:0:0:0:
306,113,203919,1,0,0:0:0:0:
276,124,203986,1,0,0:0:0:0:
257,148,204052,1,0,0:0:0:0:
245,177,204119,1,0,0:0:0:0:
221,197,204186,1,0,0:0:0:0:
194,212,204252,2,0,P|146:224|79:148,1,125
148,29,204519,5,0,0:0:0:0:
148,29,204652,2,0,L|210:285,1,250
364,302,205052,2,0,L|332:170,1,125
204,142,205319,2,0,L|233:263,1,125
353,73,205586,1,0,0:0:0:0:
353,73,205719,2,0,L|224:52,1,125
203,199,205986,2,0,L|326:219,1,125
402,156,206252,2,0,L|273:135,1,125
252,282,206519,2,0,L|375:302,1,125
184,135,206786,6,0,P|111:221|143:355,1,250
272,195,207186,6,0,L|296:60,1,125
379,277,207452,2,0,L|439:138,1,125
244,330,207719,1,0,0:0:0:0:
245,324,207852,2,0,P|170:292|97:292,1,125
67,339,208119,5,0,0:0:0:0:
97,306,208186,1,0,0:0:0:0:
116,267,208252,1,0,0:0:0:0:
120,223,208319,1,0,0:0:0:0:
108,180,208386,1,0,0:0:0:0:
94,138,208452,1,0,0:0:0:0:
93,94,208519,1,0,0:0:0:0:
112,54,208586,1,0,0:0:0:0:
152,38,208652,1,0,0:0:0:0:
195,42,208719,1,0,0:0:0:0:
225,74,208786,2,0,L|214:158,3,62.5
188,93,209052,6,0,L|175:257,1,125
102,340,209319,5,0,0:0:0:0:
325,137,209452,1,0,0:0:0:0:
353,345,209586,5,0,0:0:0:0:
160,114,209719,1,0,0:0:0:0:
183,344,209852,5,0,0:0:0:0:
313,88,209986,1,0,0:0:0:0:
280,295,210119,5,0,0:0:0:0:
168,68,210252,1,0,0:0:0:0:
198,283,210386,5,0,0:0:0:0:
303,47,210519,1,0,0:0:0:0:
338,258,210652,5,0,0:0:0:0:
174,20,210786,1,0,0:0:0:0:
133,270,210919,5,0,0:0:0:0:
295,5,211052,1,0,0:0:0:0:
189,158,211186,5,0,0:0:0:0:
189,158,211252,1,0,0:0:0:0:
189,158,211319,2,0,L|117:151,1,62.5
135,290,211452,2,0,L|197:296,1,62.5
191,228,211586,5,0,0:0:0:0:
191,228,211652,1,0,0:0:0:0:
191,228,211719,2,0,L|119:221,1,62.5
137,360,211852,2,0,L|199:366,1,46.8750017881394
292,202,211986,5,0,0:0:0:0:
297,199,212052,1,0,0:0:0:0:
302,195,212119,1,0,0:0:0:0:
305,189,212186,1,0,0:0:0:0:
307,183,212252,1,0,0:0:0:0:
307,176,212319,1,0,0:0:0:0:
305,169,212386,1,0,0:0:0:0:
302,163,212452,1,0,0:0:0:0:
298,158,212519,1,0,0:0:0:0:
293,154,212586,1,0,0:0:0:0:
287,152,212652,1,0,0:0:0:0:
280,151,212719,1,0,0:0:0:0:
273,150,212786,1,0,0:0:0:0:
266,150,212852,1,0,0:0:0:0:
260,152,212919,1,0,0:0:0:0:
254,155,212986,1,0,0:0:0:0:
249,159,213052,1,0,0:0:0:0:
246,164,213119,1,0,0:0:0:0:
244,170,213186,1,0,0:0:0:0:
242,176,213252,1,0,0:0:0:0:
244,181,213319,5,0,0:0:0:0:
304,163,213386,1,0,0:0:0:0:
363,146,213452,1,0,0:0:0:0:
423,130,213519,1,0,0:0:0:0:
482,109,213586,2,0,L|479:188,6,62.5
380,237,214119,5,0,0:0:0:0:
320,255,214186,1,0,0:0:0:0:
261,272,214252,1,0,0:0:0:0:
201,288,214319,1,0,0:0:0:0:
142,309,214386,2,0,L|150:229,6,62.5
167,93,214919,1,0,0:0:0:0:
115,238,215052,6,0,P|55:167|101:18,1,250
300,61,215452,5,0,0:0:0:0:
286,125,215519,1,0,0:0:0:0:
273,189,215586,1,0,0:0:0:0:
260,252,215652,1,0,0:0:0:0:
248,316,215719,2,0,L|327:297,6,62.5
137,315,216252,5,0,0:0:0:0:
151,251,216319,1,0,0:0:0:0:
164,187,216386,1,0,0:0:0:0:
177,124,216452,1,0,0:0:0:0:
189,60,216519,2,0,L|110:79,6,62.5
310,49,217052,6,0,B|321:95|371:157|371:157|320:289,1,250
248,356,217452,1,0,0:0:0:0:
151,295,217586,5,0,0:0:0:0:
185,269,217652,1,0,0:0:0:0:
227,257,217719,1,0,0:0:0:0:
270,257,217786,1,0,0:0:0:0:
311,270,217852,1,0,0:0:0:0:
351,285,217919,1,0,0:0:0:0:
394,289,217986,1,0,0:0:0:0:
434,273,218052,1,0,0:0:0:0:
459,237,218119,5,0,0:0:0:0:
416,226,218186,1,0,0:0:0:0:
373,232,218252,1,0,0:0:0:0:
337,257,218319,1,0,0:0:0:0:
310,291,218386,1,0,0:0:0:0:
278,321,218452,1,0,0:0:0:0:
236,334,218519,1,0,0:0:0:0:
194,320,218586,1,0,0:0:0:0:
166,286,218652,5,0,0:0:0:0:
161,242,218719,1,0,0:0:0:0:
184,205,218786,1,0,0:0:0:0:
224,190,218852,1,0,0:0:0:0:
266,200,218919,1,0,0:0:0:0:
289,237,218986,1,0,0:0:0:0:
285,280,219052,1,0,0:0:0:0:
251,308,219119,1,0,0:0:0:0:
207,315,219186,5,0,0:0:0:0:
249,321,219252,1,0,0:0:0:0:
290,334,219319,1,0,0:0:0:0:
330,350,219386,1,0,0:0:0:0:
372,355,219452,1,0,0:0:0:0:
414,345,219519,1,0,0:0:0:0:
447,316,219586,1,0,0:0:0:0:
454,273,219652,1,0,0:0:0:0:
442,230,219719,5,0,0:0:0:0:
413,196,219786,1,0,0:0:0:0:
378,169,219852,1,0,0:0:0:0:
356,130,219919,1,0,0:0:0:0:
350,86,219986,2,0,P|357:35|372:17,1,62.5
311,205,220119,5,0,0:0:0:0:
270,221,220186,1,0,0:0:0:0:
227,227,220252,1,0,0:0:0:0:
183,219,220319,1,0,0:0:0:0:
144,197,220386,2,0,P|115:177|103:137,1,62.5
285,35,220519,5,0,0:0:0:0:
285,78,220586,1,0,0:0:0:0:
285,121,220652,1,0,0:0:0:0:
285,164,220719,1,0,0:0:0:0:
286,207,220786,6,0,L|380:177,1,62.5
424,162,220919,2,0,L|518:132,1,62.5
262,252,221052,6,0,L|323:243,1,62.5
438,226,221185,2,0,L|499:217,1,62.5
238,288,221319,6,0,L|309:290,1,62.5
441,293,221452,2,0,L|512:295,1,62.5
208,317,221586,6,0,L|283:333,1,62.5
422,359,221719,2,0,L|497:375,1,62.5
324,60,221852,6,0,L|256:108,1,62.5
136,172,221986,2,0,L|236:180,1,62.5
328,72,222119,6,0,L|260:120,1,62.5
140,184,222253,2,0,L|240:192,1,62.5
351,191,222386,6,0,L|279:235,1,62.5
156,293,222520,2,0,L|254:306,1,62.5
353,203,222653,6,0,L|281:247,1,62.5
160,304,222787,2,0,L|258:317,1,62.5
216,240,222919,5,0,0:0:0:0:
253,216,222986,1,0,0:0:0:0:
272,176,223053,1,0,0:0:0:0:
267,132,223119,1,0,0:0:0:0:
258,88,223186,1,0,0:0:0:0:
271,46,223253,1,0,0:0:0:0:
307,22,223319,1,0,0:0:0:0:
350,20,223386,1,0,0:0:0:0:
386,43,223452,2,0,L|406:139,3,62.5
330,95,223719,2,0,L|350:191,3,62.5
366,328,223986,5,0,0:0:0:0:
324,340,224052,1,0,0:0:0:0:
282,326,224119,1,0,0:0:0:0:
265,285,224186,1,0,0:0:0:0:
278,243,224252,1,0,0:0:0:0:
316,221,224319,1,0,0:0:0:0:
359,227,224386,1,0,0:0:0:0:
388,258,224452,1,0,0:0:0:0:
390,301,224519,5,0,0:0:0:0:
351,279,224586,1,0,0:0:0:0:
339,237,224652,1,0,0:0:0:0:
351,194,224719,1,0,0:0:0:0:
385,166,224786,1,0,0:0:0:0:
408,129,224852,1,0,0:0:0:0:
406,85,224919,1,0,0:0:0:0:
376,52,224986,1,0,0:0:0:0:
333,45,225052,6,0,L|316:132,1,62.5
300,217,225186,2,0,L|283:304,1,62.5
309,27,225319,6,0,L|292:114,1,62.5
276,199,225453,2,0,L|259:286,1,62.5
158,180,225586,5,0,0:0:0:0:
217,80,225719,1,0,0:0:0:0:
170,297,225852,2,0,P|226:349|312:355,1,125
396,275,226119,5,0,0:0:0:0:
407,289,226186,1,0,0:0:0:0:
418,303,226252,2,0,L|323:317,1,62.5
179,149,226386,5,0,0:0:0:0:
160,144,226452,1,0,0:0:0:0:
141,139,226519,2,0,L|158:224,1,62.5
179,301,226652,5,0,0:0:0:0:
184,318,226719,1,0,0:0:0:0:
190,335,226786,2,0,L|254:275,1,62.5
399,125,226919,5,0,0:0:0:0:
410,139,226986,1,0,0:0:0:0:
421,153,227052,2,0,L|326:167,1,62.5
225,215,227186,5,0,0:0:0:0:
186,234,227252,1,0,0:0:0:0:
183,277,227319,1,0,0:0:0:0:
219,301,227386,1,0,0:0:0:0:
262,297,227452,2,0,L|332:278,1,62.5
307,193,227586,2,0,L|397:205,1,62.5
422,66,227719,5,0,0:0:0:0:
408,24,227786,1,0,0:0:0:0:
367,8,227852,1,0,0:0:0:0:
327,27,227919,1,0,0:0:0:0:
317,69,227986,2,0,L|305:152,1,62.5
262,297,228119,2,0,L|270:235,1,62.5
181,72,228252,6,0,B|161:71|145:75|145:75|132:64|132:64|110:68,1,62.5
122,254,228386,2,0,B|141:254|157:250|157:250|171:262|171:262|196:249,1,62.5
188,98,228519,6,0,B|170:94|143:95|143:95|123:90,1,62.5
129,280,228652,2,0,B|138:282|151:279|151:279|166:286|166:286|195:281|183:285|181:284,1,62.5
195,124,228785,6,0,B|175:113|175:113|149:124|149:124|128:118|128:118,1,62.5
136,306,228919,2,0,B|169:309|169:309|182:306|182:306|202:309,1,62.5
202,150,229052,6,0,B|186:145|186:145|164:153|164:153|150:155|150:155|135:144|135:144,1,62.5
143,332,229185,2,0,B|158:336|158:336|180:328|180:328|195:327|195:327|217:334|217:334,1,62.5
312,182,229319,5,0,0:0:0:0:
323,177,229386,1,0,0:0:0:0:
335,176,229452,1,0,0:0:0:0:
346,180,229519,1,0,0:0:0:0:
354,188,229586,1,0,0:0:0:0:
361,204,229652,1,0,0:0:0:0:
352,227,229719,1,0,0:0:0:0:
325,243,229786,1,0,0:0:0:0:
288,237,229852,1,0,0:0:0:0:
249,215,229919,1,0,0:0:0:0:
206,205,229986,1,0,0:0:0:0:
163,211,230052,1,0,0:0:0:0:
134,244,230119,1,0,0:0:0:0:
136,287,230186,1,0,0:0:0:0:
168,316,230252,1,0,0:0:0:0:
211,317,230319,1,0,0:0:0:0:
252,302,230386,5,0,0:0:0:0:
403,280,230519,1,0,0:0:0:0:
238,123,230652,1,0,0:0:0:0:
297,250,230786,1,0,0:0:0:0:
310,40,230919,5,0,0:0:0:0:
128,137,231052,1,0,0:0:0:0:
315,179,231186,1,0,0:0:0:0:
209,62,231319,6,0,P|139:37|19:180,1,250
109,218,231719,1,0,0:0:0:0:
279,209,231852,1,0,0:0:0:0:
147,142,231986,1,0,0:0:0:0:
240,284,232119,1,0,0:0:0:0:
232,137,232253,1,0,0:0:0:0:
155,289,232386,1,0,0:0:0:0:
285,58,232519,5,0,0:0:0:0:
415,89,232652,1,0,0:0:0:0:
454,218,232786,1,0,0:0:0:0:
323,186,232919,1,0,0:0:0:0:
415,89,233052,5,0,0:0:0:0:
361,316,233186,1,0,0:0:0:0:
295,98,233319,1,0,0:0:0:0:
241,325,233453,1,0,0:0:0:0:
407,220,233586,5,0,0:0:0:0:
214,160,233719,1,0,0:0:0:0:
295,297,233852,1,0,0:0:0:0:
322,80,233986,1,0,0:0:0:0:
83,158,234119,5,0,0:0:0:0:
280,216,234252,1,0,0:0:0:0:
174,53,234386,1,0,0:0:0:0:
146,258,234519,1,0,0:0:0:0:
146,258,234586,1,0,0:0:0:0:
146,258,234652,5,0,0:0:0:0:
250,271,234786,1,0,0:0:0:0:
354,284,234919,1,0,0:0:0:0:
109,328,235052,2,0,L|362:359,1,250
444,184,235452,5,0,0:0:0:0:
354,284,235586,1,0,0:0:0:0:
402,92,235719,5,0,0:0:0:0:
330,168,235853,1,0,0:0:0:0:
258,244,235986,1,0,0:0:0:0:
346,19,236119,2,0,L|162:196,1,250
42,302,236519,5,0,0:0:0:0:
223,321,236652,1,0,0:0:0:0:
293,179,236786,5,0,0:0:0:0:
262,148,236852,1,0,0:0:0:0:
220,133,236919,1,0,0:0:0:0:
176,135,236986,1,0,0:0:0:0:
138,156,237052,1,0,0:0:0:0:
118,195,237119,1,0,0:0:0:0:
123,238,237186,1,0,0:0:0:0:
155,266,237252,1,0,0:0:0:0:
199,264,237319,5,0,0:0:0:0:
188,221,237386,1,0,0:0:0:0:
161,187,237452,1,0,0:0:0:0:
126,159,237519,1,0,0:0:0:0:
99,123,237586,1,0,0:0:0:0:
96,79,237652,1,0,0:0:0:0:
118,40,237719,1,0,0:0:0:0:
160,29,237786,1,0,0:0:0:0:
200,45,237852,5,0,0:0:0:0:
194,69,237919,1,0,0:0:0:0:
188,93,237986,1,0,0:0:0:0:
183,117,238052,1,0,0:0:0:0:
178,141,238119,1,0,0:0:0:0:
173,165,238186,1,0,0:0:0:0:
168,189,238252,1,0,0:0:0:0:
163,213,238319,1,0,0:0:0:0:
158,237,238386,2,0,L|145:310,6,62.5
265,321,238919,5,0,0:0:0:0:
265,321,239052,1,0,0:0:0:0:
284,80,239186,5,0,0:0:0:0:
405,297,239319,1,0,0:0:0:0:
203,151,239452,1,0,0:0:0:0:
389,290,239586,1,0,0:0:0:0:
157,255,239719,1,0,0:0:0:0:
374,284,239853,1,0,0:0:0:0:
250,277,239986,5,0,0:0:0:0:
358,80,240119,1,0,0:0:0:0:
195,153,240252,1,0,0:0:0:0:
415,191,240386,1,0,0:0:0:0:
234,298,240519,5,0,0:0:0:0:
371,66,240652,1,0,0:0:0:0:
170,144,240786,1,0,0:0:0:0:
433,215,240919,1,0,0:0:0:0:
172,236,241052,5,0,0:0:0:0:
276,49,241186,1,0,0:0:0:0:
353,243,241319,1,0,0:0:0:0:
155,69,241452,1,0,0:0:0:0:
401,120,241586,5,0,0:0:0:0:
236,274,241719,1,0,0:0:0:0:
265,84,241852,1,0,0:0:0:0:
374,266,241986,1,0,0:0:0:0:
219,331,242119,5,0,0:0:0:0:
124,269,242252,1,0,0:0:0:0:
85,127,242386,1,0,0:0:0:0:
186,12,242519,1,0,0:0:0:0:
239,205,242652,5,0,0:0:0:0:
334,238,242786,1,0,0:0:0:0:
446,150,242919,1,0,0:0:0:0:
383,6,243052,1,0,0:0:0:0:
171,122,243186,6,0,P|122:189|110:242,2,125
300,79,243586,2,0,P|319:156|253:341,1,250
61,310,243986,1,0,0:0:0:0:
176,161,244119,1,0,0:0:0:0:
343,264,244252,6,0,P|395:337|408:382,2,125
291,213,244652,2,0,P|280:299|337:191,1,375
191,131,245186,1,0,0:0:0:0:
191,131,245319,5,0,0:0:0:0:
145,172,245385,1,0,0:0:0:0:
140,233,245452,1,0,0:0:0:0:
178,281,245518,1,0,0:0:0:0:
238,290,245585,1,0,0:0:0:0:
289,256,245652,1,0,0:0:0:0:
303,197,245718,1,0,0:0:0:0:
304,134,245786,1,0,0:0:0:0:
325,77,245852,1,0,0:0:0:0:
383,59,245919,1,0,0:0:0:0:
433,93,245985,1,0,0:0:0:0:
437,153,246052,1,0,0:0:0:0:
421,214,246119,2,0,P|409:242|383:266,3,62.5
383,353,246386,5,0,0:0:0:0:
331,318,246452,1,0,0:0:0:0:
268,310,246519,1,0,0:0:0:0:
208,329,246586,1,0,0:0:0:0:
155,361,246652,1,0,0:0:0:0:
92,361,246719,1,0,0:0:0:0:
42,322,246786,1,0,0:0:0:0:
42,260,246852,1,0,0:0:0:0:
92,222,246919,1,0,0:0:0:0:
154,226,246986,1,0,0:0:0:0:
213,208,247052,1,0,0:0:0:0:
240,151,247119,1,0,0:0:0:0:
221,90,247186,2,0,L|145:57,3,62.5
69,41,247452,6,0,L|18:67,15,31.25
60,112,248519,5,0,0:0:0:0:
134,116,248652,1,0,0:0:0:0:
93,179,248786,1,0,0:0:0:0:
167,183,248919,1,0,0:0:0:0:
125,245,249052,1,0,0:0:0:0:
199,249,249185,1,0,0:0:0:0:
158,312,249319,1,0,0:0:0:0:
232,316,249452,1,0,0:0:0:0:
189,378,249586,6,0,L|132:375,15,31.25
257,346,250652,5,0,0:0:0:0:
211,285,250786,1,0,0:0:0:0:
284,269,250919,1,0,0:0:0:0:
238,208,251053,1,0,0:0:0:0:
310,191,251186,1,0,0:0:0:0:
264,130,251320,1,0,0:0:0:0:
336,114,251452,1,0,0:0:0:0:
290,53,251586,1,0,0:0:0:0:
364,43,251719,6,0,L|415:43,15,31.25
382,116,252786,5,0,0:0:0:0:
453,138,252919,1,0,0:0:0:0:
391,180,253052,1,0,0:0:0:0:
461,206,253186,1,0,0:0:0:0:
401,250,253319,1,0,0:0:0:0:
471,274,253452,1,0,0:0:0:0:
410,318,253586,1,0,0:0:0:0:
480,344,253719,1,0,0:0:0:0:
415,381,253852,6,0,L|372:358,14,31.25
298,251,254919,5,0,0:0:0:0:
274,234,254986,1,0,0:0:0:0:
246,229,255052,1,0,0:0:0:0:
219,239,255119,1,0,0:0:0:0:
203,262,255186,6,0,P|197:285|206:313,1,31.25
246,229,255319,5,0,0:0:0:0:
222,212,255386,1,0,0:0:0:0:
194,207,255452,1,0,0:0:0:0:
167,217,255519,1,0,0:0:0:0:
151,240,255586,6,0,P|145:263|154:291,1,31.25
194,193,255719,5,0,0:0:0:0:
170,176,255786,1,0,0:0:0:0:
142,171,255852,1,0,0:0:0:0:
115,181,255919,1,0,0:0:0:0:
99,204,255986,6,0,P|93:227|102:255,15,31.25
165,268,257052,5,0,0:0:0:0:
160,192,257186,1,0,0:0:0:0:
227,224,257319,1,0,0:0:0:0:
219,149,257452,1,0,0:0:0:0:
287,180,257586,1,0,0:0:0:0:
277,105,257719,1,0,0:0:0:0:
344,138,257852,1,0,0:0:0:0:
338,62,257986,1,0,0:0:0:0:
404,96,258119,6,0,L|445:124,1,31.25
420,77,258252,2,0,L|468:108,13,31.25
446,132,259186,5,0,0:0:0:0:
371,138,259319,1,0,0:0:0:0:
415,198,259452,1,0,0:0:0:0:
339,203,259586,1,0,0:0:0:0:
383,262,259719,1,0,0:0:0:0:
308,264,259852,1,0,0:0:0:0:
350,326,259986,1,0,0:0:0:0:
275,328,260119,1,0,0:0:0:0:
230,268,260252,6,0,L|258:220,1,31.25
207,235,260386,2,0,L|231:193,13,31.25
207,173,261319,5,0,0:0:0:0:
275,143,261452,1,0,0:0:0:0:
305,211,261586,1,0,0:0:0:0:
237,241,261719,1,0,0:0:0:0:
226,124,261852,5,0,3:0:0:0:
323,162,261985,1,0,3:0:0:0:
285,259,262119,1,0,3:0:0:0:
188,221,262252,1,0,3:0:0:0:
301,85,262386,6,0,P|395:124|407:158,1,125
211,299,262919,2,0,P|117:260|105:226,1,125,0|0,3:0|3:0,3:0:0:0:
98,72,263452,5,0,0:0:0:0:
430,117,263586,1,0,0:0:0:0:
88,351,263719,1,0,0:0:0:0:
249,75,263852,1,0,0:0:0:0:
364,364,263986,5,0,0:0:0:0:
48,137,264119,1,0,0:0:0:0:
360,96,264252,1,0,0:0:0:0:
181,318,264386,1,0,0:0:0:0:
256,191,264519,6,0,B|404:127|488:239|488:239|415:331|369:251|227:264|180:319|180:319|179:248|101:252|99:190,1,749.999977111817
177,89,269799,5,0,0:0:0:0:
94,284,269959,1,0,0:0:0:0:
135,291,270039,1,0,0:0:0:0:
176,298,270119,1,0,0:0:0:0:
308,262,270279,2,0,P|337:226|347:168,1,83.3333333333333
323,79,270599,1,0,0:0:0:0:
