osu file format v14

[General]
AudioFilename: audio.mp3
AudioLeadIn: 0
PreviewTime: 130615
Countdown: 0
SampleSet: Normal
StackLeniency: 0.7
Mode: 1
LetterboxInBreaks: 0
WidescreenStoryboard: 0

[Editor]
Bookmarks: 37082,46531,51340,56131,60931,65731,70531,75331,80131,84931,94540,101731,111331,116131,118531,125731,130531,156931,161740,176131,185731,192931,202531,207331,209731,216931,221731,248131,257731,269731,298531,324931,348931,358531,368131,382531,384931,390181
DistanceSpacing: 5.2
BeatDivisor: 4
GridSize: 16
TimelineZoom: 2.900001

[Metadata]
Title:The Flame of Youth
TitleUnicode:The Flame of Youth
Artist:DragonForce
ArtistUnicode:DragonForce
Creator:Garpo
Version:Tatsujin
Source:
Tags:english power metal marathon Herman Li ZP Theart Inhuman Rampage Stream
BeatmapID:2264245
BeatmapSetID:1075317

[Difficulty]
HPDrainRate:4.5
CircleSize:4
OverallDifficulty:7.2
ApproachRate:9
SliderMultiplier:1.4
SliderTickRate:1

[Events]
//Background and Video events
0,0,"bg.png",0,0
//Break Periods
2,385850,389600
//Storyboard Layer 0 (Background)
//Storyboard Layer 1 (Fail)
//Storyboard Layer 2 (Pass)
//Storyboard Layer 3 (Foreground)
//Storyboard Layer 4 (Overlay)
//Storyboard Sound Samples

[TimingPoints]
1548,300,3,1,0,80,1,0
46548,300,4,1,0,85,1,8
46550,300,4,1,0,85,1,0
75631,-117.647058823529,4,1,0,60,0,0
77431,-100,4,1,0,85,0,0
78031,-117.647058823529,4,1,0,60,0,0
80131,-100,4,1,0,85,0,0
100850,-99.1735537190083,3,1,0,85,0,0
100925,-98.3606557377049,3,1,0,85,0,0
101000,-97.5609756097561,3,1,0,85,0,0
101075,-96.7741935483871,3,1,0,85,0,0
101150,-96,3,1,0,85,0,0
101225,-95.2380952380952,3,1,0,85,0,0
101300,-94.488188976378,3,1,0,85,0,0
101375,-93.75,3,1,0,85,0,0
101450,-93.0232558139535,3,1,0,85,0,0
101525,-92.3076923076923,3,1,0,85,0,0
101600,-91.6030534351145,3,1,0,85,0,0
101750,-90.9090909090909,3,1,0,90,0,1
111350,-90.9090909090909,4,1,0,90,0,0
111781,-117.647058823529,4,1,0,40,0,0
112212,-105.263157894737,4,1,0,60,0,0
112531,-95.2380952380952,4,1,0,85,0,0
113131,-117.647058823529,4,1,0,40,0,0
113412,-105.263157894737,4,1,0,60,0,0
113731,-100,4,1,0,85,0,0
116581,-117.647058823529,4,1,0,40,0,0
117012,-105.263157894737,4,1,0,60,0,0
117331,-95.2380952380952,4,1,0,85,0,0
117931,-117.647058823529,4,1,0,40,0,0
118212,-105.263157894737,4,1,0,60,0,0
118531,-100,4,1,0,85,0,0
130550,-100,4,1,0,90,0,1
138950,-100,4,1,0,90,0,1
139025,-99.3820424599838,4,1,0,90,0,1
139100,-98.7717730027113,4,1,0,90,0,1
139175,-98.1688563230069,4,1,0,90,0,1
139250,-97.5733507664387,4,1,0,90,0,1
139325,-96.9849324208991,4,1,0,90,0,1
139400,-96.4035684744906,4,1,0,90,0,1
139475,-95.8292246553262,4,1,0,90,0,1
139550,-95.261593097726,4,1,0,90,0,1
139625,-94.7006465213138,4,1,0,90,0,1
139700,-94.1463561594312,4,1,0,90,0,1
139775,-93.5984290439669,4,1,0,90,0,1
139850,-93.0569294377221,4,1,0,90,0,1
139925,-92.5215737179517,4,1,0,90,0,1
140000,-91.9923425574055,4,1,0,90,0,1
140075,-91.4692151209589,4,1,0,90,0,1
140150,-90.9519209955233,4,1,0,90,0,1
143750,-90.9090909090909,4,1,0,90,0,1
143825,-91.1667613281538,4,1,0,90,0,1
143900,-91.4258965680547,4,1,0,90,0,1
143975,-91.6864250912738,4,1,0,90,0,1
144050,-91.9485272144654,4,1,0,90,0,1
144125,-92.2121321658048,4,1,0,90,0,1
144200,-92.477252907716,4,1,0,90,0,1
144275,-92.7439025521267,4,1,0,90,0,1
144350,-93.0120078502135,4,1,0,90,0,1
144425,-93.2817547417448,4,1,0,90,0,1
144500,-93.5530707859955,4,1,0,90,0,1
144575,-93.8259697148535,4,1,0,90,0,1
144650,-94.100465420902,4,1,0,90,0,1
144725,-94.3765719597767,4,1,0,90,0,1
144800,-94.6542139582783,4,1,0,90,0,1
144875,-94.9335844643088,4,1,0,90,0,1
144950,-95.2146089678832,4,1,0,90,0,1
156800,-95.2380952380952,4,1,0,90,0,0
156931,-100,4,1,0,85,0,0
176431,-111.111111111111,4,1,0,70,0,0
178231,-100,4,1,0,85,0,0
178831,-111.111111111111,4,1,0,70,0,0
179937,-109.89010989011,4,1,0,85,0,0
180012,-108.695652173913,4,1,0,85,0,0
180162,-107.52688172043,4,1,0,85,0,0
180237,-106.382978723404,4,1,0,85,0,0
180312,-105.263157894737,4,1,0,85,0,0
180462,-104.166666666667,4,1,0,85,0,0
180537,-103.092783505155,4,1,0,85,0,0
180612,-102.040816326531,4,1,0,85,0,0
180762,-101.010101010101,4,1,0,85,0,0
180912,-100,4,1,0,85,0,0
192050,-99.1735537190083,3,1,0,85,0,0
192125,-98.3606557377049,3,1,0,85,0,0
192200,-97.5609756097561,3,1,0,85,0,0
192275,-96.7741935483871,3,1,0,85,0,0
192350,-96,3,1,0,85,0,0
192425,-95.2380952380952,3,1,0,85,0,0
192500,-94.488188976378,3,1,0,85,0,0
192575,-93.75,3,1,0,85,0,0
192650,-93.0232558139535,3,1,0,85,0,0
192725,-92.3076923076923,3,1,0,85,0,0
192800,-91.6030534351145,3,1,0,85,0,0
192950,-90.9090909090909,3,1,0,90,0,1
202550,-90.9090909090909,4,1,0,90,0,0
202981,-117.647058823529,4,1,0,40,0,0
203412,-105.263157894737,4,1,0,60,0,0
203731,-95.2380952380952,4,1,0,85,0,0
204331,-117.647058823529,4,1,0,40,0,0
204612,-105.263157894737,4,1,0,60,0,0
204931,-100,4,1,0,85,0,0
207631,-117.647058823529,4,1,0,60,0,0
208531,-100,4,1,0,85,0,0
208831,-117.647058823529,4,1,0,60,0,0
209112,-111.111111111111,4,1,0,70,0,0
209412,-105.263157894737,4,1,0,75,0,0
209731,-100,4,1,0,85,0,0
221750,-100,4,1,0,90,0,1
230150,-100,4,1,0,90,0,1
230225,-99.3820424599838,4,1,0,90,0,1
230300,-98.7717730027113,4,1,0,90,0,1
230375,-98.1688563230069,4,1,0,90,0,1
230450,-97.5733507664387,4,1,0,90,0,1
230525,-96.9849324208991,4,1,0,90,0,1
230600,-96.4035684744906,4,1,0,90,0,1
230675,-95.8292246553262,4,1,0,90,0,1
230750,-95.261593097726,4,1,0,90,0,1
230825,-94.7006465213138,4,1,0,90,0,1
230900,-94.1463561594312,4,1,0,90,0,1
230975,-93.5984290439669,4,1,0,90,0,1
231050,-93.0569294377221,4,1,0,90,0,1
231125,-92.5215737179517,4,1,0,90,0,1
231200,-91.9923425574055,4,1,0,90,0,1
231275,-91.4692151209589,4,1,0,90,0,1
231350,-90.9519209955233,4,1,0,90,0,1
234950,-90.9090909090909,4,1,0,90,0,1
235025,-91.1667613281538,4,1,0,90,0,1
235100,-91.4258965680547,4,1,0,90,0,1
235175,-91.6864250912738,4,1,0,90,0,1
235250,-91.9485272144654,4,1,0,90,0,1
235325,-92.2121321658048,4,1,0,90,0,1
235400,-92.477252907716,4,1,0,90,0,1
235475,-92.7439025521267,4,1,0,90,0,1
235550,-93.0120078502135,4,1,0,90,0,1
235625,-93.2817547417448,4,1,0,90,0,1
235700,-93.5530707859955,4,1,0,90,0,1
235775,-93.8259697148535,4,1,0,90,0,1
235850,-94.100465420902,4,1,0,90,0,1
235925,-94.3765719597767,4,1,0,90,0,1
236000,-94.6542139582783,4,1,0,90,0,1
236075,-94.9335844643088,4,1,0,90,0,1
236150,-95.2146089678832,4,1,0,90,0,1
248000,-95.2380952380952,4,1,0,90,0,0
248150,-95.2380952380952,4,1,0,85,0,0
248300,-99.9485265088479,4,1,0,80,0,0
248450,-105.149043511726,4,1,0,75,0,0
248600,-110.920574213629,4,1,0,70,0,0
248750,-117.362351565966,4,1,0,70,0,0
257731,-100,4,1,0,65,0,0
268531,-100,4,1,0,70,0,0
286531,-100,4,1,0,85,0,0
317881,-100,4,1,0,80,0,0
324931,-100,4,1,0,85,0,0
358550,-100,4,1,0,90,0,1
366950,-99.1253644314869,3,1,0,90,0,1
367025,-98.2658959537572,3,1,0,91,0,1
367100,-97.4212034383954,3,1,0,91,0,1
367175,-96.5909090909091,3,1,0,92,0,1
367250,-95.7746478873239,3,1,0,92,0,1
367325,-94.9720670391062,3,1,0,93,0,1
367400,-94.1828254847646,3,1,0,94,0,1
367475,-93.4065934065934,3,1,0,94,0,1
367550,-92.6430517711172,3,1,0,95,0,1
367625,-91.8918918918919,3,1,0,96,0,1
367700,-91.1528150134048,3,1,0,96,0,1
367775,-90.4255319148936,3,1,0,97,0,1
367850,-89.7097625329815,3,1,0,98,0,1
367925,-89.0052356020942,3,1,0,98,0,1
368000,-88.3116883116883,3,1,0,99,0,1
368075,-87.6288659793814,3,1,0,99,0,1
368150,-86.9565217391304,3,1,0,100,0,1
384950,-86.9565217391304,4,1,0,100,0,0
385025,-100,4,1,0,70,0,0
389750,300,4,1,0,70,1,8
390157,-100,4,1,0,70,0,0
390200,300,4,1,0,70,1,0
396200,300,4,1,0,70,1,8
396211,300,4,1,0,70,1,0
396361,-102.564102564103,4,1,0,66,0,0
396511,-105.263157894737,4,1,0,61,0,0
396661,-108.108108108108,4,1,0,57,0,0
396818,337.078651685393,4,1,0,52,1,8
396818,-102.040816326531,4,1,0,52,0,0
396986,370.37037037037,4,1,0,48,1,8
396986,-96.1538461538461,4,1,0,48,0,0
397171,-98.2318271119843,4,1,0,43,0,0
397356,400,4,1,0,39,1,8
397356,-94.3396226415094,4,1,0,39,0,0
397556,480,4,1,0,34,1,8
397556,-80.6451612903226,4,1,0,34,0,0
397796,631.578947368421,4,1,0,30,1,8
397796,-63.2911392405063,4,1,0,30,0,0

[HitObjects]
296,174,1548,5,4,0:0:0:0:
266,119,3198,1,0,0:0:0:0:
266,119,3348,1,12,0:0:0:0:
266,119,5148,1,4,0:0:0:0:
266,119,6798,1,0,0:0:0:0:
266,119,6948,1,12,0:0:0:0:
268,153,7998,1,0,0:0:0:0:
268,153,8448,1,0,0:0:0:0:
268,153,8748,1,12,0:0:0:0:
268,153,10398,1,0,0:0:0:0:
268,153,10548,1,12,0:0:0:0:
268,153,12348,1,4,0:0:0:0:
245,125,13998,1,0,0:0:0:0:
245,125,14148,1,12,0:0:0:0:
244,131,15048,1,0,0:0:0:0:
320,171,15123,1,0,0:0:0:0:
320,171,15198,1,0,0:0:0:0:
244,131,15273,1,0,0:0:0:0:
320,171,15348,1,8,0:0:0:0:
244,131,15423,1,0,0:0:0:0:
244,131,15498,1,8,0:0:0:0:
368,138,15573,1,8,0:0:0:0:
273,131,15648,1,0,0:0:0:0:
244,131,15723,1,0,0:0:0:0:
273,131,15798,1,0,0:0:0:0:
273,131,15873,1,0,0:0:0:0:
244,131,15948,1,8,0:0:0:0:
322,141,16023,1,0,0:0:0:0:
322,141,16098,1,0,0:0:0:0:
339,151,16248,1,0,0:0:0:0:
339,151,16398,1,8,0:0:0:0:
326,156,16548,1,0,0:0:0:0:
339,151,16697,1,0,0:0:0:0:
339,151,16847,1,8,0:0:0:0:
339,151,17148,1,0,0:0:0:0:
339,151,17448,1,8,0:0:0:0:
339,151,17748,1,0,0:0:0:0:
339,151,17823,1,0,0:0:0:0:
339,151,17898,1,0,0:0:0:0:
339,151,18048,1,8,0:0:0:0:
339,151,18198,1,8,0:0:0:0:
330,152,18348,1,0,0:0:0:0:
339,151,18498,1,0,0:0:0:0:
339,151,18648,1,8,0:0:0:0:
339,151,18948,1,0,0:0:0:0:
303,135,19248,1,8,0:0:0:0:
253,279,19398,1,0,0:0:0:0:
333,146,19548,1,8,0:0:0:0:
359,120,19623,1,0,0:0:0:0:
359,120,19698,1,0,0:0:0:0:
359,120,19848,1,0,0:0:0:0:
359,120,19998,1,8,0:0:0:0:
359,120,20148,1,0,0:0:0:0:
351,129,20298,1,0,0:0:0:0:
351,128,20448,1,8,0:0:0:0:
351,128,20748,1,0,0:0:0:0:
351,129,21048,1,8,0:0:0:0:
351,128,21348,1,0,0:0:0:0:
351,128,21423,1,0,0:0:0:0:
351,128,21498,1,0,0:0:0:0:
351,129,21648,1,0,0:0:0:0:
351,129,21798,1,8,0:0:0:0:
321,147,21948,1,0,0:0:0:0:
304,113,22098,1,0,0:0:0:0:
349,137,22248,1,8,0:0:0:0:
280,209,22398,1,8,0:0:0:0:
349,137,22548,1,0,0:0:0:0:
280,209,22698,1,8,0:0:0:0:
349,137,22848,1,8,0:0:0:0:
296,239,22998,1,0,0:0:0:0:
349,137,23148,1,8,0:0:0:0:
349,137,23223,1,0,0:0:0:0:
349,137,23298,1,0,0:0:0:0:
349,137,23448,1,8,0:0:0:0:
349,137,23598,1,8,0:0:0:0:
349,137,23748,1,0,0:0:0:0:
349,137,23898,1,0,0:0:0:0:
321,147,24048,1,12,0:0:0:0:
355,167,24348,1,0,0:0:0:0:
371,186,24648,1,12,0:0:0:0:
349,137,24948,1,0,0:0:0:0:
349,137,25023,1,0,0:0:0:0:
349,137,25098,1,0,0:0:0:0:
349,137,25248,1,8,0:0:0:0:
349,137,25398,1,8,0:0:0:0:
353,172,25548,1,0,0:0:0:0:
349,137,25698,1,0,0:0:0:0:
353,172,25848,1,12,0:0:0:0:
275,153,26148,1,0,0:0:0:0:
292,134,26448,1,12,0:0:0:0:
288,147,26748,1,8,0:0:0:0:
288,147,26823,1,0,0:0:0:0:
288,147,26898,1,0,0:0:0:0:
288,147,27048,1,8,0:0:0:0:
288,147,27198,1,8,0:0:0:0:
303,140,27348,1,0,0:0:0:0:
303,140,27498,1,0,0:0:0:0:
348,147,27648,1,12,0:0:0:0:
310,134,27949,1,0,0:0:0:0:
314,131,28249,1,12,0:0:0:0:
308,154,28549,1,8,0:0:0:0:
308,154,28624,1,0,0:0:0:0:
308,154,28699,1,0,0:0:0:0:
315,246,28848,1,0,0:0:0:0:
308,154,28998,1,8,0:0:0:0:
308,154,29149,1,8,0:0:0:0:
308,154,29299,1,0,0:0:0:0:
279,177,29448,1,8,0:0:0:0:
283,167,29599,1,0,0:0:0:0:
283,167,29674,1,0,0:0:0:0:
283,167,29749,1,8,0:0:0:0:
283,167,29899,1,0,0:0:0:0:
283,167,29974,1,0,0:0:0:0:
297,182,30049,1,8,0:0:0:0:
307,170,30348,1,12,0:0:0:0:
307,170,31248,1,8,0:0:0:0:
340,221,31848,1,0,0:0:0:0:
340,221,32148,1,12,0:0:0:0:
340,221,33048,1,8,0:0:0:0:
340,221,33648,1,12,0:0:0:0:
340,221,33948,1,12,0:0:0:0:
333,199,34848,1,8,0:0:0:0:
333,199,35448,1,0,0:0:0:0:
333,199,35748,1,0,0:0:0:0:
309,174,36648,1,12,0:0:0:0:
318,175,36948,1,8,0:0:0:0:
318,175,37023,1,8,0:0:0:0:
318,175,37098,1,8,0:0:0:0:
318,175,37173,1,8,0:0:0:0:
318,175,37248,1,8,0:0:0:0:
318,175,37323,1,8,0:0:0:0:
318,175,37398,1,8,0:0:0:0:
318,175,37473,1,8,0:0:0:0:
318,175,37548,1,4,0:0:0:0:
293,148,37698,1,8,0:0:0:0:
293,148,37774,1,8,0:0:0:0:
293,148,37849,1,0,0:0:0:0:
293,148,37998,1,12,0:0:0:0:
300,159,38149,1,0,0:0:0:0:
300,159,38223,1,0,0:0:0:0:
300,159,38298,1,0,0:0:0:0:
300,159,38373,1,0,0:0:0:0:
300,159,38448,1,8,0:0:0:0:
322,243,38523,1,0,0:0:0:0:
300,159,38598,1,0,0:0:0:0:
300,159,38673,1,0,0:0:0:0:
300,159,38748,1,12,0:0:0:0:
300,159,38898,1,0,0:0:0:0:
365,249,38973,1,0,0:0:0:0:
318,148,39048,1,8,0:0:0:0:
368,211,39123,1,8,0:0:0:0:
336,151,39199,1,0,0:0:0:0:
336,151,39274,1,0,0:0:0:0:
336,151,39349,1,12,0:0:0:0:
336,151,39499,1,0,0:0:0:0:
336,151,39574,1,8,0:0:0:0:
336,151,39649,1,0,0:0:0:0:
330,137,39724,1,0,0:0:0:0:
341,144,39798,1,12,0:0:0:0:
338,143,39949,1,0,0:0:0:0:
413,238,40023,1,0,0:0:0:0:
338,143,40098,1,0,0:0:0:0:
394,189,40173,1,0,0:0:0:0:
324,121,40248,1,12,0:0:0:0:
386,199,40398,1,0,0:0:0:0:
386,199,40473,1,0,0:0:0:0:
319,115,40549,1,8,0:0:0:0:
319,115,40624,1,8,0:0:0:0:
319,115,40699,1,8,0:0:0:0:
321,159,40774,1,8,0:0:0:0:
319,114,40849,1,0,0:0:0:0:
319,114,40924,1,0,0:0:0:0:
319,114,40999,1,0,0:0:0:0:
319,115,41074,1,0,0:0:0:0:
319,115,41148,1,12,0:0:0:0:
338,142,41299,1,0,0:0:0:0:
292,209,41373,1,0,0:0:0:0:
340,206,41448,1,8,0:0:0:0:
347,211,41523,1,8,0:0:0:0:
338,142,41598,1,8,0:0:0:0:
333,210,41673,1,8,0:0:0:0:
292,195,41748,1,0,0:0:0:0:
292,195,41823,1,0,0:0:0:0:
292,195,41898,1,8,0:0:0:0:
331,210,41973,1,8,0:0:0:0:
292,195,42048,1,0,0:0:0:0:
292,195,42123,1,0,0:0:0:0:
394,200,42198,1,8,0:0:0:0:
328,213,42273,1,0,0:0:0:0:
311,137,42348,1,8,0:0:0:0:
370,242,42423,1,8,0:0:0:0:
370,199,42498,1,0,0:0:0:0:
304,169,42573,1,0,0:0:0:0:
323,149,42648,1,8,0:0:0:0:
331,210,42723,1,8,0:0:0:0:
279,112,42798,1,0,0:0:0:0:
301,204,42873,1,0,0:0:0:0:
311,137,42948,1,8,0:0:0:0:
311,137,43098,1,0,0:0:0:0:
321,140,43173,1,0,0:0:0:0:
321,140,43248,1,8,0:0:0:0:
321,139,43323,1,0,0:0:0:0:
321,139,43398,1,8,0:0:0:0:
321,138,43473,1,8,0:0:0:0:
321,138,43548,1,0,0:0:0:0:
321,138,43623,1,0,0:0:0:0:
321,138,43698,1,8,0:0:0:0:
321,138,43773,1,0,0:0:0:0:
321,138,43848,1,8,0:0:0:0:
321,140,43923,1,8,0:0:0:0:
321,140,43998,1,0,0:0:0:0:
321,139,44073,1,0,0:0:0:0:
321,139,44148,1,8,0:0:0:0:
321,138,44223,1,0,0:0:0:0:
321,138,44298,1,0,0:0:0:0:
321,138,44373,1,0,0:0:0:0:
321,138,44448,1,8,0:0:0:0:
321,138,44523,1,8,0:0:0:0:
321,138,44598,1,0,0:0:0:0:
321,140,44673,1,0,0:0:0:0:
321,140,44748,1,12,0:0:0:0:
256,192,44898,12,0,46248,0:0:0:0:
219,214,46550,5,0,0:0:0:0:
219,214,46625,1,0,0:0:0:0:
219,214,46700,1,0,0:0:0:0:
219,214,46775,1,0,0:0:0:0:
219,214,46850,1,8,0:0:0:0:
219,214,46925,1,0,0:0:0:0:
219,214,47000,1,8,0:0:0:0:
219,214,47075,1,0,0:0:0:0:
219,214,47150,1,8,0:0:0:0:
219,214,47225,1,8,0:0:0:0:
219,214,47300,1,0,0:0:0:0:
219,214,47375,1,0,0:0:0:0:
219,214,47450,1,8,0:0:0:0:
219,214,47525,1,0,0:0:0:0:
219,214,47600,1,8,0:0:0:0:
219,214,47675,1,8,0:0:0:0:
219,214,47750,1,0,0:0:0:0:
219,214,47825,1,0,0:0:0:0:
219,214,47900,1,8,0:0:0:0:
219,214,47975,1,0,0:0:0:0:
219,214,48050,1,8,0:0:0:0:
219,214,48125,1,0,0:0:0:0:
219,214,48200,1,8,0:0:0:0:
219,214,48275,1,0,0:0:0:0:
219,214,48350,1,8,0:0:0:0:
219,214,48425,1,0,0:0:0:0:
219,214,48500,1,0,0:0:0:0:
219,214,48650,1,8,0:0:0:0:
219,214,48725,1,0,0:0:0:0:
219,214,48800,1,8,0:0:0:0:
219,214,48950,1,0,0:0:0:0:
219,214,49025,1,0,0:0:0:0:
219,214,49100,1,0,0:0:0:0:
219,214,49175,1,0,0:0:0:0:
219,214,49250,1,8,0:0:0:0:
219,214,49325,1,0,0:0:0:0:
219,214,49400,1,8,0:0:0:0:
219,214,49475,1,0,0:0:0:0:
219,214,49550,1,8,0:0:0:0:
219,214,49625,1,8,0:0:0:0:
366,223,49700,1,8,0:0:0:0:
361,229,49775,1,8,0:0:0:0:
361,229,49850,1,0,0:0:0:0:
219,214,49925,1,0,0:0:0:0:
346,183,50000,1,8,0:0:0:0:
229,217,50075,1,0,0:0:0:0:
355,213,50150,1,8,0:0:0:0:
312,233,50225,1,8,0:0:0:0:
175,233,50300,1,0,0:0:0:0:
354,194,50375,1,0,0:0:0:0:
354,194,50450,1,8,0:0:0:0:
354,194,50525,1,8,0:0:0:0:
354,194,50600,1,0,0:0:0:0:
354,194,50675,1,8,0:0:0:0:
389,188,50750,1,0,0:0:0:0:
389,188,50825,1,0,0:0:0:0:
389,188,50900,1,8,0:0:0:0:
389,188,50975,1,8,0:0:0:0:
389,188,51050,1,0,0:0:0:0:
389,188,51125,1,8,0:0:0:0:
389,188,51200,1,0,0:0:0:0:
356,172,51275,1,0,0:0:0:0:
375,175,51350,1,12,0:0:0:0:
357,208,51500,1,8,0:0:0:0:
357,199,51650,1,0,0:0:0:0:
357,199,51725,1,0,0:0:0:0:
345,204,51800,1,8,0:0:0:0:
358,199,51875,1,0,0:0:0:0:
365,224,51950,1,8,0:0:0:0:
344,193,52100,1,0,0:0:0:0:
365,224,52250,1,0,0:0:0:0:
350,194,52325,1,8,0:0:0:0:
365,224,52400,1,8,0:0:0:0:
373,234,52550,1,0,0:0:0:0:
341,210,52700,1,8,0:0:0:0:
396,239,52775,1,8,0:0:0:0:
369,225,52850,1,0,0:0:0:0:
368,213,52925,1,0,0:0:0:0:
367,210,53000,1,8,0:0:0:0:
365,209,53075,1,0,0:0:0:0:
364,208,53150,1,8,0:0:0:0:
364,208,53225,1,8,0:0:0:0:
364,208,53300,1,0,0:0:0:0:
362,208,53375,1,0,0:0:0:0:
358,207,53450,1,8,0:0:0:0:
353,204,53600,1,8,0:0:0:0:
407,273,53750,1,8,0:0:0:0:
395,251,53825,1,0,0:0:0:0:
391,271,53900,1,0,0:0:0:0:
395,251,53975,1,8,0:0:0:0:
395,251,54050,1,8,0:0:0:0:
391,271,54125,1,0,0:0:0:0:
391,271,54200,1,0,0:0:0:0:
391,271,54275,1,8,0:0:0:0:
391,271,54350,1,8,0:0:0:0:
391,271,54500,1,0,0:0:0:0:
391,271,54650,1,0,0:0:0:0:
391,271,54725,1,0,0:0:0:0:
391,271,54800,1,8,0:0:0:0:
391,271,54950,1,8,0:0:0:0:
391,271,55025,1,8,0:0:0:0:
391,271,55100,1,0,0:0:0:0:
391,271,55175,1,0,0:0:0:0:
391,271,55250,1,8,0:0:0:0:
391,271,55325,1,0,0:0:0:0:
391,271,55400,1,8,0:0:0:0:
391,271,55475,1,8,0:0:0:0:
391,271,55550,1,8,0:0:0:0:
391,271,55625,1,8,0:0:0:0:
391,271,55700,1,0,0:0:0:0:
391,271,55775,1,0,0:0:0:0:
391,271,55850,1,8,0:0:0:0:
345,216,55925,1,0,0:0:0:0:
391,271,56000,1,0,0:0:0:0:
391,271,56075,1,0,0:0:0:0:
297,163,56150,1,12,0:0:0:0:
158,329,56300,1,0,0:0:0:0:
297,162,56450,1,8,0:0:0:0:
229,246,56525,1,8,0:0:0:0:
297,161,56600,1,0,0:0:0:0:
230,246,56675,1,0,0:0:0:0:
297,161,56750,1,8,0:0:0:0:
257,218,56825,1,0,0:0:0:0:
297,161,56900,1,8,0:0:0:0:
230,246,56975,1,8,0:0:0:0:
297,161,57050,1,0,0:0:0:0:
308,172,57125,1,0,0:0:0:0:
282,182,57200,1,8,0:0:0:0:
308,172,57275,1,0,0:0:0:0:
308,172,57350,1,8,0:0:0:0:
297,161,57500,1,8,0:0:0:0:
284,170,57575,1,0,0:0:0:0:
297,161,57650,1,8,0:0:0:0:
230,246,57725,1,0,0:0:0:0:
297,161,57800,1,8,0:0:0:0:
230,246,57875,1,0,0:0:0:0:
283,183,57950,1,8,0:0:0:0:
283,183,58025,1,8,0:0:0:0:
283,183,58100,1,0,0:0:0:0:
283,183,58175,1,0,0:0:0:0:
283,183,58250,1,8,0:0:0:0:
340,203,58325,1,0,0:0:0:0:
283,183,58400,1,0,0:0:0:0:
340,203,58475,1,0,0:0:0:0:
283,183,58550,1,12,0:0:0:0:
283,183,58700,1,0,0:0:0:0:
32,177,58850,1,8,0:0:0:0:
68,180,58925,1,0,0:0:0:0:
73,178,59000,1,8,0:0:0:0:
74,178,59075,1,0,0:0:0:0:
74,178,59150,1,8,0:0:0:0:
74,178,59225,1,8,0:0:0:0:
74,178,59300,1,0,0:0:0:0:
75,178,59375,1,8,0:0:0:0:
75,178,59450,1,0,0:0:0:0:
75,178,59525,1,0,0:0:0:0:
76,178,59600,1,8,0:0:0:0:
309,213,59675,1,8,0:0:0:0:
309,213,59750,1,0,0:0:0:0:
74,178,59900,1,8,0:0:0:0:
74,178,59975,1,0,0:0:0:0:
74,178,60050,1,8,0:0:0:0:
74,178,60125,1,0,0:0:0:0:
75,178,60200,1,8,0:0:0:0:
321,201,60275,1,0,0:0:0:0:
321,201,60350,1,8,0:0:0:0:
321,201,60425,1,8,0:0:0:0:
75,178,60500,1,0,0:0:0:0:
75,180,60575,1,0,0:0:0:0:
73,178,60650,1,8,0:0:0:0:
73,178,60800,1,8,0:0:0:0:
351,221,60950,1,0,0:0:0:0:
366,209,61025,1,0,0:0:0:0:
354,199,61100,1,8,0:0:0:0:
354,199,61175,1,0,0:0:0:0:
321,201,61250,1,0,0:0:0:0:
321,201,61325,1,0,0:0:0:0:
354,199,61400,1,8,0:0:0:0:
354,199,61475,1,0,0:0:0:0:
352,199,61550,1,8,0:0:0:0:
321,201,61625,1,0,0:0:0:0:
321,201,61700,1,8,0:0:0:0:
321,201,61775,1,8,0:0:0:0:
321,201,61850,1,0,0:0:0:0:
321,201,61925,1,0,0:0:0:0:
321,201,62000,1,8,0:0:0:0:
325,200,62075,1,0,0:0:0:0:
321,201,62150,1,8,0:0:0:0:
321,201,62225,1,8,0:0:0:0:
321,201,62300,1,8,0:0:0:0:
325,200,62375,1,0,0:0:0:0:
325,200,62450,1,0,0:0:0:0:
325,200,62525,1,0,0:0:0:0:
321,201,62600,1,8,0:0:0:0:
321,201,62675,1,0,0:0:0:0:
321,201,62750,1,8,0:0:0:0:
321,201,62825,1,8,0:0:0:0:
321,201,62900,1,8,0:0:0:0:
321,201,62975,1,0,0:0:0:0:
321,201,63050,1,0,0:0:0:0:
325,200,63125,1,0,0:0:0:0:
321,201,63200,1,8,0:0:0:0:
321,201,63275,1,0,0:0:0:0:
325,200,63350,1,8,0:0:0:0:
380,213,63425,1,0,0:0:0:0:
380,213,63500,1,0,0:0:0:0:
380,213,63575,1,0,0:0:0:0:
321,201,63650,1,8,0:0:0:0:
380,213,63725,1,0,0:0:0:0:
321,201,63800,1,8,0:0:0:0:
380,213,63875,1,8,0:0:0:0:
380,213,63950,1,0,0:0:0:0:
380,213,64025,1,0,0:0:0:0:
325,200,64100,1,8,0:0:0:0:
380,213,64175,1,0,0:0:0:0:
380,213,64250,1,0,0:0:0:0:
380,213,64325,1,0,0:0:0:0:
378,197,64400,1,8,0:0:0:0:
378,197,64475,1,0,0:0:0:0:
378,197,64550,1,8,0:0:0:0:
378,197,64625,1,8,0:0:0:0:
378,197,64700,1,0,0:0:0:0:
378,197,64775,1,0,0:0:0:0:
373,216,64850,1,8,0:0:0:0:
373,216,64925,1,0,0:0:0:0:
378,197,65000,1,8,0:0:0:0:
379,197,65075,1,8,0:0:0:0:
379,196,65150,1,0,0:0:0:0:
381,195,65225,1,8,0:0:0:0:
381,195,65300,1,8,0:0:0:0:
378,197,65375,1,0,0:0:0:0:
382,214,65450,1,8,0:0:0:0:
382,214,65525,1,0,0:0:0:0:
382,214,65600,1,8,0:0:0:0:
382,214,65675,1,8,0:0:0:0:
382,214,65750,1,4,0:0:0:0:
253,129,67850,1,12,0:0:0:0:
253,129,68150,1,4,0:0:0:0:
234,121,69950,1,0,0:0:0:0:
234,121,70025,1,0,0:0:0:0:
234,121,70100,1,0,0:0:0:0:
234,121,70175,1,0,0:0:0:0:
234,121,70250,1,8,0:0:0:0:
234,121,70325,1,8,0:0:0:0:
234,121,70400,1,0,0:0:0:0:
234,121,70475,1,0,0:0:0:0:
234,121,70550,1,8,0:0:0:0:
218,107,70625,1,0,0:0:0:0:
218,107,70700,1,8,0:0:0:0:
218,107,70775,1,0,0:0:0:0:
218,107,70850,1,8,0:0:0:0:
218,107,70925,1,8,0:0:0:0:
218,107,71000,1,0,0:0:0:0:
218,107,71075,1,0,0:0:0:0:
218,107,71150,1,8,0:0:0:0:
218,107,71225,1,0,0:0:0:0:
218,107,71300,1,0,0:0:0:0:
218,107,71375,1,0,0:0:0:0:
218,107,71450,1,8,0:0:0:0:
218,107,71525,1,8,0:0:0:0:
218,107,71600,1,0,0:0:0:0:
218,107,71675,1,0,0:0:0:0:
218,107,71750,1,8,0:0:0:0:
218,107,71825,1,0,0:0:0:0:
218,107,71900,1,8,0:0:0:0:
218,107,71975,1,0,0:0:0:0:
218,107,72050,1,8,0:0:0:0:
218,107,72125,1,8,0:0:0:0:
218,107,72200,1,0,0:0:0:0:
218,107,72275,1,0,0:0:0:0:
218,107,72350,1,8,0:0:0:0:
218,107,72425,1,0,0:0:0:0:
218,107,72500,1,8,0:0:0:0:
218,107,72575,1,0,0:0:0:0:
218,107,72650,1,8,0:0:0:0:
218,107,72725,1,0,0:0:0:0:
218,107,72800,1,0,0:0:0:0:
218,107,72875,1,0,0:0:0:0:
218,107,72950,1,8,0:0:0:0:
218,107,73025,1,8,0:0:0:0:
218,107,73100,1,0,0:0:0:0:
218,107,73175,1,8,0:0:0:0:
218,107,73250,1,0,0:0:0:0:
218,107,73325,1,0,0:0:0:0:
218,107,73400,1,8,0:0:0:0:
218,107,73475,1,0,0:0:0:0:
218,107,73550,1,8,0:0:0:0:
218,107,73625,1,0,0:0:0:0:
218,107,73700,1,0,0:0:0:0:
218,107,73775,1,0,0:0:0:0:
218,107,73850,1,8,0:0:0:0:
218,107,73925,1,0,0:0:0:0:
218,107,74000,1,0,0:0:0:0:
218,107,74075,1,0,0:0:0:0:
218,107,74150,1,8,0:0:0:0:
218,107,74225,1,8,0:0:0:0:
218,107,74300,1,8,0:0:0:0:
218,107,74375,1,0,0:0:0:0:
218,107,74450,1,8,0:0:0:0:
218,107,74525,1,0,0:0:0:0:
218,107,74600,1,0,0:0:0:0:
218,107,74675,1,0,0:0:0:0:
218,107,74750,1,8,0:0:0:0:
218,107,74825,1,8,0:0:0:0:
218,107,74900,1,8,0:0:0:0:
218,107,74975,1,8,0:0:0:0:
218,107,75050,1,0,0:0:0:0:
218,107,75125,1,0,0:0:0:0:
218,107,75200,1,0,0:0:0:0:
218,107,75275,1,0,0:0:0:0:
218,107,75350,1,12,0:0:0:0:
218,107,75650,1,0,0:0:0:0:
281,137,75950,1,0,0:0:0:0:
218,107,76250,1,0,0:0:0:0:
218,107,76550,1,0,0:0:0:0:
218,107,76850,1,0,0:0:0:0:
218,107,77150,1,0,0:0:0:0:
218,107,77450,1,12,0:0:0:0:
218,107,77750,1,4,0:0:0:0:
218,107,78050,1,0,0:0:0:0:
218,107,78350,1,0,0:0:0:0:
218,107,78650,1,0,0:0:0:0:
218,107,78950,1,0,0:0:0:0:
218,107,79250,1,0,0:0:0:0:
218,107,79550,1,0,0:0:0:0:
218,107,79850,1,0,0:0:0:0:
234,121,80150,1,8,0:0:0:0:
234,121,80225,1,0,0:0:0:0:
234,121,80300,1,8,0:0:0:0:
234,121,80375,1,0,0:0:0:0:
234,121,80450,1,8,0:0:0:0:
234,121,80525,1,0,0:0:0:0:
234,121,80600,1,8,0:0:0:0:
234,121,80675,1,8,0:0:0:0:
234,121,80750,1,0,0:0:0:0:
218,107,80825,1,8,0:0:0:0:
218,107,80900,1,0,0:0:0:0:
218,107,80975,1,0,0:0:0:0:
218,107,81050,1,8,0:0:0:0:
218,107,81125,1,0,0:0:0:0:
218,107,81200,1,0,0:0:0:0:
218,107,81275,1,0,0:0:0:0:
218,107,81350,1,8,0:0:0:0:
218,107,81425,1,0,0:0:0:0:
218,107,81500,1,8,0:0:0:0:
218,107,81575,1,0,0:0:0:0:
218,107,81650,1,8,0:0:0:0:
218,107,81725,1,8,0:0:0:0:
218,107,81800,1,0,0:0:0:0:
218,107,81875,1,0,0:0:0:0:
218,107,81950,1,8,0:0:0:0:
218,107,82025,1,0,0:0:0:0:
218,107,82100,1,0,0:0:0:0:
218,107,82175,1,0,0:0:0:0:
218,107,82250,1,8,0:0:0:0:
218,107,82325,1,0,0:0:0:0:
218,107,82400,1,8,0:0:0:0:
218,107,82475,1,0,0:0:0:0:
218,107,82550,1,8,0:0:0:0:
218,107,82625,1,8,0:0:0:0:
218,107,82700,1,0,0:0:0:0:
218,107,82775,1,8,0:0:0:0:
218,107,82850,1,8,0:0:0:0:
218,107,82925,1,0,0:0:0:0:
218,107,83000,1,8,0:0:0:0:
218,107,83075,1,0,0:0:0:0:
218,107,83150,1,8,0:0:0:0:
218,107,83225,1,8,0:0:0:0:
218,107,83300,1,0,0:0:0:0:
218,107,83375,1,0,0:0:0:0:
218,107,83450,1,8,0:0:0:0:
218,107,83525,1,0,0:0:0:0:
218,107,83600,1,0,0:0:0:0:
218,107,83675,1,0,0:0:0:0:
218,107,83750,1,8,0:0:0:0:
218,107,83825,1,8,0:0:0:0:
218,107,83900,1,8,0:0:0:0:
218,107,83975,1,0,0:0:0:0:
218,107,84050,1,8,0:0:0:0:
218,107,84125,1,0,0:0:0:0:
218,107,84200,1,0,0:0:0:0:
218,107,84275,1,0,0:0:0:0:
218,107,84350,1,8,0:0:0:0:
218,107,84425,1,0,0:0:0:0:
218,107,84500,1,8,0:0:0:0:
218,107,84575,1,8,0:0:0:0:
218,107,84650,1,0,0:0:0:0:
218,107,84725,1,8,0:0:0:0:
218,107,84800,1,0,0:0:0:0:
218,107,84875,1,0,0:0:0:0:
218,107,84950,1,12,0:0:0:0:
327,231,85100,1,8,0:0:0:0:
325,193,85250,1,0,0:0:0:0:
325,193,85325,1,0,0:0:0:0:
325,193,85400,1,8,0:0:0:0:
349,218,85475,1,8,0:0:0:0:
349,218,85550,1,0,0:0:0:0:
327,231,85700,1,8,0:0:0:0:
315,192,85850,1,0,0:0:0:0:
315,192,85925,1,0,0:0:0:0:
317,191,86000,1,8,0:0:0:0:
330,233,86150,1,8,0:0:0:0:
331,239,86300,1,8,0:0:0:0:
328,220,86375,1,0,0:0:0:0:
328,220,86450,1,8,0:0:0:0:
328,220,86525,1,8,0:0:0:0:
304,204,86600,1,0,0:0:0:0:
330,233,86750,1,0,0:0:0:0:
330,233,86900,1,8,0:0:0:0:
351,213,87050,1,0,0:0:0:0:
351,213,87125,1,0,0:0:0:0:
351,213,87200,1,8,0:0:0:0:
333,229,87350,1,8,0:0:0:0:
334,193,87425,1,0,0:0:0:0:
348,189,87500,1,8,0:0:0:0:
330,233,87575,1,8,0:0:0:0:
351,213,87650,1,0,0:0:0:0:
351,213,87725,1,0,0:0:0:0:
351,213,87800,1,8,0:0:0:0:
334,228,87950,1,8,0:0:0:0:
334,228,88100,1,8,0:0:0:0:
352,212,88250,1,0,0:0:0:0:
352,212,88325,1,0,0:0:0:0:
351,212,88400,1,8,0:0:0:0:
383,271,88475,1,0,0:0:0:0:
383,271,88550,1,8,0:0:0:0:
334,228,88700,1,8,0:0:0:0:
403,279,88775,1,8,0:0:0:0:
367,256,88850,1,0,0:0:0:0:
367,256,88925,1,0,0:0:0:0:
367,256,89000,1,8,0:0:0:0:
367,256,89150,1,0,0:0:0:0:
367,256,89225,1,8,0:0:0:0:
365,250,89300,1,0,0:0:0:0:
365,250,89375,1,0,0:0:0:0:
362,249,89450,1,8,0:0:0:0:
362,249,89525,1,8,0:0:0:0:
362,249,89600,1,0,0:0:0:0:
245,240,89750,1,0,0:0:0:0:
369,282,89825,1,0,0:0:0:0:
310,242,89900,1,8,0:0:0:0:
345,246,89975,1,8,0:0:0:0:
345,246,90050,1,0,0:0:0:0:
345,246,90125,1,8,0:0:0:0:
345,246,90200,1,0,0:0:0:0:
345,246,90275,1,0,0:0:0:0:
378,234,90350,1,8,0:0:0:0:
378,234,90425,1,8,0:0:0:0:
357,247,90500,1,0,0:0:0:0:
399,244,90575,1,8,0:0:0:0:
359,247,90650,1,0,0:0:0:0:
359,247,90725,1,0,0:0:0:0:
312,215,90800,1,8,0:0:0:0:
398,244,90875,1,0,0:0:0:0:
401,245,90950,1,0,0:0:0:0:
395,243,91025,1,0,0:0:0:0:
305,238,91100,1,8,0:0:0:0:
382,254,91175,1,8,0:0:0:0:
343,220,91250,1,0,0:0:0:0:
366,238,91325,1,0,0:0:0:0:
368,238,91400,1,8,0:0:0:0:
374,258,91475,1,0,0:0:0:0:
343,220,91550,1,8,0:0:0:0:
343,220,91625,1,0,0:0:0:0:
337,218,91700,1,8,0:0:0:0:
337,218,91775,1,8,0:0:0:0:
337,218,91850,1,0,0:0:0:0:
331,270,91925,1,0,0:0:0:0:
368,245,92000,1,8,0:0:0:0:
334,153,92150,1,8,0:0:0:0:
359,146,92225,1,0,0:0:0:0:
357,146,92300,1,0,0:0:0:0:
357,146,92375,1,8,0:0:0:0:
356,144,92450,1,0,0:0:0:0:
356,144,92525,1,0,0:0:0:0:
356,144,92600,1,8,0:0:0:0:
352,140,92675,1,0,0:0:0:0:
352,140,92750,1,8,0:0:0:0:
352,140,92825,1,8,0:0:0:0:
352,140,92900,1,0,0:0:0:0:
352,140,92975,1,0,0:0:0:0:
352,140,93050,1,8,0:0:0:0:
352,140,93125,1,0,0:0:0:0:
356,144,93200,1,8,0:0:0:0:
356,144,93275,1,0,0:0:0:0:
356,144,93350,1,8,0:0:0:0:
352,140,93425,1,8,0:0:0:0:
352,140,93500,1,0,0:0:0:0:
352,140,93575,1,0,0:0:0:0:
352,140,93650,1,8,0:0:0:0:
352,140,93725,1,0,0:0:0:0:
352,140,93800,1,8,0:0:0:0:
352,140,93875,1,8,0:0:0:0:
356,144,93950,1,0,0:0:0:0:
356,144,94025,1,8,0:0:0:0:
356,144,94100,1,0,0:0:0:0:
352,140,94175,1,0,0:0:0:0:
352,140,94250,1,8,0:0:0:0:
352,140,94325,1,0,0:0:0:0:
352,140,94400,1,0,0:0:0:0:
352,140,94475,1,0,0:0:0:0:
263,180,94550,1,12,0:0:0:0:
364,204,94700,1,8,0:0:0:0:
347,189,94850,1,0,0:0:0:0:
347,189,94925,1,0,0:0:0:0:
371,207,95000,1,8,0:0:0:0:
371,206,95075,1,8,0:0:0:0:
371,206,95150,1,0,0:0:0:0:
372,207,95300,1,8,0:0:0:0:
347,189,95450,1,0,0:0:0:0:
347,189,95525,1,0,0:0:0:0:
347,189,95600,1,8,0:0:0:0:
375,210,95750,1,0,0:0:0:0:
375,210,95900,1,8,0:0:0:0:
329,202,96050,1,8,0:0:0:0:
340,202,96125,1,8,0:0:0:0:
343,202,96200,1,0,0:0:0:0:
336,199,96350,1,0,0:0:0:0:
337,199,96500,1,8,0:0:0:0:
347,189,96650,1,8,0:0:0:0:
385,209,96725,1,8,0:0:0:0:
385,209,96800,1,0,0:0:0:0:
385,209,96875,1,0,0:0:0:0:
385,209,96950,1,8,0:0:0:0:
340,202,97100,1,8,0:0:0:0:
342,191,97250,1,0,0:0:0:0:
342,191,97325,1,0,0:0:0:0:
347,189,97400,1,8,0:0:0:0:
367,215,97475,1,0,0:0:0:0:
347,189,97550,1,8,0:0:0:0:
347,216,97700,1,8,0:0:0:0:
342,191,97850,1,0,0:0:0:0:
342,191,97925,1,0,0:0:0:0:
342,191,98000,1,8,0:0:0:0:
342,215,98150,1,8,0:0:0:0:
342,191,98300,1,8,0:0:0:0:
341,194,98450,1,0,0:0:0:0:
341,194,98525,1,0,0:0:0:0:
348,194,98600,1,8,0:0:0:0:
334,232,98750,1,8,0:0:0:0:
349,194,98825,1,0,0:0:0:0:
334,232,98900,1,8,0:0:0:0:
334,232,98975,1,8,0:0:0:0:
351,194,99050,1,0,0:0:0:0:
349,195,99125,1,0,0:0:0:0:
348,192,99200,1,8,0:0:0:0:
378,236,99350,1,8,0:0:0:0:
375,244,99425,1,0,0:0:0:0:
378,236,99500,1,8,0:0:0:0:
378,236,99575,1,0,0:0:0:0:
378,236,99650,1,8,0:0:0:0:
349,194,99725,1,8,0:0:0:0:
349,194,99800,1,0,0:0:0:0:
335,209,99875,1,0,0:0:0:0:
335,209,99950,1,8,0:0:0:0:
337,209,100100,1,8,0:0:0:0:
333,192,100250,1,0,0:0:0:0:
333,192,100325,1,0,0:0:0:0:
335,193,100400,1,8,0:0:0:0:
337,209,100475,1,0,0:0:0:0:
337,209,100550,1,8,0:0:0:0:
337,209,100625,1,8,0:0:0:0:
338,209,100700,1,0,0:0:0:0:
326,174,100850,1,8,0:0:0:0:
333,170,100925,1,0,0:0:0:0:
326,174,101000,1,8,0:0:0:0:
256,228,101075,1,8,0:0:0:0:
325,174,101150,1,0,0:0:0:0:
334,197,101225,1,8,0:0:0:0:
312,171,101300,1,0,0:0:0:0:
312,171,101375,1,0,0:0:0:0:
312,171,101450,1,8,0:0:0:0:
312,171,101525,1,8,0:0:0:0:
312,171,101600,1,0,0:0:0:0:
317,198,101750,1,8,0:0:0:0:
352,179,101825,1,8,0:0:0:0:
326,174,101900,1,8,0:0:0:0:
325,169,101975,1,8,0:0:0:0:
325,169,102050,1,0,0:0:0:0:
323,170,102125,1,0,0:0:0:0:
325,170,102200,1,8,0:0:0:0:
325,170,102275,1,0,0:0:0:0:
325,170,102350,1,8,0:0:0:0:
325,170,102425,1,0,0:0:0:0:
325,170,102500,1,0,0:0:0:0:
325,170,102575,1,0,0:0:0:0:
326,174,102650,1,8,0:0:0:0:
325,169,102725,1,8,0:0:0:0:
325,169,102800,1,0,0:0:0:0:
323,170,102875,1,0,0:0:0:0:
325,170,102950,1,8,0:0:0:0:
325,170,103025,1,0,0:0:0:0:
325,170,103100,1,0,0:0:0:0:
325,170,103175,1,0,0:0:0:0:
325,170,103250,1,8,0:0:0:0:
325,170,103325,1,0,0:0:0:0:
322,165,103400,1,8,0:0:0:0:
325,169,103475,1,0,0:0:0:0:
325,169,103550,1,8,0:0:0:0:
323,170,103625,1,8,0:0:0:0:
325,170,103700,1,0,0:0:0:0:
325,170,103775,1,0,0:0:0:0:
325,170,103850,1,8,0:0:0:0:
325,170,103925,1,0,0:0:0:0:
325,170,104000,1,0,0:0:0:0:
325,170,104075,1,0,0:0:0:0:
322,165,104150,1,8,0:0:0:0:
325,169,104225,1,8,0:0:0:0:
325,169,104300,1,0,0:0:0:0:
323,170,104375,1,0,0:0:0:0:
325,170,104450,1,8,0:0:0:0:
325,170,104525,1,0,0:0:0:0:
325,170,104600,1,8,0:0:0:0:
325,170,104675,1,8,0:0:0:0:
325,170,104750,1,0,0:0:0:0:
325,170,104825,1,8,0:0:0:0:
322,165,104900,1,0,0:0:0:0:
325,169,104975,1,0,0:0:0:0:
325,169,105050,1,8,0:0:0:0:
323,170,105125,1,8,0:0:0:0:
325,170,105200,1,0,0:0:0:0:
301,168,105275,1,0,0:0:0:0:
334,169,105350,1,8,0:0:0:0:
342,168,105425,1,0,0:0:0:0:
342,168,105500,1,8,0:0:0:0:
342,168,105575,1,0,0:0:0:0:
342,168,105650,1,0,0:0:0:0:
341,168,105725,1,8,0:0:0:0:
341,168,105800,1,0,0:0:0:0:
341,168,105875,1,0,0:0:0:0:
317,169,105950,1,8,0:0:0:0:
316,169,106025,1,8,0:0:0:0:
315,169,106100,1,0,0:0:0:0:
314,169,106175,1,8,0:0:0:0:
306,166,106250,1,8,0:0:0:0:
310,164,106325,1,8,0:0:0:0:
311,164,106400,1,0,0:0:0:0:
335,163,106475,1,0,0:0:0:0:
325,169,106550,1,8,0:0:0:0:
328,193,106625,1,0,0:0:0:0:
325,170,106700,1,0,0:0:0:0:
325,170,106775,1,0,0:0:0:0:
325,170,106850,1,8,0:0:0:0:
325,170,106925,1,0,0:0:0:0:
325,170,107000,1,8,0:0:0:0:
325,170,107075,1,8,0:0:0:0:
322,165,107150,1,8,0:0:0:0:
325,169,107225,1,8,0:0:0:0:
325,169,107300,1,0,0:0:0:0:
323,170,107375,1,0,0:0:0:0:
325,170,107450,1,8,0:0:0:0:
325,170,107525,1,8,0:0:0:0:
325,170,107600,1,0,0:0:0:0:
325,170,107675,1,0,0:0:0:0:
325,170,107750,1,8,0:0:0:0:
325,170,107825,1,0,0:0:0:0:
322,165,107900,1,0,0:0:0:0:
325,169,107975,1,0,0:0:0:0:
325,169,108050,1,8,0:0:0:0:
323,170,108125,1,0,0:0:0:0:
325,170,108200,1,8,0:0:0:0:
325,170,108275,1,8,0:0:0:0:
325,170,108350,1,0,0:0:0:0:
325,170,108425,1,8,0:0:0:0:
325,170,108500,1,0,0:0:0:0:
325,170,108575,1,0,0:0:0:0:
322,165,108650,1,8,0:0:0:0:
325,169,108725,1,8,0:0:0:0:
325,169,108800,1,0,0:0:0:0:
325,169,108875,1,0,0:0:0:0:
309,173,108950,1,8,0:0:0:0:
325,170,109025,1,0,0:0:0:0:
319,171,109100,1,0,0:0:0:0:
319,169,109175,1,0,0:0:0:0:
319,166,109250,1,8,0:0:0:0:
317,163,109325,1,0,0:0:0:0:
316,160,109400,1,8,0:0:0:0:
316,160,109475,1,8,0:0:0:0:
316,160,109550,1,0,0:0:0:0:
321,165,109625,1,0,0:0:0:0:
322,166,109700,1,8,0:0:0:0:
325,170,109775,1,0,0:0:0:0:
322,166,109850,1,0,0:0:0:0:
319,169,109925,1,0,0:0:0:0:
319,166,110000,1,8,0:0:0:0:
317,163,110075,1,0,0:0:0:0:
335,155,110150,1,8,0:0:0:0:
335,155,110225,1,8,0:0:0:0:
335,155,110300,1,8,0:0:0:0:
335,155,110375,1,8,0:0:0:0:
335,155,110450,1,0,0:0:0:0:
335,155,110525,1,0,0:0:0:0:
335,155,110600,1,8,0:0:0:0:
335,155,110675,1,0,0:0:0:0:
335,155,110750,1,8,0:0:0:0:
335,155,110825,1,0,0:0:0:0:
335,155,110900,1,8,0:0:0:0:
335,155,110975,1,8,0:0:0:0:
335,155,111050,1,0,0:0:0:0:
335,155,111125,1,0,0:0:0:0:
335,155,111200,1,0,0:0:0:0:
335,155,111275,1,0,0:0:0:0:
335,155,111350,1,12,0:0:0:0:
346,164,111800,1,0,0:0:0:0:
346,164,112250,1,0,0:0:0:0:
346,164,112550,1,12,0:0:0:0:
354,177,113150,1,0,0:0:0:0:
354,177,113450,1,0,0:0:0:0:
354,177,113750,1,8,0:0:0:0:
395,197,113825,1,8,0:0:0:0:
368,188,113900,1,8,0:0:0:0:
367,187,113975,1,8,0:0:0:0:
366,187,114050,1,0,0:0:0:0:
359,182,114200,1,0,0:0:0:0:
331,230,114275,1,8,0:0:0:0:
382,201,114350,1,0,0:0:0:0:
382,201,114425,1,0,0:0:0:0:
382,201,114500,1,8,0:0:0:0:
379,200,114650,1,8,0:0:0:0:
379,200,114725,1,8,0:0:0:0:
379,200,114800,1,0,0:0:0:0:
379,200,114950,1,8,0:0:0:0:
331,230,115025,1,0,0:0:0:0:
382,201,115100,1,8,0:0:0:0:
355,216,115175,1,8,0:0:0:0:
382,201,115250,1,0,0:0:0:0:
350,227,115325,1,0,0:0:0:0:
379,200,115400,1,8,0:0:0:0:
362,211,115550,1,0,0:0:0:0:
362,211,115625,1,0,0:0:0:0:
366,222,115700,1,8,0:0:0:0:
346,223,115775,1,0,0:0:0:0:
362,211,115850,1,8,0:0:0:0:
352,220,115925,1,8,0:0:0:0:
366,222,116000,1,0,0:0:0:0:
352,220,116075,1,0,0:0:0:0:
374,187,116150,1,12,0:0:0:0:
367,223,116600,1,0,0:0:0:0:
367,223,117050,1,0,0:0:0:0:
380,182,117350,1,12,0:0:0:0:
360,214,117950,1,0,0:0:0:0:
360,214,118250,1,0,0:0:0:0:
361,193,118550,1,8,0:0:0:0:
335,191,118625,1,8,0:0:0:0:
335,191,118700,1,0,0:0:0:0:
335,191,118775,1,0,0:0:0:0:
335,191,118850,1,8,0:0:0:0:
335,191,118925,1,0,0:0:0:0:
335,191,119000,1,8,0:0:0:0:
335,191,119075,1,8,0:0:0:0:
335,191,119150,1,0,0:0:0:0:
335,191,119225,1,0,0:0:0:0:
335,191,119300,1,8,0:0:0:0:
335,191,119375,1,0,0:0:0:0:
335,191,119450,1,8,0:0:0:0:
335,191,119525,1,0,0:0:0:0:
335,191,119600,1,0,0:0:0:0:
335,191,119675,1,0,0:0:0:0:
355,192,119750,1,8,0:0:0:0:
323,189,119825,1,8,0:0:0:0:
323,189,119900,1,0,0:0:0:0:
323,189,119975,1,0,0:0:0:0:
323,189,120050,1,8,0:0:0:0:
323,189,120125,1,0,0:0:0:0:
323,189,120200,1,0,0:0:0:0:
323,189,120275,1,0,0:0:0:0:
323,189,120350,1,8,0:0:0:0:
321,191,120425,1,8,0:0:0:0:
323,189,120500,1,0,0:0:0:0:
323,189,120575,1,0,0:0:0:0:
323,189,120650,1,8,0:0:0:0:
323,189,120725,1,0,0:0:0:0:
323,189,120800,1,0,0:0:0:0:
323,189,120875,1,0,0:0:0:0:
323,189,120950,1,12,0:0:0:0:
365,254,121100,1,8,0:0:0:0:
383,233,121250,1,0,0:0:0:0:
383,233,121325,1,0,0:0:0:0:
383,233,121400,1,8,0:0:0:0:
382,232,121475,1,0,0:0:0:0:
381,231,121550,1,8,0:0:0:0:
376,202,121700,1,8,0:0:0:0:
445,238,121850,1,0,0:0:0:0:
433,217,121925,1,0,0:0:0:0:
430,229,122000,1,8,0:0:0:0:
409,235,122150,1,8,0:0:0:0:
386,237,122225,1,0,0:0:0:0:
383,233,122300,1,8,0:0:0:0:
383,233,122375,1,8,0:0:0:0:
401,207,122450,1,0,0:0:0:0:
401,207,122525,1,0,0:0:0:0:
401,207,122600,1,8,0:0:0:0:
441,218,122750,1,0,0:0:0:0:
439,214,122900,1,8,0:0:0:0:
417,258,123050,1,0,0:0:0:0:
417,252,123125,1,8,0:0:0:0:
414,244,123200,1,0,0:0:0:0:
414,243,123275,1,0,0:0:0:0:
412,243,123350,1,8,0:0:0:0:
427,224,123500,1,8,0:0:0:0:
269,254,123650,1,0,0:0:0:0:
420,263,123725,1,0,0:0:0:0:
404,236,123800,1,8,0:0:0:0:
432,222,123950,1,0,0:0:0:0:
432,222,124100,1,8,0:0:0:0:
434,243,124250,1,8,0:0:0:0:
434,243,124325,1,8,0:0:0:0:
430,241,124400,1,0,0:0:0:0:
428,243,124550,1,8,0:0:0:0:
428,243,124625,1,0,0:0:0:0:
444,218,124700,1,8,0:0:0:0:
420,237,124775,1,8,0:0:0:0:
444,218,124850,1,0,0:0:0:0:
444,218,124925,1,0,0:0:0:0:
442,219,125000,1,8,0:0:0:0:
442,219,125150,1,0,0:0:0:0:
449,216,125225,1,0,0:0:0:0:
452,216,125300,1,8,0:0:0:0:
344,251,125375,1,0,0:0:0:0:
344,251,125450,1,8,0:0:0:0:
344,251,125525,1,8,0:0:0:0:
344,251,125600,1,0,0:0:0:0:
311,148,125750,1,4,0:0:0:0:
337,151,125900,1,8,0:0:0:0:
337,151,125975,1,8,0:0:0:0:
337,151,126050,1,0,0:0:0:0:
346,153,126125,1,8,0:0:0:0:
337,151,126200,1,0,0:0:0:0:
337,151,126275,1,0,0:0:0:0:
337,151,126350,1,8,0:0:0:0:
470,285,126425,1,0,0:0:0:0:
336,154,126500,1,8,0:0:0:0:
337,151,126575,1,8,0:0:0:0:
337,151,126650,1,0,0:0:0:0:
416,238,126725,1,0,0:0:0:0:
337,151,126800,1,8,0:0:0:0:
416,238,126875,1,0,0:0:0:0:
337,151,126950,1,8,0:0:0:0:
337,151,127025,1,0,0:0:0:0:
337,151,127100,1,8,0:0:0:0:
337,151,127175,1,8,0:0:0:0:
336,154,127250,1,0,0:0:0:0:
337,151,127325,1,0,0:0:0:0:
337,151,127400,1,8,0:0:0:0:
337,151,127475,1,0,0:0:0:0:
337,151,127550,1,8,0:0:0:0:
420,240,127625,1,0,0:0:0:0:
337,151,127700,1,0,0:0:0:0:
420,240,127775,1,0,0:0:0:0:
337,151,127850,1,8,0:0:0:0:
337,151,127925,1,0,0:0:0:0:
336,154,128000,1,8,0:0:0:0:
424,244,128075,1,0,0:0:0:0:
330,166,128150,1,8,0:0:0:0:
303,142,128225,1,8,0:0:0:0:
303,142,128300,1,0,0:0:0:0:
303,142,128375,1,0,0:0:0:0:
303,142,128450,1,8,0:0:0:0:
303,142,128525,1,0,0:0:0:0:
303,142,128600,1,8,0:0:0:0:
303,142,128675,1,0,0:0:0:0:
303,142,128750,1,0,0:0:0:0:
312,148,128825,1,0,0:0:0:0:
312,148,128900,1,8,0:0:0:0:
312,148,128975,1,8,0:0:0:0:
312,148,129050,1,0,0:0:0:0:
312,148,129125,1,0,0:0:0:0:
312,148,129200,1,8,0:0:0:0:
312,148,129275,1,8,0:0:0:0:
312,148,129350,1,8,0:0:0:0:
334,156,129425,1,0,0:0:0:0:
324,157,129500,1,8,0:0:0:0:
324,157,129575,1,0,0:0:0:0:
324,157,129650,1,8,0:0:0:0:
324,157,129725,1,8,0:0:0:0:
324,157,129800,1,0,0:0:0:0:
324,157,129875,1,8,0:0:0:0:
324,157,129950,1,8,0:0:0:0:
324,157,130025,1,8,0:0:0:0:
324,157,130100,1,0,0:0:0:0:
324,157,130175,1,0,0:0:0:0:
324,157,130250,1,8,0:0:0:0:
324,157,130325,1,0,0:0:0:0:
324,157,130400,1,8,0:0:0:0:
324,157,130475,1,8,0:0:0:0:
312,148,130550,1,4,0:0:0:0:
289,177,130700,1,0,0:0:0:0:
289,177,130850,1,0,0:0:0:0:
289,177,130925,1,0,0:0:0:0:
289,177,131000,1,8,0:0:0:0:
289,177,131150,1,8,0:0:0:0:
334,172,131300,1,8,0:0:0:0:
334,172,131375,1,8,0:0:0:0:
334,172,131450,1,0,0:0:0:0:
334,172,131525,1,8,0:0:0:0:
334,172,131600,1,0,0:0:0:0:
261,157,131675,1,0,0:0:0:0:
334,172,131750,1,8,0:0:0:0:
334,172,131900,1,8,0:0:0:0:
334,172,132050,1,0,0:0:0:0:
311,186,132125,1,0,0:0:0:0:
334,172,132200,1,8,0:0:0:0:
320,165,132275,1,8,0:0:0:0:
194,203,132350,1,0,0:0:0:0:
323,177,132500,1,8,0:0:0:0:
334,172,132650,1,0,0:0:0:0:
328,188,132725,1,0,0:0:0:0:
334,172,132800,1,0,0:0:0:0:
329,257,132875,1,0,0:0:0:0:
334,172,132950,1,12,0:0:0:0:
334,172,133100,1,0,0:0:0:0:
319,218,133250,1,0,0:0:0:0:
319,218,133325,1,0,0:0:0:0:
319,218,133400,1,8,0:0:0:0:
334,172,133550,1,0,0:0:0:0:
334,172,133700,1,8,0:0:0:0:
334,172,133850,1,8,0:0:0:0:
319,218,133925,1,0,0:0:0:0:
319,218,134000,1,8,0:0:0:0:
370,229,134150,1,0,0:0:0:0:
371,206,134300,1,0,0:0:0:0:
374,207,134375,1,8,0:0:0:0:
374,207,134450,1,0,0:0:0:0:
371,206,134525,1,0,0:0:0:0:
371,206,134600,1,8,0:0:0:0:
371,206,134750,1,8,0:0:0:0:
291,209,134825,1,0,0:0:0:0:
308,178,134900,1,0,0:0:0:0:
291,209,134975,1,0,0:0:0:0:
308,178,135050,1,8,0:0:0:0:
376,249,135125,1,8,0:0:0:0:
308,178,135200,1,0,0:0:0:0:
304,168,135350,1,4,0:0:0:0:
327,170,135500,1,8,0:0:0:0:
327,170,135650,1,0,0:0:0:0:
327,170,135725,1,8,0:0:0:0:
327,170,135800,1,0,0:0:0:0:
327,170,135875,1,0,0:0:0:0:
327,170,135950,1,8,0:0:0:0:
325,184,136100,1,0,0:0:0:0:
316,186,136250,1,0,0:0:0:0:
385,188,136325,1,0,0:0:0:0:
316,186,136400,1,8,0:0:0:0:
258,175,136475,1,0,0:0:0:0:
333,203,136550,1,8,0:0:0:0:
336,202,136625,1,8,0:0:0:0:
340,162,136700,1,0,0:0:0:0:
333,193,136850,1,0,0:0:0:0:
333,193,137000,1,8,0:0:0:0:
353,190,137075,1,8,0:0:0:0:
325,182,137150,1,0,0:0:0:0:
331,192,137300,1,0,0:0:0:0:
325,170,137450,1,8,0:0:0:0:
354,185,137525,1,8,0:0:0:0:
345,189,137600,1,0,0:0:0:0:
357,186,137675,1,0,0:0:0:0:
322,167,137750,1,12,0:0:0:0:
322,167,137900,1,0,0:0:0:0:
319,192,137975,1,8,0:0:0:0:
319,192,138050,1,0,0:0:0:0:
341,215,138125,1,0,0:0:0:0:
354,185,138200,1,8,0:0:0:0:
319,192,138350,1,0,0:0:0:0:
319,192,138425,1,8,0:0:0:0:
319,192,138500,1,8,0:0:0:0:
319,192,138575,1,0,0:0:0:0:
319,192,138650,1,8,0:0:0:0:
302,189,138725,1,0,0:0:0:0:
319,192,138800,1,0,0:0:0:0:
268,157,138950,1,8,0:0:0:0:
309,169,139025,1,8,0:0:0:0:
310,169,139100,1,0,0:0:0:0:
310,169,139175,1,0,0:0:0:0:
310,169,139250,1,8,0:0:0:0:
310,169,139325,1,8,0:0:0:0:
310,169,139400,1,0,0:0:0:0:
310,169,139475,1,0,0:0:0:0:
310,169,139550,1,8,0:0:0:0:
309,169,139625,1,0,0:0:0:0:
309,169,139700,1,0,0:0:0:0:
309,169,139775,1,0,0:0:0:0:
310,169,139850,1,8,0:0:0:0:
310,169,139925,1,0,0:0:0:0:
310,169,140000,1,0,0:0:0:0:
274,259,140075,1,0,0:0:0:0:
310,169,140150,1,12,0:0:0:0:
111,159,140300,1,0,0:0:0:0:
111,159,140375,1,0,0:0:0:0:
111,159,140450,1,8,0:0:0:0:
111,159,140525,1,0,0:0:0:0:
111,159,140600,1,0,0:0:0:0:
206,199,140675,1,0,0:0:0:0:
206,199,140750,1,8,0:0:0:0:
206,199,140825,1,8,0:0:0:0:
206,199,140900,1,0,0:0:0:0:
206,199,140975,1,0,0:0:0:0:
206,199,141050,1,8,0:0:0:0:
206,199,141125,1,0,0:0:0:0:
206,199,141200,1,0,0:0:0:0:
206,199,141275,1,0,0:0:0:0:
206,199,141350,1,8,0:0:0:0:
206,199,141425,1,0,0:0:0:0:
206,199,141500,1,8,0:0:0:0:
206,199,141575,1,8,0:0:0:0:
206,199,141650,1,0,0:0:0:0:
206,199,141725,1,0,0:0:0:0:
206,199,141800,1,8,0:0:0:0:
206,199,141875,1,8,0:0:0:0:
206,199,141950,1,8,0:0:0:0:
206,199,142025,1,8,0:0:0:0:
206,199,142100,1,0,0:0:0:0:
206,199,142175,1,0,0:0:0:0:
206,199,142250,1,8,0:0:0:0:
206,199,142325,1,8,0:0:0:0:
206,199,142400,1,0,0:0:0:0:
206,199,142475,1,0,0:0:0:0:
206,199,142550,1,12,0:0:0:0:
206,199,142700,1,8,0:0:0:0:
206,199,142775,1,0,0:0:0:0:
206,199,142850,1,8,0:0:0:0:
206,199,142925,1,8,0:0:0:0:
206,199,143000,1,0,0:0:0:0:
206,199,143075,1,0,0:0:0:0:
206,199,143150,1,8,0:0:0:0:
206,199,143225,1,0,0:0:0:0:
206,199,143300,1,8,0:0:0:0:
206,199,143375,1,8,0:0:0:0:
206,199,143450,1,0,0:0:0:0:
206,199,143525,1,8,0:0:0:0:
206,199,143600,1,0,0:0:0:0:
206,199,143675,1,0,0:0:0:0:
211,198,143750,1,8,0:0:0:0:
304,167,143825,1,0,0:0:0:0:
277,184,143900,1,0,0:0:0:0:
277,184,143975,1,0,0:0:0:0:
277,184,144050,1,8,0:0:0:0:
277,184,144125,1,0,0:0:0:0:
277,184,144200,1,8,0:0:0:0:
277,184,144275,1,8,0:0:0:0:
277,184,144350,1,0,0:0:0:0:
277,184,144425,1,8,0:0:0:0:
277,184,144500,1,8,0:0:0:0:
277,184,144575,1,0,0:0:0:0:
277,184,144650,1,8,0:0:0:0:
277,184,144725,1,0,0:0:0:0:
277,184,144800,1,8,0:0:0:0:
277,184,144875,1,8,0:0:0:0:
277,184,144950,1,4,0:0:0:0:
277,209,145100,1,0,0:0:0:0:
274,204,145250,1,8,0:0:0:0:
274,204,145325,1,8,0:0:0:0:
274,204,145400,1,0,0:0:0:0:
274,204,145475,1,0,0:0:0:0:
274,204,145550,1,8,0:0:0:0:
274,204,145625,1,0,0:0:0:0:
274,204,145700,1,8,0:0:0:0:
274,204,145850,1,0,0:0:0:0:
274,204,145925,1,0,0:0:0:0:
331,238,146000,1,0,0:0:0:0:
319,222,146075,1,0,0:0:0:0:
319,222,146150,1,8,0:0:0:0:
319,222,146300,1,0,0:0:0:0:
319,222,146375,1,8,0:0:0:0:
319,221,146450,1,0,0:0:0:0:
319,221,146525,1,0,0:0:0:0:
319,221,146600,1,8,0:0:0:0:
319,221,146675,1,8,0:0:0:0:
319,221,146750,1,0,0:0:0:0:
319,222,146900,1,8,0:0:0:0:
319,222,147050,1,0,0:0:0:0:
319,215,147125,1,0,0:0:0:0:
319,221,147200,1,8,0:0:0:0:
319,221,147275,1,8,0:0:0:0:
333,202,147350,1,4,0:0:0:0:
333,207,147500,1,8,0:0:0:0:
334,213,147650,1,8,0:0:0:0:
334,213,147725,1,8,0:0:0:0:
332,207,147800,1,0,0:0:0:0:
319,222,147875,1,0,0:0:0:0:
332,207,147950,1,8,0:0:0:0:
334,213,148025,1,0,0:0:0:0:
332,207,148100,1,8,0:0:0:0:
333,207,148250,1,0,0:0:0:0:
334,214,148325,1,8,0:0:0:0:
334,213,148400,1,0,0:0:0:0:
401,254,148475,1,0,0:0:0:0:
332,207,148550,1,8,0:0:0:0:
332,207,148700,1,8,0:0:0:0:
354,235,148850,1,0,0:0:0:0:
376,242,148925,1,0,0:0:0:0:
363,232,149000,1,8,0:0:0:0:
349,226,149075,1,0,0:0:0:0:
348,225,149150,1,8,0:0:0:0:
347,224,149225,1,8,0:0:0:0:
346,223,149300,1,8,0:0:0:0:
323,199,149375,1,8,0:0:0:0:
323,199,149450,1,0,0:0:0:0:
322,199,149525,1,0,0:0:0:0:
341,266,149600,1,8,0:0:0:0:
338,200,149675,1,8,0:0:0:0:
344,226,149750,1,4,0:0:0:0:
344,226,149900,1,8,0:0:0:0:
269,220,150050,1,8,0:0:0:0:
344,226,150125,1,0,0:0:0:0:
344,226,150200,1,8,0:0:0:0:
344,226,150275,1,0,0:0:0:0:
344,226,150350,1,8,0:0:0:0:
344,226,150425,1,8,0:0:0:0:
344,226,150500,1,0,0:0:0:0:
344,226,150575,1,0,0:0:0:0:
344,226,150650,1,8,0:0:0:0:
344,226,150725,1,0,0:0:0:0:
344,226,150800,1,0,0:0:0:0:
344,226,150875,1,0,0:0:0:0:
344,226,150950,1,8,0:0:0:0:
355,215,151100,1,0,0:0:0:0:
349,211,151250,1,0,0:0:0:0:
348,211,151325,1,0,0:0:0:0:
341,203,151400,1,8,0:0:0:0:
328,187,151550,1,8,0:0:0:0:
347,195,151625,1,0,0:0:0:0:
347,195,151700,1,0,0:0:0:0:
347,195,151775,1,0,0:0:0:0:
347,195,151850,1,8,0:0:0:0:
347,195,151925,1,8,0:0:0:0:
347,195,152000,1,0,0:0:0:0:
360,217,152150,1,0,0:0:0:0:
360,217,152225,1,8,0:0:0:0:
353,217,152300,1,0,0:0:0:0:
340,211,152375,1,0,0:0:0:0:
340,211,152450,1,8,0:0:0:0:
340,210,152525,1,0,0:0:0:0:
388,194,152600,1,8,0:0:0:0:
388,194,152675,1,8,0:0:0:0:
380,192,152750,1,0,0:0:0:0:
380,192,152825,1,0,0:0:0:0:
380,192,152900,1,8,0:0:0:0:
380,192,152975,1,0,0:0:0:0:
380,192,153050,1,8,0:0:0:0:
380,192,153125,1,0,0:0:0:0:
380,192,153200,1,8,0:0:0:0:
380,192,153275,1,8,0:0:0:0:
380,191,153350,1,0,0:0:0:0:
380,191,153425,1,0,0:0:0:0:
380,192,153500,1,8,0:0:0:0:
380,192,153575,1,0,0:0:0:0:
380,192,153650,1,8,0:0:0:0:
359,190,153725,1,0,0:0:0:0:
359,190,153800,1,8,0:0:0:0:
359,190,153875,1,8,0:0:0:0:
359,190,153950,1,0,0:0:0:0:
359,190,154025,1,0,0:0:0:0:
359,190,154100,1,8,0:0:0:0:
359,190,154175,1,0,0:0:0:0:
364,190,154250,1,8,0:0:0:0:
328,235,154325,1,8,0:0:0:0:
351,192,154400,1,0,0:0:0:0:
328,235,154475,1,0,0:0:0:0:
357,211,154550,1,8,0:0:0:0:
352,217,154625,1,0,0:0:0:0:
352,217,154700,1,8,0:0:0:0:
352,217,154775,1,0,0:0:0:0:
352,217,154850,1,8,0:0:0:0:
352,217,154925,1,0,0:0:0:0:
352,217,155000,1,8,0:0:0:0:
352,217,155075,1,0,0:0:0:0:
357,211,155150,1,8,0:0:0:0:
352,217,155225,1,0,0:0:0:0:
352,217,155300,1,8,0:0:0:0:
352,217,155375,1,0,0:0:0:0:
352,217,155450,1,8,0:0:0:0:
352,217,155525,1,0,0:0:0:0:
352,217,155600,1,8,0:0:0:0:
352,217,155675,1,0,0:0:0:0:
357,211,155750,1,8,0:0:0:0:
352,217,155825,1,0,0:0:0:0:
352,217,155900,1,8,0:0:0:0:
352,217,155975,1,0,0:0:0:0:
352,217,156050,1,8,0:0:0:0:
352,217,156125,1,0,0:0:0:0:
352,217,156200,1,8,0:0:0:0:
352,217,156275,1,0,0:0:0:0:
357,211,156350,1,8,0:0:0:0:
352,217,156425,1,8,0:0:0:0:
352,217,156500,1,0,0:0:0:0:
352,217,156575,1,0,0:0:0:0:
352,217,156650,1,8,0:0:0:0:
352,217,156725,1,0,0:0:0:0:
352,217,156800,1,8,0:0:0:0:
219,214,156950,1,0,0:0:0:0:
219,214,157025,1,0,0:0:0:0:
219,214,157100,1,0,0:0:0:0:
219,214,157175,1,0,0:0:0:0:
219,214,157250,1,8,0:0:0:0:
219,214,157325,1,0,0:0:0:0:
219,214,157400,1,8,0:0:0:0:
219,214,157475,1,0,0:0:0:0:
219,214,157550,1,8,0:0:0:0:
219,214,157625,1,8,0:0:0:0:
219,214,157700,1,0,0:0:0:0:
219,214,157775,1,0,0:0:0:0:
219,214,157850,1,8,0:0:0:0:
219,214,157925,1,0,0:0:0:0:
219,214,158000,1,8,0:0:0:0:
219,214,158075,1,8,0:0:0:0:
219,214,158150,1,0,0:0:0:0:
219,214,158225,1,0,0:0:0:0:
219,214,158300,1,8,0:0:0:0:
219,214,158375,1,0,0:0:0:0:
219,214,158450,1,8,0:0:0:0:
219,214,158525,1,0,0:0:0:0:
219,214,158600,1,8,0:0:0:0:
219,214,158675,1,0,0:0:0:0:
219,214,158750,1,8,0:0:0:0:
219,214,158825,1,0,0:0:0:0:
219,214,158900,1,0,0:0:0:0:
219,214,159050,1,8,0:0:0:0:
219,214,159125,1,0,0:0:0:0:
219,214,159200,1,8,0:0:0:0:
219,214,159350,1,0,0:0:0:0:
219,214,159425,1,0,0:0:0:0:
219,214,159500,1,0,0:0:0:0:
219,214,159575,1,0,0:0:0:0:
219,214,159650,1,8,0:0:0:0:
219,214,159725,1,0,0:0:0:0:
219,214,159800,1,8,0:0:0:0:
219,214,159875,1,0,0:0:0:0:
219,214,159950,1,8,0:0:0:0:
219,214,160025,1,8,0:0:0:0:
366,223,160100,1,8,0:0:0:0:
361,229,160175,1,8,0:0:0:0:
361,229,160250,1,0,0:0:0:0:
219,214,160325,1,0,0:0:0:0:
346,183,160400,1,8,0:0:0:0:
340,203,160475,1,0,0:0:0:0:
355,213,160550,1,8,0:0:0:0:
175,233,160700,1,8,0:0:0:0:
386,205,160775,1,0,0:0:0:0:
354,194,160850,1,8,0:0:0:0:
354,194,160925,1,0,0:0:0:0:
354,194,161000,1,8,0:0:0:0:
354,194,161075,1,8,0:0:0:0:
389,188,161150,1,0,0:0:0:0:
389,188,161225,1,0,0:0:0:0:
389,188,161300,1,8,0:0:0:0:
389,188,161375,1,8,0:0:0:0:
389,188,161450,1,0,0:0:0:0:
389,188,161525,1,0,0:0:0:0:
389,188,161600,1,8,0:0:0:0:
356,172,161675,1,8,0:0:0:0:
375,175,161750,1,4,0:0:0:0:
357,208,161900,1,8,0:0:0:0:
357,199,162050,1,0,0:0:0:0:
357,199,162125,1,0,0:0:0:0:
345,204,162200,1,8,0:0:0:0:
358,199,162275,1,0,0:0:0:0:
365,224,162350,1,8,0:0:0:0:
344,193,162500,1,0,0:0:0:0:
365,224,162650,1,0,0:0:0:0:
350,194,162725,1,8,0:0:0:0:
365,224,162800,1,8,0:0:0:0:
373,234,162950,1,0,0:0:0:0:
341,210,163100,1,8,0:0:0:0:
396,239,163175,1,8,0:0:0:0:
369,225,163250,1,0,0:0:0:0:
368,213,163325,1,0,0:0:0:0:
367,210,163400,1,8,0:0:0:0:
365,209,163475,1,0,0:0:0:0:
364,208,163550,1,8,0:0:0:0:
364,208,163625,1,8,0:0:0:0:
364,208,163700,1,0,0:0:0:0:
362,208,163775,1,0,0:0:0:0:
358,207,163850,1,8,0:0:0:0:
353,204,164000,1,8,0:0:0:0:
372,232,164150,1,8,0:0:0:0:
372,232,164225,1,8,0:0:0:0:
391,271,164300,1,8,0:0:0:0:
391,271,164375,1,8,0:0:0:0:
391,271,164450,1,0,0:0:0:0:
391,271,164525,1,0,0:0:0:0:
391,271,164600,1,8,0:0:0:0:
391,271,164675,1,8,0:0:0:0:
391,271,164750,1,0,0:0:0:0:
391,271,164825,1,0,0:0:0:0:
391,271,164900,1,8,0:0:0:0:
391,271,164975,1,0,0:0:0:0:
391,271,165050,1,8,0:0:0:0:
391,271,165125,1,0,0:0:0:0:
391,271,165200,1,0,0:0:0:0:
388,259,165275,1,0,0:0:0:0:
388,259,165350,1,8,0:0:0:0:
359,232,165425,1,8,0:0:0:0:
391,271,165500,1,0,0:0:0:0:
391,271,165575,1,8,0:0:0:0:
391,271,165650,1,8,0:0:0:0:
391,271,165725,1,8,0:0:0:0:
359,232,165800,1,0,0:0:0:0:
359,232,165875,1,0,0:0:0:0:
359,232,165950,1,8,0:0:0:0:
359,232,166025,1,8,0:0:0:0:
333,262,166100,1,8,0:0:0:0:
333,262,166175,1,0,0:0:0:0:
333,262,166250,1,8,0:0:0:0:
331,179,166325,1,8,0:0:0:0:
391,223,166400,1,0,0:0:0:0:
362,214,166475,1,0,0:0:0:0:
359,211,166550,1,12,0:0:0:0:
158,329,166700,1,0,0:0:0:0:
297,162,166850,1,8,0:0:0:0:
229,246,166925,1,8,0:0:0:0:
297,161,167000,1,0,0:0:0:0:
230,246,167075,1,0,0:0:0:0:
297,161,167150,1,8,0:0:0:0:
257,218,167225,1,0,0:0:0:0:
297,161,167300,1,8,0:0:0:0:
230,246,167375,1,8,0:0:0:0:
297,161,167450,1,0,0:0:0:0:
308,172,167525,1,0,0:0:0:0:
282,182,167600,1,8,0:0:0:0:
308,172,167675,1,0,0:0:0:0:
308,172,167750,1,8,0:0:0:0:
297,161,167900,1,8,0:0:0:0:
284,170,167975,1,0,0:0:0:0:
297,161,168050,1,8,0:0:0:0:
230,246,168125,1,0,0:0:0:0:
297,161,168200,1,8,0:0:0:0:
230,246,168275,1,0,0:0:0:0:
283,183,168350,1,8,0:0:0:0:
283,183,168425,1,8,0:0:0:0:
283,183,168500,1,0,0:0:0:0:
283,183,168575,1,0,0:0:0:0:
283,183,168650,1,8,0:0:0:0:
283,183,168800,1,0,0:0:0:0:
283,183,168950,1,8,0:0:0:0:
283,183,169025,1,8,0:0:0:0:
283,183,169100,1,0,0:0:0:0:
68,180,169175,1,0,0:0:0:0:
32,177,169250,1,8,0:0:0:0:
68,180,169325,1,0,0:0:0:0:
73,178,169400,1,8,0:0:0:0:
74,178,169475,1,0,0:0:0:0:
74,178,169550,1,8,0:0:0:0:
74,178,169625,1,8,0:0:0:0:
74,178,169700,1,0,0:0:0:0:
75,178,169775,1,8,0:0:0:0:
75,178,169850,1,0,0:0:0:0:
75,178,169925,1,0,0:0:0:0:
76,178,170000,1,8,0:0:0:0:
309,213,170075,1,8,0:0:0:0:
309,213,170150,1,0,0:0:0:0:
74,178,170300,1,8,0:0:0:0:
74,178,170375,1,0,0:0:0:0:
74,178,170450,1,8,0:0:0:0:
74,178,170525,1,0,0:0:0:0:
75,178,170600,1,8,0:0:0:0:
321,201,170675,1,0,0:0:0:0:
321,201,170750,1,8,0:0:0:0:
321,201,170825,1,8,0:0:0:0:
75,178,170900,1,0,0:0:0:0:
75,180,170975,1,0,0:0:0:0:
73,178,171050,1,8,0:0:0:0:
73,178,171200,1,8,0:0:0:0:
327,144,171350,1,0,0:0:0:0:
327,144,171425,1,8,0:0:0:0:
327,144,171500,1,0,0:0:0:0:
327,144,171575,1,0,0:0:0:0:
327,144,171650,1,8,0:0:0:0:
280,160,171725,1,0,0:0:0:0:
280,160,171800,1,8,0:0:0:0:
280,160,171875,1,8,0:0:0:0:
280,160,171950,1,0,0:0:0:0:
280,160,172025,1,8,0:0:0:0:
280,160,172100,1,0,0:0:0:0:
280,160,172175,1,0,0:0:0:0:
288,112,172250,1,12,0:0:0:0:
301,152,172550,1,0,0:0:0:0:
301,152,172625,1,0,0:0:0:0:
301,152,172700,1,8,0:0:0:0:
301,152,172775,1,0,0:0:0:0:
301,152,172850,1,8,0:0:0:0:
343,189,172925,1,8,0:0:0:0:
335,186,173000,1,0,0:0:0:0:
310,180,173075,1,8,0:0:0:0:
310,180,173150,1,0,0:0:0:0:
310,180,173225,1,8,0:0:0:0:
310,180,173300,1,0,0:0:0:0:
310,180,173375,1,0,0:0:0:0:
288,240,173450,1,12,0:0:0:0:
311,197,173750,1,8,0:0:0:0:
310,209,173825,1,8,0:0:0:0:
311,197,173900,1,0,0:0:0:0:
311,197,173975,1,0,0:0:0:0:
311,197,174050,1,8,0:0:0:0:
293,194,174125,1,0,0:0:0:0:
294,194,174200,1,0,0:0:0:0:
294,194,174275,1,0,0:0:0:0:
294,194,174350,1,8,0:0:0:0:
294,194,174425,1,0,0:0:0:0:
294,194,174500,1,0,0:0:0:0:
294,194,174575,1,0,0:0:0:0:
294,194,174650,1,8,0:0:0:0:
294,194,174725,1,0,0:0:0:0:
293,194,174800,1,0,0:0:0:0:
293,194,174875,1,0,0:0:0:0:
305,195,174950,1,8,0:0:0:0:
326,188,175025,1,8,0:0:0:0:
303,184,175100,1,8,0:0:0:0:
303,184,175175,1,8,0:0:0:0:
303,190,175250,1,0,0:0:0:0:
303,190,175325,1,0,0:0:0:0:
303,190,175400,1,8,0:0:0:0:
303,190,175475,1,0,0:0:0:0:
303,190,175550,1,8,0:0:0:0:
303,190,175625,1,8,0:0:0:0:
305,195,175700,1,8,0:0:0:0:
303,190,175775,1,0,0:0:0:0:
303,190,175850,1,8,0:0:0:0:
303,190,175925,1,8,0:0:0:0:
303,190,176000,1,0,0:0:0:0:
303,190,176075,1,0,0:0:0:0:
303,190,176150,1,12,0:0:0:0:
369,148,176450,1,0,0:0:0:0:
369,148,176600,1,0,0:0:0:0:
369,148,176750,1,8,0:0:0:0:
375,181,176900,1,0,0:0:0:0:
375,181,177050,1,8,0:0:0:0:
342,175,177200,1,8,0:0:0:0:
375,181,177350,1,0,0:0:0:0:
335,202,177500,1,0,0:0:0:0:
335,202,177650,1,8,0:0:0:0:
334,202,177800,1,8,0:0:0:0:
375,181,177950,1,0,0:0:0:0:
335,202,178100,1,0,0:0:0:0:
375,181,178250,1,12,0:0:0:0:
375,181,178550,1,12,0:0:0:0:
335,202,178850,1,0,0:0:0:0:
319,201,179000,1,8,0:0:0:0:
335,202,179150,1,0,0:0:0:0:
335,202,179300,1,0,0:0:0:0:
375,181,179450,1,8,0:0:0:0:
342,186,179600,1,8,0:0:0:0:
375,181,179750,1,0,0:0:0:0:
332,189,179900,1,0,0:0:0:0:
367,201,179975,1,0,0:0:0:0:
332,189,180050,1,8,0:0:0:0:
327,189,180200,1,8,0:0:0:0:
361,193,180275,1,0,0:0:0:0:
332,189,180350,1,8,0:0:0:0:
367,199,180500,1,0,0:0:0:0:
367,201,180575,1,0,0:0:0:0:
367,201,180650,1,12,0:0:0:0:
174,210,180800,1,0,0:0:0:0:
356,191,180950,1,12,0:0:0:0:
341,180,181100,1,0,0:0:0:0:
379,236,181175,1,0,0:0:0:0:
341,180,181250,1,8,0:0:0:0:
339,180,181400,1,0,0:0:0:0:
339,180,181550,1,8,0:0:0:0:
312,199,181700,1,0,0:0:0:0:
324,182,181775,1,0,0:0:0:0:
337,171,181850,1,8,0:0:0:0:
390,222,181925,1,0,0:0:0:0:
341,180,182000,1,0,0:0:0:0:
315,181,182150,1,8,0:0:0:0:
315,181,182300,1,0,0:0:0:0:
364,225,182375,1,0,0:0:0:0:
381,206,182450,1,8,0:0:0:0:
315,181,182600,1,0,0:0:0:0:
350,198,182750,1,8,0:0:0:0:
350,198,182900,1,0,0:0:0:0:
336,166,182975,1,0,0:0:0:0:
327,193,183050,1,8,0:0:0:0:
347,186,183125,1,0,0:0:0:0:
334,210,183200,1,0,0:0:0:0:
303,199,183350,1,8,0:0:0:0:
315,181,183500,1,0,0:0:0:0:
151,200,183575,1,0,0:0:0:0:
315,181,183650,1,8,0:0:0:0:
315,181,183800,1,0,0:0:0:0:
315,181,183950,1,8,0:0:0:0:
315,181,184100,1,0,0:0:0:0:
378,189,184175,1,0,0:0:0:0:
315,181,184250,1,8,0:0:0:0:
342,210,184325,1,0,0:0:0:0:
315,181,184400,1,0,0:0:0:0:
316,183,184550,1,8,0:0:0:0:
319,188,184625,1,8,0:0:0:0:
319,188,184700,1,8,0:0:0:0:
319,188,184775,1,0,0:0:0:0:
319,188,184850,1,8,0:0:0:0:
319,188,184925,1,0,0:0:0:0:
319,188,185000,1,8,0:0:0:0:
319,188,185075,1,8,0:0:0:0:
319,188,185150,1,0,0:0:0:0:
319,188,185225,1,8,0:0:0:0:
319,188,185300,1,0,0:0:0:0:
319,188,185375,1,0,0:0:0:0:
319,188,185450,1,8,0:0:0:0:
319,188,185525,1,0,0:0:0:0:
319,188,185600,1,0,0:0:0:0:
319,188,185675,1,0,0:0:0:0:
319,188,185750,1,12,0:0:0:0:
319,188,185900,1,0,0:0:0:0:
319,188,186050,1,8,0:0:0:0:
367,216,186125,1,8,0:0:0:0:
367,216,186200,1,0,0:0:0:0:
306,210,186275,1,0,0:0:0:0:
365,235,186350,1,8,0:0:0:0:
319,188,186500,1,8,0:0:0:0:
319,188,186650,1,8,0:0:0:0:
319,188,186725,1,0,0:0:0:0:
319,188,186800,1,8,0:0:0:0:
328,196,186875,1,8,0:0:0:0:
319,188,186950,1,0,0:0:0:0:
319,188,187100,1,8,0:0:0:0:
319,188,187250,1,0,0:0:0:0:
346,181,187325,1,0,0:0:0:0:
319,188,187400,1,8,0:0:0:0:
365,235,187475,1,0,0:0:0:0:
319,188,187550,1,8,0:0:0:0:
319,188,187700,1,8,0:0:0:0:
319,188,187850,1,8,0:0:0:0:
295,197,187925,1,8,0:0:0:0:
396,231,188000,1,0,0:0:0:0:
439,272,188150,1,0,0:0:0:0:
395,261,188225,1,0,0:0:0:0:
365,235,188300,1,8,0:0:0:0:
319,188,188375,1,0,0:0:0:0:
319,188,188450,1,8,0:0:0:0:
331,206,188525,1,8,0:0:0:0:
319,188,188600,1,0,0:0:0:0:
385,233,188675,1,0,0:0:0:0:
319,188,188750,1,8,0:0:0:0:
319,188,188900,1,0,0:0:0:0:
319,188,189050,1,0,0:0:0:0:
319,188,189125,1,0,0:0:0:0:
319,188,189200,1,8,0:0:0:0:
319,188,189350,1,8,0:0:0:0:
319,188,189500,1,8,0:0:0:0:
319,188,189650,1,0,0:0:0:0:
319,188,189725,1,0,0:0:0:0:
319,188,189800,1,8,0:0:0:0:
319,188,189950,1,8,0:0:0:0:
329,214,190025,1,0,0:0:0:0:
319,188,190100,1,8,0:0:0:0:
328,212,190175,1,8,0:0:0:0:
319,188,190250,1,0,0:0:0:0:
319,188,190325,1,8,0:0:0:0:
319,188,190400,1,0,0:0:0:0:
310,187,190475,1,0,0:0:0:0:
319,188,190550,1,8,0:0:0:0:
305,178,190700,1,0,0:0:0:0:
346,226,190850,1,8,0:0:0:0:
352,218,190925,1,8,0:0:0:0:
352,218,191000,1,0,0:0:0:0:
337,213,191150,1,8,0:0:0:0:
299,204,191225,1,0,0:0:0:0:
299,204,191300,1,8,0:0:0:0:
259,153,191450,1,8,0:0:0:0:
328,242,191525,1,8,0:0:0:0:
337,213,191600,1,0,0:0:0:0:
259,184,191675,1,0,0:0:0:0:
349,216,191750,1,8,0:0:0:0:
350,216,191825,1,0,0:0:0:0:
337,213,191900,1,0,0:0:0:0:
337,213,192050,1,0,0:0:0:0:
322,195,192125,1,8,0:0:0:0:
337,213,192200,1,0,0:0:0:0:
304,197,192275,1,0,0:0:0:0:
328,186,192350,1,8,0:0:0:0:
323,186,192425,1,0,0:0:0:0:
319,185,192500,1,8,0:0:0:0:
319,185,192575,1,8,0:0:0:0:
337,213,192650,1,0,0:0:0:0:
337,213,192725,1,0,0:0:0:0:
326,186,192800,1,8,0:0:0:0:
317,198,192950,1,8,0:0:0:0:
352,179,193025,1,8,0:0:0:0:
326,174,193100,1,0,0:0:0:0:
325,169,193175,1,8,0:0:0:0:
325,169,193250,1,0,0:0:0:0:
323,170,193325,1,0,0:0:0:0:
325,170,193400,1,8,0:0:0:0:
325,170,193475,1,0,0:0:0:0:
325,170,193550,1,8,0:0:0:0:
325,170,193625,1,0,0:0:0:0:
325,170,193700,1,0,0:0:0:0:
325,170,193775,1,0,0:0:0:0:
326,174,193850,1,8,0:0:0:0:
325,169,193925,1,8,0:0:0:0:
325,169,194000,1,0,0:0:0:0:
323,170,194075,1,0,0:0:0:0:
325,170,194150,1,8,0:0:0:0:
325,170,194225,1,0,0:0:0:0:
325,170,194300,1,8,0:0:0:0:
325,170,194375,1,0,0:0:0:0:
325,170,194450,1,0,0:0:0:0:
325,170,194525,1,0,0:0:0:0:
322,165,194600,1,8,0:0:0:0:
325,169,194675,1,0,0:0:0:0:
325,169,194750,1,8,0:0:0:0:
323,170,194825,1,8,0:0:0:0:
325,170,194900,1,0,0:0:0:0:
325,170,194975,1,0,0:0:0:0:
325,170,195050,1,8,0:0:0:0:
325,170,195125,1,0,0:0:0:0:
325,170,195200,1,0,0:0:0:0:
325,170,195275,1,0,0:0:0:0:
322,165,195350,1,8,0:0:0:0:
325,169,195425,1,8,0:0:0:0:
325,169,195500,1,0,0:0:0:0:
323,170,195575,1,0,0:0:0:0:
325,170,195650,1,8,0:0:0:0:
325,170,195725,1,0,0:0:0:0:
325,170,195800,1,8,0:0:0:0:
325,170,195875,1,8,0:0:0:0:
325,170,195950,1,0,0:0:0:0:
325,170,196025,1,8,0:0:0:0:
322,165,196100,1,0,0:0:0:0:
325,169,196175,1,0,0:0:0:0:
325,169,196250,1,8,0:0:0:0:
323,170,196325,1,8,0:0:0:0:
325,170,196400,1,0,0:0:0:0:
301,168,196475,1,0,0:0:0:0:
334,169,196550,1,8,0:0:0:0:
342,168,196625,1,0,0:0:0:0:
342,168,196700,1,8,0:0:0:0:
342,168,196775,1,0,0:0:0:0:
342,168,196850,1,0,0:0:0:0:
341,168,196925,1,8,0:0:0:0:
341,168,197000,1,0,0:0:0:0:
341,168,197075,1,0,0:0:0:0:
317,169,197150,1,8,0:0:0:0:
316,169,197225,1,8,0:0:0:0:
315,169,197300,1,0,0:0:0:0:
314,169,197375,1,8,0:0:0:0:
306,166,197450,1,8,0:0:0:0:
310,164,197525,1,8,0:0:0:0:
311,164,197600,1,0,0:0:0:0:
335,163,197675,1,0,0:0:0:0:
325,169,197750,1,8,0:0:0:0:
328,193,197825,1,0,0:0:0:0:
325,170,197900,1,0,0:0:0:0:
325,170,197975,1,0,0:0:0:0:
325,170,198050,1,8,0:0:0:0:
325,170,198125,1,0,0:0:0:0:
325,170,198200,1,8,0:0:0:0:
325,170,198275,1,8,0:0:0:0:
322,165,198350,1,8,0:0:0:0:
325,169,198425,1,8,0:0:0:0:
325,169,198500,1,0,0:0:0:0:
323,170,198575,1,0,0:0:0:0:
325,170,198650,1,8,0:0:0:0:
325,170,198725,1,8,0:0:0:0:
325,170,198800,1,0,0:0:0:0:
325,170,198875,1,0,0:0:0:0:
325,170,198950,1,8,0:0:0:0:
325,170,199025,1,0,0:0:0:0:
322,165,199100,1,0,0:0:0:0:
325,169,199175,1,0,0:0:0:0:
325,169,199250,1,8,0:0:0:0:
323,170,199325,1,0,0:0:0:0:
325,170,199400,1,8,0:0:0:0:
325,170,199475,1,8,0:0:0:0:
325,170,199550,1,0,0:0:0:0:
325,170,199625,1,8,0:0:0:0:
325,170,199700,1,0,0:0:0:0:
325,170,199775,1,0,0:0:0:0:
322,165,199850,1,8,0:0:0:0:
325,169,199925,1,8,0:0:0:0:
325,169,200000,1,0,0:0:0:0:
325,169,200075,1,0,0:0:0:0:
309,173,200150,1,8,0:0:0:0:
325,170,200225,1,0,0:0:0:0:
319,171,200300,1,0,0:0:0:0:
319,169,200375,1,0,0:0:0:0:
319,166,200450,1,8,0:0:0:0:
317,163,200525,1,0,0:0:0:0:
316,160,200600,1,8,0:0:0:0:
316,160,200675,1,8,0:0:0:0:
316,160,200750,1,0,0:0:0:0:
321,165,200825,1,0,0:0:0:0:
322,166,200900,1,8,0:0:0:0:
325,170,200975,1,0,0:0:0:0:
322,166,201050,1,8,0:0:0:0:
319,169,201125,1,0,0:0:0:0:
319,166,201200,1,0,0:0:0:0:
317,163,201275,1,0,0:0:0:0:
335,155,201350,1,8,0:0:0:0:
335,155,201425,1,0,0:0:0:0:
335,155,201500,1,0,0:0:0:0:
335,155,201575,1,8,0:0:0:0:
335,155,201650,1,0,0:0:0:0:
335,155,201725,1,0,0:0:0:0:
335,155,201800,1,8,0:0:0:0:
335,155,201875,1,0,0:0:0:0:
335,155,201950,1,8,0:0:0:0:
335,155,202025,1,8,0:0:0:0:
335,155,202100,1,8,0:0:0:0:
335,155,202175,1,8,0:0:0:0:
335,155,202250,1,0,0:0:0:0:
335,155,202325,1,0,0:0:0:0:
335,155,202400,1,0,0:0:0:0:
335,155,202475,1,0,0:0:0:0:
335,155,202550,1,12,0:0:0:0:
289,189,203000,1,0,0:0:0:0:
291,185,203450,1,0,0:0:0:0:
375,227,203750,1,12,0:0:0:0:
320,197,204350,1,0,0:0:0:0:
320,197,204650,1,0,0:0:0:0:
354,177,204950,1,8,0:0:0:0:
395,197,205025,1,8,0:0:0:0:
368,188,205100,1,8,0:0:0:0:
367,187,205175,1,8,0:0:0:0:
366,187,205250,1,0,0:0:0:0:
388,237,205325,1,0,0:0:0:0:
352,211,205400,1,8,0:0:0:0:
382,201,205550,1,0,0:0:0:0:
382,201,205700,1,8,0:0:0:0:
378,253,205775,1,0,0:0:0:0:
379,200,205850,1,8,0:0:0:0:
379,200,205925,1,8,0:0:0:0:
379,200,206000,1,0,0:0:0:0:
379,200,206075,1,0,0:0:0:0:
379,200,206150,1,8,0:0:0:0:
352,211,206300,1,0,0:0:0:0:
356,212,206375,1,0,0:0:0:0:
356,212,206450,1,8,0:0:0:0:
314,222,206525,1,8,0:0:0:0:
341,229,206600,1,0,0:0:0:0:
362,211,206750,1,8,0:0:0:0:
302,207,206825,1,8,0:0:0:0:
302,207,206900,1,0,0:0:0:0:
346,223,206975,1,8,0:0:0:0:
362,211,207050,1,0,0:0:0:0:
302,207,207125,1,0,0:0:0:0:
302,207,207200,1,8,0:0:0:0:
352,220,207275,1,8,0:0:0:0:
374,187,207350,1,4,0:0:0:0:
302,207,207650,1,0,0:0:0:0:
302,207,207950,1,0,0:0:0:0:
302,207,208250,1,0,0:0:0:0:
287,199,208550,1,12,0:0:0:0:
268,210,208850,1,0,0:0:0:0:
287,199,209150,1,0,0:0:0:0:
284,203,209450,1,0,0:0:0:0:
325,219,209750,1,8,0:0:0:0:
335,191,209825,1,8,0:0:0:0:
335,191,209900,1,0,0:0:0:0:
335,191,209975,1,0,0:0:0:0:
335,191,210050,1,8,0:0:0:0:
335,191,210125,1,0,0:0:0:0:
335,191,210200,1,8,0:0:0:0:
335,191,210275,1,8,0:0:0:0:
335,191,210350,1,0,0:0:0:0:
335,191,210425,1,0,0:0:0:0:
335,191,210500,1,8,0:0:0:0:
335,191,210575,1,0,0:0:0:0:
335,191,210650,1,8,0:0:0:0:
335,191,210725,1,8,0:0:0:0:
335,191,210800,1,0,0:0:0:0:
335,191,210875,1,0,0:0:0:0:
355,192,210950,1,8,0:0:0:0:
323,189,211025,1,0,0:0:0:0:
323,189,211100,1,8,0:0:0:0:
323,189,211175,1,0,0:0:0:0:
323,189,211250,1,0,0:0:0:0:
323,189,211325,1,0,0:0:0:0:
323,189,211400,1,8,0:0:0:0:
323,189,211475,1,0,0:0:0:0:
323,189,211550,1,8,0:0:0:0:
321,191,211625,1,8,0:0:0:0:
323,189,211700,1,8,0:0:0:0:
323,189,211775,1,0,0:0:0:0:
323,189,211850,1,8,0:0:0:0:
323,189,211925,1,8,0:0:0:0:
323,189,212000,1,0,0:0:0:0:
323,189,212075,1,0,0:0:0:0:
323,189,212150,1,12,0:0:0:0:
365,254,212300,1,8,0:0:0:0:
383,233,212450,1,0,0:0:0:0:
383,233,212525,1,0,0:0:0:0:
383,233,212600,1,8,0:0:0:0:
382,232,212675,1,0,0:0:0:0:
381,231,212750,1,8,0:0:0:0:
376,202,212900,1,8,0:0:0:0:
445,238,213050,1,0,0:0:0:0:
396,246,213125,1,0,0:0:0:0:
396,249,213200,1,8,0:0:0:0:
412,233,213275,1,8,0:0:0:0:
412,233,213350,1,0,0:0:0:0:
383,233,213500,1,8,0:0:0:0:
409,249,213650,1,0,0:0:0:0:
406,229,213725,1,0,0:0:0:0:
406,229,213800,1,8,0:0:0:0:
441,218,213950,1,0,0:0:0:0:
439,214,214100,1,8,0:0:0:0:
417,258,214250,1,8,0:0:0:0:
417,252,214325,1,8,0:0:0:0:
422,253,214400,1,0,0:0:0:0:
414,243,214475,1,0,0:0:0:0:
412,243,214550,1,8,0:0:0:0:
427,224,214700,1,8,0:0:0:0:
269,254,214850,1,0,0:0:0:0:
420,263,214925,1,0,0:0:0:0:
404,236,215000,1,8,0:0:0:0:
432,222,215150,1,0,0:0:0:0:
432,222,215300,1,8,0:0:0:0:
434,243,215450,1,8,0:0:0:0:
434,243,215525,1,8,0:0:0:0:
430,241,215600,1,0,0:0:0:0:
428,243,215750,1,8,0:0:0:0:
428,243,215825,1,0,0:0:0:0:
444,218,215900,1,8,0:0:0:0:
420,237,215975,1,8,0:0:0:0:
444,218,216050,1,0,0:0:0:0:
444,218,216125,1,0,0:0:0:0:
442,219,216200,1,8,0:0:0:0:
442,219,216350,1,0,0:0:0:0:
449,216,216425,1,0,0:0:0:0:
452,216,216500,1,8,0:0:0:0:
344,251,216575,1,0,0:0:0:0:
344,251,216650,1,8,0:0:0:0:
344,251,216725,1,8,0:0:0:0:
344,251,216800,1,0,0:0:0:0:
311,148,216950,1,4,0:0:0:0:
337,151,217100,1,8,0:0:0:0:
337,151,217175,1,8,0:0:0:0:
337,151,217250,1,0,0:0:0:0:
346,153,217325,1,8,0:0:0:0:
337,151,217400,1,0,0:0:0:0:
337,151,217475,1,0,0:0:0:0:
337,151,217550,1,8,0:0:0:0:
470,285,217625,1,0,0:0:0:0:
336,154,217700,1,8,0:0:0:0:
337,151,217775,1,8,0:0:0:0:
337,151,217850,1,0,0:0:0:0:
416,238,217925,1,0,0:0:0:0:
337,151,218000,1,8,0:0:0:0:
416,238,218075,1,0,0:0:0:0:
337,151,218150,1,8,0:0:0:0:
337,151,218225,1,0,0:0:0:0:
337,151,218300,1,8,0:0:0:0:
337,151,218375,1,8,0:0:0:0:
336,154,218450,1,0,0:0:0:0:
337,151,218525,1,0,0:0:0:0:
337,151,218600,1,8,0:0:0:0:
337,151,218675,1,0,0:0:0:0:
337,151,218750,1,8,0:0:0:0:
420,240,218825,1,0,0:0:0:0:
337,151,218900,1,0,0:0:0:0:
420,240,218975,1,0,0:0:0:0:
337,151,219050,1,8,0:0:0:0:
337,151,219125,1,0,0:0:0:0:
336,154,219200,1,8,0:0:0:0:
424,244,219275,1,0,0:0:0:0:
330,166,219350,1,8,0:0:0:0:
303,142,219425,1,8,0:0:0:0:
303,142,219500,1,8,0:0:0:0:
303,142,219575,1,8,0:0:0:0:
303,142,219650,1,8,0:0:0:0:
303,142,219725,1,8,0:0:0:0:
303,142,219800,1,0,0:0:0:0:
303,142,219875,1,8,0:0:0:0:
303,142,219950,1,8,0:0:0:0:
312,148,220025,1,8,0:0:0:0:
312,148,220100,1,8,0:0:0:0:
312,148,220175,1,8,0:0:0:0:
312,148,220250,1,0,0:0:0:0:
312,148,220325,1,8,0:0:0:0:
312,148,220400,1,8,0:0:0:0:
312,148,220475,1,8,0:0:0:0:
312,148,220550,1,0,0:0:0:0:
334,156,220625,1,0,0:0:0:0:
324,157,220700,1,0,0:0:0:0:
324,157,220775,1,0,0:0:0:0:
324,157,220850,1,0,0:0:0:0:
324,157,220925,1,0,0:0:0:0:
324,157,221000,1,8,0:0:0:0:
324,157,221075,1,0,0:0:0:0:
324,157,221150,1,8,0:0:0:0:
324,157,221225,1,0,0:0:0:0:
324,157,221300,1,0,0:0:0:0:
324,157,221375,1,0,0:0:0:0:
324,157,221450,1,8,0:0:0:0:
324,157,221525,1,8,0:0:0:0:
324,157,221600,1,8,0:0:0:0:
324,157,221675,1,8,0:0:0:0:
226,243,221750,1,4,0:0:0:0:
289,177,221900,1,0,0:0:0:0:
289,177,222050,1,0,0:0:0:0:
289,177,222125,1,0,0:0:0:0:
289,177,222200,1,8,0:0:0:0:
289,177,222350,1,8,0:0:0:0:
334,172,222500,1,8,0:0:0:0:
334,172,222575,1,8,0:0:0:0:
334,172,222650,1,0,0:0:0:0:
334,172,222725,1,8,0:0:0:0:
334,172,222800,1,0,0:0:0:0:
261,157,222875,1,0,0:0:0:0:
334,172,222950,1,8,0:0:0:0:
334,172,223100,1,8,0:0:0:0:
334,172,223250,1,0,0:0:0:0:
311,186,223325,1,0,0:0:0:0:
334,172,223400,1,8,0:0:0:0:
320,165,223475,1,8,0:0:0:0:
194,203,223550,1,0,0:0:0:0:
323,177,223700,1,8,0:0:0:0:
334,172,223850,1,0,0:0:0:0:
328,188,223925,1,0,0:0:0:0:
334,172,224000,1,0,0:0:0:0:
329,257,224075,1,0,0:0:0:0:
334,172,224150,1,12,0:0:0:0:
334,172,224300,1,0,0:0:0:0:
319,218,224450,1,0,0:0:0:0:
319,218,224525,1,0,0:0:0:0:
319,218,224600,1,8,0:0:0:0:
334,172,224750,1,0,0:0:0:0:
334,172,224900,1,8,0:0:0:0:
334,172,225050,1,8,0:0:0:0:
319,218,225125,1,0,0:0:0:0:
319,218,225200,1,8,0:0:0:0:
370,229,225350,1,0,0:0:0:0:
371,206,225500,1,0,0:0:0:0:
374,207,225575,1,8,0:0:0:0:
374,207,225650,1,0,0:0:0:0:
371,206,225725,1,0,0:0:0:0:
371,206,225800,1,8,0:0:0:0:
371,206,225950,1,8,0:0:0:0:
291,209,226025,1,0,0:0:0:0:
308,178,226100,1,0,0:0:0:0:
291,209,226175,1,0,0:0:0:0:
308,178,226250,1,8,0:0:0:0:
376,249,226325,1,8,0:0:0:0:
308,178,226400,1,0,0:0:0:0:
304,168,226550,1,4,0:0:0:0:
327,170,226700,1,8,0:0:0:0:
327,170,226850,1,0,0:0:0:0:
327,170,226925,1,8,0:0:0:0:
327,170,227000,1,0,0:0:0:0:
327,170,227075,1,0,0:0:0:0:
327,170,227150,1,8,0:0:0:0:
325,184,227300,1,0,0:0:0:0:
316,186,227450,1,0,0:0:0:0:
385,188,227525,1,0,0:0:0:0:
316,186,227600,1,8,0:0:0:0:
258,175,227675,1,0,0:0:0:0:
333,203,227750,1,8,0:0:0:0:
336,202,227825,1,8,0:0:0:0:
340,162,227900,1,0,0:0:0:0:
333,193,228050,1,0,0:0:0:0:
333,193,228200,1,8,0:0:0:0:
353,190,228275,1,8,0:0:0:0:
325,182,228350,1,0,0:0:0:0:
331,192,228500,1,0,0:0:0:0:
325,170,228650,1,8,0:0:0:0:
354,185,228725,1,8,0:0:0:0:
345,189,228800,1,0,0:0:0:0:
357,186,228875,1,0,0:0:0:0:
322,167,228950,1,12,0:0:0:0:
322,167,229100,1,0,0:0:0:0:
319,192,229175,1,8,0:0:0:0:
319,192,229250,1,0,0:0:0:0:
341,215,229325,1,0,0:0:0:0:
354,185,229400,1,8,0:0:0:0:
319,192,229550,1,0,0:0:0:0:
319,192,229625,1,8,0:0:0:0:
319,192,229700,1,8,0:0:0:0:
319,192,229775,1,0,0:0:0:0:
319,192,229850,1,8,0:0:0:0:
302,189,229925,1,0,0:0:0:0:
319,192,230000,1,0,0:0:0:0:
268,157,230150,1,8,0:0:0:0:
309,169,230225,1,8,0:0:0:0:
310,169,230300,1,0,0:0:0:0:
310,169,230375,1,0,0:0:0:0:
310,169,230450,1,8,0:0:0:0:
310,169,230525,1,8,0:0:0:0:
310,169,230600,1,0,0:0:0:0:
310,169,230675,1,0,0:0:0:0:
310,169,230750,1,8,0:0:0:0:
309,169,230825,1,0,0:0:0:0:
309,169,230900,1,0,0:0:0:0:
309,169,230975,1,0,0:0:0:0:
310,169,231050,1,8,0:0:0:0:
310,169,231125,1,0,0:0:0:0:
310,169,231200,1,0,0:0:0:0:
274,259,231275,1,0,0:0:0:0:
310,169,231350,1,12,0:0:0:0:
111,159,231500,1,0,0:0:0:0:
111,159,231575,1,0,0:0:0:0:
111,159,231650,1,8,0:0:0:0:
111,159,231725,1,0,0:0:0:0:
111,159,231800,1,0,0:0:0:0:
206,199,231875,1,0,0:0:0:0:
206,199,231950,1,8,0:0:0:0:
206,199,232025,1,8,0:0:0:0:
206,199,232100,1,0,0:0:0:0:
206,199,232175,1,0,0:0:0:0:
206,199,232250,1,8,0:0:0:0:
206,199,232325,1,0,0:0:0:0:
206,199,232400,1,0,0:0:0:0:
206,199,232475,1,0,0:0:0:0:
206,199,232550,1,8,0:0:0:0:
206,199,232625,1,0,0:0:0:0:
206,199,232700,1,8,0:0:0:0:
206,199,232775,1,8,0:0:0:0:
206,199,232850,1,0,0:0:0:0:
206,199,232925,1,0,0:0:0:0:
206,199,233000,1,8,0:0:0:0:
206,199,233075,1,8,0:0:0:0:
206,199,233150,1,8,0:0:0:0:
206,199,233225,1,8,0:0:0:0:
206,199,233300,1,0,0:0:0:0:
206,199,233375,1,0,0:0:0:0:
206,199,233450,1,8,0:0:0:0:
206,199,233525,1,8,0:0:0:0:
206,199,233600,1,0,0:0:0:0:
206,199,233675,1,0,0:0:0:0:
206,199,233750,1,12,0:0:0:0:
206,199,233900,1,8,0:0:0:0:
206,199,233975,1,0,0:0:0:0:
206,199,234050,1,8,0:0:0:0:
206,199,234125,1,8,0:0:0:0:
206,199,234200,1,0,0:0:0:0:
206,199,234275,1,0,0:0:0:0:
206,199,234350,1,8,0:0:0:0:
206,199,234425,1,0,0:0:0:0:
206,199,234500,1,8,0:0:0:0:
206,199,234575,1,8,0:0:0:0:
206,199,234650,1,0,0:0:0:0:
206,199,234725,1,8,0:0:0:0:
206,199,234800,1,0,0:0:0:0:
206,199,234875,1,0,0:0:0:0:
211,198,234950,1,8,0:0:0:0:
304,167,235025,1,0,0:0:0:0:
277,184,235100,1,0,0:0:0:0:
277,184,235175,1,0,0:0:0:0:
277,184,235250,1,8,0:0:0:0:
277,184,235325,1,0,0:0:0:0:
277,184,235400,1,8,0:0:0:0:
277,184,235475,1,8,0:0:0:0:
277,184,235550,1,0,0:0:0:0:
277,184,235625,1,8,0:0:0:0:
277,184,235700,1,8,0:0:0:0:
277,184,235775,1,0,0:0:0:0:
277,184,235850,1,8,0:0:0:0:
277,184,235925,1,0,0:0:0:0:
277,184,236000,1,8,0:0:0:0:
277,184,236075,1,8,0:0:0:0:
277,184,236150,1,4,0:0:0:0:
277,209,236300,1,0,0:0:0:0:
383,250,236450,1,8,0:0:0:0:
274,204,236525,1,8,0:0:0:0:
274,204,236600,1,0,0:0:0:0:
274,204,236675,1,0,0:0:0:0:
274,204,236750,1,8,0:0:0:0:
274,204,236825,1,0,0:0:0:0:
274,204,236900,1,8,0:0:0:0:
274,204,237050,1,0,0:0:0:0:
274,204,237125,1,0,0:0:0:0:
331,238,237200,1,0,0:0:0:0:
319,222,237275,1,0,0:0:0:0:
319,222,237350,1,8,0:0:0:0:
319,222,237500,1,0,0:0:0:0:
319,222,237575,1,8,0:0:0:0:
319,221,237650,1,0,0:0:0:0:
319,221,237725,1,0,0:0:0:0:
319,221,237800,1,8,0:0:0:0:
319,221,237875,1,8,0:0:0:0:
319,221,237950,1,0,0:0:0:0:
319,222,238100,1,8,0:0:0:0:
319,222,238250,1,0,0:0:0:0:
319,215,238325,1,0,0:0:0:0:
319,221,238400,1,8,0:0:0:0:
319,221,238475,1,8,0:0:0:0:
333,202,238550,1,4,0:0:0:0:
333,207,238700,1,8,0:0:0:0:
334,213,238850,1,8,0:0:0:0:
334,213,238925,1,8,0:0:0:0:
332,207,239000,1,0,0:0:0:0:
319,222,239075,1,0,0:0:0:0:
332,207,239150,1,8,0:0:0:0:
334,213,239225,1,0,0:0:0:0:
332,207,239300,1,8,0:0:0:0:
333,207,239450,1,0,0:0:0:0:
334,214,239525,1,8,0:0:0:0:
334,213,239600,1,0,0:0:0:0:
401,254,239675,1,0,0:0:0:0:
332,207,239750,1,8,0:0:0:0:
332,207,239900,1,8,0:0:0:0:
354,235,240050,1,0,0:0:0:0:
376,242,240125,1,0,0:0:0:0:
363,232,240200,1,8,0:0:0:0:
349,226,240275,1,0,0:0:0:0:
348,225,240350,1,8,0:0:0:0:
347,224,240425,1,8,0:0:0:0:
346,223,240500,1,8,0:0:0:0:
323,199,240575,1,8,0:0:0:0:
323,199,240650,1,0,0:0:0:0:
322,199,240725,1,0,0:0:0:0:
341,266,240800,1,8,0:0:0:0:
338,200,240875,1,8,0:0:0:0:
344,226,240950,1,4,0:0:0:0:
344,226,241100,1,8,0:0:0:0:
268,220,241250,1,8,0:0:0:0:
344,226,241325,1,0,0:0:0:0:
344,226,241400,1,8,0:0:0:0:
344,226,241475,1,0,0:0:0:0:
344,226,241550,1,8,0:0:0:0:
344,226,241625,1,8,0:0:0:0:
344,226,241700,1,0,0:0:0:0:
344,226,241775,1,0,0:0:0:0:
344,226,241850,1,8,0:0:0:0:
344,226,241925,1,0,0:0:0:0:
344,226,242000,1,0,0:0:0:0:
344,226,242075,1,0,0:0:0:0:
344,226,242150,1,8,0:0:0:0:
355,215,242300,1,0,0:0:0:0:
349,211,242450,1,0,0:0:0:0:
348,211,242525,1,0,0:0:0:0:
341,203,242600,1,8,0:0:0:0:
328,187,242750,1,8,0:0:0:0:
347,195,242825,1,0,0:0:0:0:
347,195,242900,1,0,0:0:0:0:
347,195,242975,1,0,0:0:0:0:
347,195,243050,1,8,0:0:0:0:
347,195,243125,1,8,0:0:0:0:
347,195,243200,1,0,0:0:0:0:
360,217,243350,1,0,0:0:0:0:
360,217,243425,1,8,0:0:0:0:
353,217,243500,1,8,0:0:0:0:
340,211,243575,1,8,0:0:0:0:
340,211,243650,1,8,0:0:0:0:
340,210,243725,1,8,0:0:0:0:
388,194,243800,1,0,0:0:0:0:
388,194,243875,1,8,0:0:0:0:
380,192,243950,1,8,0:0:0:0:
380,192,244025,1,8,0:0:0:0:
380,192,244100,1,8,0:0:0:0:
380,192,244175,1,8,0:0:0:0:
380,192,244250,1,0,0:0:0:0:
380,192,244325,1,8,0:0:0:0:
380,192,244400,1,8,0:0:0:0:
380,192,244475,1,8,0:0:0:0:
380,191,244550,1,0,0:0:0:0:
380,191,244625,1,0,0:0:0:0:
380,192,244700,1,8,0:0:0:0:
380,192,244775,1,0,0:0:0:0:
380,192,244850,1,8,0:0:0:0:
359,190,244925,1,0,0:0:0:0:
359,190,245000,1,8,0:0:0:0:
359,190,245075,1,8,0:0:0:0:
359,190,245150,1,0,0:0:0:0:
359,190,245225,1,0,0:0:0:0:
359,190,245300,1,8,0:0:0:0:
359,190,245375,1,0,0:0:0:0:
364,190,245450,1,8,0:0:0:0:
328,235,245525,1,8,0:0:0:0:
351,192,245600,1,0,0:0:0:0:
328,235,245675,1,0,0:0:0:0:
357,211,245750,1,8,0:0:0:0:
352,217,245825,1,0,0:0:0:0:
352,217,245900,1,8,0:0:0:0:
352,217,245975,1,0,0:0:0:0:
352,217,246050,1,8,0:0:0:0:
352,217,246125,1,0,0:0:0:0:
352,217,246200,1,8,0:0:0:0:
352,217,246275,1,0,0:0:0:0:
357,211,246350,1,8,0:0:0:0:
352,217,246425,1,0,0:0:0:0:
352,217,246500,1,8,0:0:0:0:
352,217,246575,1,0,0:0:0:0:
352,217,246650,1,8,0:0:0:0:
352,217,246725,1,0,0:0:0:0:
352,217,246800,1,8,0:0:0:0:
352,217,246875,1,0,0:0:0:0:
357,211,246950,1,8,0:0:0:0:
352,217,247025,1,0,0:0:0:0:
352,217,247100,1,8,0:0:0:0:
352,217,247175,1,0,0:0:0:0:
352,217,247250,1,8,0:0:0:0:
352,217,247325,1,0,0:0:0:0:
352,217,247400,1,8,0:0:0:0:
352,217,247475,1,0,0:0:0:0:
357,211,247550,1,8,0:0:0:0:
352,217,247625,1,8,0:0:0:0:
352,217,247700,1,0,0:0:0:0:
352,217,247775,1,0,0:0:0:0:
352,217,247850,1,8,0:0:0:0:
352,217,247925,1,8,0:0:0:0:
352,217,248000,1,0,0:0:0:0:
344,210,248150,1,12,0:0:0:0:
340,210,248300,1,8,0:0:0:0:
339,211,248450,1,8,0:0:0:0:
339,211,248600,1,8,0:0:0:0:
339,211,248750,1,0,0:0:0:0:
339,211,249350,1,0,0:0:0:0:
339,211,249950,1,0,0:0:0:0:
330,219,250100,1,0,0:0:0:0:
330,218,250250,1,8,0:0:0:0:
362,214,250400,1,0,0:0:0:0:
356,206,250550,1,12,0:0:0:0:
356,200,250700,1,8,0:0:0:0:
356,206,250850,1,8,0:0:0:0:
356,206,251000,1,8,0:0:0:0:
354,200,251150,1,0,0:0:0:0:
345,187,251750,1,0,0:0:0:0:
365,202,252350,1,0,0:0:0:0:
289,174,252500,1,8,0:0:0:0:
289,174,252650,1,0,0:0:0:0:
289,174,252800,1,0,0:0:0:0:
345,187,252950,1,12,0:0:0:0:
345,187,253100,1,8,0:0:0:0:
345,187,253250,1,8,0:0:0:0:
345,187,253400,1,8,0:0:0:0:
345,187,253550,1,0,0:0:0:0:
362,204,254150,1,0,0:0:0:0:
362,204,254750,1,0,0:0:0:0:
315,190,254900,1,0,0:0:0:0:
315,190,255050,1,8,0:0:0:0:
315,190,255200,1,0,0:0:0:0:
296,195,255350,1,12,0:0:0:0:
296,195,255500,1,8,0:0:0:0:
296,195,255650,1,8,0:0:0:0:
296,195,255800,1,8,0:0:0:0:
296,195,255950,1,0,0:0:0:0:
296,195,256550,1,0,0:0:0:0:
243,210,257150,1,0,0:0:0:0:
276,197,257750,1,8,0:0:0:0:
320,208,257825,1,0,0:0:0:0:
320,208,257900,1,0,0:0:0:0:
320,208,257975,1,8,0:0:0:0:
320,208,258050,1,0,0:0:0:0:
320,208,258125,1,0,0:0:0:0:
320,208,258200,1,8,0:0:0:0:
320,208,258275,1,0,0:0:0:0:
320,224,258350,1,8,0:0:0:0:
320,208,258425,1,8,0:0:0:0:
320,208,258500,1,8,0:0:0:0:
320,208,258575,1,0,0:0:0:0:
320,208,258650,1,8,0:0:0:0:
320,208,258725,1,8,0:0:0:0:
320,208,258800,1,0,0:0:0:0:
320,208,258875,1,8,0:0:0:0:
320,208,258950,1,0,0:0:0:0:
336,192,259025,1,0,0:0:0:0:
336,192,259100,1,0,0:0:0:0:
336,192,259175,1,8,0:0:0:0:
336,192,259250,1,0,0:0:0:0:
336,192,259325,1,0,0:0:0:0:
336,192,259400,1,8,0:0:0:0:
336,192,259475,1,0,0:0:0:0:
336,192,259550,1,8,0:0:0:0:
336,192,259625,1,8,0:0:0:0:
336,192,259700,1,8,0:0:0:0:
336,192,259775,1,0,0:0:0:0:
336,192,259850,1,0,0:0:0:0:
336,192,259925,1,0,0:0:0:0:
288,160,260000,1,8,0:0:0:0:
276,197,260150,1,8,0:0:0:0:
320,208,260225,1,8,0:0:0:0:
320,208,260300,1,8,0:0:0:0:
320,208,260375,1,0,0:0:0:0:
320,208,260450,1,8,0:0:0:0:
320,208,260525,1,0,0:0:0:0:
320,208,260600,1,0,0:0:0:0:
320,208,260675,1,0,0:0:0:0:
320,224,260750,1,8,0:0:0:0:
320,208,260825,1,8,0:0:0:0:
320,208,260900,1,8,0:0:0:0:
320,208,260975,1,0,0:0:0:0:
320,208,261050,1,8,0:0:0:0:
320,208,261125,1,0,0:0:0:0:
320,208,261200,1,0,0:0:0:0:
320,208,261275,1,0,0:0:0:0:
320,208,261350,1,8,0:0:0:0:
336,192,261425,1,0,0:0:0:0:
336,192,261500,1,8,0:0:0:0:
336,192,261575,1,8,0:0:0:0:
336,192,261650,1,0,0:0:0:0:
336,192,261725,1,0,0:0:0:0:
336,192,261800,1,8,0:0:0:0:
336,192,261875,1,0,0:0:0:0:
336,192,261950,1,8,0:0:0:0:
336,192,262025,1,8,0:0:0:0:
336,192,262100,1,8,0:0:0:0:
336,192,262175,1,0,0:0:0:0:
336,192,262250,1,0,0:0:0:0:
336,192,262325,1,0,0:0:0:0:
288,160,262400,1,8,0:0:0:0:
320,176,262550,1,8,0:0:0:0:
320,176,262625,1,8,0:0:0:0:
320,176,262700,1,8,0:0:0:0:
320,176,262775,1,0,0:0:0:0:
320,176,262850,1,8,0:0:0:0:
320,176,262925,1,0,0:0:0:0:
320,176,263000,1,0,0:0:0:0:
320,176,263075,1,8,0:0:0:0:
320,176,263150,1,0,0:0:0:0:
320,176,263225,1,8,0:0:0:0:
320,176,263300,1,0,0:0:0:0:
320,176,263375,1,0,0:0:0:0:
320,176,263450,1,8,0:0:0:0:
320,176,263525,1,0,0:0:0:0:
320,176,263600,1,0,0:0:0:0:
320,176,263675,1,0,0:0:0:0:
320,176,263750,1,8,0:0:0:0:
320,176,263825,1,0,0:0:0:0:
320,176,263900,1,8,0:0:0:0:
320,176,263975,1,8,0:0:0:0:
320,176,264050,1,0,0:0:0:0:
320,176,264125,1,8,0:0:0:0:
320,176,264200,1,0,0:0:0:0:
320,176,264275,1,0,0:0:0:0:
320,176,264350,1,8,0:0:0:0:
320,176,264425,1,8,0:0:0:0:
320,176,264500,1,8,0:0:0:0:
320,176,264575,1,0,0:0:0:0:
320,176,264650,1,0,0:0:0:0:
320,176,264725,1,0,0:0:0:0:
320,176,264800,1,8,0:0:0:0:
320,176,264950,1,8,0:0:0:0:
336,176,265025,1,0,0:0:0:0:
336,176,265100,1,0,0:0:0:0:
336,176,265175,1,8,0:0:0:0:
336,176,265250,1,0,0:0:0:0:
336,176,265325,1,8,0:0:0:0:
336,176,265400,1,8,0:0:0:0:
336,176,265475,1,0,0:0:0:0:
336,176,265550,1,8,0:0:0:0:
336,176,265625,1,0,0:0:0:0:
336,176,265700,1,0,0:0:0:0:
336,176,265775,1,8,0:0:0:0:
336,176,265850,1,0,0:0:0:0:
336,176,265925,1,8,0:0:0:0:
336,176,266000,1,0,0:0:0:0:
336,176,266075,1,0,0:0:0:0:
336,176,266150,1,8,0:0:0:0:
336,176,266225,1,0,0:0:0:0:
336,176,266300,1,8,0:0:0:0:
336,176,266375,1,8,0:0:0:0:
336,176,266450,1,8,0:0:0:0:
336,176,266525,1,0,0:0:0:0:
336,176,266600,1,0,0:0:0:0:
336,176,266675,1,0,0:0:0:0:
336,176,266750,1,8,0:0:0:0:
336,176,266825,1,0,0:0:0:0:
336,176,266900,1,8,0:0:0:0:
336,176,266975,1,8,0:0:0:0:
336,176,267050,1,8,0:0:0:0:
336,176,267125,1,0,0:0:0:0:
336,176,267200,1,0,0:0:0:0:
336,176,267275,1,0,0:0:0:0:
286,200,267350,1,12,0:0:0:0:
401,211,268550,1,12,0:0:0:0:
391,217,269150,1,0,0:0:0:0:
391,217,269750,1,8,0:0:0:0:
384,192,269825,1,8,0:0:0:0:
384,192,269900,1,0,0:0:0:0:
384,192,270050,1,8,0:0:0:0:
384,192,270200,1,0,0:0:0:0:
384,192,270350,1,8,0:0:0:0:
384,192,270425,1,0,0:0:0:0:
384,192,270500,1,8,0:0:0:0:
384,192,270650,1,8,0:0:0:0:
400,208,270725,1,8,0:0:0:0:
384,192,270800,1,8,0:0:0:0:
384,192,270950,1,0,0:0:0:0:
384,192,271025,1,0,0:0:0:0:
384,192,271100,1,8,0:0:0:0:
384,192,271250,1,8,0:0:0:0:
384,192,271400,1,0,0:0:0:0:
384,192,271550,1,8,0:0:0:0:
352,208,271625,1,0,0:0:0:0:
352,208,271700,1,8,0:0:0:0:
384,192,271850,1,8,0:0:0:0:
384,192,271925,1,8,0:0:0:0:
384,192,272000,1,8,0:0:0:0:
384,208,272150,1,0,0:0:0:0:
384,208,272300,1,0,0:0:0:0:
384,208,272450,1,8,0:0:0:0:
384,208,272600,1,0,0:0:0:0:
384,208,272750,1,0,0:0:0:0:
368,208,272900,1,8,0:0:0:0:
368,208,272975,1,0,0:0:0:0:
352,208,273050,1,0,0:0:0:0:
368,208,273125,1,0,0:0:0:0:
368,208,273200,1,8,0:0:0:0:
368,208,273275,1,8,0:0:0:0:
368,208,273350,1,0,0:0:0:0:
240,64,273500,1,8,0:0:0:0:
336,176,273650,1,0,0:0:0:0:
339,225,273725,1,0,0:0:0:0:
295,222,273800,1,8,0:0:0:0:
295,222,273875,1,0,0:0:0:0:
295,222,273950,1,8,0:0:0:0:
295,222,274025,1,0,0:0:0:0:
295,222,274100,1,8,0:0:0:0:
295,222,274175,1,0,0:0:0:0:
295,222,274250,1,8,0:0:0:0:
282,220,274325,1,0,0:0:0:0:
295,222,274400,1,8,0:0:0:0:
352,192,274550,1,8,0:0:0:0:
336,176,274625,1,0,0:0:0:0:
336,176,274700,1,8,0:0:0:0:
336,176,274775,1,0,0:0:0:0:
336,176,274850,1,0,0:0:0:0:
336,176,274925,1,8,0:0:0:0:
336,176,275000,1,0,0:0:0:0:
336,176,275075,1,0,0:0:0:0:
336,176,275150,1,8,0:0:0:0:
336,176,275225,1,8,0:0:0:0:
336,176,275300,1,0,0:0:0:0:
336,176,275375,1,8,0:0:0:0:
336,176,275450,1,8,0:0:0:0:
336,176,275525,1,0,0:0:0:0:
336,176,275600,1,8,0:0:0:0:
336,176,275675,1,0,0:0:0:0:
336,176,275750,1,8,0:0:0:0:
336,176,275825,1,8,0:0:0:0:
336,176,275900,1,0,0:0:0:0:
336,176,275975,1,0,0:0:0:0:
336,176,276050,1,8,0:0:0:0:
336,176,276125,1,0,0:0:0:0:
336,176,276200,1,8,0:0:0:0:
336,176,276275,1,8,0:0:0:0:
336,176,276350,1,0,0:0:0:0:
336,176,276425,1,8,0:0:0:0:
336,176,276500,1,0,0:0:0:0:
336,176,276575,1,0,0:0:0:0:
336,176,276650,1,8,0:0:0:0:
277,215,276800,1,8,0:0:0:0:
320,192,276950,1,8,0:0:0:0:
320,192,277025,1,0,0:0:0:0:
320,192,277100,1,0,0:0:0:0:
320,192,277175,1,8,0:0:0:0:
320,192,277250,1,0,0:0:0:0:
320,192,277325,1,0,0:0:0:0:
320,192,277400,1,8,0:0:0:0:
320,192,277475,1,0,0:0:0:0:
320,192,277550,1,8,0:0:0:0:
320,192,277625,1,8,0:0:0:0:
320,192,277700,1,0,0:0:0:0:
320,192,277775,1,0,0:0:0:0:
320,192,277850,1,8,0:0:0:0:
320,176,277925,1,8,0:0:0:0:
320,176,278000,1,0,0:0:0:0:
213,212,278075,1,8,0:0:0:0:
320,176,278150,1,0,0:0:0:0:
304,176,278225,1,8,0:0:0:0:
304,176,278300,1,8,0:0:0:0:
304,176,278375,1,8,0:0:0:0:
304,176,278450,1,0,0:0:0:0:
304,176,278525,1,8,0:0:0:0:
304,176,278600,1,8,0:0:0:0:
304,176,278675,1,8,0:0:0:0:
288,144,278750,1,0,0:0:0:0:
288,144,278825,1,8,0:0:0:0:
304,144,278900,1,8,0:0:0:0:
304,144,278975,1,8,0:0:0:0:
304,144,279050,1,0,0:0:0:0:
288,144,279125,1,8,0:0:0:0:
288,144,279200,1,0,0:0:0:0:
288,144,279275,1,0,0:0:0:0:
272,144,279350,1,8,0:0:0:0:
288,192,279500,1,0,0:0:0:0:
304,160,279650,1,8,0:0:0:0:
304,160,279800,1,8,0:0:0:0:
304,160,279950,1,0,0:0:0:0:
320,176,280100,1,8,0:0:0:0:
304,192,280250,1,8,0:0:0:0:
320,176,280325,1,0,0:0:0:0:
320,176,280400,1,8,0:0:0:0:
272,176,280550,1,0,0:0:0:0:
272,176,280700,1,8,0:0:0:0:
272,176,280850,1,0,0:0:0:0:
272,176,280925,1,8,0:0:0:0:
272,176,281000,1,0,0:0:0:0:
293,195,281150,1,8,0:0:0:0:
293,195,281225,1,0,0:0:0:0:
293,195,281300,1,8,0:0:0:0:
293,195,281375,1,0,0:0:0:0:
293,195,281450,1,8,0:0:0:0:
293,195,281525,1,0,0:0:0:0:
293,195,281600,1,8,0:0:0:0:
336,176,281750,1,0,0:0:0:0:
288,224,281900,1,8,0:0:0:0:
320,176,282050,1,0,0:0:0:0:
320,176,282200,1,8,0:0:0:0:
288,208,282275,1,8,0:0:0:0:
288,208,282350,1,0,0:0:0:0:
288,208,282425,1,0,0:0:0:0:
288,208,282500,1,8,0:0:0:0:
288,208,282575,1,8,0:0:0:0:
288,208,282650,1,0,0:0:0:0:
288,208,282725,1,8,0:0:0:0:
288,208,282800,1,0,0:0:0:0:
288,208,282875,1,0,0:0:0:0:
288,208,282950,1,8,0:0:0:0:
288,160,283100,1,0,0:0:0:0:
288,160,283250,1,0,0:0:0:0:
288,160,283325,1,0,0:0:0:0:
351,212,283400,1,8,0:0:0:0:
288,192,283550,1,8,0:0:0:0:
327,212,283625,1,0,0:0:0:0:
288,192,283700,1,8,0:0:0:0:
327,212,283775,1,0,0:0:0:0:
288,176,283850,1,8,0:0:0:0:
325,210,284000,1,8,0:0:0:0:
366,175,284150,1,8,0:0:0:0:
355,192,284250,1,8,0:0:0:0:
349,176,284350,1,0,0:0:0:0:
362,192,284450,1,8,0:0:0:0:
364,192,284550,1,0,0:0:0:0:
351,177,284650,1,0,0:0:0:0:
363,191,284750,1,8,0:0:0:0:
352,177,284850,1,0,0:0:0:0:
370,191,284950,1,8,0:0:0:0:
371,191,285050,1,8,0:0:0:0:
370,191,285150,1,0,0:0:0:0:
370,191,285250,1,0,0:0:0:0:
360,190,285350,1,8,0:0:0:0:
360,186,285425,1,8,0:0:0:0:
424,236,285500,1,0,0:0:0:0:
362,184,285575,1,8,0:0:0:0:
362,184,285650,1,0,0:0:0:0:
408,198,285725,1,8,0:0:0:0:
408,198,285800,1,8,0:0:0:0:
416,218,285875,1,0,0:0:0:0:
352,224,285950,1,8,0:0:0:0:
352,224,286025,1,8,0:0:0:0:
352,224,286100,1,8,0:0:0:0:
352,224,286175,1,0,0:0:0:0:
272,192,286250,1,8,0:0:0:0:
324,196,286400,1,0,0:0:0:0:
320,208,286550,1,8,0:0:0:0:
320,208,286625,1,8,0:0:0:0:
320,208,286700,1,8,0:0:0:0:
304,192,286775,1,0,0:0:0:0:
288,176,286850,1,8,0:0:0:0:
320,208,286925,1,0,0:0:0:0:
320,192,287000,1,8,0:0:0:0:
400,176,287075,1,8,0:0:0:0:
288,176,287150,1,8,0:0:0:0:
288,176,287225,1,0,0:0:0:0:
288,176,287300,1,8,0:0:0:0:
288,176,287375,1,0,0:0:0:0:
288,176,287450,1,0,0:0:0:0:
352,160,287525,1,0,0:0:0:0:
352,160,287600,1,8,0:0:0:0:
352,160,287675,1,0,0:0:0:0:
352,160,287750,1,8,0:0:0:0:
304,176,287825,1,8,0:0:0:0:
304,176,287900,1,8,0:0:0:0:
304,176,287975,1,0,0:0:0:0:
304,176,288050,1,8,0:0:0:0:
304,176,288125,1,8,0:0:0:0:
304,176,288200,1,0,0:0:0:0:
304,176,288275,1,0,0:0:0:0:
304,176,288350,1,8,0:0:0:0:
304,176,288425,1,0,0:0:0:0:
304,176,288500,1,0,0:0:0:0:
304,176,288575,1,0,0:0:0:0:
304,176,288650,1,8,0:0:0:0:
325,196,288800,1,8,0:0:0:0:
310,229,288950,1,0,0:0:0:0:
312,205,289025,1,8,0:0:0:0:
312,205,289100,1,0,0:0:0:0:
312,205,289175,1,0,0:0:0:0:
312,205,289250,1,8,0:0:0:0:
312,205,289325,1,0,0:0:0:0:
312,205,289400,1,8,0:0:0:0:
312,205,289475,1,8,0:0:0:0:
312,205,289550,1,0,0:0:0:0:
312,205,289700,1,8,0:0:0:0:
324,226,289850,1,8,0:0:0:0:
368,203,289925,1,8,0:0:0:0:
333,192,290000,1,0,0:0:0:0:
288,208,290150,1,8,0:0:0:0:
357,236,290225,1,0,0:0:0:0:
384,160,290300,1,8,0:0:0:0:
357,236,290375,1,0,0:0:0:0:
361,228,290450,1,8,0:0:0:0:
368,170,290600,1,8,0:0:0:0:
347,164,290750,1,0,0:0:0:0:
347,188,290900,1,0,0:0:0:0:
340,190,291050,1,8,0:0:0:0:
340,190,291200,1,0,0:0:0:0:
337,189,291350,1,0,0:0:0:0:
273,171,291425,1,0,0:0:0:0:
337,189,291500,1,8,0:0:0:0:
339,191,291575,1,0,0:0:0:0:
339,191,291650,1,8,0:0:0:0:
339,182,291725,1,0,0:0:0:0:
368,217,291800,1,0,0:0:0:0:
363,214,291875,1,8,0:0:0:0:
362,212,291950,1,0,0:0:0:0:
362,212,292025,1,8,0:0:0:0:
362,212,292100,1,0,0:0:0:0:
362,212,292175,1,0,0:0:0:0:
362,212,292250,1,8,0:0:0:0:
358,211,292325,1,8,0:0:0:0:
358,211,292400,1,0,0:0:0:0:
327,216,292550,1,8,0:0:0:0:
354,173,292600,1,8,0:0:0:0:
354,173,292650,1,8,0:0:0:0:
354,173,292700,1,0,0:0:0:0:
342,182,292850,1,0,0:0:0:0:
342,182,292900,1,0,0:0:0:0:
342,182,292950,1,0,0:0:0:0:
342,182,293000,1,8,0:0:0:0:
404,195,293150,1,8,0:0:0:0:
404,195,293200,1,8,0:0:0:0:
404,195,293250,1,8,0:0:0:0:
404,195,293300,1,0,0:0:0:0:
328,212,293450,1,0,0:0:0:0:
351,201,293500,1,0,0:0:0:0:
351,201,293550,1,0,0:0:0:0:
351,201,293600,1,8,0:0:0:0:
317,187,293750,1,12,0:0:0:0:
335,231,293900,1,8,0:0:0:0:
315,186,293975,1,8,0:0:0:0:
315,186,294050,1,0,0:0:0:0:
337,218,294200,1,0,0:0:0:0:
355,178,294275,1,0,0:0:0:0:
355,178,294350,1,8,0:0:0:0:
355,178,294425,1,0,0:0:0:0:
355,178,294500,1,8,0:0:0:0:
355,178,294575,1,8,0:0:0:0:
355,178,294650,1,0,0:0:0:0:
319,189,294800,1,0,0:0:0:0:
317,187,294950,1,0,0:0:0:0:
317,186,295025,1,8,0:0:0:0:
335,231,295100,1,0,0:0:0:0:
315,186,295175,1,0,0:0:0:0:
315,186,295250,1,8,0:0:0:0:
337,218,295400,1,8,0:0:0:0:
355,178,295475,1,8,0:0:0:0:
355,178,295550,1,0,0:0:0:0:
333,211,295625,1,8,0:0:0:0:
355,178,295700,1,0,0:0:0:0:
354,219,295775,1,0,0:0:0:0:
353,220,295850,1,8,0:0:0:0:
357,194,296000,1,0,0:0:0:0:
327,175,296150,1,12,0:0:0:0:
361,194,296300,1,8,0:0:0:0:
361,194,296375,1,8,0:0:0:0:
361,194,296450,1,0,0:0:0:0:
360,194,296600,1,8,0:0:0:0:
319,195,296750,1,8,0:0:0:0:
317,195,296825,1,0,0:0:0:0:
317,195,296900,1,8,0:0:0:0:
319,195,296975,1,8,0:0:0:0:
319,195,297050,1,0,0:0:0:0:
319,195,297125,1,0,0:0:0:0:
319,195,297200,1,8,0:0:0:0:
163,243,297275,1,0,0:0:0:0:
319,195,297350,1,8,0:0:0:0:
339,200,297425,1,8,0:0:0:0:
337,200,297500,1,0,0:0:0:0:
331,203,297575,1,0,0:0:0:0:
324,222,297650,1,8,0:0:0:0:
331,203,297725,1,0,0:0:0:0:
266,233,297800,1,8,0:0:0:0:
266,233,297875,1,8,0:0:0:0:
260,235,297950,1,0,0:0:0:0:
260,235,298025,1,0,0:0:0:0:
260,235,298100,1,8,0:0:0:0:
260,235,298175,1,8,0:0:0:0:
260,235,298250,1,8,0:0:0:0:
260,235,298325,1,8,0:0:0:0:
266,233,298400,1,0,0:0:0:0:
331,176,298550,1,8,0:0:0:0:
332,194,298625,1,0,0:0:0:0:
325,185,298700,1,8,0:0:0:0:
325,185,298775,1,0,0:0:0:0:
325,185,298850,1,8,0:0:0:0:
325,185,298925,1,8,0:0:0:0:
325,185,299000,1,0,0:0:0:0:
325,185,299075,1,8,0:0:0:0:
325,185,299150,1,0,0:0:0:0:
325,185,299225,1,0,0:0:0:0:
325,185,299300,1,8,0:0:0:0:
325,185,299375,1,0,0:0:0:0:
325,185,299450,1,8,0:0:0:0:
325,185,299525,1,0,0:0:0:0:
325,185,299600,1,8,0:0:0:0:
325,185,299675,1,8,0:0:0:0:
325,185,299750,1,0,0:0:0:0:
325,185,299825,1,0,0:0:0:0:
325,185,299900,1,8,0:0:0:0:
325,185,299975,1,0,0:0:0:0:
325,185,300050,1,8,0:0:0:0:
325,185,300125,1,0,0:0:0:0:
325,185,300200,1,0,0:0:0:0:
325,185,300275,1,8,0:0:0:0:
325,185,300350,1,0,0:0:0:0:
325,185,300425,1,0,0:0:0:0:
325,185,300500,1,8,0:0:0:0:
325,185,300575,1,0,0:0:0:0:
325,185,300650,1,8,0:0:0:0:
325,185,300725,1,8,0:0:0:0:
325,185,300800,1,0,0:0:0:0:
363,244,300950,1,8,0:0:0:0:
363,244,301025,1,8,0:0:0:0:
363,244,301100,1,0,0:0:0:0:
363,244,301175,1,0,0:0:0:0:
363,244,301250,1,8,0:0:0:0:
325,231,301325,1,0,0:0:0:0:
325,231,301400,1,0,0:0:0:0:
325,231,301475,1,0,0:0:0:0:
325,231,301550,1,8,0:0:0:0:
325,231,301625,1,0,0:0:0:0:
325,231,301700,1,8,0:0:0:0:
325,231,301775,1,8,0:0:0:0:
325,231,301850,1,0,0:0:0:0:
325,231,301925,1,0,0:0:0:0:
325,231,302000,1,8,0:0:0:0:
325,231,302075,1,0,0:0:0:0:
325,231,302150,1,8,0:0:0:0:
314,230,302225,1,0,0:0:0:0:
314,230,302300,1,0,0:0:0:0:
314,230,302375,1,8,0:0:0:0:
314,230,302450,1,0,0:0:0:0:
314,230,302525,1,8,0:0:0:0:
314,230,302600,1,0,0:0:0:0:
314,230,302675,1,0,0:0:0:0:
325,231,302750,1,8,0:0:0:0:
325,231,302825,1,0,0:0:0:0:
325,231,302900,1,0,0:0:0:0:
314,230,302975,1,0,0:0:0:0:
341,233,303050,1,8,0:0:0:0:
378,261,303200,1,8,0:0:0:0:
381,256,303350,1,0,0:0:0:0:
337,261,303425,1,0,0:0:0:0:
337,261,303500,1,8,0:0:0:0:
337,261,303575,1,0,0:0:0:0:
337,261,303650,1,8,0:0:0:0:
337,232,303725,1,0,0:0:0:0:
341,233,303800,1,0,0:0:0:0:
337,232,303875,1,8,0:0:0:0:
337,232,303950,1,0,0:0:0:0:
337,232,304025,1,8,0:0:0:0:
337,232,304100,1,0,0:0:0:0:
337,232,304175,1,0,0:0:0:0:
337,232,304250,1,8,0:0:0:0:
336,232,304325,1,0,0:0:0:0:
336,232,304400,1,0,0:0:0:0:
337,232,304475,1,0,0:0:0:0:
314,211,304550,1,8,0:0:0:0:
354,242,304625,1,8,0:0:0:0:
354,242,304700,1,8,0:0:0:0:
354,242,304775,1,0,0:0:0:0:
354,242,304850,1,8,0:0:0:0:
354,242,304925,1,0,0:0:0:0:
354,242,305000,1,8,0:0:0:0:
354,242,305075,1,0,0:0:0:0:
354,241,305150,1,8,0:0:0:0:
352,241,305225,1,8,0:0:0:0:
354,242,305300,1,0,0:0:0:0:
354,242,305375,1,0,0:0:0:0:
342,261,305450,1,8,0:0:0:0:
333,233,305600,1,0,0:0:0:0:
324,214,305750,1,8,0:0:0:0:
326,222,305825,1,8,0:0:0:0:
349,215,305900,1,8,0:0:0:0:
329,228,305975,1,0,0:0:0:0:
333,216,306050,1,8,0:0:0:0:
333,216,306125,1,8,0:0:0:0:
354,229,306200,1,0,0:0:0:0:
351,226,306275,1,0,0:0:0:0:
351,226,306350,1,8,0:0:0:0:
351,226,306425,1,0,0:0:0:0:
350,226,306500,1,8,0:0:0:0:
350,226,306575,1,0,0:0:0:0:
346,224,306650,1,8,0:0:0:0:
346,224,306725,1,8,0:0:0:0:
346,224,306800,1,0,0:0:0:0:
346,224,306875,1,8,0:0:0:0:
346,224,306950,1,0,0:0:0:0:
351,226,307025,1,0,0:0:0:0:
351,226,307100,1,8,0:0:0:0:
351,226,307175,1,0,0:0:0:0:
350,226,307250,1,0,0:0:0:0:
350,226,307325,1,0,0:0:0:0:
346,224,307400,1,8,0:0:0:0:
346,224,307475,1,8,0:0:0:0:
346,224,307550,1,0,0:0:0:0:
346,224,307625,1,8,0:0:0:0:
346,224,307700,1,8,0:0:0:0:
354,175,307775,1,0,0:0:0:0:
342,224,307850,1,8,0:0:0:0:
342,224,307925,1,0,0:0:0:0:
342,224,308000,1,0,0:0:0:0:
368,213,308075,1,0,0:0:0:0:
333,208,308150,1,8,0:0:0:0:
366,205,308225,1,8,0:0:0:0:
366,205,308300,1,8,0:0:0:0:
366,205,308375,1,0,0:0:0:0:
349,193,308450,1,8,0:0:0:0:
350,193,308525,1,8,0:0:0:0:
366,205,308600,1,8,0:0:0:0:
350,193,308675,1,0,0:0:0:0:
350,193,308750,1,8,0:0:0:0:
350,193,308825,1,8,0:0:0:0:
350,193,308900,1,0,0:0:0:0:
350,193,308975,1,0,0:0:0:0:
366,205,309050,1,8,0:0:0:0:
451,245,309125,1,0,0:0:0:0:
348,216,309200,1,0,0:0:0:0:
228,181,309275,1,0,0:0:0:0:
385,183,309350,1,8,0:0:0:0:
422,175,309387,1,8,0:0:0:0:
422,175,309500,1,8,0:0:0:0:
422,175,309537,1,8,0:0:0:0:
422,175,309650,1,0,0:0:0:0:
422,175,309687,1,0,0:0:0:0:
422,175,309800,1,0,0:0:0:0:
422,175,309837,1,0,0:0:0:0:
422,175,309950,1,8,0:0:0:0:
422,175,309987,1,8,0:0:0:0:
374,186,310100,1,8,0:0:0:0:
375,186,310137,1,8,0:0:0:0:
403,179,310250,1,0,0:0:0:0:
403,179,310287,1,0,0:0:0:0:
362,176,310400,1,8,0:0:0:0:
362,176,310437,1,8,0:0:0:0:
362,176,310550,1,0,0:0:0:0:
408,232,310625,1,8,0:0:0:0:
355,203,310700,1,0,0:0:0:0:
355,203,310775,1,0,0:0:0:0:
355,203,310850,1,8,0:0:0:0:
355,203,310925,1,0,0:0:0:0:
355,203,311000,1,8,0:0:0:0:
355,203,311075,1,8,0:0:0:0:
355,203,311150,1,0,0:0:0:0:
355,203,311225,1,0,0:0:0:0:
355,203,311300,1,8,0:0:0:0:
355,203,311375,1,0,0:0:0:0:
355,203,311450,1,8,0:0:0:0:
359,194,311525,1,8,0:0:0:0:
333,182,311600,1,0,0:0:0:0:
359,194,311675,1,0,0:0:0:0:
355,203,311750,1,8,0:0:0:0:
296,234,311900,1,0,0:0:0:0:
348,228,312050,1,8,0:0:0:0:
348,228,312125,1,8,0:0:0:0:
348,228,312200,1,0,0:0:0:0:
359,234,312350,1,8,0:0:0:0:
351,215,312387,1,8,0:0:0:0:
350,200,312500,1,8,0:0:0:0:
350,200,312537,1,8,0:0:0:0:
343,185,312650,1,0,0:0:0:0:
344,185,312687,1,0,0:0:0:0:
344,185,312800,1,0,0:0:0:0:
344,185,312837,1,0,0:0:0:0:
350,200,312950,1,8,0:0:0:0:
336,204,312987,1,8,0:0:0:0:
311,145,313100,1,0,0:0:0:0:
311,145,313137,1,0,0:0:0:0:
311,145,313250,1,0,0:0:0:0:
311,145,313287,1,0,0:0:0:0:
311,145,313400,1,0,0:0:0:0:
311,145,313437,1,0,0:0:0:0:
311,146,313550,1,8,0:0:0:0:
311,146,313587,1,8,0:0:0:0:
311,146,313700,1,8,0:0:0:0:
311,145,313737,1,8,0:0:0:0:
311,145,313850,1,0,0:0:0:0:
311,145,313887,1,0,0:0:0:0:
311,145,314000,1,0,0:0:0:0:
311,145,314037,1,0,0:0:0:0:
322,164,314150,1,8,0:0:0:0:
429,204,314225,1,0,0:0:0:0:
429,204,314300,1,0,0:0:0:0:
429,204,314375,1,8,0:0:0:0:
429,204,314450,1,0,0:0:0:0:
429,204,314525,1,0,0:0:0:0:
429,204,314600,1,8,0:0:0:0:
335,124,314675,1,0,0:0:0:0:
319,159,314750,1,8,0:0:0:0:
287,174,314825,1,8,0:0:0:0:
322,164,314900,1,0,0:0:0:0:
319,159,314975,1,0,0:0:0:0:
319,159,315050,1,8,0:0:0:0:
321,164,315125,1,8,0:0:0:0:
321,164,315200,1,8,0:0:0:0:
322,176,315350,1,0,0:0:0:0:
332,157,315425,1,8,0:0:0:0:
322,176,315500,1,0,0:0:0:0:
322,176,315575,1,0,0:0:0:0:
322,176,315650,1,8,0:0:0:0:
343,191,315725,1,0,0:0:0:0:
343,191,315800,1,8,0:0:0:0:
343,191,315875,1,8,0:0:0:0:
343,191,315950,1,0,0:0:0:0:
343,191,316025,1,8,0:0:0:0:
343,191,316100,1,0,0:0:0:0:
343,191,316175,1,0,0:0:0:0:
343,191,316250,1,8,0:0:0:0:
346,187,316325,1,8,0:0:0:0:
346,187,316400,1,0,0:0:0:0:
343,191,316475,1,0,0:0:0:0:
343,191,316550,1,8,0:0:0:0:
312,193,316625,1,0,0:0:0:0:
312,193,316700,1,0,0:0:0:0:
312,193,316775,1,8,0:0:0:0:
312,193,316850,1,0,0:0:0:0:
312,193,316925,1,8,0:0:0:0:
312,193,317000,1,0,0:0:0:0:
312,193,317075,1,0,0:0:0:0:
312,193,317150,1,8,0:0:0:0:
312,193,317225,1,8,0:0:0:0:
312,193,317300,1,0,0:0:0:0:
312,193,317375,1,0,0:0:0:0:
312,193,317450,1,8,0:0:0:0:
312,193,317525,1,0,0:0:0:0:
312,193,317600,1,8,0:0:0:0:
301,231,317675,1,8,0:0:0:0:
355,200,317750,1,4,0:0:0:0:
146,222,317900,1,0,0:0:0:0:
308,206,317975,1,0,0:0:0:0:
296,171,318050,1,8,0:0:0:0:
296,171,318125,1,8,0:0:0:0:
296,171,318200,1,0,0:0:0:0:
296,171,318275,1,0,0:0:0:0:
296,171,318350,1,0,0:0:0:0:
292,161,318425,1,8,0:0:0:0:
292,161,318500,1,0,0:0:0:0:
292,161,318575,1,8,0:0:0:0:
292,161,318650,1,8,0:0:0:0:
292,161,318725,1,0,0:0:0:0:
292,161,318800,1,0,0:0:0:0:
241,152,318875,1,0,0:0:0:0:
292,161,318950,1,12,0:0:0:0:
364,211,319100,1,0,0:0:0:0:
301,215,319175,1,0,0:0:0:0:
290,167,319250,1,8,0:0:0:0:
290,167,319325,1,8,0:0:0:0:
290,167,319400,1,8,0:0:0:0:
290,167,319475,1,0,0:0:0:0:
291,167,319550,1,8,0:0:0:0:
290,167,319625,1,0,0:0:0:0:
290,167,319700,1,0,0:0:0:0:
290,167,319775,1,8,0:0:0:0:
290,167,319850,1,8,0:0:0:0:
290,167,319925,1,8,0:0:0:0:
290,167,320000,1,0,0:0:0:0:
319,193,320075,1,0,0:0:0:0:
319,193,320150,1,12,0:0:0:0:
323,175,320300,1,0,0:0:0:0:
301,215,320375,1,0,0:0:0:0:
296,171,320450,1,8,0:0:0:0:
296,171,320525,1,0,0:0:0:0:
296,171,320600,1,8,0:0:0:0:
296,171,320675,1,8,0:0:0:0:
296,171,320750,1,0,0:0:0:0:
292,161,320825,1,0,0:0:0:0:
292,161,320900,1,8,0:0:0:0:
292,161,320975,1,8,0:0:0:0:
292,161,321050,1,8,0:0:0:0:
292,161,321125,1,0,0:0:0:0:
292,161,321200,1,8,0:0:0:0:
292,161,321275,1,8,0:0:0:0:
292,161,321350,1,4,0:0:0:0:
232,142,321500,1,0,0:0:0:0:
256,137,321575,1,0,0:0:0:0:
256,137,321650,1,8,0:0:0:0:
256,137,321725,1,0,0:0:0:0:
256,137,321800,1,0,0:0:0:0:
256,137,321875,1,0,0:0:0:0:
298,159,321950,1,8,0:0:0:0:
298,159,322025,1,0,0:0:0:0:
292,161,322100,1,0,0:0:0:0:
241,140,322175,1,0,0:0:0:0:
311,167,322250,1,8,0:0:0:0:
298,159,322550,1,12,0:0:0:0:
256,192,322700,12,0,324800,0:0:0:0:
329,177,324950,5,4,0:0:0:0:
366,231,325100,1,8,0:0:0:0:
366,231,325250,1,8,0:0:0:0:
366,231,325325,1,0,0:0:0:0:
366,231,325400,1,0,0:0:0:0:
366,231,325550,1,8,0:0:0:0:
366,231,325700,1,0,0:0:0:0:
366,231,325775,1,8,0:0:0:0:
366,231,325850,1,0,0:0:0:0:
366,231,326000,1,8,0:0:0:0:
327,175,326150,1,0,0:0:0:0:
327,175,326225,1,8,0:0:0:0:
327,175,326300,1,0,0:0:0:0:
327,175,326375,1,0,0:0:0:0:
327,175,326450,1,8,0:0:0:0:
327,175,326525,1,8,0:0:0:0:
327,175,326600,1,0,0:0:0:0:
327,175,326675,1,0,0:0:0:0:
327,175,326750,1,8,0:0:0:0:
375,263,326900,1,0,0:0:0:0:
320,179,327050,1,0,0:0:0:0:
317,179,327125,1,0,0:0:0:0:
317,179,327200,1,0,0:0:0:0:
313,180,327275,1,0,0:0:0:0:
313,180,327350,1,12,0:0:0:0:
323,218,327500,1,0,0:0:0:0:
323,218,327650,1,8,0:0:0:0:
306,212,327800,1,8,0:0:0:0:
306,212,327875,1,0,0:0:0:0:
306,212,327950,1,8,0:0:0:0:
306,212,328100,1,0,0:0:0:0:
314,217,328250,1,0,0:0:0:0:
298,186,328400,1,8,0:0:0:0:
309,205,328550,1,0,0:0:0:0:
304,199,328625,1,0,0:0:0:0:
299,186,328700,1,8,0:0:0:0:
317,218,328850,1,8,0:0:0:0:
355,223,328925,1,0,0:0:0:0:
355,223,329000,1,8,0:0:0:0:
310,217,329150,1,8,0:0:0:0:
310,217,329225,1,8,0:0:0:0:
310,217,329300,1,8,0:0:0:0:
310,217,329375,1,8,0:0:0:0:
310,217,329450,1,0,0:0:0:0:
310,217,329525,1,0,0:0:0:0:
310,217,329600,1,0,0:0:0:0:
310,217,329675,1,0,0:0:0:0:
239,169,329750,1,12,0:0:0:0:
239,169,329900,1,0,0:0:0:0:
239,169,330050,1,0,0:0:0:0:
321,206,330125,1,0,0:0:0:0:
316,200,330200,1,8,0:0:0:0:
320,220,330350,1,8,0:0:0:0:
306,185,330500,1,0,0:0:0:0:
306,185,330575,1,8,0:0:0:0:
306,186,330650,1,8,0:0:0:0:
309,201,330800,1,0,0:0:0:0:
304,220,330950,1,8,0:0:0:0:
304,220,331025,1,0,0:0:0:0:
304,220,331100,1,8,0:0:0:0:
304,220,331175,1,0,0:0:0:0:
304,220,331250,1,8,0:0:0:0:
304,220,331325,1,8,0:0:0:0:
304,220,331400,1,0,0:0:0:0:
304,220,331475,1,0,0:0:0:0:
304,220,331550,1,8,0:0:0:0:
304,220,331625,1,0,0:0:0:0:
304,220,331700,1,8,0:0:0:0:
304,220,331775,1,0,0:0:0:0:
304,220,331850,1,8,0:0:0:0:
304,220,331925,1,8,0:0:0:0:
304,220,332000,1,0,0:0:0:0:
304,220,332075,1,0,0:0:0:0:
246,174,332150,1,12,0:0:0:0:
317,210,332300,1,0,0:0:0:0:
304,204,332450,1,8,0:0:0:0:
303,204,332600,1,8,0:0:0:0:
304,204,332675,1,8,0:0:0:0:
304,204,332750,1,0,0:0:0:0:
304,204,332900,1,8,0:0:0:0:
326,203,333050,1,0,0:0:0:0:
325,203,333125,1,0,0:0:0:0:
304,204,333200,1,8,0:0:0:0:
274,225,333350,1,8,0:0:0:0:
284,217,333500,1,8,0:0:0:0:
327,244,333575,1,8,0:0:0:0:
284,216,333650,1,0,0:0:0:0:
284,217,333725,1,0,0:0:0:0:
285,216,333800,1,8,0:0:0:0:
285,216,333875,1,0,0:0:0:0:
285,216,333950,1,8,0:0:0:0:
310,203,334025,1,0,0:0:0:0:
310,203,334100,1,8,0:0:0:0:
310,203,334175,1,8,0:0:0:0:
310,203,334250,1,0,0:0:0:0:
307,217,334400,1,8,0:0:0:0:
336,215,334550,1,0,0:0:0:0:
336,215,334625,1,0,0:0:0:0:
336,214,334700,1,0,0:0:0:0:
334,211,334775,1,0,0:0:0:0:
326,199,334850,1,8,0:0:0:0:
326,199,334925,1,0,0:0:0:0:
326,199,335000,1,8,0:0:0:0:
336,215,335150,1,8,0:0:0:0:
336,215,335225,1,0,0:0:0:0:
336,214,335300,1,0,0:0:0:0:
334,211,335375,1,0,0:0:0:0:
326,199,335450,1,8,0:0:0:0:
326,199,335525,1,0,0:0:0:0:
326,199,335600,1,8,0:0:0:0:
336,215,335750,1,8,0:0:0:0:
336,215,335825,1,8,0:0:0:0:
336,214,335900,1,0,0:0:0:0:
334,211,335975,1,0,0:0:0:0:
326,199,336050,1,8,0:0:0:0:
326,199,336125,1,0,0:0:0:0:
326,199,336200,1,8,0:0:0:0:
336,215,336350,1,8,0:0:0:0:
336,215,336425,1,8,0:0:0:0:
336,214,336500,1,8,0:0:0:0:
334,211,336575,1,0,0:0:0:0:
326,199,336650,1,8,0:0:0:0:
326,199,336725,1,0,0:0:0:0:
326,199,336800,1,8,0:0:0:0:
303,205,336950,1,12,0:0:0:0:
344,180,337100,1,8,0:0:0:0:
344,180,337175,1,0,0:0:0:0:
344,180,337250,1,0,0:0:0:0:
317,162,337400,1,0,0:0:0:0:
317,162,337550,1,8,0:0:0:0:
353,182,337700,1,0,0:0:0:0:
353,182,337775,1,8,0:0:0:0:
348,184,337850,1,0,0:0:0:0:
334,162,338000,1,0,0:0:0:0:
329,143,338150,1,8,0:0:0:0:
329,143,338300,1,0,0:0:0:0:
331,161,338450,1,8,0:0:0:0:
334,162,338525,1,0,0:0:0:0:
328,143,338600,1,8,0:0:0:0:
334,162,338750,1,8,0:0:0:0:
334,162,338825,1,8,0:0:0:0:
334,162,338900,1,8,0:0:0:0:
334,162,338975,1,8,0:0:0:0:
334,162,339050,1,0,0:0:0:0:
331,161,339125,1,0,0:0:0:0:
331,161,339200,1,0,0:0:0:0:
320,211,339275,1,0,0:0:0:0:
304,205,339350,1,12,0:0:0:0:
385,204,339500,1,0,0:0:0:0:
319,201,339650,1,0,0:0:0:0:
322,199,339725,1,0,0:0:0:0:
323,199,339800,1,8,0:0:0:0:
367,228,339950,1,8,0:0:0:0:
369,224,340100,1,0,0:0:0:0:
346,171,340250,1,0,0:0:0:0:
281,140,340325,1,0,0:0:0:0:
338,169,340400,1,8,0:0:0:0:
328,181,340475,1,0,0:0:0:0:
339,162,340550,1,8,0:0:0:0:
339,162,340700,1,0,0:0:0:0:
339,162,340850,1,8,0:0:0:0:
335,201,340925,1,0,0:0:0:0:
352,211,341000,1,8,0:0:0:0:
407,237,341075,1,8,0:0:0:0:
365,191,341150,1,8,0:0:0:0:
365,191,341300,1,0,0:0:0:0:
311,161,341450,1,0,0:0:0:0:
311,161,341525,1,0,0:0:0:0:
312,161,341600,1,0,0:0:0:0:
330,171,341750,1,8,0:0:0:0:
330,171,341825,1,0,0:0:0:0:
330,171,341900,1,0,0:0:0:0:
330,171,341975,1,8,0:0:0:0:
330,171,342050,1,8,0:0:0:0:
336,202,342125,1,0,0:0:0:0:
331,199,342200,1,8,0:0:0:0:
313,162,342350,1,8,0:0:0:0:
312,162,342500,1,0,0:0:0:0:
312,162,342650,1,0,0:0:0:0:
296,202,342725,1,0,0:0:0:0:
312,162,342800,1,8,0:0:0:0:
305,206,342950,1,8,0:0:0:0:
314,166,343025,1,8,0:0:0:0:
314,166,343100,1,0,0:0:0:0:
314,166,343175,1,0,0:0:0:0:
314,166,343250,1,8,0:0:0:0:
314,166,343325,1,0,0:0:0:0:
314,166,343400,1,8,0:0:0:0:
314,166,343475,1,0,0:0:0:0:
320,164,343550,1,8,0:0:0:0:
314,166,343625,1,8,0:0:0:0:
314,166,343700,1,0,0:0:0:0:
314,166,343775,1,0,0:0:0:0:
300,123,343850,1,8,0:0:0:0:
306,206,344150,1,8,0:0:0:0:
352,195,344225,1,0,0:0:0:0:
352,195,344300,1,0,0:0:0:0:
352,195,344375,1,8,0:0:0:0:
352,195,344450,1,0,0:0:0:0:
352,195,344525,1,8,0:0:0:0:
352,195,344600,1,8,0:0:0:0:
352,195,344675,1,0,0:0:0:0:
352,195,344750,1,8,0:0:0:0:
352,195,344825,1,0,0:0:0:0:
352,195,344900,1,0,0:0:0:0:
342,191,344975,1,0,0:0:0:0:
343,191,345050,1,8,0:0:0:0:
343,190,345125,1,8,0:0:0:0:
343,191,345200,1,8,0:0:0:0:
343,190,345275,1,0,0:0:0:0:
343,190,345350,1,8,0:0:0:0:
346,180,345425,1,0,0:0:0:0:
346,180,345500,1,0,0:0:0:0:
346,180,345575,1,0,0:0:0:0:
346,180,345650,1,8,0:0:0:0:
346,180,345725,1,8,0:0:0:0:
346,180,345800,1,0,0:0:0:0:
346,180,345875,1,0,0:0:0:0:
346,180,345950,1,8,0:0:0:0:
346,180,346025,1,0,0:0:0:0:
346,180,346100,1,8,0:0:0:0:
346,180,346175,1,8,0:0:0:0:
346,180,346250,1,0,0:0:0:0:
346,180,346325,1,0,0:0:0:0:
346,180,346400,1,8,0:0:0:0:
346,180,346475,1,0,0:0:0:0:
346,180,346550,1,8,0:0:0:0:
358,193,346625,1,8,0:0:0:0:
357,192,346700,1,0,0:0:0:0:
359,194,346775,1,0,0:0:0:0:
357,192,346850,1,8,0:0:0:0:
355,191,346925,1,0,0:0:0:0:
354,189,347000,1,8,0:0:0:0:
353,188,347075,1,0,0:0:0:0:
353,188,347150,1,8,0:0:0:0:
353,188,347225,1,8,0:0:0:0:
353,188,347300,1,0,0:0:0:0:
353,188,347375,1,0,0:0:0:0:
357,192,347450,1,8,0:0:0:0:
353,188,347525,1,0,0:0:0:0:
357,192,347600,1,0,0:0:0:0:
355,191,347675,1,0,0:0:0:0:
328,184,347750,1,8,0:0:0:0:
328,184,347825,1,0,0:0:0:0:
281,169,347900,1,0,0:0:0:0:
281,169,347975,1,0,0:0:0:0:
281,169,348050,1,8,0:0:0:0:
281,163,348125,1,0,0:0:0:0:
278,158,348200,1,8,0:0:0:0:
278,158,348275,1,0,0:0:0:0:
328,176,348350,1,8,0:0:0:0:
328,176,348425,1,8,0:0:0:0:
328,176,348500,1,0,0:0:0:0:
328,176,348575,1,0,0:0:0:0:
328,176,348650,1,8,0:0:0:0:
328,176,348725,1,8,0:0:0:0:
328,176,348800,1,8,0:0:0:0:
328,176,348875,1,8,0:0:0:0:
317,180,348950,1,4,0:0:0:0:
323,183,353750,1,4,0:0:0:0:
310,189,356150,1,12,0:0:0:0:
256,192,357350,12,0,358400,0:0:0:0:
317,207,358550,5,4,0:0:0:0:
317,207,358700,1,8,0:0:0:0:
317,207,358850,1,0,0:0:0:0:
409,231,358925,1,8,0:0:0:0:
384,221,359000,1,0,0:0:0:0:
407,231,359075,1,0,0:0:0:0:
403,229,359150,1,8,0:0:0:0:
315,199,359300,1,8,0:0:0:0:
315,199,359450,1,8,0:0:0:0:
311,199,359525,1,8,0:0:0:0:
310,199,359600,1,0,0:0:0:0:
323,191,359675,1,0,0:0:0:0:
310,199,359750,1,8,0:0:0:0:
337,214,359900,1,8,0:0:0:0:
336,210,360050,1,0,0:0:0:0:
336,207,360125,1,0,0:0:0:0:
336,206,360200,1,8,0:0:0:0:
336,205,360350,1,0,0:0:0:0:
344,208,360500,1,0,0:0:0:0:
355,205,360575,1,0,0:0:0:0:
355,205,360650,1,8,0:0:0:0:
355,205,360725,1,0,0:0:0:0:
355,205,360800,1,8,0:0:0:0:
354,205,360875,1,8,0:0:0:0:
354,205,360950,1,4,0:0:0:0:
336,205,361100,1,0,0:0:0:0:
336,205,361250,1,0,0:0:0:0:
336,205,361325,1,8,0:0:0:0:
360,184,361400,1,0,0:0:0:0:
373,191,361475,1,0,0:0:0:0:
383,208,361550,1,8,0:0:0:0:
383,208,361700,1,8,0:0:0:0:
383,208,361850,1,8,0:0:0:0:
383,208,361925,1,8,0:0:0:0:
383,208,362000,1,0,0:0:0:0:
392,211,362150,1,8,0:0:0:0:
392,211,362225,1,0,0:0:0:0:
383,208,362300,1,8,0:0:0:0:
390,211,362375,1,8,0:0:0:0:
383,208,362450,1,0,0:0:0:0:
383,208,362525,1,0,0:0:0:0:
383,208,362600,1,8,0:0:0:0:
359,197,362750,1,0,0:0:0:0:
359,197,362825,1,0,0:0:0:0:
359,197,362900,1,0,0:0:0:0:
383,208,362975,1,0,0:0:0:0:
383,208,363050,1,8,0:0:0:0:
359,197,363125,1,0,0:0:0:0:
358,197,363200,1,8,0:0:0:0:
358,197,363275,1,8,0:0:0:0:
357,197,363350,1,4,0:0:0:0:
380,204,363500,1,8,0:0:0:0:
363,228,363650,1,8,0:0:0:0:
365,228,363725,1,8,0:0:0:0:
365,228,363800,1,0,0:0:0:0:
363,228,363875,1,0,0:0:0:0:
363,228,363950,1,8,0:0:0:0:
370,197,364100,1,0,0:0:0:0:
370,197,364250,1,0,0:0:0:0:
371,197,364325,1,0,0:0:0:0:
371,197,364400,1,8,0:0:0:0:
356,228,364475,1,0,0:0:0:0:
354,228,364550,1,8,0:0:0:0:
377,202,364700,1,8,0:0:0:0:
370,197,364775,1,8,0:0:0:0:
370,197,364850,1,0,0:0:0:0:
370,197,364925,1,0,0:0:0:0:
370,197,365000,1,8,0:0:0:0:
371,197,365150,1,0,0:0:0:0:
369,197,365300,1,8,0:0:0:0:
368,197,365450,1,0,0:0:0:0:
370,197,365525,1,0,0:0:0:0:
359,192,365600,1,0,0:0:0:0:
354,201,365675,1,0,0:0:0:0:
350,198,365750,1,12,0:0:0:0:
363,196,365900,1,8,0:0:0:0:
369,197,366050,1,0,0:0:0:0:
368,197,366125,1,0,0:0:0:0:
368,197,366200,1,8,0:0:0:0:
374,231,366275,1,0,0:0:0:0:
374,231,366350,1,8,0:0:0:0:
373,236,366500,1,8,0:0:0:0:
374,231,366575,1,0,0:0:0:0:
374,231,366650,1,8,0:0:0:0:
368,231,366725,1,8,0:0:0:0:
374,231,366800,1,0,0:0:0:0:
309,148,366950,1,8,0:0:0:0:
321,193,367025,1,8,0:0:0:0:
321,193,367100,1,0,0:0:0:0:
321,193,367175,1,0,0:0:0:0:
321,193,367250,1,8,0:0:0:0:
321,193,367325,1,8,0:0:0:0:
321,193,367400,1,8,0:0:0:0:
285,196,367475,1,8,0:0:0:0:
285,196,367550,1,0,0:0:0:0:
285,196,367625,1,0,0:0:0:0:
285,196,367700,1,8,0:0:0:0:
285,196,367775,1,8,0:0:0:0:
285,196,367850,1,8,0:0:0:0:
285,196,367925,1,8,0:0:0:0:
285,196,368000,1,0,0:0:0:0:
285,196,368075,1,0,0:0:0:0:
312,148,368150,1,12,0:0:0:0:
321,219,368300,1,8,0:0:0:0:
321,219,368375,1,0,0:0:0:0:
331,193,368450,1,8,0:0:0:0:
331,193,368525,1,8,0:0:0:0:
331,193,368600,1,0,0:0:0:0:
331,193,368675,1,8,0:0:0:0:
331,193,368750,1,0,0:0:0:0:
331,193,368825,1,0,0:0:0:0:
331,193,368900,1,8,0:0:0:0:
331,193,368975,1,0,0:0:0:0:
331,193,369050,1,8,0:0:0:0:
325,195,369125,1,8,0:0:0:0:
325,195,369200,1,0,0:0:0:0:
325,195,369275,1,0,0:0:0:0:
325,195,369350,1,8,0:0:0:0:
281,239,369425,1,8,0:0:0:0:
281,239,369500,1,8,0:0:0:0:
281,239,369575,1,8,0:0:0:0:
281,239,369650,1,0,0:0:0:0:
281,239,369725,1,0,0:0:0:0:
281,239,369800,1,8,0:0:0:0:
281,239,369875,1,8,0:0:0:0:
281,239,369950,1,8,0:0:0:0:
281,239,370025,1,8,0:0:0:0:
281,239,370100,1,0,0:0:0:0:
281,239,370175,1,0,0:0:0:0:
281,239,370250,1,8,0:0:0:0:
281,239,370325,1,0,0:0:0:0:
281,239,370400,1,0,0:0:0:0:
281,239,370475,1,0,0:0:0:0:
293,239,370550,1,8,0:0:0:0:
308,242,370625,1,0,0:0:0:0:
293,239,370700,1,8,0:0:0:0:
281,239,370775,1,8,0:0:0:0:
278,246,370850,1,0,0:0:0:0:
279,246,370925,1,0,0:0:0:0:
279,246,371000,1,8,0:0:0:0:
279,246,371075,1,0,0:0:0:0:
279,246,371150,1,8,0:0:0:0:
279,246,371225,1,0,0:0:0:0:
279,246,371300,1,8,0:0:0:0:
279,246,371375,1,8,0:0:0:0:
279,246,371450,1,0,0:0:0:0:
279,246,371525,1,0,0:0:0:0:
278,246,371600,1,8,0:0:0:0:
279,246,371675,1,0,0:0:0:0:
211,198,371750,1,8,0:0:0:0:
304,167,371825,1,8,0:0:0:0:
277,184,371900,1,0,0:0:0:0:
277,184,371975,1,0,0:0:0:0:
277,184,372050,1,8,0:0:0:0:
277,184,372125,1,0,0:0:0:0:
277,184,372200,1,8,0:0:0:0:
277,184,372275,1,8,0:0:0:0:
277,184,372350,1,0,0:0:0:0:
277,184,372425,1,8,0:0:0:0:
277,184,372500,1,8,0:0:0:0:
277,184,372575,1,0,0:0:0:0:
277,184,372650,1,8,0:0:0:0:
277,184,372725,1,0,0:0:0:0:
277,184,372800,1,8,0:0:0:0:
277,184,372875,1,8,0:0:0:0:
277,184,372950,1,4,0:0:0:0:
265,263,373100,1,0,0:0:0:0:
265,263,373250,1,8,0:0:0:0:
270,264,373325,1,0,0:0:0:0:
268,262,373400,1,8,0:0:0:0:
268,262,373475,1,0,0:0:0:0:
268,262,373550,1,8,0:0:0:0:
268,262,373625,1,8,0:0:0:0:
265,263,373700,1,0,0:0:0:0:
319,233,373775,1,0,0:0:0:0:
339,254,373850,1,8,0:0:0:0:
265,263,373925,1,0,0:0:0:0:
265,263,374000,1,0,0:0:0:0:
265,263,374075,1,0,0:0:0:0:
265,263,374150,1,8,0:0:0:0:
344,228,374300,1,8,0:0:0:0:
265,263,374450,1,0,0:0:0:0:
265,263,374525,1,0,0:0:0:0:
265,263,374600,1,8,0:0:0:0:
319,241,374675,1,0,0:0:0:0:
265,263,374750,1,8,0:0:0:0:
265,263,374825,1,8,0:0:0:0:
265,263,374900,1,0,0:0:0:0:
265,263,374975,1,0,0:0:0:0:
265,263,375050,1,8,0:0:0:0:
265,263,375125,1,0,0:0:0:0:
265,263,375200,1,8,0:0:0:0:
265,263,375275,1,8,0:0:0:0:
265,263,375350,1,4,0:0:0:0:
265,263,375500,1,0,0:0:0:0:
265,263,375575,1,0,0:0:0:0:
265,263,375650,1,8,0:0:0:0:
265,263,375725,1,0,0:0:0:0:
265,263,375800,1,8,0:0:0:0:
265,263,375875,1,0,0:0:0:0:
265,263,375950,1,8,0:0:0:0:
265,263,376025,1,8,0:0:0:0:
265,263,376100,1,0,0:0:0:0:
265,263,376175,1,0,0:0:0:0:
265,263,376250,1,8,0:0:0:0:
265,263,376325,1,0,0:0:0:0:
265,263,376400,1,8,0:0:0:0:
265,263,376550,1,8,0:0:0:0:
265,263,376625,1,0,0:0:0:0:
265,263,376700,1,0,0:0:0:0:
335,211,376775,1,0,0:0:0:0:
265,263,376850,1,8,0:0:0:0:
265,263,376925,1,0,0:0:0:0:
265,263,377000,1,8,0:0:0:0:
265,263,377075,1,0,0:0:0:0:
265,263,377150,1,8,0:0:0:0:
265,263,377225,1,8,0:0:0:0:
265,263,377300,1,8,0:0:0:0:
265,263,377375,1,8,0:0:0:0:
265,263,377450,1,0,0:0:0:0:
265,263,377525,1,0,0:0:0:0:
265,263,377600,1,8,0:0:0:0:
265,263,377675,1,8,0:0:0:0:
262,264,377750,1,4,0:0:0:0:
257,274,377900,1,0,0:0:0:0:
256,274,377975,1,0,0:0:0:0:
256,274,378050,1,8,0:0:0:0:
256,274,378125,1,0,0:0:0:0:
256,274,378200,1,8,0:0:0:0:
256,274,378275,1,0,0:0:0:0:
256,274,378350,1,8,0:0:0:0:
256,274,378425,1,8,0:0:0:0:
256,274,378500,1,0,0:0:0:0:
257,274,378575,1,0,0:0:0:0:
257,274,378650,1,8,0:0:0:0:
256,274,378725,1,0,0:0:0:0:
256,274,378800,1,8,0:0:0:0:
256,274,378875,1,8,0:0:0:0:
256,274,378950,1,8,0:0:0:0:
256,274,379025,1,0,0:0:0:0:
256,274,379100,1,0,0:0:0:0:
256,274,379175,1,0,0:0:0:0:
256,274,379250,1,8,0:0:0:0:
257,274,379325,1,0,0:0:0:0:
257,274,379400,1,0,0:0:0:0:
256,274,379475,1,0,0:0:0:0:
256,274,379550,1,8,0:0:0:0:
256,274,379625,1,8,0:0:0:0:
256,274,379700,1,0,0:0:0:0:
256,274,379775,1,0,0:0:0:0:
256,274,379850,1,8,0:0:0:0:
256,274,379925,1,8,0:0:0:0:
256,274,380000,1,0,0:0:0:0:
257,274,380075,1,0,0:0:0:0:
257,274,380150,1,8,0:0:0:0:
256,274,380225,1,8,0:0:0:0:
256,274,380300,1,0,0:0:0:0:
256,274,380375,1,0,0:0:0:0:
256,274,380450,1,0,0:0:0:0:
256,274,380525,1,0,0:0:0:0:
256,274,380600,1,8,0:0:0:0:
256,274,380675,1,8,0:0:0:0:
256,274,380750,1,0,0:0:0:0:
257,274,380825,1,0,0:0:0:0:
257,274,380900,1,8,0:0:0:0:
256,274,380975,1,0,0:0:0:0:
256,274,381050,1,8,0:0:0:0:
256,274,381125,1,0,0:0:0:0:
256,274,381200,1,0,0:0:0:0:
256,274,381275,1,0,0:0:0:0:
256,274,381350,1,8,0:0:0:0:
256,274,381425,1,8,0:0:0:0:
256,274,381500,1,0,0:0:0:0:
257,274,381575,1,0,0:0:0:0:
257,274,381650,1,0,0:0:0:0:
256,274,381725,1,0,0:0:0:0:
256,274,381800,1,8,0:0:0:0:
256,274,381875,1,8,0:0:0:0:
256,274,381950,1,0,0:0:0:0:
256,274,382025,1,0,0:0:0:0:
256,274,382100,1,0,0:0:0:0:
256,274,382175,1,0,0:0:0:0:
256,274,382250,1,8,0:0:0:0:
257,274,382325,1,8,0:0:0:0:
257,274,382400,1,0,0:0:0:0:
256,274,382475,1,0,0:0:0:0:
327,109,382550,1,8,0:0:0:0:
327,109,382625,1,0,0:0:0:0:
327,109,382700,1,8,0:0:0:0:
327,109,382775,1,0,0:0:0:0:
327,109,382850,1,8,0:0:0:0:
327,109,382925,1,0,0:0:0:0:
327,109,383000,1,8,0:0:0:0:
327,109,383075,1,0,0:0:0:0:
327,109,383150,1,8,0:0:0:0:
327,109,383225,1,0,0:0:0:0:
327,109,383300,1,8,0:0:0:0:
327,109,383375,1,0,0:0:0:0:
327,109,383450,1,8,0:0:0:0:
327,109,383525,1,0,0:0:0:0:
327,109,383600,1,8,0:0:0:0:
327,109,383675,1,0,0:0:0:0:
327,109,383750,1,8,0:0:0:0:
327,109,383825,1,0,0:0:0:0:
327,109,383900,1,8,0:0:0:0:
327,109,383975,1,0,0:0:0:0:
327,109,384050,1,8,0:0:0:0:
327,109,384125,1,0,0:0:0:0:
327,109,384200,1,8,0:0:0:0:
327,109,384275,1,8,0:0:0:0:
327,109,384350,1,0,0:0:0:0:
327,109,384425,1,0,0:0:0:0:
327,109,384500,1,8,0:0:0:0:
327,109,384575,1,0,0:0:0:0:
327,109,384650,1,8,0:0:0:0:
327,109,384725,1,0,0:0:0:0:
327,109,384800,1,8,0:0:0:0:
327,109,384875,1,0,0:0:0:0:
327,109,384950,1,12,0:0:0:0:
299,171,390200,5,12,0:0:0:0:
299,171,390350,1,8,0:0:0:0:
299,171,390500,1,8,0:0:0:0:
299,171,390650,1,8,0:0:0:0:
299,171,390800,1,0,0:0:0:0:
334,170,391400,1,0,0:0:0:0:
334,170,392000,1,0,0:0:0:0:
351,167,392150,1,0,0:0:0:0:
350,165,392300,1,8,0:0:0:0:
348,163,392450,1,0,0:0:0:0:
334,170,392600,1,12,0:0:0:0:
334,170,392750,1,8,0:0:0:0:
334,170,392900,1,8,0:0:0:0:
334,170,393050,1,8,0:0:0:0:
334,170,393200,1,0,0:0:0:0:
334,170,393800,1,0,0:0:0:0:
317,151,394400,1,0,0:0:0:0:
356,175,394550,1,0,0:0:0:0:
356,175,394700,1,8,0:0:0:0:
356,175,394850,1,0,0:0:0:0:
324,184,395000,1,12,0:0:0:0:
324,184,395150,1,8,0:0:0:0:
354,221,395300,1,8,0:0:0:0:
354,221,395450,1,8,0:0:0:0:
187,212,395600,1,0,0:0:0:0:
405,184,396211,5,8,0:0:0:0:
297,132,396361,1,8,0:0:0:0:
297,132,396511,1,8,0:0:0:0:
297,132,396661,1,8,0:0:0:0:
331,188,396818,1,0,0:0:0:0:
369,195,396986,1,0,0:0:0:0:
231,197,397171,1,0,0:0:0:0:
380,207,397356,1,0,0:0:0:0:
340,180,397556,1,8,0:0:0:0:
304,221,397796,1,0,0:0:0:0:
319,186,398111,1,8,0:0:0:0:
