osu file format v14

[General]
AudioFilename: audio.mp3
AudioLeadIn: 0
PreviewTime: -1
Countdown: 1
SampleSet: Normal
StackLeniency: 0.7
Mode: 3
LetterboxInBreaks: 0
SpecialStyle: 0
WidescreenStoryboard: 0

[Editor]
DistanceSpacing: 0.5
BeatDivisor: 4
GridSize: 8
TimelineZoom: 1

[Metadata]
Title:Scars of Yesterday
TitleUnicode:Scars of Yesterday
Artist:Dragonforce
ArtistUnicode:Dragonforce
Creator:Youre Salty xd
Version:Nightmarathon
Source:
Tags:
BeatmapID:1249369
BeatmapSetID:590316

[Difficulty]
HPDrainRate:9.1
CircleSize:7
OverallDifficulty:8.8
ApproachRate:5
SliderMultiplier:1.4
SliderTickRate:1

[Events]
//Background and Video events
0,0,"Scars of yes.jpg",0,0
//Break Periods
//Storyboard Layer 0 (Background)
//Storyboard Layer 1 (Fail)
//Storyboard Layer 2 (Pass)
//Storyboard Layer 3 (Foreground)
//Storyboard Sound Samples

[TimingPoints]
8020,461.538461538462,4,1,0,28,1,0
8020,-74.0740740740741,4,1,0,28,0,0
48635,300,4,1,0,28,1,0

[HitObjects]
475,192,635,5,0,0:0:0:0:
256,192,635,1,0,0:0:0:0:
36,192,635,128,0,750:0:0:0:0:
36,192,866,128,0,981:0:0:0:0:
36,192,1096,1,0,0:0:0:0:
475,192,1096,128,0,1212:0:0:0:0:
256,192,1096,1,0,0:0:0:0:
182,192,1212,128,0,1327:0:0:0:0:
475,192,1443,128,0,1558:0:0:0:0:
329,192,1673,128,0,1789:0:0:0:0:
256,192,1904,128,0,2019:0:0:0:0:
475,192,2019,1,0,0:0:0:0:
36,192,2019,1,0,0:0:0:0:
182,192,2135,128,0,2250:0:0:0:0:
109,192,2250,128,0,2366:0:0:0:0:
256,192,2481,128,0,2596:0:0:0:0:
256,192,2712,128,0,2827:0:0:0:0:
36,192,2943,1,0,0:0:0:0:
256,192,2943,1,0,0:0:0:0:
475,192,2943,128,0,3058:0:0:0:0:
329,192,3058,128,0,3173:0:0:0:0:
402,192,3289,128,0,3404:0:0:0:0:
329,192,3519,128,0,3635:0:0:0:0:
256,192,3750,128,0,3866:0:0:0:0:
402,192,3866,1,0,0:0:0:0:
109,192,3866,1,0,0:0:0:0:
182,192,3981,128,0,4096:0:0:0:0:
109,192,4096,128,0,4212:0:0:0:0:
475,192,4327,128,0,4443:0:0:0:0:
475,192,4558,128,0,4673:0:0:0:0:
475,192,4789,1,0,0:0:0:0:
329,192,4789,128,0,4904:0:0:0:0:
36,192,4789,1,0,0:0:0:0:
256,192,4904,128,0,5019:0:0:0:0:
36,192,5135,128,0,5250:0:0:0:0:
182,192,5366,128,0,5481:0:0:0:0:
329,192,5596,128,0,5712:0:0:0:0:
36,192,5712,1,0,0:0:0:0:
109,192,5712,1,0,0:0:0:0:
256,192,5827,128,0,5943:0:0:0:0:
402,192,5943,128,0,6058:0:0:0:0:
36,192,6173,1,0,0:0:0:0:
475,192,6173,1,0,0:0:0:0:
256,192,6173,128,0,7096:0:0:0:0:
109,192,6231,1,0,0:0:0:0:
182,192,6289,1,0,0:0:0:0:
329,192,6346,1,0,0:0:0:0:
402,192,6404,1,0,0:0:0:0:
475,192,6404,1,0,0:0:0:0:
36,192,6462,1,0,0:0:0:0:
182,192,6520,1,0,0:0:0:0:
109,192,6520,1,0,0:0:0:0:
402,192,6577,1,0,0:0:0:0:
475,192,6635,1,0,0:0:0:0:
329,192,6693,1,0,0:0:0:0:
109,192,6750,1,0,0:0:0:0:
182,192,6750,1,0,0:0:0:0:
36,192,6808,1,0,0:0:0:0:
402,192,6866,1,0,0:0:0:0:
475,192,6866,1,0,0:0:0:0:
109,192,6923,1,0,0:0:0:0:
329,192,6981,1,0,0:0:0:0:
402,192,7039,1,0,0:0:0:0:
475,192,7096,1,0,0:0:0:0:
36,192,7096,128,0,8020:0:0:0:0:
109,192,7096,1,0,0:0:0:0:
182,192,7154,1,0,0:0:0:0:
256,192,7212,1,0,0:0:0:0:
329,192,7212,1,0,0:0:0:0:
402,192,7270,1,0,0:0:0:0:
182,192,7327,1,0,0:0:0:0:
109,192,7385,1,0,0:0:0:0:
256,192,7443,1,0,0:0:0:0:
329,192,7443,1,0,0:0:0:0:
402,192,7500,1,0,0:0:0:0:
475,192,7558,1,0,0:0:0:0:
109,192,7558,1,0,0:0:0:0:
182,192,7616,1,0,0:0:0:0:
256,192,7673,1,0,0:0:0:0:
109,192,7731,1,0,0:0:0:0:
182,192,7789,1,0,0:0:0:0:
329,192,7789,1,0,0:0:0:0:
256,192,7846,1,0,0:0:0:0:
475,192,7904,1,0,0:0:0:0:
402,192,7904,1,0,0:0:0:0:
329,192,7962,1,0,0:0:0:0:
109,192,8020,128,0,8135:0:0:0:0:
182,192,8020,1,0,0:0:0:0:
256,192,8020,128,0,13558:0:0:0:0:
475,192,8250,1,0,0:0:0:0:
329,192,8250,128,0,8366:0:0:0:0:
36,192,8481,1,0,0:0:0:0:
182,192,8481,1,0,0:0:0:0:
475,192,8481,128,0,8596:0:0:0:0:
402,192,8596,128,0,8712:0:0:0:0:
109,192,8596,1,0,0:0:0:0:
475,192,8827,128,0,8943:0:0:0:0:
182,192,8827,1,0,0:0:0:0:
402,192,9058,128,0,9173:0:0:0:0:
109,192,9058,1,0,0:0:0:0:
329,192,9289,128,0,9404:0:0:0:0:
36,192,9289,1,0,0:0:0:0:
475,192,9404,1,0,0:0:0:0:
182,192,9404,1,0,0:0:0:0:
109,192,9520,128,0,9635:0:0:0:0:
402,192,9520,1,0,0:0:0:0:
36,192,9635,128,0,9750:0:0:0:0:
329,192,9635,1,0,0:0:0:0:
329,192,9866,1,0,0:0:0:0:
109,192,9866,1,0,0:0:0:0:
475,192,9866,128,0,9981:0:0:0:0:
182,192,10096,1,0,0:0:0:0:
402,192,10096,128,0,10212:0:0:0:0:
36,192,10327,1,0,0:0:0:0:
109,192,10327,1,0,0:0:0:0:
475,192,10327,128,0,10443:0:0:0:0:
182,192,10443,128,0,10558:0:0:0:0:
329,192,10443,1,0,0:0:0:0:
475,192,10673,128,0,10789:0:0:0:0:
402,192,10673,1,0,0:0:0:0:
329,192,10904,128,0,11020:0:0:0:0:
109,192,10904,1,0,0:0:0:0:
36,192,11135,1,0,0:0:0:0:
182,192,11135,128,0,11250:0:0:0:0:
475,192,11250,1,0,0:0:0:0:
329,192,11250,1,0,0:0:0:0:
109,192,11366,128,0,11481:0:0:0:0:
402,192,11366,1,0,0:0:0:0:
329,192,11481,1,0,0:0:0:0:
36,192,11481,128,0,11596:0:0:0:0:
402,192,11712,1,0,0:0:0:0:
109,192,11712,1,0,0:0:0:0:
329,192,11712,128,0,11827:0:0:0:0:
475,192,11712,128,0,13558:0:0:0:0:
182,192,11943,128,0,12058:0:0:0:0:
109,192,11943,1,0,0:0:0:0:
402,192,12173,1,0,0:0:0:0:
329,192,12173,1,0,0:0:0:0:
36,192,12173,1,0,0:0:0:0:
182,192,12289,1,0,0:0:0:0:
109,192,12289,128,0,12404:0:0:0:0:
36,192,12520,128,0,12635:0:0:0:0:
109,192,12750,128,0,12866:0:0:0:0:
402,192,12750,1,0,0:0:0:0:
182,192,12981,128,0,13096:0:0:0:0:
329,192,12981,1,0,0:0:0:0:
36,192,13096,1,0,0:0:0:0:
402,192,13096,1,0,0:0:0:0:
329,192,13212,128,0,13327:0:0:0:0:
109,192,13212,1,0,0:0:0:0:
402,192,13327,128,0,13443:0:0:0:0:
182,192,13327,1,0,0:0:0:0:
36,192,13558,1,0,0:0:0:0:
329,192,13558,1,0,0:0:0:0:
109,192,13558,1,0,0:0:0:0:
402,192,13616,1,0,0:0:0:0:
182,192,13673,1,0,0:0:0:0:
256,192,13731,1,0,0:0:0:0:
329,192,13789,1,0,0:0:0:0:
475,192,13846,1,0,0:0:0:0:
402,192,13846,1,0,0:0:0:0:
256,192,13904,1,0,0:0:0:0:
109,192,13962,1,0,0:0:0:0:
36,192,13962,1,0,0:0:0:0:
329,192,14020,1,0,0:0:0:0:
475,192,14077,1,0,0:0:0:0:
182,192,14077,1,0,0:0:0:0:
256,192,14135,1,0,0:0:0:0:
402,192,14193,1,0,0:0:0:0:
109,192,14193,1,0,0:0:0:0:
182,192,14250,1,0,0:0:0:0:
329,192,14308,1,0,0:0:0:0:
36,192,14308,1,0,0:0:0:0:
109,192,14366,1,0,0:0:0:0:
402,192,14423,1,0,0:0:0:0:
475,192,14423,1,0,0:0:0:0:
182,192,14481,1,0,0:0:0:0:
402,192,14539,1,0,0:0:0:0:
475,192,14539,1,0,0:0:0:0:
256,192,14596,1,0,0:0:0:0:
329,192,14654,1,0,0:0:0:0:
182,192,14654,1,0,0:0:0:0:
402,192,14712,1,0,0:0:0:0:
36,192,14770,1,0,0:0:0:0:
475,192,14827,1,0,0:0:0:0:
36,192,14885,1,0,0:0:0:0:
256,192,14943,1,0,0:0:0:0:
329,192,14943,1,0,0:0:0:0:
402,192,14943,1,0,0:0:0:0:
182,192,15000,1,0,0:0:0:0:
475,192,15058,1,0,0:0:0:0:
329,192,15116,1,0,0:0:0:0:
256,192,15173,1,0,0:0:0:0:
36,192,15231,1,0,0:0:0:0:
109,192,15289,1,0,0:0:0:0:
182,192,15346,1,0,0:0:0:0:
402,192,15404,1,0,0:0:0:0:
36,192,15404,128,0,15520:0:0:0:0:
329,192,15520,128,0,15635:0:0:0:0:
109,192,15635,128,0,15750:0:0:0:0:
402,192,15635,1,0,0:0:0:0:
182,192,15750,128,0,15866:0:0:0:0:
329,192,15866,128,0,15981:0:0:0:0:
475,192,15866,1,0,0:0:0:0:
36,192,15866,1,0,0:0:0:0:
256,192,15981,128,0,16096:0:0:0:0:
109,192,15981,1,0,0:0:0:0:
182,192,16096,128,0,16212:0:0:0:0:
36,192,16096,1,0,0:0:0:0:
475,192,16212,1,0,0:0:0:0:
256,192,16212,128,0,16327:0:0:0:0:
329,192,16327,128,0,16443:0:0:0:0:
402,192,16443,1,0,0:0:0:0:
36,192,16443,128,0,16558:0:0:0:0:
182,192,16558,128,0,16673:0:0:0:0:
475,192,16558,1,0,0:0:0:0:
329,192,16673,1,0,0:0:0:0:
256,192,16673,128,0,16789:0:0:0:0:
402,192,16789,128,0,16904:0:0:0:0:
36,192,16789,1,0,0:0:0:0:
475,192,16789,1,0,0:0:0:0:
182,192,16904,1,0,0:0:0:0:
329,192,16904,128,0,17020:0:0:0:0:
36,192,17020,1,0,0:0:0:0:
109,192,17020,128,0,17135:0:0:0:0:
475,192,17020,1,0,0:0:0:0:
182,192,17135,128,0,17250:0:0:0:0:
256,192,17250,1,0,0:0:0:0:
475,192,17250,128,0,17366:0:0:0:0:
36,192,17366,128,0,17481:0:0:0:0:
256,192,17481,1,0,0:0:0:0:
402,192,17481,1,0,0:0:0:0:
109,192,17481,128,0,17596:0:0:0:0:
475,192,17596,128,0,17712:0:0:0:0:
329,192,17712,1,0,0:0:0:0:
256,192,17712,128,0,17827:0:0:0:0:
36,192,17712,1,0,0:0:0:0:
402,192,17712,1,0,0:0:0:0:
182,192,17827,1,0,0:0:0:0:
109,192,17827,128,0,17943:0:0:0:0:
402,192,17943,128,0,18058:0:0:0:0:
475,192,17943,1,0,0:0:0:0:
182,192,18058,1,0,0:0:0:0:
329,192,18058,128,0,18173:0:0:0:0:
36,192,18173,128,0,18289:0:0:0:0:
109,192,18289,1,0,0:0:0:0:
475,192,18289,128,0,18404:0:0:0:0:
329,192,18404,128,0,18520:0:0:0:0:
256,192,18404,1,0,0:0:0:0:
36,192,18520,1,0,0:0:0:0:
182,192,18520,128,0,18635:0:0:0:0:
256,192,18635,128,0,18750:0:0:0:0:
109,192,18635,1,0,0:0:0:0:
475,192,18635,1,0,0:0:0:0:
402,192,18750,128,0,18866:0:0:0:0:
36,192,18750,1,0,0:0:0:0:
182,192,18866,128,0,18981:0:0:0:0:
329,192,18866,1,0,0:0:0:0:
109,192,18981,128,0,19096:0:0:0:0:
329,192,19096,1,0,0:0:0:0:
475,192,19096,128,0,19212:0:0:0:0:
256,192,19212,128,0,19327:0:0:0:0:
329,192,19327,1,0,0:0:0:0:
36,192,19327,128,0,19443:0:0:0:0:
182,192,19443,128,0,19558:0:0:0:0:
402,192,19558,1,0,0:0:0:0:
329,192,19558,128,0,19673:0:0:0:0:
475,192,19558,1,0,0:0:0:0:
109,192,19673,1,0,0:0:0:0:
256,192,19673,128,0,19789:0:0:0:0:
182,192,19789,128,0,19904:0:0:0:0:
402,192,19789,1,0,0:0:0:0:
109,192,19904,5,0,0:0:0:0:
36,192,19904,128,0,20020:0:0:0:0:
475,192,20020,128,0,20135:0:0:0:0:
182,192,20135,1,0,0:0:0:0:
402,192,20135,128,0,20250:0:0:0:0:
109,192,20250,128,0,20366:0:0:0:0:
329,192,20250,1,0,0:0:0:0:
256,192,20366,1,0,0:0:0:0:
182,192,20366,128,0,20481:0:0:0:0:
475,192,20481,128,0,20596:0:0:0:0:
402,192,20481,1,0,0:0:0:0:
36,192,20481,1,0,0:0:0:0:
329,192,20596,1,0,0:0:0:0:
109,192,20596,128,0,20712:0:0:0:0:
402,192,20712,1,0,0:0:0:0:
182,192,20712,128,0,20827:0:0:0:0:
256,192,20827,128,0,20943:0:0:0:0:
475,192,20943,128,0,22789:0:0:0:0:
402,192,21058,128,0,21173:0:0:0:0:
36,192,21058,1,0,0:0:0:0:
329,192,21173,128,0,21289:0:0:0:0:
402,192,21289,1,0,0:0:0:0:
256,192,21289,128,0,21404:0:0:0:0:
329,192,21404,1,0,0:0:0:0:
182,192,21404,128,0,21520:0:0:0:0:
109,192,21520,128,0,21635:0:0:0:0:
256,192,21520,1,0,0:0:0:0:
182,192,21635,1,0,0:0:0:0:
36,192,21635,128,0,21750:0:0:0:0:
109,192,21750,1,0,0:0:0:0:
402,192,21750,128,0,21866:0:0:0:0:
36,192,21866,128,0,22789:0:0:0:0:
329,192,21866,1,0,0:0:0:0:
256,192,21866,128,0,21981:0:0:0:0:
182,192,21981,1,0,0:0:0:0:
109,192,21981,128,0,22096:0:0:0:0:
402,192,22096,128,0,22212:0:0:0:0:
256,192,22212,128,0,22327:0:0:0:0:
329,192,22212,1,0,0:0:0:0:
182,192,22327,1,0,0:0:0:0:
329,192,22385,1,0,0:0:0:0:
109,192,22443,1,0,0:0:0:0:
402,192,22500,1,0,0:0:0:0:
182,192,22558,1,0,0:0:0:0:
329,192,22616,1,0,0:0:0:0:
109,192,22673,1,0,0:0:0:0:
402,192,22731,1,0,0:0:0:0:
256,192,22789,1,0,0:0:0:0:
329,192,22789,128,0,22904:0:0:0:0:
182,192,22904,128,0,23020:0:0:0:0:
256,192,23020,1,0,0:0:0:0:
109,192,23020,128,0,23135:0:0:0:0:
402,192,23135,128,0,23250:0:0:0:0:
475,192,23250,1,0,0:0:0:0:
36,192,23250,1,0,0:0:0:0:
329,192,23250,128,0,23366:0:0:0:0:
182,192,23366,1,0,0:0:0:0:
256,192,23366,128,0,23481:0:0:0:0:
109,192,23481,128,0,23596:0:0:0:0:
402,192,23596,1,0,0:0:0:0:
182,192,23596,128,0,23712:0:0:0:0:
475,192,23712,128,0,23827:0:0:0:0:
329,192,23827,1,0,0:0:0:0:
402,192,23827,128,0,23943:0:0:0:0:
36,192,23943,128,0,24058:0:0:0:0:
256,192,24058,1,0,0:0:0:0:
109,192,24058,128,0,24173:0:0:0:0:
182,192,24173,1,0,0:0:0:0:
329,192,24173,1,0,0:0:0:0:
402,192,24173,128,0,24289:0:0:0:0:
109,192,24289,1,0,0:0:0:0:
256,192,24289,128,0,24404:0:0:0:0:
36,192,24404,1,0,0:0:0:0:
329,192,24520,128,0,24635:0:0:0:0:
182,192,24635,1,0,0:0:0:0:
475,192,24635,128,0,24750:0:0:0:0:
402,192,24750,128,0,24866:0:0:0:0:
182,192,24866,1,0,0:0:0:0:
36,192,24866,128,0,24981:0:0:0:0:
256,192,24981,128,0,25096:0:0:0:0:
109,192,25096,1,0,0:0:0:0:
402,192,25096,1,0,0:0:0:0:
329,192,25096,128,0,25212:0:0:0:0:
475,192,25212,1,0,0:0:0:0:
182,192,25212,128,0,25327:0:0:0:0:
36,192,25327,128,0,25443:0:0:0:0:
475,192,25443,1,0,0:0:0:0:
329,192,25443,128,0,25558:0:0:0:0:
256,192,25558,128,0,25673:0:0:0:0:
402,192,25673,1,0,0:0:0:0:
109,192,25673,128,0,25789:0:0:0:0:
182,192,25789,128,0,25904:0:0:0:0:
329,192,25904,128,0,26020:0:0:0:0:
402,192,25904,1,0,0:0:0:0:
36,192,26020,1,0,0:0:0:0:
475,192,26020,1,0,0:0:0:0:
109,192,26020,128,0,26135:0:0:0:0:
256,192,26135,1,0,0:0:0:0:
402,192,26135,128,0,26250:0:0:0:0:
109,192,26250,1,0,0:0:0:0:
329,192,26250,128,0,26366:0:0:0:0:
36,192,26366,128,0,26481:0:0:0:0:
182,192,26481,1,0,0:0:0:0:
475,192,26481,128,0,26596:0:0:0:0:
256,192,26596,128,0,26712:0:0:0:0:
182,192,26712,1,0,0:0:0:0:
36,192,26712,128,0,26827:0:0:0:0:
109,192,26827,128,0,26943:0:0:0:0:
402,192,26943,1,0,0:0:0:0:
329,192,26943,1,0,0:0:0:0:
475,192,26943,128,0,27058:0:0:0:0:
36,192,27058,1,0,0:0:0:0:
182,192,27058,128,0,27173:0:0:0:0:
329,192,27173,128,0,27289:0:0:0:0:
109,192,27289,5,0,0:0:0:0:
402,192,27289,128,0,27404:0:0:0:0:
256,192,27404,128,0,27520:0:0:0:0:
182,192,27520,1,0,0:0:0:0:
109,192,27520,128,0,27635:0:0:0:0:
329,192,27635,128,0,27750:0:0:0:0:
256,192,27750,1,0,0:0:0:0:
402,192,27750,128,0,27866:0:0:0:0:
109,192,27866,1,0,0:0:0:0:
182,192,27866,1,0,0:0:0:0:
475,192,27866,128,0,27981:0:0:0:0:
329,192,27981,1,0,0:0:0:0:
36,192,27981,128,0,28096:0:0:0:0:
402,192,28096,1,0,0:0:0:0:
256,192,28096,128,0,28212:0:0:0:0:
329,192,28212,128,0,28327:0:0:0:0:
475,192,28327,128,0,29250:0:0:0:0:
36,192,28327,1,0,0:0:0:0:
402,192,28327,1,0,0:0:0:0:
109,192,28443,1,0,0:0:0:0:
329,192,28443,1,0,0:0:0:0:
182,192,28558,1,0,0:0:0:0:
256,192,28673,1,0,0:0:0:0:
36,192,28673,1,0,0:0:0:0:
402,192,28904,1,0,0:0:0:0:
329,192,28904,1,0,0:0:0:0:
36,192,29135,1,0,0:0:0:0:
109,192,29135,1,0,0:0:0:0:
256,192,29250,128,0,29712:0:0:0:0:
329,192,29250,1,0,0:0:0:0:
182,192,29481,1,0,0:0:0:0:
36,192,29712,128,0,30173:0:0:0:0:
475,192,29712,1,0,0:0:0:0:
109,192,29712,1,0,0:0:0:0:
402,192,29789,1,0,0:0:0:0:
182,192,29789,1,0,0:0:0:0:
329,192,29866,1,0,0:0:0:0:
256,192,29943,1,0,0:0:0:0:
329,192,30173,128,0,30289:0:0:0:0:
182,192,30289,128,0,30404:0:0:0:0:
329,192,30404,128,0,30635:0:0:0:0:
256,192,30866,128,0,32020:0:0:0:0:
36,192,31096,1,0,0:0:0:0:
475,192,31096,1,0,0:0:0:0:
402,192,31558,1,0,0:0:0:0:
329,192,31789,128,0,31904:0:0:0:0:
109,192,31904,1,0,0:0:0:0:
182,192,31904,128,0,32020:0:0:0:0:
402,192,32020,128,0,32404:0:0:0:0:
475,192,32404,128,0,32558:0:0:0:0:
256,192,32481,1,0,0:0:0:0:
109,192,32481,1,0,0:0:0:0:
182,192,32712,128,0,33866:0:0:0:0:
402,192,32943,1,0,0:0:0:0:
256,192,33404,1,0,0:0:0:0:
475,192,33404,1,0,0:0:0:0:
329,192,33635,1,0,0:0:0:0:
475,192,33866,128,0,35712:0:0:0:0:
36,192,33866,128,0,33981:0:0:0:0:
402,192,33866,1,0,0:0:0:0:
256,192,33981,128,0,34327:0:0:0:0:
109,192,34212,128,0,34327:0:0:0:0:
329,192,34327,1,0,0:0:0:0:
182,192,34558,128,0,34904:0:0:0:0:
402,192,34789,1,0,0:0:0:0:
329,192,34904,128,0,35020:0:0:0:0:
109,192,35020,128,0,35135:0:0:0:0:
256,192,35135,128,0,35250:0:0:0:0:
182,192,35250,1,0,0:0:0:0:
329,192,35250,128,0,35366:0:0:0:0:
402,192,35366,128,0,35481:0:0:0:0:
256,192,35481,128,0,35596:0:0:0:0:
109,192,35596,128,0,35712:0:0:0:0:
36,192,35712,128,0,36635:0:0:0:0:
402,192,35712,128,0,35943:0:0:0:0:
329,192,35827,128,0,35943:0:0:0:0:
182,192,35943,1,0,0:0:0:0:
182,192,36058,1,0,0:0:0:0:
109,192,36173,1,0,0:0:0:0:
475,192,36173,128,0,36404:0:0:0:0:
402,192,36289,128,0,36404:0:0:0:0:
256,192,36404,1,0,0:0:0:0:
256,192,36520,1,0,0:0:0:0:
109,192,36635,1,0,0:0:0:0:
475,192,36635,1,0,0:0:0:0:
182,192,36693,1,0,0:0:0:0:
256,192,36693,1,0,0:0:0:0:
402,192,36750,1,0,0:0:0:0:
329,192,36750,1,0,0:0:0:0:
36,192,36808,1,0,0:0:0:0:
182,192,36866,1,0,0:0:0:0:
329,192,36923,1,0,0:0:0:0:
475,192,36981,1,0,0:0:0:0:
109,192,36981,1,0,0:0:0:0:
256,192,37039,1,0,0:0:0:0:
329,192,37096,1,0,0:0:0:0:
402,192,37096,1,0,0:0:0:0:
36,192,37154,1,0,0:0:0:0:
109,192,37154,1,0,0:0:0:0:
182,192,37212,1,0,0:0:0:0:
256,192,37212,1,0,0:0:0:0:
402,192,37270,1,0,0:0:0:0:
329,192,37327,1,0,0:0:0:0:
109,192,37327,1,0,0:0:0:0:
256,192,37385,1,0,0:0:0:0:
36,192,37443,1,0,0:0:0:0:
182,192,37500,1,0,0:0:0:0:
256,192,37558,1,0,0:0:0:0:
109,192,37558,1,0,0:0:0:0:
402,192,37558,128,0,37943:0:0:0:0:
256,192,37943,128,0,38250:0:0:0:0:
475,192,38020,1,0,0:0:0:0:
36,192,38020,1,0,0:0:0:0:
109,192,38250,128,0,38481:0:0:0:0:
329,192,38481,128,0,38943:0:0:0:0:
475,192,38481,1,0,0:0:0:0:
182,192,38712,1,0,0:0:0:0:
109,192,38866,128,0,39173:0:0:0:0:
36,192,38943,1,0,0:0:0:0:
475,192,38943,1,0,0:0:0:0:
182,192,39173,128,0,39404:0:0:0:0:
402,192,39173,1,0,0:0:0:0:
36,192,39404,1,0,0:0:0:0:
256,192,39404,128,0,39866:0:0:0:0:
329,192,39789,128,0,39943:0:0:0:0:
36,192,39866,1,0,0:0:0:0:
475,192,39866,1,0,0:0:0:0:
109,192,40020,128,0,40096:0:0:0:0:
329,192,40096,128,0,41250:0:0:0:0:
36,192,40558,1,0,0:0:0:0:
475,192,40789,1,0,0:0:0:0:
109,192,40789,1,0,0:0:0:0:
182,192,41020,1,0,0:0:0:0:
36,192,41250,1,0,0:0:0:0:
182,192,41250,1,0,0:0:0:0:
475,192,41250,128,0,41712:0:0:0:0:
329,192,41596,128,0,41827:0:0:0:0:
36,192,41712,1,0,0:0:0:0:
182,192,41712,1,0,0:0:0:0:
256,192,41943,128,0,42346:0:0:0:0:
475,192,42173,1,0,0:0:0:0:
36,192,42173,128,0,43096:0:0:0:0:
109,192,42346,1,0,0:0:0:0:
182,192,42462,1,0,0:0:0:0:
329,192,42520,1,0,0:0:0:0:
475,192,42635,1,0,0:0:0:0:
109,192,42635,1,0,0:0:0:0:
256,192,42750,1,0,0:0:0:0:
402,192,42866,1,0,0:0:0:0:
182,192,42981,1,0,0:0:0:0:
475,192,43096,1,0,0:0:0:0:
109,192,43096,128,0,43212:0:0:0:0:
182,192,43212,128,0,44020:0:0:0:0:
329,192,43443,128,0,43673:0:0:0:0:
475,192,43558,1,0,0:0:0:0:
256,192,43558,1,0,0:0:0:0:
109,192,43789,128,0,43904:0:0:0:0:
36,192,44020,1,0,0:0:0:0:
256,192,44020,1,0,0:0:0:0:
475,192,44020,128,0,44481:0:0:0:0:
402,192,44366,128,0,44712:0:0:0:0:
182,192,44481,1,0,0:0:0:0:
109,192,44712,128,0,44943:0:0:0:0:
475,192,44943,1,0,0:0:0:0:
36,192,44943,1,0,0:0:0:0:
256,192,44943,128,0,46327:0:0:0:0:
475,192,45404,1,0,0:0:0:0:
402,192,45520,1,0,0:0:0:0:
329,192,45635,5,0,0:0:0:0:
182,192,45750,1,0,0:0:0:0:
36,192,45866,1,0,0:0:0:0:
109,192,45981,1,0,0:0:0:0:
329,192,46096,1,0,0:0:0:0:
402,192,46212,1,0,0:0:0:0:
475,192,46327,1,0,0:0:0:0:
182,192,46327,128,0,46558:0:0:0:0:
402,192,46443,1,0,0:0:0:0:
329,192,46558,128,0,46789:0:0:0:0:
36,192,46558,1,0,0:0:0:0:
256,192,46673,1,0,0:0:0:0:
36,192,46789,5,0,0:0:0:0:
109,192,46789,1,0,0:0:0:0:
475,192,46846,1,0,0:0:0:0:
402,192,46846,1,0,0:0:0:0:
109,192,46904,1,0,0:0:0:0:
36,192,46904,1,0,0:0:0:0:
475,192,46962,1,0,0:0:0:0:
402,192,46962,1,0,0:0:0:0:
36,192,47020,1,0,0:0:0:0:
109,192,47020,1,0,0:0:0:0:
475,192,47077,1,0,0:0:0:0:
402,192,47077,1,0,0:0:0:0:
36,192,47135,1,0,0:0:0:0:
109,192,47135,1,0,0:0:0:0:
402,192,47193,1,0,0:0:0:0:
475,192,47193,1,0,0:0:0:0:
182,192,47250,1,0,0:0:0:0:
109,192,47308,1,0,0:0:0:0:
36,192,47366,1,0,0:0:0:0:
329,192,47423,1,0,0:0:0:0:
402,192,47481,1,0,0:0:0:0:
475,192,47539,1,0,0:0:0:0:
329,192,47596,1,0,0:0:0:0:
256,192,47654,1,0,0:0:0:0:
402,192,47712,1,0,0:0:0:0:
475,192,47712,1,0,0:0:0:0:
182,192,47712,1,0,0:0:0:0:
109,192,47770,1,0,0:0:0:0:
36,192,47770,1,0,0:0:0:0:
402,192,47827,1,0,0:0:0:0:
475,192,47827,1,0,0:0:0:0:
109,192,47885,1,0,0:0:0:0:
36,192,47885,1,0,0:0:0:0:
402,192,47943,1,0,0:0:0:0:
475,192,47943,1,0,0:0:0:0:
109,192,48000,1,0,0:0:0:0:
36,192,48000,1,0,0:0:0:0:
402,192,48058,1,0,0:0:0:0:
475,192,48058,1,0,0:0:0:0:
109,192,48116,1,0,0:0:0:0:
36,192,48116,1,0,0:0:0:0:
329,192,48173,1,0,0:0:0:0:
256,192,48231,1,0,0:0:0:0:
182,192,48289,1,0,0:0:0:0:
36,192,48346,1,0,0:0:0:0:
109,192,48404,1,0,0:0:0:0:
329,192,48462,1,0,0:0:0:0:
402,192,48520,1,0,0:0:0:0:
182,192,48577,1,0,0:0:0:0:
36,192,48635,1,0,0:0:0:0:
475,192,48635,1,0,0:0:0:0:
256,192,48635,128,0,48750:0:0:0:0:
402,192,48710,1,0,0:0:0:0:
329,192,48785,1,0,0:0:0:0:
109,192,48860,1,0,0:0:0:0:
182,192,48935,1,0,0:0:0:0:
475,192,49010,1,0,0:0:0:0:
329,192,49085,1,0,0:0:0:0:
36,192,49160,1,0,0:0:0:0:
182,192,49235,1,0,0:0:0:0:
329,192,49310,1,0,0:0:0:0:
256,192,49385,1,0,0:0:0:0:
475,192,49460,1,0,0:0:0:0:
402,192,49535,1,0,0:0:0:0:
36,192,49610,1,0,0:0:0:0:
109,192,49685,1,0,0:0:0:0:
402,192,49760,1,0,0:0:0:0:
36,192,49835,128,0,50435:0:0:0:0:
182,192,49835,1,0,0:0:0:0:
329,192,49835,1,0,0:0:0:0:
109,192,49910,1,0,0:0:0:0:
182,192,49985,1,0,0:0:0:0:
475,192,50060,1,0,0:0:0:0:
402,192,50135,1,0,0:0:0:0:
329,192,50210,1,0,0:0:0:0:
109,192,50285,1,0,0:0:0:0:
182,192,50360,1,0,0:0:0:0:
402,192,50435,1,0,0:0:0:0:
256,192,50435,128,0,51035:0:0:0:0:
475,192,50435,1,0,0:0:0:0:
182,192,50510,1,0,0:0:0:0:
109,192,50585,1,0,0:0:0:0:
36,192,50660,1,0,0:0:0:0:
329,192,50660,1,0,0:0:0:0:
402,192,50735,1,0,0:0:0:0:
475,192,50810,1,0,0:0:0:0:
182,192,50885,1,0,0:0:0:0:
109,192,50960,1,0,0:0:0:0:
329,192,51035,1,0,0:0:0:0:
36,192,51035,1,0,0:0:0:0:
475,192,51035,128,0,51185:0:0:0:0:
109,192,51110,1,0,0:0:0:0:
402,192,51185,1,0,0:0:0:0:
329,192,51260,1,0,0:0:0:0:
109,192,51335,1,0,0:0:0:0:
182,192,51410,1,0,0:0:0:0:
329,192,51485,1,0,0:0:0:0:
256,192,51560,1,0,0:0:0:0:
329,192,51635,1,0,0:0:0:0:
402,192,51710,1,0,0:0:0:0:
182,192,51785,1,0,0:0:0:0:
109,192,51860,1,0,0:0:0:0:
402,192,51935,1,0,0:0:0:0:
109,192,52010,1,0,0:0:0:0:
475,192,52010,1,0,0:0:0:0:
36,192,52085,1,0,0:0:0:0:
329,192,52160,1,0,0:0:0:0:
36,192,52235,128,0,52835:0:0:0:0:
256,192,52235,1,0,0:0:0:0:
475,192,52235,1,0,0:0:0:0:
402,192,52310,1,0,0:0:0:0:
109,192,52385,1,0,0:0:0:0:
329,192,52385,1,0,0:0:0:0:
182,192,52460,1,0,0:0:0:0:
329,192,52535,1,0,0:0:0:0:
256,192,52610,1,0,0:0:0:0:
182,192,52685,1,0,0:0:0:0:
109,192,52760,1,0,0:0:0:0:
256,192,52835,128,0,53435:0:0:0:0:
475,192,52835,1,0,0:0:0:0:
402,192,52835,1,0,0:0:0:0:
402,192,52985,1,0,0:0:0:0:
475,192,52985,1,0,0:0:0:0:
475,192,53135,1,0,0:0:0:0:
402,192,53135,1,0,0:0:0:0:
36,192,53435,1,0,0:0:0:0:
475,192,53435,1,0,0:0:0:0:
329,192,53435,1,0,0:0:0:0:
109,192,53510,1,0,0:0:0:0:
182,192,53585,1,0,0:0:0:0:
402,192,53585,1,0,0:0:0:0:
329,192,53660,1,0,0:0:0:0:
36,192,53735,1,0,0:0:0:0:
475,192,53735,1,0,0:0:0:0:
109,192,53810,1,0,0:0:0:0:
182,192,53885,1,0,0:0:0:0:
402,192,53885,1,0,0:0:0:0:
329,192,53960,1,0,0:0:0:0:
256,192,54035,1,0,0:0:0:0:
182,192,54035,1,0,0:0:0:0:
109,192,54110,1,0,0:0:0:0:
475,192,54185,1,0,0:0:0:0:
402,192,54185,1,0,0:0:0:0:
329,192,54260,1,0,0:0:0:0:
36,192,54335,1,0,0:0:0:0:
256,192,54335,1,0,0:0:0:0:
182,192,54410,1,0,0:0:0:0:
109,192,54485,1,0,0:0:0:0:
329,192,54485,1,0,0:0:0:0:
402,192,54560,1,0,0:0:0:0:
329,192,54635,1,0,0:0:0:0:
182,192,54635,1,0,0:0:0:0:
36,192,54710,1,0,0:0:0:0:
475,192,54785,1,0,0:0:0:0:
109,192,54785,1,0,0:0:0:0:
402,192,54860,1,0,0:0:0:0:
329,192,54935,1,0,0:0:0:0:
182,192,54935,1,0,0:0:0:0:
256,192,55010,1,0,0:0:0:0:
109,192,55085,1,0,0:0:0:0:
329,192,55085,1,0,0:0:0:0:
182,192,55160,1,0,0:0:0:0:
402,192,55235,1,0,0:0:0:0:
36,192,55235,1,0,0:0:0:0:
329,192,55310,1,0,0:0:0:0:
109,192,55385,1,0,0:0:0:0:
182,192,55385,1,0,0:0:0:0:
256,192,55460,1,0,0:0:0:0:
475,192,55535,1,0,0:0:0:0:
329,192,55535,1,0,0:0:0:0:
402,192,55610,1,0,0:0:0:0:
36,192,55685,1,0,0:0:0:0:
109,192,55685,1,0,0:0:0:0:
182,192,55760,1,0,0:0:0:0:
402,192,55835,1,0,0:0:0:0:
256,192,55835,1,0,0:0:0:0:
36,192,55910,1,0,0:0:0:0:
182,192,55985,1,0,0:0:0:0:
475,192,55985,1,0,0:0:0:0:
329,192,56060,1,0,0:0:0:0:
256,192,56135,1,0,0:0:0:0:
402,192,56135,1,0,0:0:0:0:
182,192,56210,1,0,0:0:0:0:
109,192,56285,1,0,0:0:0:0:
475,192,56285,1,0,0:0:0:0:
36,192,56360,1,0,0:0:0:0:
402,192,56435,1,0,0:0:0:0:
109,192,56435,1,0,0:0:0:0:
182,192,56510,1,0,0:0:0:0:
256,192,56585,1,0,0:0:0:0:
329,192,56585,1,0,0:0:0:0:
402,192,56660,1,0,0:0:0:0:
475,192,56735,1,0,0:0:0:0:
36,192,56735,1,0,0:0:0:0:
109,192,56810,1,0,0:0:0:0:
182,192,56885,1,0,0:0:0:0:
402,192,56885,1,0,0:0:0:0:
329,192,56960,1,0,0:0:0:0:
36,192,57035,1,0,0:0:0:0:
109,192,57035,1,0,0:0:0:0:
475,192,57110,1,0,0:0:0:0:
402,192,57110,1,0,0:0:0:0:
36,192,57185,1,0,0:0:0:0:
109,192,57185,1,0,0:0:0:0:
402,192,57260,1,0,0:0:0:0:
475,192,57260,1,0,0:0:0:0:
36,192,57335,1,0,0:0:0:0:
182,192,57335,1,0,0:0:0:0:
475,192,57410,1,0,0:0:0:0:
329,192,57410,1,0,0:0:0:0:
36,192,57485,1,0,0:0:0:0:
182,192,57485,1,0,0:0:0:0:
475,192,57560,1,0,0:0:0:0:
329,192,57560,1,0,0:0:0:0:
109,192,57635,1,0,0:0:0:0:
182,192,57635,1,0,0:0:0:0:
329,192,57710,1,0,0:0:0:0:
402,192,57710,1,0,0:0:0:0:
182,192,57785,1,0,0:0:0:0:
109,192,57785,1,0,0:0:0:0:
329,192,57860,1,0,0:0:0:0:
402,192,57860,1,0,0:0:0:0:
36,192,57935,1,0,0:0:0:0:
109,192,57935,1,0,0:0:0:0:
402,192,58010,1,0,0:0:0:0:
475,192,58010,1,0,0:0:0:0:
109,192,58085,1,0,0:0:0:0:
36,192,58085,1,0,0:0:0:0:
402,192,58160,1,0,0:0:0:0:
475,192,58160,1,0,0:0:0:0:
36,192,58235,1,0,0:0:0:0:
256,192,58235,1,0,0:0:0:0:
109,192,58310,1,0,0:0:0:0:
182,192,58385,1,0,0:0:0:0:
256,192,58460,1,0,0:0:0:0:
475,192,58535,1,0,0:0:0:0:
36,192,58535,1,0,0:0:0:0:
402,192,58610,1,0,0:0:0:0:
256,192,58685,1,0,0:0:0:0:
109,192,58760,1,0,0:0:0:0:
182,192,58835,1,0,0:0:0:0:
402,192,58835,1,0,0:0:0:0:
36,192,58910,1,0,0:0:0:0:
109,192,58985,1,0,0:0:0:0:
182,192,59060,1,0,0:0:0:0:
475,192,59135,1,0,0:0:0:0:
256,192,59135,1,0,0:0:0:0:
329,192,59210,1,0,0:0:0:0:
402,192,59285,1,0,0:0:0:0:
475,192,59360,1,0,0:0:0:0:
36,192,59435,1,0,0:0:0:0:
402,192,59435,1,0,0:0:0:0:
329,192,59510,1,0,0:0:0:0:
256,192,59585,1,0,0:0:0:0:
182,192,59660,1,0,0:0:0:0:
36,192,59735,1,0,0:0:0:0:
109,192,59735,1,0,0:0:0:0:
182,192,59810,1,0,0:0:0:0:
256,192,59885,1,0,0:0:0:0:
329,192,59960,1,0,0:0:0:0:
402,192,60035,1,0,0:0:0:0:
475,192,60035,1,0,0:0:0:0:
36,192,60110,1,0,0:0:0:0:
182,192,60185,1,0,0:0:0:0:
329,192,60260,1,0,0:0:0:0:
256,192,60335,1,0,0:0:0:0:
475,192,60335,1,0,0:0:0:0:
182,192,60410,1,0,0:0:0:0:
109,192,60485,1,0,0:0:0:0:
36,192,60560,1,0,0:0:0:0:
475,192,60635,1,0,0:0:0:0:
329,192,60635,1,0,0:0:0:0:
402,192,60710,1,0,0:0:0:0:
256,192,60785,1,0,0:0:0:0:
109,192,60860,1,0,0:0:0:0:
182,192,60935,1,0,0:0:0:0:
36,192,60935,1,0,0:0:0:0:
256,192,61010,1,0,0:0:0:0:
329,192,61085,1,0,0:0:0:0:
402,192,61160,1,0,0:0:0:0:
36,192,61235,1,0,0:0:0:0:
475,192,61235,1,0,0:0:0:0:
109,192,61310,1,0,0:0:0:0:
182,192,61385,1,0,0:0:0:0:
256,192,61460,1,0,0:0:0:0:
329,192,61535,1,0,0:0:0:0:
475,192,61535,1,0,0:0:0:0:
402,192,61610,1,0,0:0:0:0:
256,192,61685,1,0,0:0:0:0:
109,192,61760,1,0,0:0:0:0:
475,192,61835,1,0,0:0:0:0:
402,192,61835,1,0,0:0:0:0:
36,192,61910,1,0,0:0:0:0:
109,192,61910,1,0,0:0:0:0:
329,192,61985,1,0,0:0:0:0:
402,192,61985,1,0,0:0:0:0:
109,192,62060,1,0,0:0:0:0:
182,192,62060,1,0,0:0:0:0:
402,192,62135,1,0,0:0:0:0:
475,192,62135,1,0,0:0:0:0:
109,192,62210,1,0,0:0:0:0:
36,192,62210,1,0,0:0:0:0:
475,192,62285,1,0,0:0:0:0:
329,192,62285,1,0,0:0:0:0:
182,192,62360,1,0,0:0:0:0:
36,192,62360,1,0,0:0:0:0:
329,192,62435,1,0,0:0:0:0:
402,192,62435,1,0,0:0:0:0:
109,192,62510,1,0,0:0:0:0:
182,192,62510,1,0,0:0:0:0:
475,192,62585,1,0,0:0:0:0:
402,192,62660,1,0,0:0:0:0:
109,192,62735,1,0,0:0:0:0:
36,192,62810,1,0,0:0:0:0:
182,192,62885,1,0,0:0:0:0:
329,192,62960,1,0,0:0:0:0:
36,192,63035,1,0,0:0:0:0:
256,192,63035,1,0,0:0:0:0:
475,192,63035,1,0,0:0:0:0:
109,192,63110,1,0,0:0:0:0:
182,192,63185,1,0,0:0:0:0:
256,192,63260,1,0,0:0:0:0:
36,192,63335,1,0,0:0:0:0:
475,192,63335,1,0,0:0:0:0:
402,192,63410,1,0,0:0:0:0:
329,192,63485,1,0,0:0:0:0:
182,192,63560,1,0,0:0:0:0:
36,192,63635,1,0,0:0:0:0:
329,192,63635,1,0,0:0:0:0:
475,192,63710,1,0,0:0:0:0:
256,192,63785,1,0,0:0:0:0:
109,192,63860,1,0,0:0:0:0:
475,192,63935,1,0,0:0:0:0:
182,192,63935,1,0,0:0:0:0:
36,192,64010,1,0,0:0:0:0:
256,192,64085,1,0,0:0:0:0:
402,192,64160,1,0,0:0:0:0:
329,192,64235,1,0,0:0:0:0:
36,192,64235,1,0,0:0:0:0:
109,192,64310,1,0,0:0:0:0:
182,192,64385,1,0,0:0:0:0:
402,192,64385,1,0,0:0:0:0:
256,192,64460,1,0,0:0:0:0:
402,192,64535,1,0,0:0:0:0:
475,192,64535,1,0,0:0:0:0:
329,192,64610,1,0,0:0:0:0:
109,192,64685,1,0,0:0:0:0:
256,192,64685,1,0,0:0:0:0:
182,192,64760,1,0,0:0:0:0:
36,192,64835,1,0,0:0:0:0:
329,192,64835,1,0,0:0:0:0:
402,192,64910,1,0,0:0:0:0:
475,192,64985,1,0,0:0:0:0:
109,192,64985,1,0,0:0:0:0:
329,192,65060,1,0,0:0:0:0:
182,192,65135,1,0,0:0:0:0:
402,192,65135,1,0,0:0:0:0:
256,192,65210,1,0,0:0:0:0:
109,192,65285,1,0,0:0:0:0:
329,192,65285,1,0,0:0:0:0:
182,192,65360,1,0,0:0:0:0:
36,192,65435,1,0,0:0:0:0:
402,192,65435,1,0,0:0:0:0:
329,192,65510,1,0,0:0:0:0:
475,192,65585,1,0,0:0:0:0:
182,192,65585,1,0,0:0:0:0:
256,192,65660,1,0,0:0:0:0:
329,192,65735,1,0,0:0:0:0:
475,192,65735,1,0,0:0:0:0:
109,192,65810,1,0,0:0:0:0:
182,192,65885,1,0,0:0:0:0:
402,192,65885,1,0,0:0:0:0:
256,192,65960,1,0,0:0:0:0:
475,192,66035,1,0,0:0:0:0:
36,192,66035,1,0,0:0:0:0:
256,192,66110,1,0,0:0:0:0:
402,192,66185,1,0,0:0:0:0:
109,192,66185,1,0,0:0:0:0:
256,192,66260,1,0,0:0:0:0:
329,192,66335,1,0,0:0:0:0:
182,192,66335,1,0,0:0:0:0:
402,192,66410,1,0,0:0:0:0:
36,192,66485,1,0,0:0:0:0:
475,192,66485,1,0,0:0:0:0:
182,192,66560,1,0,0:0:0:0:
402,192,66635,1,0,0:0:0:0:
475,192,66710,1,0,0:0:0:0:
329,192,66785,1,0,0:0:0:0:
182,192,66860,1,0,0:0:0:0:
109,192,66935,1,0,0:0:0:0:
36,192,67010,1,0,0:0:0:0:
475,192,67085,1,0,0:0:0:0:
402,192,67160,1,0,0:0:0:0:
182,192,67235,1,0,0:0:0:0:
109,192,67310,1,0,0:0:0:0:
329,192,67385,1,0,0:0:0:0:
182,192,67460,1,0,0:0:0:0:
109,192,67535,1,0,0:0:0:0:
36,192,67610,1,0,0:0:0:0:
475,192,67685,1,0,0:0:0:0:
402,192,67760,1,0,0:0:0:0:
256,192,67835,1,0,0:0:0:0:
475,192,67835,1,0,0:0:0:0:
36,192,67835,128,0,67985:0:0:0:0:
109,192,67835,1,0,0:0:0:0:
182,192,67885,1,0,0:0:0:0:
329,192,67935,1,0,0:0:0:0:
402,192,67985,1,0,0:0:0:0:
475,192,68035,1,0,0:0:0:0:
402,192,68085,1,0,0:0:0:0:
329,192,68135,1,0,0:0:0:0:
256,192,68185,1,0,0:0:0:0:
182,192,68235,1,0,0:0:0:0:
36,192,68285,1,0,0:0:0:0:
109,192,68335,1,0,0:0:0:0:
182,192,68385,1,0,0:0:0:0:
475,192,68435,1,0,0:0:0:0:
36,192,68435,1,0,0:0:0:0:
329,192,68485,1,0,0:0:0:0:
402,192,68535,1,0,0:0:0:0:
475,192,68585,1,0,0:0:0:0:
329,192,68635,1,0,0:0:0:0:
256,192,68685,1,0,0:0:0:0:
182,192,68735,1,0,0:0:0:0:
109,192,68785,1,0,0:0:0:0:
36,192,68835,1,0,0:0:0:0:
475,192,68885,1,0,0:0:0:0:
402,192,68935,1,0,0:0:0:0:
329,192,68985,1,0,0:0:0:0:
182,192,69035,1,0,0:0:0:0:
475,192,69035,1,0,0:0:0:0:
36,192,69035,128,0,69185:0:0:0:0:
109,192,69085,1,0,0:0:0:0:
182,192,69135,1,0,0:0:0:0:
256,192,69185,1,0,0:0:0:0:
182,192,69235,1,0,0:0:0:0:
256,192,69285,1,0,0:0:0:0:
329,192,69335,1,0,0:0:0:0:
402,192,69385,1,0,0:0:0:0:
109,192,69435,1,0,0:0:0:0:
182,192,69485,1,0,0:0:0:0:
256,192,69535,1,0,0:0:0:0:
329,192,69585,1,0,0:0:0:0:
475,192,69635,1,0,0:0:0:0:
402,192,69685,1,0,0:0:0:0:
329,192,69735,1,0,0:0:0:0:
402,192,69785,1,0,0:0:0:0:
329,192,69835,1,0,0:0:0:0:
256,192,69885,1,0,0:0:0:0:
182,192,69935,1,0,0:0:0:0:
36,192,69935,1,0,0:0:0:0:
475,192,70010,1,0,0:0:0:0:
329,192,70010,1,0,0:0:0:0:
182,192,70085,1,0,0:0:0:0:
36,192,70085,1,0,0:0:0:0:
475,192,70160,1,0,0:0:0:0:
329,192,70160,1,0,0:0:0:0:
36,192,70235,1,0,0:0:0:0:
256,192,70235,1,0,0:0:0:0:
109,192,70235,128,0,70385:0:0:0:0:
402,192,70235,128,0,70310:0:0:0:0:
329,192,70310,128,0,70385:0:0:0:0:
182,192,70385,128,0,70435:0:0:0:0:
256,192,70435,128,0,70485:0:0:0:0:
329,192,70485,128,0,70535:0:0:0:0:
402,192,70535,128,0,70585:0:0:0:0:
475,192,70585,128,0,70635:0:0:0:0:
256,192,70635,128,0,70685:0:0:0:0:
182,192,70685,128,0,70735:0:0:0:0:
109,192,70735,128,0,70785:0:0:0:0:
36,192,70785,128,0,70835:0:0:0:0:
402,192,70835,1,0,0:0:0:0:
475,192,70835,1,0,0:0:0:0:
329,192,70835,1,0,0:0:0:0:
256,192,70885,128,0,70935:0:0:0:0:
329,192,70935,128,0,70985:0:0:0:0:
402,192,70985,128,0,71035:0:0:0:0:
475,192,71035,128,0,71085:0:0:0:0:
329,192,71085,128,0,71135:0:0:0:0:
256,192,71135,128,0,71185:0:0:0:0:
182,192,71185,128,0,71235:0:0:0:0:
109,192,71235,128,0,71335:0:0:0:0:
36,192,71285,128,0,71335:0:0:0:0:
475,192,71335,128,0,71385:0:0:0:0:
329,192,71435,1,0,0:0:0:0:
402,192,71435,1,0,0:0:0:0:
182,192,71435,1,0,0:0:0:0:
36,192,71485,128,0,71535:0:0:0:0:
109,192,71535,128,0,71585:0:0:0:0:
182,192,71585,1,0,0:0:0:0:
329,192,71585,1,0,0:0:0:0:
402,192,71585,1,0,0:0:0:0:
256,192,71635,128,0,71685:0:0:0:0:
329,192,71685,128,0,71735:0:0:0:0:
402,192,71735,128,0,71785:0:0:0:0:
475,192,71785,128,0,71835:0:0:0:0:
36,192,71885,1,0,0:0:0:0:
109,192,71885,1,0,0:0:0:0:
329,192,71885,1,0,0:0:0:0:
182,192,71935,128,0,71985:0:0:0:0:
256,192,71985,128,0,72035:0:0:0:0:
109,192,72035,1,0,0:0:0:0:
36,192,72035,1,0,0:0:0:0:
329,192,72035,1,0,0:0:0:0:
402,192,72085,128,0,72135:0:0:0:0:
475,192,72135,128,0,72185:0:0:0:0:
329,192,72185,1,0,0:0:0:0:
109,192,72185,1,0,0:0:0:0:
36,192,72185,1,0,0:0:0:0:
182,192,72235,128,0,72285:0:0:0:0:
256,192,72285,128,0,72335:0:0:0:0:
36,192,72335,1,0,0:0:0:0:
109,192,72335,1,0,0:0:0:0:
329,192,72335,1,0,0:0:0:0:
475,192,72385,128,0,72435:0:0:0:0:
402,192,72435,128,0,72485:0:0:0:0:
329,192,72535,128,0,72585:0:0:0:0:
182,192,72585,128,0,72635:0:0:0:0:
475,192,72635,1,0,0:0:0:0:
256,192,72635,1,0,0:0:0:0:
36,192,72635,128,0,72710:0:0:0:0:
109,192,72710,1,0,0:0:0:0:
182,192,72785,1,0,0:0:0:0:
256,192,72860,1,0,0:0:0:0:
109,192,72935,128,0,73010:0:0:0:0:
475,192,72935,1,0,0:0:0:0:
402,192,73010,1,0,0:0:0:0:
329,192,73085,1,0,0:0:0:0:
256,192,73160,1,0,0:0:0:0:
109,192,73235,1,0,0:0:0:0:
402,192,73235,128,0,73310:0:0:0:0:
475,192,73235,1,0,0:0:0:0:
36,192,73310,1,0,0:0:0:0:
109,192,73385,1,0,0:0:0:0:
182,192,73460,1,0,0:0:0:0:
329,192,73535,128,0,73610:0:0:0:0:
36,192,73535,1,0,0:0:0:0:
109,192,73610,1,0,0:0:0:0:
256,192,73685,1,0,0:0:0:0:
402,192,73760,1,0,0:0:0:0:
36,192,73835,1,0,0:0:0:0:
475,192,73835,1,0,0:0:0:0:
182,192,73835,128,0,73910:0:0:0:0:
256,192,73910,1,0,0:0:0:0:
329,192,73985,1,0,0:0:0:0:
402,192,74060,1,0,0:0:0:0:
256,192,74135,128,0,74210:0:0:0:0:
475,192,74135,1,0,0:0:0:0:
36,192,74210,1,0,0:0:0:0:
109,192,74285,1,0,0:0:0:0:
182,192,74360,1,0,0:0:0:0:
475,192,74435,1,0,0:0:0:0:
36,192,74435,1,0,0:0:0:0:
329,192,74435,128,0,74510:0:0:0:0:
256,192,74510,1,0,0:0:0:0:
402,192,74585,1,0,0:0:0:0:
475,192,74660,1,0,0:0:0:0:
402,192,74735,1,0,0:0:0:0:
109,192,74735,128,0,74810:0:0:0:0:
329,192,74810,1,0,0:0:0:0:
256,192,74885,1,0,0:0:0:0:
182,192,74960,1,0,0:0:0:0:
36,192,75035,1,0,0:0:0:0:
475,192,75035,128,0,75110:0:0:0:0:
402,192,75110,128,0,75185:0:0:0:0:
329,192,75185,1,0,0:0:0:0:
256,192,75260,1,0,0:0:0:0:
182,192,75335,1,0,0:0:0:0:
36,192,75335,1,0,0:0:0:0:
109,192,75410,1,0,0:0:0:0:
182,192,75485,1,0,0:0:0:0:
256,192,75560,1,0,0:0:0:0:
402,192,75635,128,0,75710:0:0:0:0:
36,192,75635,1,0,0:0:0:0:
329,192,75710,128,0,75785:0:0:0:0:
109,192,75785,1,0,0:0:0:0:
182,192,75860,1,0,0:0:0:0:
475,192,75935,1,0,0:0:0:0:
256,192,75935,128,0,76010:0:0:0:0:
329,192,76010,128,0,76085:0:0:0:0:
475,192,76085,1,0,0:0:0:0:
402,192,76160,1,0,0:0:0:0:
475,192,76235,128,0,76385:0:0:0:0:
329,192,76310,128,0,76460:0:0:0:0:
182,192,76385,128,0,76535:0:0:0:0:
36,192,76460,128,0,76610:0:0:0:0:
475,192,76535,1,0,0:0:0:0:
402,192,76535,1,0,0:0:0:0:
109,192,76535,128,0,76685:0:0:0:0:
256,192,76610,128,0,76760:0:0:0:0:
329,192,76685,128,0,76835:0:0:0:0:
475,192,76760,128,0,76910:0:0:0:0:
402,192,76835,128,0,76985:0:0:0:0:
36,192,76835,1,0,0:0:0:0:
109,192,76835,1,0,0:0:0:0:
256,192,76910,128,0,77060:0:0:0:0:
182,192,76985,128,0,77135:0:0:0:0:
109,192,77060,128,0,77210:0:0:0:0:
475,192,77135,1,0,0:0:0:0:
402,192,77135,1,0,0:0:0:0:
36,192,77135,128,0,77285:0:0:0:0:
182,192,77285,128,0,77435:0:0:0:0:
256,192,77435,128,0,78635:0:0:0:0:
475,192,77435,1,0,0:0:0:0:
36,192,77435,1,0,0:0:0:0:
402,192,77510,1,0,0:0:0:0:
329,192,77585,1,0,0:0:0:0:
109,192,77585,1,0,0:0:0:0:
36,192,77660,1,0,0:0:0:0:
475,192,77735,128,0,78635:0:0:0:0:
182,192,77735,1,0,0:0:0:0:
329,192,77810,1,0,0:0:0:0:
402,192,77885,1,0,0:0:0:0:
36,192,77885,1,0,0:0:0:0:
109,192,77960,1,0,0:0:0:0:
182,192,78035,1,0,0:0:0:0:
329,192,78110,1,0,0:0:0:0:
402,192,78185,1,0,0:0:0:0:
36,192,78185,1,0,0:0:0:0:
109,192,78260,1,0,0:0:0:0:
182,192,78335,1,0,0:0:0:0:
329,192,78410,1,0,0:0:0:0:
402,192,78485,1,0,0:0:0:0:
36,192,78485,1,0,0:0:0:0:
109,192,78560,1,0,0:0:0:0:
182,192,78635,1,0,0:0:0:0:
329,192,78635,1,0,0:0:0:0:
402,192,78635,1,0,0:0:0:0:
36,192,78710,1,0,0:0:0:0:
109,192,78710,1,0,0:0:0:0:
329,192,78785,1,0,0:0:0:0:
402,192,78785,1,0,0:0:0:0:
109,192,78860,1,0,0:0:0:0:
36,192,78860,1,0,0:0:0:0:
475,192,78935,1,0,0:0:0:0:
402,192,78935,1,0,0:0:0:0:
182,192,79010,1,0,0:0:0:0:
109,192,79010,1,0,0:0:0:0:
402,192,79085,1,0,0:0:0:0:
475,192,79085,1,0,0:0:0:0:
182,192,79160,1,0,0:0:0:0:
109,192,79160,1,0,0:0:0:0:
475,192,79235,128,0,79310:0:0:0:0:
402,192,79310,1,0,0:0:0:0:
329,192,79385,128,0,79460:0:0:0:0:
256,192,79460,1,0,0:0:0:0:
182,192,79535,128,0,79610:0:0:0:0:
109,192,79610,1,0,0:0:0:0:
36,192,79685,128,0,79760:0:0:0:0:
475,192,79760,1,0,0:0:0:0:
109,192,79835,1,0,0:0:0:0:
402,192,79835,1,0,0:0:0:0:
256,192,79835,1,0,0:0:0:0:
36,192,79985,1,0,0:0:0:0:
475,192,79985,1,0,0:0:0:0:
109,192,80135,1,0,0:0:0:0:
329,192,80210,1,0,0:0:0:0:
402,192,80285,1,0,0:0:0:0:
182,192,80285,1,0,0:0:0:0:
256,192,80435,1,0,0:0:0:0:
402,192,80585,1,0,0:0:0:0:
475,192,80585,1,0,0:0:0:0:
36,192,80735,1,0,0:0:0:0:
475,192,80735,1,0,0:0:0:0:
109,192,80810,1,0,0:0:0:0:
256,192,80885,1,0,0:0:0:0:
329,192,80885,1,0,0:0:0:0:
402,192,81035,1,0,0:0:0:0:
182,192,81185,1,0,0:0:0:0:
36,192,81185,1,0,0:0:0:0:
256,192,81335,1,0,0:0:0:0:
329,192,81410,1,0,0:0:0:0:
402,192,81485,1,0,0:0:0:0:
475,192,81485,1,0,0:0:0:0:
36,192,81635,1,0,0:0:0:0:
109,192,81785,1,0,0:0:0:0:
256,192,81785,1,0,0:0:0:0:
475,192,81935,1,0,0:0:0:0:
402,192,82010,1,0,0:0:0:0:
329,192,82085,1,0,0:0:0:0:
182,192,82085,1,0,0:0:0:0:
256,192,82235,1,0,0:0:0:0:
36,192,82235,1,0,0:0:0:0:
475,192,82235,1,0,0:0:0:0:
402,192,82385,1,0,0:0:0:0:
109,192,82385,1,0,0:0:0:0:
475,192,82535,1,0,0:0:0:0:
256,192,82535,1,0,0:0:0:0:
36,192,82535,1,0,0:0:0:0:
109,192,82685,1,0,0:0:0:0:
402,192,82685,1,0,0:0:0:0:
36,192,82835,1,0,0:0:0:0:
256,192,82835,1,0,0:0:0:0:
475,192,82835,1,0,0:0:0:0:
256,192,82985,1,0,0:0:0:0:
36,192,82985,1,0,0:0:0:0:
475,192,82985,1,0,0:0:0:0:
329,192,83135,1,0,0:0:0:0:
402,192,83135,1,0,0:0:0:0:
109,192,83285,1,0,0:0:0:0:
182,192,83285,1,0,0:0:0:0:
475,192,83285,1,0,0:0:0:0:
182,192,83585,1,0,0:0:0:0:
475,192,83585,1,0,0:0:0:0:
36,192,83585,1,0,0:0:0:0:
402,192,83735,1,0,0:0:0:0:
109,192,83735,1,0,0:0:0:0:
402,192,83885,1,0,0:0:0:0:
109,192,83885,1,0,0:0:0:0:
182,192,83885,1,0,0:0:0:0:
402,192,84035,1,0,0:0:0:0:
109,192,84035,1,0,0:0:0:0:
329,192,84035,1,0,0:0:0:0:
402,192,84185,1,0,0:0:0:0:
109,192,84185,1,0,0:0:0:0:
256,192,84185,1,0,0:0:0:0:
402,192,84335,1,0,0:0:0:0:
109,192,84335,1,0,0:0:0:0:
182,192,84335,1,0,0:0:0:0:
402,192,84485,1,0,0:0:0:0:
109,192,84485,1,0,0:0:0:0:
329,192,84485,1,0,0:0:0:0:
256,192,84635,1,0,0:0:0:0:
475,192,84635,1,0,0:0:0:0:
36,192,84635,128,0,87035:0:0:0:0:
109,192,84710,1,0,0:0:0:0:
182,192,84785,1,0,0:0:0:0:
256,192,84860,1,0,0:0:0:0:
329,192,84935,1,0,0:0:0:0:
402,192,84935,1,0,0:0:0:0:
475,192,85010,1,0,0:0:0:0:
109,192,85085,1,0,0:0:0:0:
256,192,85160,1,0,0:0:0:0:
182,192,85235,128,0,87035:0:0:0:0:
329,192,85235,1,0,0:0:0:0:
402,192,85235,1,0,0:0:0:0:
475,192,85310,1,0,0:0:0:0:
109,192,85385,1,0,0:0:0:0:
256,192,85460,1,0,0:0:0:0:
329,192,85535,1,0,0:0:0:0:
402,192,85535,1,0,0:0:0:0:
475,192,85610,1,0,0:0:0:0:
109,192,85685,1,0,0:0:0:0:
256,192,85760,1,0,0:0:0:0:
109,192,85835,1,0,0:0:0:0:
329,192,85835,128,0,87035:0:0:0:0:
402,192,85835,1,0,0:0:0:0:
475,192,85835,1,0,0:0:0:0:
256,192,85910,1,0,0:0:0:0:
402,192,85985,1,0,0:0:0:0:
475,192,86060,1,0,0:0:0:0:
109,192,86135,1,0,0:0:0:0:
256,192,86135,1,0,0:0:0:0:
402,192,86210,1,0,0:0:0:0:
475,192,86285,1,0,0:0:0:0:
109,192,86360,1,0,0:0:0:0:
475,192,86435,128,0,87035:0:0:0:0:
256,192,86435,1,0,0:0:0:0:
402,192,86435,1,0,0:0:0:0:
109,192,86585,1,0,0:0:0:0:
256,192,86660,1,0,0:0:0:0:
402,192,86735,1,0,0:0:0:0:
109,192,86735,1,0,0:0:0:0:
256,192,86810,1,0,0:0:0:0:
402,192,86885,1,0,0:0:0:0:
109,192,86960,1,0,0:0:0:0:
256,192,87035,1,0,0:0:0:0:
402,192,87035,1,0,0:0:0:0:
109,192,87110,1,0,0:0:0:0:
475,192,87185,1,0,0:0:0:0:
329,192,87185,1,0,0:0:0:0:
182,192,87260,1,0,0:0:0:0:
402,192,87335,1,0,0:0:0:0:
109,192,87335,1,0,0:0:0:0:
36,192,87335,1,0,0:0:0:0:
256,192,87410,1,0,0:0:0:0:
182,192,87485,1,0,0:0:0:0:
329,192,87485,1,0,0:0:0:0:
256,192,87560,1,0,0:0:0:0:
475,192,87635,1,0,0:0:0:0:
402,192,87635,1,0,0:0:0:0:
109,192,87635,1,0,0:0:0:0:
182,192,87710,1,0,0:0:0:0:
329,192,87785,1,0,0:0:0:0:
256,192,87785,1,0,0:0:0:0:
109,192,87860,1,0,0:0:0:0:
256,192,87935,1,0,0:0:0:0:
402,192,87935,1,0,0:0:0:0:
36,192,87935,1,0,0:0:0:0:
182,192,88010,1,0,0:0:0:0:
475,192,88085,1,0,0:0:0:0:
329,192,88085,1,0,0:0:0:0:
256,192,88160,1,0,0:0:0:0:
36,192,88235,1,0,0:0:0:0:
109,192,88235,1,0,0:0:0:0:
402,192,88310,1,0,0:0:0:0:
475,192,88310,1,0,0:0:0:0:
109,192,88385,1,0,0:0:0:0:
36,192,88385,1,0,0:0:0:0:
402,192,88460,1,0,0:0:0:0:
475,192,88460,1,0,0:0:0:0:
109,192,88535,1,0,0:0:0:0:
36,192,88535,1,0,0:0:0:0:
402,192,88610,1,0,0:0:0:0:
475,192,88610,1,0,0:0:0:0:
109,192,88685,1,0,0:0:0:0:
36,192,88685,1,0,0:0:0:0:
475,192,88760,1,0,0:0:0:0:
402,192,88760,1,0,0:0:0:0:
329,192,88835,1,0,0:0:0:0:
256,192,88910,1,0,0:0:0:0:
182,192,88985,1,0,0:0:0:0:
36,192,89060,1,0,0:0:0:0:
109,192,89135,1,0,0:0:0:0:
182,192,89210,1,0,0:0:0:0:
256,192,89285,1,0,0:0:0:0:
329,192,89360,1,0,0:0:0:0:
36,192,89435,1,0,0:0:0:0:
182,192,89435,1,0,0:0:0:0:
475,192,89435,1,0,0:0:0:0:
402,192,89585,1,0,0:0:0:0:
256,192,89585,1,0,0:0:0:0:
36,192,89735,1,0,0:0:0:0:
109,192,89810,1,0,0:0:0:0:
182,192,89885,1,0,0:0:0:0:
329,192,89885,1,0,0:0:0:0:
402,192,90035,1,0,0:0:0:0:
475,192,90185,1,0,0:0:0:0:
329,192,90185,1,0,0:0:0:0:
109,192,90335,1,0,0:0:0:0:
182,192,90410,1,0,0:0:0:0:
256,192,90485,1,0,0:0:0:0:
402,192,90485,1,0,0:0:0:0:
329,192,90635,1,0,0:0:0:0:
36,192,90785,1,0,0:0:0:0:
475,192,90785,1,0,0:0:0:0:
109,192,90935,1,0,0:0:0:0:
402,192,91010,1,0,0:0:0:0:
329,192,91085,1,0,0:0:0:0:
182,192,91085,1,0,0:0:0:0:
256,192,91235,1,0,0:0:0:0:
329,192,91385,1,0,0:0:0:0:
475,192,91385,1,0,0:0:0:0:
256,192,91535,1,0,0:0:0:0:
182,192,91610,1,0,0:0:0:0:
109,192,91685,1,0,0:0:0:0:
36,192,91685,1,0,0:0:0:0:
475,192,91835,1,0,0:0:0:0:
182,192,91835,1,0,0:0:0:0:
329,192,91835,1,0,0:0:0:0:
109,192,91985,1,0,0:0:0:0:
36,192,91985,1,0,0:0:0:0:
182,192,92135,1,0,0:0:0:0:
329,192,92135,1,0,0:0:0:0:
475,192,92135,1,0,0:0:0:0:
36,192,92435,1,0,0:0:0:0:
182,192,92435,1,0,0:0:0:0:
329,192,92435,1,0,0:0:0:0:
402,192,92435,1,0,0:0:0:0:
36,192,92585,1,0,0:0:0:0:
182,192,92585,1,0,0:0:0:0:
329,192,92585,1,0,0:0:0:0:
402,192,92585,1,0,0:0:0:0:
256,192,92885,1,0,0:0:0:0:
475,192,92885,1,0,0:0:0:0:
109,192,92885,128,0,93185:0:0:0:0:
182,192,93185,1,0,0:0:0:0:
402,192,93185,1,0,0:0:0:0:
475,192,93260,1,0,0:0:0:0:
402,192,93335,1,0,0:0:0:0:
182,192,93335,1,0,0:0:0:0:
329,192,93410,1,0,0:0:0:0:
256,192,93485,1,0,0:0:0:0:
182,192,93560,1,0,0:0:0:0:
109,192,93635,1,0,0:0:0:0:
36,192,93710,1,0,0:0:0:0:
475,192,93785,1,0,0:0:0:0:
329,192,93860,1,0,0:0:0:0:
36,192,93935,1,0,0:0:0:0:
109,192,93935,1,0,0:0:0:0:
402,192,94010,1,0,0:0:0:0:
475,192,94010,1,0,0:0:0:0:
329,192,94085,1,0,0:0:0:0:
182,192,94160,1,0,0:0:0:0:
36,192,94235,1,0,0:0:0:0:
256,192,94235,128,0,96635:0:0:0:0:
109,192,94310,1,0,0:0:0:0:
182,192,94385,1,0,0:0:0:0:
329,192,94460,1,0,0:0:0:0:
402,192,94535,1,0,0:0:0:0:
36,192,94535,1,0,0:0:0:0:
109,192,94610,1,0,0:0:0:0:
329,192,94685,1,0,0:0:0:0:
475,192,94760,1,0,0:0:0:0:
402,192,94835,128,0,96635:0:0:0:0:
329,192,94835,1,0,0:0:0:0:
182,192,94835,1,0,0:0:0:0:
36,192,94910,1,0,0:0:0:0:
109,192,94985,1,0,0:0:0:0:
182,192,95060,1,0,0:0:0:0:
329,192,95135,1,0,0:0:0:0:
475,192,95135,1,0,0:0:0:0:
36,192,95210,1,0,0:0:0:0:
109,192,95285,1,0,0:0:0:0:
182,192,95360,1,0,0:0:0:0:
109,192,95435,128,0,96635:0:0:0:0:
329,192,95435,1,0,0:0:0:0:
475,192,95435,1,0,0:0:0:0:
36,192,95510,1,0,0:0:0:0:
182,192,95585,1,0,0:0:0:0:
329,192,95660,1,0,0:0:0:0:
475,192,95735,1,0,0:0:0:0:
329,192,95810,1,0,0:0:0:0:
182,192,95885,1,0,0:0:0:0:
36,192,95960,1,0,0:0:0:0:
475,192,96035,128,0,96635:0:0:0:0:
329,192,96035,1,0,0:0:0:0:
182,192,96035,1,0,0:0:0:0:
36,192,96185,1,0,0:0:0:0:
182,192,96260,1,0,0:0:0:0:
329,192,96335,1,0,0:0:0:0:
182,192,96485,1,0,0:0:0:0:
36,192,96485,1,0,0:0:0:0:
329,192,96560,1,0,0:0:0:0:
36,192,96635,1,0,0:0:0:0:
182,192,96635,1,0,0:0:0:0:
329,192,96710,1,0,0:0:0:0:
402,192,96785,1,0,0:0:0:0:
109,192,96785,1,0,0:0:0:0:
182,192,96860,1,0,0:0:0:0:
256,192,96935,1,0,0:0:0:0:
36,192,96935,1,0,0:0:0:0:
475,192,96935,1,0,0:0:0:0:
109,192,97010,1,0,0:0:0:0:
402,192,97085,1,0,0:0:0:0:
329,192,97085,1,0,0:0:0:0:
36,192,97160,1,0,0:0:0:0:
182,192,97235,1,0,0:0:0:0:
109,192,97235,1,0,0:0:0:0:
475,192,97235,1,0,0:0:0:0:
329,192,97310,1,0,0:0:0:0:
402,192,97385,1,0,0:0:0:0:
256,192,97385,1,0,0:0:0:0:
109,192,97460,1,0,0:0:0:0:
182,192,97535,1,0,0:0:0:0:
36,192,97535,1,0,0:0:0:0:
475,192,97535,1,0,0:0:0:0:
256,192,97610,1,0,0:0:0:0:
402,192,97685,1,0,0:0:0:0:
329,192,97685,1,0,0:0:0:0:
256,192,97760,1,0,0:0:0:0:
36,192,97835,1,0,0:0:0:0:
182,192,97835,1,0,0:0:0:0:
475,192,97835,1,0,0:0:0:0:
256,192,97910,1,0,0:0:0:0:
329,192,97985,1,0,0:0:0:0:
402,192,98060,1,0,0:0:0:0:
475,192,98135,1,0,0:0:0:0:
36,192,98135,1,0,0:0:0:0:
402,192,98210,1,0,0:0:0:0:
329,192,98285,1,0,0:0:0:0:
256,192,98360,1,0,0:0:0:0:
182,192,98435,1,0,0:0:0:0:
36,192,98435,1,0,0:0:0:0:
475,192,98435,1,0,0:0:0:0:
402,192,98510,1,0,0:0:0:0:
329,192,98585,1,0,0:0:0:0:
256,192,98660,1,0,0:0:0:0:
402,192,98735,1,0,0:0:0:0:
109,192,98735,1,0,0:0:0:0:
329,192,98810,128,0,98885:0:0:0:0:
256,192,98885,128,0,98960:0:0:0:0:
182,192,98960,128,0,99035:0:0:0:0:
36,192,99035,128,0,99185:0:0:0:0:
329,192,99035,128,0,99185:0:0:0:0:
475,192,99035,128,0,99185:0:0:0:0:
36,192,99335,128,0,99485:0:0:0:0:
329,192,99335,128,0,99485:0:0:0:0:
475,192,99335,128,0,99485:0:0:0:0:
36,192,100085,128,0,100235:0:0:0:0:
182,192,100085,128,0,100235:0:0:0:0:
475,192,100085,128,0,100235:0:0:0:0:
182,192,100385,128,0,100535:0:0:0:0:
36,192,100385,128,0,100535:0:0:0:0:
475,192,100385,128,0,100535:0:0:0:0:
475,192,101435,128,0,102485:0:0:0:0:
256,192,101435,1,0,0:0:0:0:
36,192,101435,1,0,0:0:0:0:
402,192,101585,1,0,0:0:0:0:
329,192,101660,1,0,0:0:0:0:
182,192,101735,1,0,0:0:0:0:
109,192,101810,1,0,0:0:0:0:
36,192,101885,1,0,0:0:0:0:
182,192,101960,1,0,0:0:0:0:
402,192,102035,1,0,0:0:0:0:
329,192,102110,1,0,0:0:0:0:
256,192,102185,1,0,0:0:0:0:
36,192,102260,1,0,0:0:0:0:
109,192,102335,1,0,0:0:0:0:
182,192,102410,1,0,0:0:0:0:
329,192,102485,1,0,0:0:0:0:
36,192,102485,128,0,103835:0:0:0:0:
475,192,102710,1,0,0:0:0:0:
402,192,102785,1,0,0:0:0:0:
329,192,102860,1,0,0:0:0:0:
182,192,102935,1,0,0:0:0:0:
109,192,103010,1,0,0:0:0:0:
475,192,103085,1,0,0:0:0:0:
329,192,103160,1,0,0:0:0:0:
256,192,103235,1,0,0:0:0:0:
402,192,103235,1,0,0:0:0:0:
182,192,103310,1,0,0:0:0:0:
109,192,103385,1,0,0:0:0:0:
475,192,103385,1,0,0:0:0:0:
402,192,103460,1,0,0:0:0:0:
329,192,103535,1,0,0:0:0:0:
182,192,103535,1,0,0:0:0:0:
256,192,103610,1,0,0:0:0:0:
182,192,103685,1,0,0:0:0:0:
109,192,103760,1,0,0:0:0:0:
475,192,103835,128,0,103985:0:0:0:0:
182,192,103835,128,0,103985:0:0:0:0:
329,192,103835,128,0,103985:0:0:0:0:
475,192,104135,128,0,104285:0:0:0:0:
182,192,104135,128,0,104285:0:0:0:0:
329,192,104135,128,0,104285:0:0:0:0:
329,192,104885,128,0,105035:0:0:0:0:
182,192,104885,128,0,105035:0:0:0:0:
36,192,104885,128,0,105035:0:0:0:0:
36,192,105185,128,0,105335:0:0:0:0:
182,192,105185,128,0,105335:0:0:0:0:
329,192,105185,128,0,105335:0:0:0:0:
475,192,106235,128,0,107135:0:0:0:0:
36,192,106235,1,0,0:0:0:0:
329,192,106235,1,0,0:0:0:0:
256,192,106310,1,0,0:0:0:0:
182,192,106385,1,0,0:0:0:0:
109,192,106460,1,0,0:0:0:0:
402,192,106535,1,0,0:0:0:0:
36,192,106535,1,0,0:0:0:0:
329,192,106610,1,0,0:0:0:0:
182,192,106685,1,0,0:0:0:0:
109,192,106760,1,0,0:0:0:0:
36,192,106835,1,0,0:0:0:0:
402,192,106835,1,0,0:0:0:0:
329,192,106910,1,0,0:0:0:0:
256,192,106985,1,0,0:0:0:0:
109,192,107060,1,0,0:0:0:0:
329,192,107135,1,0,0:0:0:0:
402,192,107135,1,0,0:0:0:0:
36,192,107285,128,0,108635:0:0:0:0:
182,192,107585,1,0,0:0:0:0:
109,192,107585,1,0,0:0:0:0:
402,192,107660,1,0,0:0:0:0:
475,192,107660,1,0,0:0:0:0:
182,192,107735,1,0,0:0:0:0:
109,192,107735,1,0,0:0:0:0:
475,192,107810,1,0,0:0:0:0:
402,192,107810,1,0,0:0:0:0:
182,192,107885,1,0,0:0:0:0:
109,192,107885,1,0,0:0:0:0:
402,192,107960,1,0,0:0:0:0:
475,192,107960,1,0,0:0:0:0:
329,192,108035,1,0,0:0:0:0:
256,192,108110,1,0,0:0:0:0:
109,192,108185,1,0,0:0:0:0:
182,192,108260,1,0,0:0:0:0:
256,192,108335,1,0,0:0:0:0:
475,192,108410,1,0,0:0:0:0:
402,192,108485,1,0,0:0:0:0:
329,192,108560,1,0,0:0:0:0:
256,192,108635,128,0,109835:0:0:0:0:
475,192,108785,1,0,0:0:0:0:
36,192,108785,1,0,0:0:0:0:
109,192,108935,1,0,0:0:0:0:
182,192,109010,1,0,0:0:0:0:
329,192,109085,1,0,0:0:0:0:
402,192,109085,1,0,0:0:0:0:
182,192,109235,1,0,0:0:0:0:
475,192,109385,1,0,0:0:0:0:
329,192,109385,1,0,0:0:0:0:
402,192,109535,1,0,0:0:0:0:
329,192,109610,1,0,0:0:0:0:
109,192,109685,1,0,0:0:0:0:
182,192,109685,1,0,0:0:0:0:
36,192,109835,128,0,111035:0:0:0:0:
329,192,109835,1,0,0:0:0:0:
475,192,109985,1,0,0:0:0:0:
109,192,109985,1,0,0:0:0:0:
182,192,110135,1,0,0:0:0:0:
402,192,110210,1,0,0:0:0:0:
256,192,110285,1,0,0:0:0:0:
329,192,110285,1,0,0:0:0:0:
402,192,110435,1,0,0:0:0:0:
475,192,110585,1,0,0:0:0:0:
182,192,110585,1,0,0:0:0:0:
329,192,110735,1,0,0:0:0:0:
256,192,110810,1,0,0:0:0:0:
109,192,110885,1,0,0:0:0:0:
402,192,110885,1,0,0:0:0:0:
256,192,111035,128,0,112235:0:0:0:0:
109,192,111035,1,0,0:0:0:0:
182,192,111110,1,0,0:0:0:0:
36,192,111185,1,0,0:0:0:0:
329,192,111185,1,0,0:0:0:0:
402,192,111260,1,0,0:0:0:0:
475,192,111335,1,0,0:0:0:0:
36,192,111410,1,0,0:0:0:0:
109,192,111485,1,0,0:0:0:0:
182,192,111485,1,0,0:0:0:0:
329,192,111560,1,0,0:0:0:0:
402,192,111635,1,0,0:0:0:0:
475,192,111710,1,0,0:0:0:0:
182,192,111785,1,0,0:0:0:0:
36,192,111785,1,0,0:0:0:0:
329,192,111860,1,0,0:0:0:0:
402,192,111935,1,0,0:0:0:0:
475,192,112010,1,0,0:0:0:0:
36,192,112085,1,0,0:0:0:0:
109,192,112085,1,0,0:0:0:0:
329,192,112160,1,0,0:0:0:0:
475,192,112235,128,0,113435:0:0:0:0:
109,192,112235,1,0,0:0:0:0:
402,192,112385,1,0,0:0:0:0:
182,192,112385,1,0,0:0:0:0:
329,192,112535,1,0,0:0:0:0:
256,192,112610,1,0,0:0:0:0:
36,192,112685,1,0,0:0:0:0:
402,192,112685,1,0,0:0:0:0:
182,192,112835,1,0,0:0:0:0:
256,192,112985,1,0,0:0:0:0:
329,192,112985,1,0,0:0:0:0:
182,192,113135,1,0,0:0:0:0:
109,192,113210,1,0,0:0:0:0:
36,192,113285,1,0,0:0:0:0:
329,192,113285,1,0,0:0:0:0:
256,192,113435,128,0,114635:0:0:0:0:
109,192,113435,1,0,0:0:0:0:
402,192,113585,1,0,0:0:0:0:
329,192,113585,1,0,0:0:0:0:
182,192,113735,1,0,0:0:0:0:
109,192,113810,1,0,0:0:0:0:
402,192,113885,1,0,0:0:0:0:
329,192,113885,1,0,0:0:0:0:
36,192,114035,1,0,0:0:0:0:
109,192,114185,1,0,0:0:0:0:
182,192,114185,1,0,0:0:0:0:
475,192,114335,1,0,0:0:0:0:
402,192,114410,1,0,0:0:0:0:
329,192,114485,1,0,0:0:0:0:
182,192,114485,1,0,0:0:0:0:
36,192,114635,128,0,115835:0:0:0:0:
109,192,114635,1,0,0:0:0:0:
329,192,114785,1,0,0:0:0:0:
182,192,114785,1,0,0:0:0:0:
475,192,114935,1,0,0:0:0:0:
402,192,115010,1,0,0:0:0:0:
256,192,115085,1,0,0:0:0:0:
109,192,115085,1,0,0:0:0:0:
182,192,115235,1,0,0:0:0:0:
256,192,115385,1,0,0:0:0:0:
329,192,115385,1,0,0:0:0:0:
475,192,115535,1,0,0:0:0:0:
402,192,115610,1,0,0:0:0:0:
182,192,115685,1,0,0:0:0:0:
109,192,115685,1,0,0:0:0:0:
475,192,115835,128,0,117035:0:0:0:0:
402,192,115835,1,0,0:0:0:0:
256,192,115910,1,0,0:0:0:0:
329,192,115985,1,0,0:0:0:0:
182,192,115985,1,0,0:0:0:0:
109,192,116060,1,0,0:0:0:0:
36,192,116135,1,0,0:0:0:0:
402,192,116210,1,0,0:0:0:0:
109,192,116285,1,0,0:0:0:0:
329,192,116285,1,0,0:0:0:0:
256,192,116360,1,0,0:0:0:0:
182,192,116435,1,0,0:0:0:0:
109,192,116510,1,0,0:0:0:0:
36,192,116585,1,0,0:0:0:0:
256,192,116585,1,0,0:0:0:0:
402,192,116660,1,0,0:0:0:0:
329,192,116735,1,0,0:0:0:0:
182,192,116810,1,0,0:0:0:0:
109,192,116885,1,0,0:0:0:0:
402,192,116885,1,0,0:0:0:0:
329,192,117035,1,0,0:0:0:0:
109,192,117035,1,0,0:0:0:0:
182,192,117035,1,0,0:0:0:0:
36,192,117035,128,0,117485:0:0:0:0:
329,192,117185,128,0,117485:0:0:0:0:
182,192,117185,128,0,117485:0:0:0:0:
109,192,117185,128,0,117485:0:0:0:0:
402,192,117485,1,0,0:0:0:0:
475,192,117485,1,0,0:0:0:0:
256,192,117485,1,0,0:0:0:0:
256,192,117635,1,0,0:0:0:0:
402,192,117635,1,0,0:0:0:0:
475,192,117635,1,0,0:0:0:0:
329,192,117785,1,0,0:0:0:0:
182,192,117860,1,0,0:0:0:0:
109,192,117935,128,0,118235:0:0:0:0:
402,192,117935,128,0,118235:0:0:0:0:
256,192,118235,1,0,0:0:0:0:
36,192,118235,1,0,0:0:0:0:
475,192,118235,1,0,0:0:0:0:
36,192,119435,1,0,0:0:0:0:
256,192,119435,1,0,0:0:0:0:
475,192,119435,1,0,0:0:0:0:
329,192,119510,1,0,0:0:0:0:
109,192,119585,1,0,0:0:0:0:
182,192,119585,1,0,0:0:0:0:
256,192,119660,1,0,0:0:0:0:
329,192,119735,1,0,0:0:0:0:
402,192,119735,1,0,0:0:0:0:
475,192,119810,1,0,0:0:0:0:
36,192,119885,1,0,0:0:0:0:
182,192,119885,1,0,0:0:0:0:
256,192,119960,1,0,0:0:0:0:
329,192,120035,1,0,0:0:0:0:
475,192,120035,1,0,0:0:0:0:
402,192,120110,1,0,0:0:0:0:
182,192,120185,1,0,0:0:0:0:
329,192,120185,1,0,0:0:0:0:
109,192,120260,1,0,0:0:0:0:
36,192,120335,1,0,0:0:0:0:
475,192,120335,1,0,0:0:0:0:
402,192,120410,1,0,0:0:0:0:
329,192,120485,1,0,0:0:0:0:
182,192,120485,1,0,0:0:0:0:
109,192,120560,1,0,0:0:0:0:
256,192,120635,1,0,0:0:0:0:
402,192,120635,1,0,0:0:0:0:
36,192,120710,1,0,0:0:0:0:
329,192,120785,1,0,0:0:0:0:
475,192,120785,1,0,0:0:0:0:
109,192,120860,1,0,0:0:0:0:
402,192,120935,1,0,0:0:0:0:
329,192,120935,1,0,0:0:0:0:
182,192,121010,1,0,0:0:0:0:
256,192,121085,1,0,0:0:0:0:
329,192,121085,1,0,0:0:0:0:
402,192,121160,1,0,0:0:0:0:
256,192,121235,1,0,0:0:0:0:
182,192,121235,1,0,0:0:0:0:
475,192,121310,1,0,0:0:0:0:
182,192,121385,1,0,0:0:0:0:
109,192,121385,1,0,0:0:0:0:
402,192,121460,1,0,0:0:0:0:
109,192,121535,1,0,0:0:0:0:
36,192,121535,1,0,0:0:0:0:
329,192,121610,1,0,0:0:0:0:
182,192,121685,1,0,0:0:0:0:
109,192,121685,1,0,0:0:0:0:
256,192,121760,1,0,0:0:0:0:
36,192,121835,128,0,123035:0:0:0:0:
109,192,121985,1,0,0:0:0:0:
182,192,121985,1,0,0:0:0:0:
402,192,122060,1,0,0:0:0:0:
475,192,122060,1,0,0:0:0:0:
182,192,122135,1,0,0:0:0:0:
109,192,122135,1,0,0:0:0:0:
402,192,122210,1,0,0:0:0:0:
475,192,122210,1,0,0:0:0:0:
109,192,122285,1,0,0:0:0:0:
182,192,122360,1,0,0:0:0:0:
329,192,122435,1,0,0:0:0:0:
402,192,122435,1,0,0:0:0:0:
182,192,122510,1,0,0:0:0:0:
109,192,122510,1,0,0:0:0:0:
329,192,122585,1,0,0:0:0:0:
402,192,122585,1,0,0:0:0:0:
182,192,122660,1,0,0:0:0:0:
109,192,122660,1,0,0:0:0:0:
256,192,122735,1,0,0:0:0:0:
329,192,122810,1,0,0:0:0:0:
402,192,122885,1,0,0:0:0:0:
475,192,122960,1,0,0:0:0:0:
109,192,123035,1,0,0:0:0:0:
329,192,123035,1,0,0:0:0:0:
182,192,123110,1,0,0:0:0:0:
475,192,123185,1,0,0:0:0:0:
36,192,123185,1,0,0:0:0:0:
329,192,123260,1,0,0:0:0:0:
402,192,123335,1,0,0:0:0:0:
475,192,123410,1,0,0:0:0:0:
36,192,123485,1,0,0:0:0:0:
329,192,123485,1,0,0:0:0:0:
109,192,123560,1,0,0:0:0:0:
182,192,123635,1,0,0:0:0:0:
256,192,123710,1,0,0:0:0:0:
402,192,123785,1,0,0:0:0:0:
109,192,123785,1,0,0:0:0:0:
182,192,123860,1,0,0:0:0:0:
256,192,123935,1,0,0:0:0:0:
329,192,124010,1,0,0:0:0:0:
475,192,124085,1,0,0:0:0:0:
402,192,124085,1,0,0:0:0:0:
329,192,124160,1,0,0:0:0:0:
256,192,124235,1,0,0:0:0:0:
182,192,124310,1,0,0:0:0:0:
109,192,124385,1,0,0:0:0:0:
36,192,124385,1,0,0:0:0:0:
475,192,124460,1,0,0:0:0:0:
402,192,124535,1,0,0:0:0:0:
329,192,124610,1,0,0:0:0:0:
182,192,124685,1,0,0:0:0:0:
36,192,124685,1,0,0:0:0:0:
256,192,124760,1,0,0:0:0:0:
182,192,124835,1,0,0:0:0:0:
109,192,124910,1,0,0:0:0:0:
36,192,124985,1,0,0:0:0:0:
475,192,124985,1,0,0:0:0:0:
329,192,124985,1,0,0:0:0:0:
402,192,125060,1,0,0:0:0:0:
329,192,125135,1,0,0:0:0:0:
256,192,125210,1,0,0:0:0:0:
109,192,125285,1,0,0:0:0:0:
402,192,125285,1,0,0:0:0:0:
182,192,125360,1,0,0:0:0:0:
109,192,125435,1,0,0:0:0:0:
36,192,125510,1,0,0:0:0:0:
475,192,125585,1,0,0:0:0:0:
402,192,125585,1,0,0:0:0:0:
109,192,125660,1,0,0:0:0:0:
182,192,125735,1,0,0:0:0:0:
256,192,125810,1,0,0:0:0:0:
329,192,125885,1,0,0:0:0:0:
402,192,125885,1,0,0:0:0:0:
475,192,125960,1,0,0:0:0:0:
36,192,126035,1,0,0:0:0:0:
109,192,126110,1,0,0:0:0:0:
329,192,126185,1,0,0:0:0:0:
182,192,126185,1,0,0:0:0:0:
402,192,126260,1,0,0:0:0:0:
475,192,126335,1,0,0:0:0:0:
109,192,126410,1,0,0:0:0:0:
182,192,126485,1,0,0:0:0:0:
256,192,126560,1,0,0:0:0:0:
402,192,126635,1,0,0:0:0:0:
475,192,126635,1,0,0:0:0:0:
109,192,126710,1,0,0:0:0:0:
36,192,126710,1,0,0:0:0:0:
402,192,126785,1,0,0:0:0:0:
475,192,126785,1,0,0:0:0:0:
109,192,126860,1,0,0:0:0:0:
36,192,126860,1,0,0:0:0:0:
402,192,126935,1,0,0:0:0:0:
475,192,126935,1,0,0:0:0:0:
109,192,127010,1,0,0:0:0:0:
36,192,127010,1,0,0:0:0:0:
402,192,127085,1,0,0:0:0:0:
475,192,127085,1,0,0:0:0:0:
109,192,127235,1,0,0:0:0:0:
182,192,127235,1,0,0:0:0:0:
329,192,127310,1,0,0:0:0:0:
402,192,127310,1,0,0:0:0:0:
182,192,127385,1,0,0:0:0:0:
109,192,127385,1,0,0:0:0:0:
329,192,127460,1,0,0:0:0:0:
402,192,127460,1,0,0:0:0:0:
182,192,127535,1,0,0:0:0:0:
109,192,127535,1,0,0:0:0:0:
329,192,127610,1,0,0:0:0:0:
402,192,127610,1,0,0:0:0:0:
182,192,127685,1,0,0:0:0:0:
109,192,127685,1,0,0:0:0:0:
329,192,127760,1,0,0:0:0:0:
402,192,127760,1,0,0:0:0:0:
36,192,127835,1,0,0:0:0:0:
182,192,127835,1,0,0:0:0:0:
475,192,127910,1,0,0:0:0:0:
329,192,127910,1,0,0:0:0:0:
109,192,127985,1,0,0:0:0:0:
182,192,127985,1,0,0:0:0:0:
402,192,128060,1,0,0:0:0:0:
475,192,128060,1,0,0:0:0:0:
36,192,128135,1,0,0:0:0:0:
109,192,128210,1,0,0:0:0:0:
182,192,128285,1,0,0:0:0:0:
475,192,128435,1,0,0:0:0:0:
402,192,128510,1,0,0:0:0:0:
329,192,128585,1,0,0:0:0:0:
182,192,128660,1,0,0:0:0:0:
109,192,128735,1,0,0:0:0:0:
36,192,128810,1,0,0:0:0:0:
329,192,128885,1,0,0:0:0:0:
402,192,128960,1,0,0:0:0:0:
256,192,129035,128,0,129335:0:0:0:0:
36,192,129035,128,0,129335:0:0:0:0:
475,192,129035,128,0,129335:0:0:0:0:
256,192,130235,1,0,0:0:0:0:
36,192,130235,1,0,0:0:0:0:
329,192,130235,128,0,131435:0:0:0:0:
182,192,130685,1,0,0:0:0:0:
36,192,130835,1,0,0:0:0:0:
402,192,130835,1,0,0:0:0:0:
475,192,130835,1,0,0:0:0:0:
109,192,131135,1,0,0:0:0:0:
182,192,131285,1,0,0:0:0:0:
256,192,131435,1,0,0:0:0:0:
109,192,131435,128,0,132635:0:0:0:0:
329,192,131585,1,0,0:0:0:0:
402,192,131735,1,0,0:0:0:0:
329,192,132035,1,0,0:0:0:0:
36,192,132035,1,0,0:0:0:0:
475,192,132035,1,0,0:0:0:0:
475,192,132335,1,0,0:0:0:0:
402,192,132485,1,0,0:0:0:0:
182,192,132635,128,0,133835:0:0:0:0:
256,192,133085,1,0,0:0:0:0:
402,192,133235,1,0,0:0:0:0:
109,192,133235,1,0,0:0:0:0:
475,192,133235,1,0,0:0:0:0:
329,192,133535,1,0,0:0:0:0:
36,192,133685,1,0,0:0:0:0:
256,192,133835,128,0,135035:0:0:0:0:
475,192,133985,1,0,0:0:0:0:
329,192,134135,1,0,0:0:0:0:
36,192,134435,1,0,0:0:0:0:
109,192,134435,1,0,0:0:0:0:
475,192,134510,1,0,0:0:0:0:
402,192,134510,1,0,0:0:0:0:
182,192,134585,1,0,0:0:0:0:
329,192,134660,1,0,0:0:0:0:
36,192,134735,1,0,0:0:0:0:
109,192,134735,1,0,0:0:0:0:
402,192,134810,1,0,0:0:0:0:
475,192,134810,1,0,0:0:0:0:
329,192,134885,1,0,0:0:0:0:
182,192,134960,1,0,0:0:0:0:
36,192,135035,128,0,137435:0:0:0:0:
182,192,135485,1,0,0:0:0:0:
256,192,135635,1,0,0:0:0:0:
402,192,135635,1,0,0:0:0:0:
109,192,135935,1,0,0:0:0:0:
475,192,135935,1,0,0:0:0:0:
329,192,135935,1,0,0:0:0:0:
109,192,136085,1,0,0:0:0:0:
475,192,136085,1,0,0:0:0:0:
329,192,136085,1,0,0:0:0:0:
402,192,136385,1,0,0:0:0:0:
109,192,136535,1,0,0:0:0:0:
475,192,136535,1,0,0:0:0:0:
256,192,136535,1,0,0:0:0:0:
109,192,136835,1,0,0:0:0:0:
475,192,136835,1,0,0:0:0:0:
182,192,136910,1,0,0:0:0:0:
256,192,136985,1,0,0:0:0:0:
475,192,137060,1,0,0:0:0:0:
402,192,137135,1,0,0:0:0:0:
329,192,137210,1,0,0:0:0:0:
109,192,137285,1,0,0:0:0:0:
182,192,137360,1,0,0:0:0:0:
475,192,137435,128,0,138635:0:0:0:0:
256,192,137885,1,0,0:0:0:0:
109,192,138035,1,0,0:0:0:0:
402,192,138035,1,0,0:0:0:0:
182,192,138335,1,0,0:0:0:0:
36,192,138485,1,0,0:0:0:0:
256,192,138485,1,0,0:0:0:0:
402,192,138485,1,0,0:0:0:0:
402,192,138635,1,0,0:0:0:0:
256,192,138635,1,0,0:0:0:0:
36,192,138635,1,0,0:0:0:0:
402,192,138835,1,0,0:0:0:0:
329,192,138935,1,0,0:0:0:0:
256,192,139035,1,0,0:0:0:0:
36,192,139135,1,0,0:0:0:0:
109,192,139235,1,0,0:0:0:0:
182,192,139335,1,0,0:0:0:0:
329,192,139435,1,0,0:0:0:0:
402,192,139535,1,0,0:0:0:0:
475,192,139635,1,0,0:0:0:0:
256,192,139685,1,0,0:0:0:0:
182,192,139785,1,0,0:0:0:0:
36,192,139835,1,0,0:0:0:0:
475,192,139835,1,0,0:0:0:0:
109,192,139910,1,0,0:0:0:0:
402,192,139985,1,0,0:0:0:0:
329,192,139985,1,0,0:0:0:0:
256,192,140060,1,0,0:0:0:0:
182,192,140135,1,0,0:0:0:0:
109,192,140210,1,0,0:0:0:0:
36,192,140285,1,0,0:0:0:0:
475,192,140285,1,0,0:0:0:0:
402,192,140360,1,0,0:0:0:0:
329,192,140435,1,0,0:0:0:0:
256,192,140510,1,0,0:0:0:0:
109,192,140585,1,0,0:0:0:0:
402,192,140585,1,0,0:0:0:0:
182,192,140660,1,0,0:0:0:0:
109,192,140735,1,0,0:0:0:0:
36,192,140810,1,0,0:0:0:0:
475,192,140885,1,0,0:0:0:0:
402,192,140885,1,0,0:0:0:0:
109,192,140960,1,0,0:0:0:0:
182,192,141035,1,0,0:0:0:0:
256,192,141110,1,0,0:0:0:0:
475,192,141185,1,0,0:0:0:0:
109,192,141185,1,0,0:0:0:0:
329,192,141260,1,0,0:0:0:0:
402,192,141335,1,0,0:0:0:0:
475,192,141410,1,0,0:0:0:0:
36,192,141485,1,0,0:0:0:0:
109,192,141485,1,0,0:0:0:0:
182,192,141560,1,0,0:0:0:0:
256,192,141635,1,0,0:0:0:0:
329,192,141710,1,0,0:0:0:0:
475,192,141785,1,0,0:0:0:0:
402,192,141785,1,0,0:0:0:0:
36,192,141860,1,0,0:0:0:0:
256,192,141935,1,0,0:0:0:0:
475,192,142010,1,0,0:0:0:0:
402,192,142085,1,0,0:0:0:0:
109,192,142085,1,0,0:0:0:0:
329,192,142160,1,0,0:0:0:0:
256,192,142235,1,0,0:0:0:0:
182,192,142310,1,0,0:0:0:0:
36,192,142385,1,0,0:0:0:0:
475,192,142385,1,0,0:0:0:0:
402,192,142460,1,0,0:0:0:0:
329,192,142535,1,0,0:0:0:0:
256,192,142610,1,0,0:0:0:0:
182,192,142685,1,0,0:0:0:0:
109,192,142685,1,0,0:0:0:0:
36,192,142760,1,0,0:0:0:0:
475,192,142835,1,0,0:0:0:0:
402,192,142910,1,0,0:0:0:0:
475,192,142985,1,0,0:0:0:0:
329,192,142985,1,0,0:0:0:0:
256,192,143060,1,0,0:0:0:0:
182,192,143135,1,0,0:0:0:0:
109,192,143210,1,0,0:0:0:0:
182,192,143285,1,0,0:0:0:0:
36,192,143285,1,0,0:0:0:0:
475,192,143360,1,0,0:0:0:0:
256,192,143435,128,0,144635:0:0:0:0:
109,192,143435,1,0,0:0:0:0:
182,192,143585,1,0,0:0:0:0:
329,192,143585,1,0,0:0:0:0:
402,192,143735,1,0,0:0:0:0:
475,192,143735,1,0,0:0:0:0:
109,192,143810,1,0,0:0:0:0:
36,192,143810,1,0,0:0:0:0:
402,192,143885,1,0,0:0:0:0:
475,192,143885,1,0,0:0:0:0:
109,192,143960,1,0,0:0:0:0:
36,192,143960,1,0,0:0:0:0:
402,192,144035,1,0,0:0:0:0:
475,192,144035,1,0,0:0:0:0:
182,192,144110,1,0,0:0:0:0:
109,192,144185,1,0,0:0:0:0:
36,192,144260,1,0,0:0:0:0:
329,192,144335,1,0,0:0:0:0:
402,192,144335,1,0,0:0:0:0:
109,192,144410,1,0,0:0:0:0:
182,192,144410,1,0,0:0:0:0:
329,192,144485,1,0,0:0:0:0:
402,192,144485,1,0,0:0:0:0:
182,192,144560,1,0,0:0:0:0:
109,192,144560,1,0,0:0:0:0:
475,192,144635,1,0,0:0:0:0:
402,192,144710,1,0,0:0:0:0:
36,192,144785,1,0,0:0:0:0:
329,192,144785,1,0,0:0:0:0:
256,192,144860,1,0,0:0:0:0:
182,192,144935,1,0,0:0:0:0:
109,192,145010,1,0,0:0:0:0:
402,192,145085,1,0,0:0:0:0:
256,192,145085,1,0,0:0:0:0:
36,192,145160,1,0,0:0:0:0:
109,192,145235,1,0,0:0:0:0:
182,192,145310,1,0,0:0:0:0:
256,192,145385,1,0,0:0:0:0:
475,192,145385,1,0,0:0:0:0:
329,192,145460,1,0,0:0:0:0:
402,192,145535,1,0,0:0:0:0:
182,192,145535,1,0,0:0:0:0:
475,192,145610,1,0,0:0:0:0:
36,192,145685,1,0,0:0:0:0:
109,192,145685,1,0,0:0:0:0:
182,192,145760,1,0,0:0:0:0:
256,192,145835,1,0,0:0:0:0:
329,192,145910,1,0,0:0:0:0:
402,192,145985,1,0,0:0:0:0:
475,192,145985,1,0,0:0:0:0:
329,192,146060,1,0,0:0:0:0:
256,192,146135,1,0,0:0:0:0:
182,192,146210,1,0,0:0:0:0:
36,192,146285,1,0,0:0:0:0:
475,192,146285,1,0,0:0:0:0:
402,192,146360,1,0,0:0:0:0:
256,192,146435,1,0,0:0:0:0:
109,192,146510,1,0,0:0:0:0:
329,192,146585,1,0,0:0:0:0:
182,192,146585,1,0,0:0:0:0:
475,192,146660,1,0,0:0:0:0:
402,192,146735,1,0,0:0:0:0:
329,192,146810,1,0,0:0:0:0:
36,192,146885,1,0,0:0:0:0:
109,192,146885,1,0,0:0:0:0:
182,192,146960,1,0,0:0:0:0:
402,192,147035,1,0,0:0:0:0:
329,192,147035,1,0,0:0:0:0:
402,192,147485,1,0,0:0:0:0:
329,192,147485,1,0,0:0:0:0:
182,192,147560,1,0,0:0:0:0:
109,192,147635,1,0,0:0:0:0:
36,192,147710,1,0,0:0:0:0:
36,192,148160,1,0,0:0:0:0:
475,192,148235,1,0,0:0:0:0:
36,192,148310,1,0,0:0:0:0:
475,192,149435,1,0,0:0:0:0:
36,192,149435,1,0,0:0:0:0:
109,192,149510,1,0,0:0:0:0:
182,192,149585,1,0,0:0:0:0:
256,192,149660,1,0,0:0:0:0:
475,192,149735,1,0,0:0:0:0:
36,192,149735,1,0,0:0:0:0:
402,192,149810,1,0,0:0:0:0:
329,192,149885,1,0,0:0:0:0:
256,192,149960,1,0,0:0:0:0:
402,192,150035,1,0,0:0:0:0:
109,192,150035,1,0,0:0:0:0:
36,192,150110,1,0,0:0:0:0:
182,192,150185,1,0,0:0:0:0:
256,192,150260,1,0,0:0:0:0:
329,192,150335,1,0,0:0:0:0:
182,192,150335,1,0,0:0:0:0:
36,192,150410,1,0,0:0:0:0:
109,192,150485,1,0,0:0:0:0:
182,192,150560,1,0,0:0:0:0:
329,192,150635,1,0,0:0:0:0:
402,192,150635,1,0,0:0:0:0:
475,192,150710,1,0,0:0:0:0:
402,192,150785,1,0,0:0:0:0:
329,192,150860,1,0,0:0:0:0:
402,192,150935,1,0,0:0:0:0:
109,192,150935,1,0,0:0:0:0:
256,192,151010,1,0,0:0:0:0:
182,192,151085,1,0,0:0:0:0:
109,192,151160,1,0,0:0:0:0:
475,192,151235,1,0,0:0:0:0:
36,192,151235,1,0,0:0:0:0:
402,192,151310,1,0,0:0:0:0:
329,192,151385,1,0,0:0:0:0:
256,192,151460,1,0,0:0:0:0:
109,192,151535,1,0,0:0:0:0:
402,192,151535,1,0,0:0:0:0:
182,192,151610,1,0,0:0:0:0:
109,192,151685,1,0,0:0:0:0:
36,192,151760,1,0,0:0:0:0:
182,192,151835,1,0,0:0:0:0:
475,192,151835,1,0,0:0:0:0:
402,192,151910,1,0,0:0:0:0:
329,192,151985,1,0,0:0:0:0:
182,192,152135,1,0,0:0:0:0:
36,192,152135,128,0,152285:0:0:0:0:
475,192,152135,1,0,0:0:0:0:
329,192,152285,1,0,0:0:0:0:
109,192,152435,128,0,152585:0:0:0:0:
256,192,152435,1,0,0:0:0:0:
475,192,152435,1,0,0:0:0:0:
402,192,152585,1,0,0:0:0:0:
182,192,152735,128,0,152885:0:0:0:0:
329,192,152735,1,0,0:0:0:0:
36,192,152735,1,0,0:0:0:0:
402,192,152885,1,0,0:0:0:0:
36,192,153035,1,0,0:0:0:0:
109,192,153035,1,0,0:0:0:0:
475,192,153035,1,0,0:0:0:0:
256,192,153035,1,0,0:0:0:0:
36,192,153185,1,0,0:0:0:0:
109,192,153185,1,0,0:0:0:0:
475,192,153185,1,0,0:0:0:0:
256,192,153185,1,0,0:0:0:0:
329,192,153335,1,0,0:0:0:0:
402,192,153335,1,0,0:0:0:0:
36,192,153485,1,0,0:0:0:0:
402,192,153485,1,0,0:0:0:0:
475,192,153485,1,0,0:0:0:0:
256,192,153485,1,0,0:0:0:0:
402,192,153635,1,0,0:0:0:0:
475,192,153635,1,0,0:0:0:0:
36,192,153635,1,0,0:0:0:0:
256,192,153635,1,0,0:0:0:0:
182,192,153785,1,0,0:0:0:0:
109,192,153785,1,0,0:0:0:0:
329,192,153935,1,0,0:0:0:0:
402,192,153935,1,0,0:0:0:0:
475,192,153935,1,0,0:0:0:0:
36,192,153935,1,0,0:0:0:0:
182,192,154085,1,0,0:0:0:0:
109,192,154085,1,0,0:0:0:0:
329,192,154235,1,0,0:0:0:0:
402,192,154235,1,0,0:0:0:0:
256,192,154310,1,0,0:0:0:0:
182,192,154385,1,0,0:0:0:0:
109,192,154460,1,0,0:0:0:0:
36,192,154535,1,0,0:0:0:0:
475,192,154535,1,0,0:0:0:0:
402,192,154610,1,0,0:0:0:0:
329,192,154685,1,0,0:0:0:0:
256,192,154760,1,0,0:0:0:0:
182,192,154835,1,0,0:0:0:0:
109,192,154835,1,0,0:0:0:0:
36,192,154910,1,0,0:0:0:0:
109,192,154985,1,0,0:0:0:0:
182,192,155060,1,0,0:0:0:0:
256,192,155135,1,0,0:0:0:0:
329,192,155135,1,0,0:0:0:0:
402,192,155210,1,0,0:0:0:0:
475,192,155285,1,0,0:0:0:0:
36,192,155360,1,0,0:0:0:0:
109,192,155435,1,0,0:0:0:0:
182,192,155435,1,0,0:0:0:0:
256,192,155510,1,0,0:0:0:0:
329,192,155585,1,0,0:0:0:0:
402,192,155660,1,0,0:0:0:0:
475,192,155735,1,0,0:0:0:0:
329,192,155735,1,0,0:0:0:0:
36,192,155810,1,0,0:0:0:0:
109,192,155885,1,0,0:0:0:0:
182,192,155960,1,0,0:0:0:0:
256,192,156035,1,0,0:0:0:0:
475,192,156035,1,0,0:0:0:0:
329,192,156110,1,0,0:0:0:0:
402,192,156185,1,0,0:0:0:0:
475,192,156260,1,0,0:0:0:0:
36,192,156335,1,0,0:0:0:0:
109,192,156335,1,0,0:0:0:0:
182,192,156410,1,0,0:0:0:0:
256,192,156485,1,0,0:0:0:0:
329,192,156560,1,0,0:0:0:0:
402,192,156635,1,0,0:0:0:0:
475,192,156635,1,0,0:0:0:0:
36,192,156710,1,0,0:0:0:0:
109,192,156785,1,0,0:0:0:0:
182,192,156860,1,0,0:0:0:0:
256,192,156935,1,0,0:0:0:0:
475,192,156935,1,0,0:0:0:0:
402,192,157010,1,0,0:0:0:0:
329,192,157085,1,0,0:0:0:0:
256,192,157160,1,0,0:0:0:0:
36,192,157235,1,0,0:0:0:0:
402,192,157235,1,0,0:0:0:0:
182,192,157310,1,0,0:0:0:0:
109,192,157385,1,0,0:0:0:0:
36,192,157460,1,0,0:0:0:0:
475,192,157535,1,0,0:0:0:0:
402,192,157535,1,0,0:0:0:0:
329,192,157610,1,0,0:0:0:0:
256,192,157685,1,0,0:0:0:0:
182,192,157760,1,0,0:0:0:0:
36,192,157835,1,0,0:0:0:0:
109,192,157835,1,0,0:0:0:0:
475,192,157910,1,0,0:0:0:0:
402,192,157910,1,0,0:0:0:0:
329,192,157985,1,0,0:0:0:0:
256,192,158060,1,0,0:0:0:0:
475,192,158135,128,0,158435:0:0:0:0:
36,192,158135,1,0,0:0:0:0:
109,192,158135,1,0,0:0:0:0:
182,192,158210,1,0,0:0:0:0:
256,192,158285,1,0,0:0:0:0:
329,192,158360,1,0,0:0:0:0:
36,192,158435,1,0,0:0:0:0:
109,192,158435,1,0,0:0:0:0:
402,192,158435,128,0,158585:0:0:0:0:
256,192,158435,1,0,0:0:0:0:
182,192,158510,1,0,0:0:0:0:
329,192,158585,128,0,158735:0:0:0:0:
109,192,158585,1,0,0:0:0:0:
36,192,158660,1,0,0:0:0:0:
256,192,158735,128,0,158885:0:0:0:0:
109,192,158735,1,0,0:0:0:0:
182,192,158885,128,0,159035:0:0:0:0:
475,192,159035,128,0,160235:0:0:0:0:
36,192,159185,1,0,0:0:0:0:
402,192,159185,1,0,0:0:0:0:
109,192,159335,1,0,0:0:0:0:
182,192,159410,1,0,0:0:0:0:
256,192,159485,1,0,0:0:0:0:
402,192,159485,1,0,0:0:0:0:
329,192,159635,1,0,0:0:0:0:
109,192,159785,1,0,0:0:0:0:
182,192,159785,1,0,0:0:0:0:
402,192,159935,128,0,160085:0:0:0:0:
329,192,160010,1,0,0:0:0:0:
109,192,160085,1,0,0:0:0:0:
256,192,160085,128,0,160235:0:0:0:0:
182,192,160085,1,0,0:0:0:0:
36,192,160235,128,0,161435:0:0:0:0:
109,192,160385,1,0,0:0:0:0:
182,192,160385,1,0,0:0:0:0:
329,192,160535,1,0,0:0:0:0:
402,192,160610,1,0,0:0:0:0:
475,192,160685,1,0,0:0:0:0:
256,192,160685,1,0,0:0:0:0:
182,192,160835,1,0,0:0:0:0:
329,192,160985,1,0,0:0:0:0:
109,192,160985,1,0,0:0:0:0:
475,192,161135,1,0,0:0:0:0:
402,192,161210,1,0,0:0:0:0:
329,192,161285,1,0,0:0:0:0:
256,192,161285,1,0,0:0:0:0:
109,192,161435,1,0,0:0:0:0:
182,192,161510,1,0,0:0:0:0:
329,192,161585,1,0,0:0:0:0:
402,192,161585,1,0,0:0:0:0:
109,192,161735,128,0,161885:0:0:0:0:
36,192,161885,1,0,0:0:0:0:
182,192,161885,1,0,0:0:0:0:
256,192,162035,128,0,162185:0:0:0:0:
329,192,162185,1,0,0:0:0:0:
182,192,162185,1,0,0:0:0:0:
402,192,162335,128,0,162485:0:0:0:0:
475,192,162485,1,0,0:0:0:0:
329,192,162485,1,0,0:0:0:0:
36,192,162635,1,0,0:0:0:0:
109,192,162635,1,0,0:0:0:0:
475,192,162710,1,0,0:0:0:0:
402,192,162710,1,0,0:0:0:0:
329,192,162785,1,0,0:0:0:0:
256,192,162860,1,0,0:0:0:0:
182,192,162935,1,0,0:0:0:0:
475,192,163010,1,0,0:0:0:0:
402,192,163085,1,0,0:0:0:0:
329,192,163160,1,0,0:0:0:0:
109,192,163235,1,0,0:0:0:0:
182,192,163235,1,0,0:0:0:0:
329,192,163310,1,0,0:0:0:0:
402,192,163310,1,0,0:0:0:0:
256,192,163385,1,0,0:0:0:0:
182,192,163460,1,0,0:0:0:0:
109,192,163535,1,0,0:0:0:0:
36,192,163610,1,0,0:0:0:0:
475,192,163685,1,0,0:0:0:0:
402,192,163760,1,0,0:0:0:0:
329,192,163835,1,0,0:0:0:0:
36,192,163835,128,0,165035:0:0:0:0:
109,192,163985,1,0,0:0:0:0:
475,192,163985,1,0,0:0:0:0:
182,192,164135,1,0,0:0:0:0:
402,192,164210,1,0,0:0:0:0:
256,192,164285,1,0,0:0:0:0:
329,192,164285,1,0,0:0:0:0:
182,192,164435,1,0,0:0:0:0:
329,192,164585,1,0,0:0:0:0:
402,192,164585,1,0,0:0:0:0:
475,192,164735,1,0,0:0:0:0:
402,192,164810,1,0,0:0:0:0:
182,192,164885,1,0,0:0:0:0:
329,192,164885,1,0,0:0:0:0:
475,192,165035,128,0,166235:0:0:0:0:
256,192,165035,1,0,0:0:0:0:
402,192,165185,1,0,0:0:0:0:
109,192,165185,1,0,0:0:0:0:
329,192,165335,1,0,0:0:0:0:
256,192,165410,1,0,0:0:0:0:
109,192,165485,1,0,0:0:0:0:
36,192,165485,1,0,0:0:0:0:
182,192,165635,1,0,0:0:0:0:
402,192,165785,1,0,0:0:0:0:
329,192,165785,1,0,0:0:0:0:
256,192,165935,1,0,0:0:0:0:
109,192,166010,1,0,0:0:0:0:
36,192,166085,1,0,0:0:0:0:
402,192,166085,1,0,0:0:0:0:
182,192,166235,128,0,167435:0:0:0:0:
329,192,166235,1,0,0:0:0:0:
402,192,166385,1,0,0:0:0:0:
109,192,166385,1,0,0:0:0:0:
256,192,166535,1,0,0:0:0:0:
329,192,166610,1,0,0:0:0:0:
402,192,166685,1,0,0:0:0:0:
475,192,166685,1,0,0:0:0:0:
109,192,166835,1,0,0:0:0:0:
329,192,166985,1,0,0:0:0:0:
36,192,166985,1,0,0:0:0:0:
256,192,167135,1,0,0:0:0:0:
329,192,167210,1,0,0:0:0:0:
402,192,167285,1,0,0:0:0:0:
475,192,167285,1,0,0:0:0:0:
36,192,167435,1,0,0:0:0:0:
109,192,167510,1,0,0:0:0:0:
182,192,167585,1,0,0:0:0:0:
256,192,167660,1,0,0:0:0:0:
329,192,167735,1,0,0:0:0:0:
36,192,167735,1,0,0:0:0:0:
475,192,167810,1,0,0:0:0:0:
109,192,167810,1,0,0:0:0:0:
402,192,167885,1,0,0:0:0:0:
182,192,167885,1,0,0:0:0:0:
329,192,167960,1,0,0:0:0:0:
256,192,167960,1,0,0:0:0:0:
109,192,168035,1,0,0:0:0:0:
475,192,168035,1,0,0:0:0:0:
402,192,168110,1,0,0:0:0:0:
36,192,168110,1,0,0:0:0:0:
109,192,168185,1,0,0:0:0:0:
329,192,168185,1,0,0:0:0:0:
182,192,168260,1,0,0:0:0:0:
402,192,168260,1,0,0:0:0:0:
256,192,168335,1,0,0:0:0:0:
475,192,168335,1,0,0:0:0:0:
402,192,168410,1,0,0:0:0:0:
109,192,168410,1,0,0:0:0:0:
329,192,168485,1,0,0:0:0:0:
36,192,168485,1,0,0:0:0:0:
109,192,168560,1,0,0:0:0:0:
256,192,168560,1,0,0:0:0:0:
475,192,168635,1,0,0:0:0:0:
182,192,168635,1,0,0:0:0:0:
36,192,168635,1,0,0:0:0:0:
182,192,168785,1,0,0:0:0:0:
36,192,168785,1,0,0:0:0:0:
475,192,168785,1,0,0:0:0:0:
36,192,169085,1,0,0:0:0:0:
182,192,169085,1,0,0:0:0:0:
475,192,169085,1,0,0:0:0:0:
329,192,169235,1,0,0:0:0:0:
475,192,169235,1,0,0:0:0:0:
36,192,169235,1,0,0:0:0:0:
36,192,169835,1,0,0:0:0:0:
475,192,169835,1,0,0:0:0:0:
182,192,169835,1,0,0:0:0:0:
402,192,169985,1,0,0:0:0:0:
329,192,169985,1,0,0:0:0:0:
36,192,170135,1,0,0:0:0:0:
109,192,170210,1,0,0:0:0:0:
402,192,170285,1,0,0:0:0:0:
256,192,170285,1,0,0:0:0:0:
182,192,170435,1,0,0:0:0:0:
256,192,170585,1,0,0:0:0:0:
475,192,170585,1,0,0:0:0:0:
402,192,170735,1,0,0:0:0:0:
329,192,170810,1,0,0:0:0:0:
36,192,170885,1,0,0:0:0:0:
256,192,170885,1,0,0:0:0:0:
109,192,171035,1,0,0:0:0:0:
182,192,171185,1,0,0:0:0:0:
329,192,171185,1,0,0:0:0:0:
256,192,171335,1,0,0:0:0:0:
329,192,171410,1,0,0:0:0:0:
402,192,171485,1,0,0:0:0:0:
475,192,171485,1,0,0:0:0:0:
329,192,171635,1,0,0:0:0:0:
402,192,171785,1,0,0:0:0:0:
182,192,171785,1,0,0:0:0:0:
256,192,171935,1,0,0:0:0:0:
182,192,172010,1,0,0:0:0:0:
109,192,172085,1,0,0:0:0:0:
36,192,172085,1,0,0:0:0:0:
182,192,172235,1,0,0:0:0:0:
475,192,172235,1,0,0:0:0:0:
329,192,172235,1,0,0:0:0:0:
256,192,172385,1,0,0:0:0:0:
402,192,172385,1,0,0:0:0:0:
329,192,172535,1,0,0:0:0:0:
182,192,172535,1,0,0:0:0:0:
36,192,172535,1,0,0:0:0:0:
109,192,172685,1,0,0:0:0:0:
256,192,172685,1,0,0:0:0:0:
182,192,172835,1,0,0:0:0:0:
475,192,172835,1,0,0:0:0:0:
402,192,172835,1,0,0:0:0:0:
182,192,172985,1,0,0:0:0:0:
475,192,172985,1,0,0:0:0:0:
402,192,172985,1,0,0:0:0:0:
109,192,173135,1,0,0:0:0:0:
36,192,173135,1,0,0:0:0:0:
256,192,173285,1,0,0:0:0:0:
475,192,173285,1,0,0:0:0:0:
329,192,173285,1,0,0:0:0:0:
256,192,173585,1,0,0:0:0:0:
329,192,173585,1,0,0:0:0:0:
475,192,173585,1,0,0:0:0:0:
109,192,173735,1,0,0:0:0:0:
402,192,173735,1,0,0:0:0:0:
402,192,173885,1,0,0:0:0:0:
109,192,173885,1,0,0:0:0:0:
182,192,173885,1,0,0:0:0:0:
109,192,174035,1,0,0:0:0:0:
402,192,174035,1,0,0:0:0:0:
329,192,174035,1,0,0:0:0:0:
402,192,174185,1,0,0:0:0:0:
109,192,174185,1,0,0:0:0:0:
256,192,174185,1,0,0:0:0:0:
109,192,174335,1,0,0:0:0:0:
402,192,174335,1,0,0:0:0:0:
182,192,174335,1,0,0:0:0:0:
402,192,174485,1,0,0:0:0:0:
109,192,174485,1,0,0:0:0:0:
256,192,174485,1,0,0:0:0:0:
475,192,174635,128,0,177035:0:0:0:0:
36,192,174635,1,0,0:0:0:0:
329,192,174635,1,0,0:0:0:0:
256,192,174710,1,0,0:0:0:0:
182,192,174785,1,0,0:0:0:0:
109,192,174860,1,0,0:0:0:0:
402,192,174935,1,0,0:0:0:0:
36,192,174935,1,0,0:0:0:0:
329,192,175010,1,0,0:0:0:0:
256,192,175085,1,0,0:0:0:0:
182,192,175160,1,0,0:0:0:0:
36,192,175235,1,0,0:0:0:0:
109,192,175235,1,0,0:0:0:0:
329,192,175235,128,0,177035:0:0:0:0:
402,192,175310,1,0,0:0:0:0:
256,192,175385,1,0,0:0:0:0:
182,192,175460,1,0,0:0:0:0:
36,192,175535,1,0,0:0:0:0:
109,192,175535,1,0,0:0:0:0:
402,192,175610,1,0,0:0:0:0:
182,192,175685,1,0,0:0:0:0:
256,192,175760,1,0,0:0:0:0:
109,192,175835,1,0,0:0:0:0:
36,192,175835,1,0,0:0:0:0:
182,192,175835,128,0,177035:0:0:0:0:
256,192,175910,1,0,0:0:0:0:
402,192,175985,1,0,0:0:0:0:
36,192,176060,1,0,0:0:0:0:
109,192,176135,1,0,0:0:0:0:
256,192,176135,1,0,0:0:0:0:
402,192,176210,1,0,0:0:0:0:
109,192,176285,1,0,0:0:0:0:
256,192,176360,1,0,0:0:0:0:
36,192,176435,128,0,177035:0:0:0:0:
109,192,176435,1,0,0:0:0:0:
402,192,176435,1,0,0:0:0:0:
256,192,176510,1,0,0:0:0:0:
402,192,176585,1,0,0:0:0:0:
109,192,176660,1,0,0:0:0:0:
256,192,176735,1,0,0:0:0:0:
402,192,176735,1,0,0:0:0:0:
109,192,176885,1,0,0:0:0:0:
256,192,176960,1,0,0:0:0:0:
402,192,177035,1,0,0:0:0:0:
109,192,177035,1,0,0:0:0:0:
256,192,177110,1,0,0:0:0:0:
329,192,177185,1,0,0:0:0:0:
475,192,177185,1,0,0:0:0:0:
182,192,177185,1,0,0:0:0:0:
36,192,177260,1,0,0:0:0:0:
109,192,177335,1,0,0:0:0:0:
182,192,177335,1,0,0:0:0:0:
402,192,177335,1,0,0:0:0:0:
256,192,177410,1,0,0:0:0:0:
475,192,177485,1,0,0:0:0:0:
329,192,177485,1,0,0:0:0:0:
402,192,177560,1,0,0:0:0:0:
475,192,177635,1,0,0:0:0:0:
36,192,177635,1,0,0:0:0:0:
109,192,177710,1,0,0:0:0:0:
182,192,177785,1,0,0:0:0:0:
329,192,177785,1,0,0:0:0:0:
475,192,177785,1,0,0:0:0:0:
256,192,177860,1,0,0:0:0:0:
402,192,177935,1,0,0:0:0:0:
329,192,177935,1,0,0:0:0:0:
109,192,177935,1,0,0:0:0:0:
475,192,178010,1,0,0:0:0:0:
36,192,178085,1,0,0:0:0:0:
256,192,178085,1,0,0:0:0:0:
402,192,178085,1,0,0:0:0:0:
182,192,178160,1,0,0:0:0:0:
36,192,178235,1,0,0:0:0:0:
109,192,178235,1,0,0:0:0:0:
402,192,178310,1,0,0:0:0:0:
475,192,178310,1,0,0:0:0:0:
109,192,178385,1,0,0:0:0:0:
36,192,178385,1,0,0:0:0:0:
402,192,178460,1,0,0:0:0:0:
475,192,178460,1,0,0:0:0:0:
109,192,178535,1,0,0:0:0:0:
36,192,178535,1,0,0:0:0:0:
402,192,178610,1,0,0:0:0:0:
475,192,178610,1,0,0:0:0:0:
109,192,178685,1,0,0:0:0:0:
36,192,178685,1,0,0:0:0:0:
402,192,178760,1,0,0:0:0:0:
475,192,178760,1,0,0:0:0:0:
109,192,178835,1,0,0:0:0:0:
36,192,178835,1,0,0:0:0:0:
182,192,178910,1,0,0:0:0:0:
256,192,178985,1,0,0:0:0:0:
475,192,178985,1,0,0:0:0:0:
329,192,179060,1,0,0:0:0:0:
402,192,179135,1,0,0:0:0:0:
475,192,179135,1,0,0:0:0:0:
36,192,179210,1,0,0:0:0:0:
109,192,179285,1,0,0:0:0:0:
329,192,179285,1,0,0:0:0:0:
182,192,179360,1,0,0:0:0:0:
475,192,179435,1,0,0:0:0:0:
36,192,179435,1,0,0:0:0:0:
109,192,179585,1,0,0:0:0:0:
402,192,179585,1,0,0:0:0:0:
182,192,179735,1,0,0:0:0:0:
256,192,179810,1,0,0:0:0:0:
329,192,179885,1,0,0:0:0:0:
475,192,179885,1,0,0:0:0:0:
402,192,180035,1,0,0:0:0:0:
329,192,180185,1,0,0:0:0:0:
256,192,180185,1,0,0:0:0:0:
182,192,180335,1,0,0:0:0:0:
109,192,180410,1,0,0:0:0:0:
36,192,180485,1,0,0:0:0:0:
182,192,180485,1,0,0:0:0:0:
329,192,180635,1,0,0:0:0:0:
475,192,180785,1,0,0:0:0:0:
256,192,180785,1,0,0:0:0:0:
329,192,180935,1,0,0:0:0:0:
402,192,181010,1,0,0:0:0:0:
36,192,181085,1,0,0:0:0:0:
182,192,181085,1,0,0:0:0:0:
256,192,181235,1,0,0:0:0:0:
109,192,181385,1,0,0:0:0:0:
475,192,181385,1,0,0:0:0:0:
182,192,181535,1,0,0:0:0:0:
256,192,181610,1,0,0:0:0:0:
329,192,181685,1,0,0:0:0:0:
402,192,181685,1,0,0:0:0:0:
36,192,181835,1,0,0:0:0:0:
475,192,181835,1,0,0:0:0:0:
182,192,181835,1,0,0:0:0:0:
256,192,181985,1,0,0:0:0:0:
402,192,181985,1,0,0:0:0:0:
36,192,182135,1,0,0:0:0:0:
182,192,182135,1,0,0:0:0:0:
475,192,182135,1,0,0:0:0:0:
36,192,182435,1,0,0:0:0:0:
182,192,182435,1,0,0:0:0:0:
475,192,182435,1,0,0:0:0:0:
182,192,182585,1,0,0:0:0:0:
36,192,182585,1,0,0:0:0:0:
475,192,182585,1,0,0:0:0:0:
329,192,182885,1,0,0:0:0:0:
475,192,182885,1,0,0:0:0:0:
36,192,182885,1,0,0:0:0:0:
36,192,183185,1,0,0:0:0:0:
109,192,183185,1,0,0:0:0:0:
475,192,183260,1,0,0:0:0:0:
402,192,183260,1,0,0:0:0:0:
109,192,183335,1,0,0:0:0:0:
182,192,183335,1,0,0:0:0:0:
329,192,183410,1,0,0:0:0:0:
402,192,183410,1,0,0:0:0:0:
256,192,183485,1,0,0:0:0:0:
182,192,183560,1,0,0:0:0:0:
109,192,183635,1,0,0:0:0:0:
36,192,183710,1,0,0:0:0:0:
475,192,183785,1,0,0:0:0:0:
402,192,183860,1,0,0:0:0:0:
36,192,183935,1,0,0:0:0:0:
475,192,183935,1,0,0:0:0:0:
109,192,184010,1,0,0:0:0:0:
182,192,184085,1,0,0:0:0:0:
256,192,184160,1,0,0:0:0:0:
36,192,184235,128,0,186635:0:0:0:0:
109,192,184235,1,0,0:0:0:0:
475,192,184235,1,0,0:0:0:0:
182,192,184310,1,0,0:0:0:0:
256,192,184385,1,0,0:0:0:0:
329,192,184460,1,0,0:0:0:0:
475,192,184535,1,0,0:0:0:0:
109,192,184535,1,0,0:0:0:0:
182,192,184610,1,0,0:0:0:0:
256,192,184685,1,0,0:0:0:0:
329,192,184760,1,0,0:0:0:0:
109,192,184835,1,0,0:0:0:0:
475,192,184835,1,0,0:0:0:0:
256,192,184835,128,0,186635:0:0:0:0:
182,192,184910,1,0,0:0:0:0:
329,192,184985,1,0,0:0:0:0:
402,192,185060,1,0,0:0:0:0:
109,192,185135,1,0,0:0:0:0:
475,192,185135,1,0,0:0:0:0:
182,192,185210,1,0,0:0:0:0:
329,192,185285,1,0,0:0:0:0:
402,192,185360,1,0,0:0:0:0:
109,192,185435,128,0,186635:0:0:0:0:
475,192,185435,1,0,0:0:0:0:
182,192,185435,1,0,0:0:0:0:
329,192,185510,1,0,0:0:0:0:
402,192,185585,1,0,0:0:0:0:
475,192,185660,1,0,0:0:0:0:
182,192,185735,1,0,0:0:0:0:
402,192,185735,1,0,0:0:0:0:
329,192,185810,1,0,0:0:0:0:
475,192,185885,1,0,0:0:0:0:
402,192,185960,1,0,0:0:0:0:
475,192,186035,128,0,186635:0:0:0:0:
182,192,186035,1,0,0:0:0:0:
329,192,186035,1,0,0:0:0:0:
402,192,186110,1,0,0:0:0:0:
329,192,186185,1,0,0:0:0:0:
182,192,186260,1,0,0:0:0:0:
402,192,186335,1,0,0:0:0:0:
329,192,186335,1,0,0:0:0:0:
182,192,186410,1,0,0:0:0:0:
329,192,186485,1,0,0:0:0:0:
402,192,186560,1,0,0:0:0:0:
182,192,186635,1,0,0:0:0:0:
329,192,186710,1,0,0:0:0:0:
402,192,186785,1,0,0:0:0:0:
109,192,186785,1,0,0:0:0:0:
475,192,186860,1,0,0:0:0:0:
36,192,186935,1,0,0:0:0:0:
329,192,186935,1,0,0:0:0:0:
109,192,187010,1,0,0:0:0:0:
182,192,187085,1,0,0:0:0:0:
475,192,187085,1,0,0:0:0:0:
256,192,187160,1,0,0:0:0:0:
329,192,187235,1,0,0:0:0:0:
402,192,187235,1,0,0:0:0:0:
475,192,187310,1,0,0:0:0:0:
36,192,187385,1,0,0:0:0:0:
256,192,187385,1,0,0:0:0:0:
109,192,187460,1,0,0:0:0:0:
182,192,187535,1,0,0:0:0:0:
402,192,187535,1,0,0:0:0:0:
256,192,187610,1,0,0:0:0:0:
329,192,187685,1,0,0:0:0:0:
475,192,187685,1,0,0:0:0:0:
402,192,187760,1,0,0:0:0:0:
36,192,187835,1,0,0:0:0:0:
475,192,187910,1,0,0:0:0:0:
109,192,187910,1,0,0:0:0:0:
402,192,187985,1,0,0:0:0:0:
329,192,188060,1,0,0:0:0:0:
475,192,188060,1,0,0:0:0:0:
256,192,188135,1,0,0:0:0:0:
402,192,188210,1,0,0:0:0:0:
109,192,188210,1,0,0:0:0:0:
182,192,188285,1,0,0:0:0:0:
36,192,188360,1,0,0:0:0:0:
329,192,188360,1,0,0:0:0:0:
109,192,188435,1,0,0:0:0:0:
182,192,188510,1,0,0:0:0:0:
402,192,188510,1,0,0:0:0:0:
256,192,188585,1,0,0:0:0:0:
329,192,188660,1,0,0:0:0:0:
475,192,188660,1,0,0:0:0:0:
109,192,188735,1,0,0:0:0:0:
36,192,188735,1,0,0:0:0:0:
402,192,188810,1,0,0:0:0:0:
475,192,188810,1,0,0:0:0:0:
109,192,188885,1,0,0:0:0:0:
36,192,188885,1,0,0:0:0:0:
475,192,188960,1,0,0:0:0:0:
402,192,188960,1,0,0:0:0:0:
36,192,189035,1,0,0:0:0:0:
256,192,189035,1,0,0:0:0:0:
329,192,189035,1,0,0:0:0:0:
256,192,189335,1,0,0:0:0:0:
329,192,189335,1,0,0:0:0:0:
36,192,189335,1,0,0:0:0:0:
109,192,190085,1,0,0:0:0:0:
256,192,190085,1,0,0:0:0:0:
475,192,190085,1,0,0:0:0:0:
109,192,190385,1,0,0:0:0:0:
256,192,190385,1,0,0:0:0:0:
475,192,190385,1,0,0:0:0:0:
36,192,191435,1,0,0:0:0:0:
475,192,191435,128,0,192485:0:0:0:0:
109,192,191510,1,0,0:0:0:0:
402,192,191585,1,0,0:0:0:0:
329,192,191585,1,0,0:0:0:0:
109,192,191660,1,0,0:0:0:0:
36,192,191660,1,0,0:0:0:0:
329,192,191735,1,0,0:0:0:0:
402,192,191735,1,0,0:0:0:0:
109,192,191810,1,0,0:0:0:0:
36,192,191810,1,0,0:0:0:0:
329,192,191885,1,0,0:0:0:0:
402,192,191885,1,0,0:0:0:0:
36,192,191960,1,0,0:0:0:0:
182,192,191960,1,0,0:0:0:0:
402,192,192035,1,0,0:0:0:0:
329,192,192110,1,0,0:0:0:0:
256,192,192185,1,0,0:0:0:0:
36,192,192260,1,0,0:0:0:0:
109,192,192335,1,0,0:0:0:0:
182,192,192410,1,0,0:0:0:0:
256,192,192485,1,0,0:0:0:0:
36,192,192485,128,0,193835:0:0:0:0:
329,192,192560,1,0,0:0:0:0:
402,192,192635,1,0,0:0:0:0:
256,192,192710,1,0,0:0:0:0:
109,192,192785,1,0,0:0:0:0:
182,192,192785,1,0,0:0:0:0:
475,192,192860,1,0,0:0:0:0:
402,192,192860,1,0,0:0:0:0:
182,192,192935,1,0,0:0:0:0:
109,192,192935,1,0,0:0:0:0:
402,192,193010,1,0,0:0:0:0:
475,192,193010,1,0,0:0:0:0:
329,192,193085,1,0,0:0:0:0:
256,192,193160,1,0,0:0:0:0:
109,192,193235,1,0,0:0:0:0:
182,192,193235,1,0,0:0:0:0:
402,192,193310,1,0,0:0:0:0:
475,192,193310,1,0,0:0:0:0:
182,192,193385,1,0,0:0:0:0:
109,192,193385,1,0,0:0:0:0:
402,192,193460,1,0,0:0:0:0:
475,192,193460,1,0,0:0:0:0:
329,192,193535,1,0,0:0:0:0:
256,192,193610,1,0,0:0:0:0:
182,192,193685,1,0,0:0:0:0:
402,192,193685,1,0,0:0:0:0:
109,192,193760,1,0,0:0:0:0:
475,192,193835,1,0,0:0:0:0:
329,192,193835,1,0,0:0:0:0:
256,192,193835,1,0,0:0:0:0:
256,192,194135,1,0,0:0:0:0:
329,192,194135,1,0,0:0:0:0:
475,192,194135,1,0,0:0:0:0:
36,192,194885,1,0,0:0:0:0:
182,192,194885,1,0,0:0:0:0:
256,192,194885,1,0,0:0:0:0:
256,192,195185,1,0,0:0:0:0:
182,192,195185,1,0,0:0:0:0:
36,192,195185,1,0,0:0:0:0:
36,192,196235,1,0,0:0:0:0:
475,192,196235,1,0,0:0:0:0:
256,192,196235,128,0,197285:0:0:0:0:
109,192,196310,1,0,0:0:0:0:
182,192,196385,1,0,0:0:0:0:
329,192,196460,1,0,0:0:0:0:
402,192,196535,1,0,0:0:0:0:
475,192,196535,1,0,0:0:0:0:
36,192,196610,1,0,0:0:0:0:
109,192,196610,1,0,0:0:0:0:
475,192,196685,1,0,0:0:0:0:
329,192,196760,1,0,0:0:0:0:
109,192,196835,1,0,0:0:0:0:
182,192,196835,1,0,0:0:0:0:
329,192,196910,1,0,0:0:0:0:
402,192,196910,1,0,0:0:0:0:
475,192,196985,1,0,0:0:0:0:
402,192,197060,1,0,0:0:0:0:
182,192,197135,1,0,0:0:0:0:
36,192,197135,1,0,0:0:0:0:
329,192,197210,1,0,0:0:0:0:
475,192,197210,1,0,0:0:0:0:
36,192,197285,128,0,198635:0:0:0:0:
475,192,197585,1,0,0:0:0:0:
182,192,197660,1,0,0:0:0:0:
402,192,197735,1,0,0:0:0:0:
109,192,197735,1,0,0:0:0:0:
182,192,197810,1,0,0:0:0:0:
329,192,197810,1,0,0:0:0:0:
109,192,197885,1,0,0:0:0:0:
402,192,197885,1,0,0:0:0:0:
