osu file format v14

[General]
AudioFilename: DragonForce-Ring Of Fire.mp3
AudioLeadIn: 0
PreviewTime: 36823
Countdown: 0
SampleSet: Normal
StackLeniency: 0.7
Mode: 1
LetterboxInBreaks: 0
WidescreenStoryboard: 1

[Editor]
Bookmarks: 10675,19402,28129,36857,45584,54311,63038,71766,80493,89220,97948,106675,115402,124129,135038,148129,156857,165584,174311,183038,191902
DistanceSpacing: 2
BeatDivisor: 4
GridSize: 32
TimelineZoom: 2.799999

[Metadata]
Title:Ring of Fire
TitleUnicode:Ring of Fire
Artist:Dragonforce
ArtistUnicode:Dragonforce
Creator:k3v227
Version:Inner Oni
Source:
Tags:
BeatmapID:1135450
BeatmapSetID:536121

[Difficulty]
HPDrainRate:5
CircleSize:2
OverallDifficulty:6
ApproachRate:5
SliderMultiplier:1.4
SliderTickRate:1

[Events]
//Background and Video events
0,0,"drgaonforce - ring of fire (bg).jpg",0,50
//Break Periods
//Storyboard Layer 0 (Background)
//Storyboard Layer 1 (Fail)
//Storyboard Layer 2 (Pass)
//Storyboard Layer 3 (Foreground)
//Storyboard Sound Samples

[TimingPoints]
1948,272.727272727273,4,1,0,100,1,0
36857,-100,4,1,0,100,0,1
54311,-100,4,1,0,100,0,0
80493,-100,4,1,0,100,0,1
97948,-100,4,1,0,100,0,0
124129,-100,4,1,0,100,0,1
148129,-100,4,1,0,100,0,0
165584,-100,4,1,0,100,0,1
183038,-100,4,1,0,100,0,0

[HitObjects]
256,192,1948,5,12,0:0:0:0:
256,192,2084,1,0,0:0:0:0:
256,192,2152,1,0,0:0:0:0:
256,192,2220,1,0,0:0:0:0:
256,192,2357,1,0,0:0:0:0:
256,192,2493,1,0,0:0:0:0:
256,192,2561,1,0,0:0:0:0:
256,192,2629,1,0,0:0:0:0:
256,192,2766,1,0,0:0:0:0:
256,192,2902,1,0,0:0:0:0:
256,192,2970,1,0,0:0:0:0:
256,192,3038,1,0,0:0:0:0:
256,192,3175,1,0,0:0:0:0:
256,192,3311,1,0,0:0:0:0:
256,192,3379,1,0,0:0:0:0:
256,192,3448,1,0,0:0:0:0:
256,192,3584,1,0,0:0:0:0:
256,192,3652,1,0,0:0:0:0:
256,192,3720,1,0,0:0:0:0:
256,192,3857,1,12,0:0:0:0:
256,192,3993,1,12,0:0:0:0:
256,192,4129,1,12,0:0:0:0:
256,192,4266,1,0,0:0:0:0:
256,192,4334,1,0,0:0:0:0:
256,192,4402,1,0,0:0:0:0:
256,192,4539,1,0,0:0:0:0:
256,192,4675,1,0,0:0:0:0:
256,192,4743,1,0,0:0:0:0:
256,192,4811,1,0,0:0:0:0:
256,192,4948,1,0,0:0:0:0:
256,192,5084,1,0,0:0:0:0:
256,192,5152,1,0,0:0:0:0:
256,192,5220,1,0,0:0:0:0:
256,192,5357,1,0,0:0:0:0:
256,192,5493,1,0,0:0:0:0:
256,192,5561,1,0,0:0:0:0:
256,192,5630,1,0,0:0:0:0:
256,192,5766,1,0,0:0:0:0:
256,192,5834,1,0,0:0:0:0:
256,192,5902,1,0,0:0:0:0:
256,192,6038,1,0,0:0:0:0:
256,192,6107,1,0,0:0:0:0:
256,192,6175,1,0,0:0:0:0:
256,192,6311,1,12,0:0:0:0:
256,192,6447,1,0,0:0:0:0:
256,192,6516,1,0,0:0:0:0:
256,192,6583,1,0,0:0:0:0:
256,192,6720,1,0,0:0:0:0:
256,192,6856,1,0,0:0:0:0:
256,192,6924,1,0,0:0:0:0:
256,192,6992,1,0,0:0:0:0:
256,192,7129,1,0,0:0:0:0:
256,192,7265,1,0,0:0:0:0:
256,192,7333,1,0,0:0:0:0:
256,192,7401,1,0,0:0:0:0:
256,192,7538,1,0,0:0:0:0:
256,192,7674,1,0,0:0:0:0:
256,192,7742,1,0,0:0:0:0:
256,192,7811,1,0,0:0:0:0:
256,192,7947,1,0,0:0:0:0:
256,192,8015,1,0,0:0:0:0:
256,192,8083,1,0,0:0:0:0:
256,192,8220,1,8,0:0:0:0:
256,192,8357,1,8,0:0:0:0:
256,192,8493,1,12,0:0:0:0:
256,192,9038,1,12,0:0:0:0:
256,192,9584,1,4,0:0:0:0:
256,192,9720,1,4,0:0:0:0:
256,192,10129,1,4,0:0:0:0:
256,192,10266,1,4,0:0:0:0:
256,192,10675,1,4,0:0:0:0:
256,192,10811,1,8,0:0:0:0:
256,192,10948,1,0,0:0:0:0:
256,192,11016,1,0,0:0:0:0:
256,192,11084,1,8,0:0:0:0:
256,192,11220,1,0,0:0:0:0:
256,192,11357,1,8,0:0:0:0:
256,192,11425,1,8,0:0:0:0:
256,192,11493,1,0,0:0:0:0:
256,192,11629,1,0,0:0:0:0:
256,192,11766,1,8,0:0:0:0:
256,192,11834,1,8,0:0:0:0:
256,192,11902,1,8,0:0:0:0:
256,192,11970,1,8,0:0:0:0:
256,192,12038,1,0,0:0:0:0:
256,192,12107,1,0,0:0:0:0:
256,192,12175,1,8,0:0:0:0:
256,192,12243,1,8,0:0:0:0:
256,192,12311,1,0,0:0:0:0:
256,192,12448,1,8,0:0:0:0:
256,192,12584,1,0,0:0:0:0:
256,192,12652,1,0,0:0:0:0:
256,192,12720,1,8,0:0:0:0:
256,192,12857,1,4,0:0:0:0:
256,192,13129,1,0,0:0:0:0:
256,192,13198,1,0,0:0:0:0:
256,192,13266,1,8,0:0:0:0:
256,192,13402,1,0,0:0:0:0:
256,192,13538,1,8,0:0:0:0:
256,192,13607,1,8,0:0:0:0:
256,192,13675,1,0,0:0:0:0:
256,192,13811,1,8,0:0:0:0:
256,192,13948,1,0,0:0:0:0:
256,192,14016,1,0,0:0:0:0:
256,192,14084,1,8,0:0:0:0:
256,192,14152,1,8,0:0:0:0:
256,192,14220,1,0,0:0:0:0:
256,192,14357,1,8,0:0:0:0:
256,192,14493,1,8,0:0:0:0:
256,192,14561,1,0,0:0:0:0:
256,192,14629,1,8,0:0:0:0:
256,192,14698,1,8,0:0:0:0:
256,192,14766,1,0,0:0:0:0:
256,192,14834,1,8,0:0:0:0:
256,192,14902,1,8,0:0:0:0:
256,192,15038,1,4,0:0:0:0:
256,192,15311,1,0,0:0:0:0:
256,192,15379,1,0,0:0:0:0:
256,192,15447,1,8,0:0:0:0:
256,192,15583,1,0,0:0:0:0:
256,192,15720,1,8,0:0:0:0:
256,192,15788,1,8,0:0:0:0:
256,192,15856,1,0,0:0:0:0:
256,192,15992,1,0,0:0:0:0:
256,192,16129,1,8,0:0:0:0:
256,192,16197,1,0,0:0:0:0:
256,192,16265,1,8,0:0:0:0:
256,192,16333,1,8,0:0:0:0:
256,192,16401,1,0,0:0:0:0:
256,192,16470,1,0,0:0:0:0:
256,192,16538,1,8,0:0:0:0:
256,192,16674,1,0,0:0:0:0:
256,192,16811,1,8,0:0:0:0:
256,192,16948,1,0,0:0:0:0:
256,192,17016,1,0,0:0:0:0:
256,192,17083,1,8,0:0:0:0:
256,192,17220,1,8,0:0:0:0:
256,192,17288,1,8,0:0:0:0:
256,192,17357,1,0,0:0:0:0:
256,192,17425,1,0,0:0:0:0:
256,192,17493,1,8,0:0:0:0:
256,192,17561,1,8,0:0:0:0:
256,192,17629,1,8,0:0:0:0:
256,192,17698,1,8,0:0:0:0:
256,192,17766,1,0,0:0:0:0:
256,192,17834,1,0,0:0:0:0:
256,192,17902,1,8,0:0:0:0:
256,192,17970,1,8,0:0:0:0:
256,192,18038,1,0,0:0:0:0:
256,192,18107,1,0,0:0:0:0:
256,192,18175,1,8,0:0:0:0:
256,192,18243,1,8,0:0:0:0:
256,192,18311,1,8,0:0:0:0:
256,192,18379,1,8,0:0:0:0:
256,192,18448,1,0,0:0:0:0:
256,192,18516,1,0,0:0:0:0:
256,192,18584,1,8,0:0:0:0:
256,192,18652,1,8,0:0:0:0:
256,192,18720,1,0,0:0:0:0:
256,192,18788,1,0,0:0:0:0:
256,192,18857,1,8,0:0:0:0:
256,192,18925,1,8,0:0:0:0:
256,192,18993,1,8,0:0:0:0:
256,192,19061,1,8,0:0:0:0:
256,192,19129,1,8,0:0:0:0:
256,192,19198,1,8,0:0:0:0:
256,192,19266,1,0,0:0:0:0:
256,192,19402,1,4,0:0:0:0:
256,192,19538,1,8,0:0:0:0:
256,192,19607,1,0,0:0:0:0:
256,192,19675,1,0,0:0:0:0:
256,192,19743,1,0,0:0:0:0:
256,192,19811,1,8,0:0:0:0:
256,192,19879,1,8,0:0:0:0:
256,192,19948,1,0,0:0:0:0:
256,192,20016,1,0,0:0:0:0:
256,192,20084,1,8,0:0:0:0:
256,192,20152,1,0,0:0:0:0:
256,192,20220,1,0,0:0:0:0:
256,192,20288,1,0,0:0:0:0:
256,192,20357,1,8,0:0:0:0:
256,192,20425,1,8,0:0:0:0:
256,192,20493,1,0,0:0:0:0:
256,192,20629,1,8,0:0:0:0:
256,192,20766,1,0,0:0:0:0:
256,192,20902,1,8,0:0:0:0:
256,192,21038,1,8,0:0:0:0:
256,192,21175,1,0,0:0:0:0:
256,192,21311,1,8,0:0:0:0:
256,192,21448,1,8,0:0:0:0:
256,192,21584,1,0,0:0:0:0:
256,192,21652,1,0,0:0:0:0:
256,192,21720,1,8,0:0:0:0:
256,192,21789,1,0,0:0:0:0:
256,192,21857,1,0,0:0:0:0:
256,192,21925,1,0,0:0:0:0:
256,192,21993,1,8,0:0:0:0:
256,192,22061,1,8,0:0:0:0:
256,192,22130,1,0,0:0:0:0:
256,192,22198,1,0,0:0:0:0:
256,192,22266,1,8,0:0:0:0:
256,192,22334,1,0,0:0:0:0:
256,192,22402,1,0,0:0:0:0:
256,192,22470,1,0,0:0:0:0:
256,192,22539,1,8,0:0:0:0:
256,192,22607,1,8,0:0:0:0:
256,192,22675,1,0,0:0:0:0:
256,192,22811,1,8,0:0:0:0:
256,192,22948,1,0,0:0:0:0:
256,192,23084,1,8,0:0:0:0:
256,192,23220,1,8,0:0:0:0:
256,192,23357,1,0,0:0:0:0:
256,192,23493,1,8,0:0:0:0:
256,192,23630,1,8,0:0:0:0:
256,192,23766,1,0,0:0:0:0:
256,192,23834,1,0,0:0:0:0:
256,192,23902,1,8,0:0:0:0:
256,192,23971,1,0,0:0:0:0:
256,192,24039,1,0,0:0:0:0:
256,192,24107,1,0,0:0:0:0:
256,192,24175,1,8,0:0:0:0:
256,192,24243,1,8,0:0:0:0:
256,192,24312,1,0,0:0:0:0:
256,192,24380,1,0,0:0:0:0:
256,192,24448,1,8,0:0:0:0:
256,192,24516,1,0,0:0:0:0:
256,192,24584,1,0,0:0:0:0:
256,192,24652,1,0,0:0:0:0:
256,192,24721,1,8,0:0:0:0:
256,192,24789,1,8,0:0:0:0:
256,192,24857,1,0,0:0:0:0:
256,192,24993,1,8,0:0:0:0:
256,192,25130,1,0,0:0:0:0:
256,192,25266,1,8,0:0:0:0:
256,192,25402,1,8,0:0:0:0:
256,192,25539,1,0,0:0:0:0:
256,192,25675,1,8,0:0:0:0:
256,192,25812,1,8,0:0:0:0:
256,192,25948,1,0,0:0:0:0:
256,192,26016,1,0,0:0:0:0:
256,192,26084,1,8,0:0:0:0:
256,192,26153,1,0,0:0:0:0:
256,192,26221,1,0,0:0:0:0:
256,192,26289,1,0,0:0:0:0:
256,192,26357,1,8,0:0:0:0:
256,192,26425,1,8,0:0:0:0:
256,192,26494,1,0,0:0:0:0:
256,192,26562,1,0,0:0:0:0:
256,192,26630,1,8,0:0:0:0:
256,192,26698,1,0,0:0:0:0:
256,192,26766,1,0,0:0:0:0:
256,192,26834,1,0,0:0:0:0:
256,192,26903,1,8,0:0:0:0:
256,192,26971,1,8,0:0:0:0:
256,192,27039,1,0,0:0:0:0:
256,192,27175,1,8,0:0:0:0:
256,192,27311,1,8,0:0:0:0:
256,192,27379,1,8,0:0:0:0:
256,192,27448,1,8,0:0:0:0:
256,192,27516,1,8,0:0:0:0:
256,192,27584,1,0,0:0:0:0:
256,192,27652,1,0,0:0:0:0:
256,192,27720,1,8,0:0:0:0:
256,192,27788,1,0,0:0:0:0:
256,192,27857,1,8,0:0:0:0:
256,192,27925,1,8,0:0:0:0:
256,192,27993,1,8,0:0:0:0:
256,192,28129,1,4,0:0:0:0:
256,192,28265,1,8,0:0:0:0:
256,192,28334,1,0,0:0:0:0:
256,192,28402,1,0,0:0:0:0:
256,192,28470,1,0,0:0:0:0:
256,192,28538,1,8,0:0:0:0:
256,192,28606,1,8,0:0:0:0:
256,192,28675,1,0,0:0:0:0:
256,192,28743,1,0,0:0:0:0:
256,192,28811,1,8,0:0:0:0:
256,192,28879,1,0,0:0:0:0:
256,192,28947,1,0,0:0:0:0:
256,192,29015,1,0,0:0:0:0:
256,192,29084,1,8,0:0:0:0:
256,192,29152,1,8,0:0:0:0:
256,192,29220,1,0,0:0:0:0:
256,192,29356,1,8,0:0:0:0:
256,192,29493,1,8,0:0:0:0:
256,192,29629,1,0,0:0:0:0:
256,192,29765,1,8,0:0:0:0:
256,192,29902,1,0,0:0:0:0:
256,192,30038,1,8,0:0:0:0:
256,192,30175,1,8,0:0:0:0:
256,192,30311,1,0,0:0:0:0:
256,192,30379,1,0,0:0:0:0:
256,192,30447,1,8,0:0:0:0:
256,192,30516,1,0,0:0:0:0:
256,192,30584,1,0,0:0:0:0:
256,192,30652,1,0,0:0:0:0:
256,192,30720,1,8,0:0:0:0:
256,192,30788,1,8,0:0:0:0:
256,192,30857,1,0,0:0:0:0:
256,192,30925,1,0,0:0:0:0:
256,192,30993,1,8,0:0:0:0:
256,192,31061,1,0,0:0:0:0:
256,192,31129,1,0,0:0:0:0:
256,192,31197,1,0,0:0:0:0:
256,192,31266,1,8,0:0:0:0:
256,192,31334,1,8,0:0:0:0:
256,192,31402,1,0,0:0:0:0:
256,192,31538,1,8,0:0:0:0:
256,192,31675,1,8,0:0:0:0:
256,192,31811,1,0,0:0:0:0:
256,192,31947,1,8,0:0:0:0:
256,192,32084,1,0,0:0:0:0:
256,192,32220,1,8,0:0:0:0:
256,192,32357,1,8,0:0:0:0:
256,192,32493,1,0,0:0:0:0:
256,192,32561,1,0,0:0:0:0:
256,192,32629,1,8,0:0:0:0:
256,192,32698,1,0,0:0:0:0:
256,192,32766,1,0,0:0:0:0:
256,192,32834,1,0,0:0:0:0:
256,192,32902,1,8,0:0:0:0:
256,192,32970,1,8,0:0:0:0:
256,192,33039,1,0,0:0:0:0:
256,192,33107,1,0,0:0:0:0:
256,192,33175,1,8,0:0:0:0:
256,192,33243,1,0,0:0:0:0:
256,192,33311,1,0,0:0:0:0:
256,192,33379,1,0,0:0:0:0:
256,192,33448,1,8,0:0:0:0:
256,192,33516,1,8,0:0:0:0:
256,192,33584,1,0,0:0:0:0:
256,192,33720,1,8,0:0:0:0:
256,192,33857,1,0,0:0:0:0:
256,192,33993,1,8,0:0:0:0:
256,192,34129,1,8,0:0:0:0:
256,192,34266,1,0,0:0:0:0:
256,192,34402,1,8,0:0:0:0:
256,192,34539,1,8,0:0:0:0:
256,192,34675,1,0,0:0:0:0:
256,192,34811,1,0,0:0:0:0:
256,192,34879,1,0,0:0:0:0:
256,192,34948,1,8,0:0:0:0:
256,192,35016,1,8,0:0:0:0:
256,192,35084,1,0,0:0:0:0:
256,192,35220,1,0,0:0:0:0:
256,192,35357,1,8,0:0:0:0:
256,192,35425,1,0,0:0:0:0:
256,192,35493,1,8,0:0:0:0:
256,192,35561,1,8,0:0:0:0:
256,192,35629,1,8,0:0:0:0:
256,192,35698,1,8,0:0:0:0:
256,192,35766,1,0,0:0:0:0:
256,192,35834,1,0,0:0:0:0:
256,192,35902,1,0,0:0:0:0:
256,192,35970,1,0,0:0:0:0:
256,192,36038,1,8,0:0:0:0:
256,192,36107,1,8,0:0:0:0:
256,192,36175,1,8,0:0:0:0:
256,192,36243,1,8,0:0:0:0:
256,192,36311,1,0,0:0:0:0:
256,192,36379,1,0,0:0:0:0:
256,192,36448,1,8,0:0:0:0:
256,192,36516,1,0,0:0:0:0:
256,192,36584,1,8,0:0:0:0:
256,192,36652,1,8,0:0:0:0:
256,192,36720,1,0,0:0:0:0:
256,192,36857,1,4,0:0:0:0:
256,192,36993,1,8,0:0:0:0:
256,192,37129,1,0,0:0:0:0:
256,192,37198,1,0,0:0:0:0:
256,192,37266,1,8,0:0:0:0:
256,192,37402,1,0,0:0:0:0:
256,192,37538,1,8,0:0:0:0:
256,192,37675,1,0,0:0:0:0:
256,192,37743,1,0,0:0:0:0:
256,192,37811,1,8,0:0:0:0:
256,192,37948,1,0,0:0:0:0:
256,192,38085,1,8,0:0:0:0:
256,192,38153,1,0,0:0:0:0:
256,192,38221,1,8,0:0:0:0:
256,192,38289,1,8,0:0:0:0:
256,192,38357,1,0,0:0:0:0:
256,192,38425,1,0,0:0:0:0:
256,192,38494,1,8,0:0:0:0:
256,192,38630,1,0,0:0:0:0:
256,192,38766,1,8,0:0:0:0:
256,192,38835,1,8,0:0:0:0:
256,192,38903,1,0,0:0:0:0:
256,192,39039,1,12,0:0:0:0:
256,192,39175,1,0,0:0:0:0:
256,192,39243,1,0,0:0:0:0:
256,192,39311,1,0,0:0:0:0:
256,192,39379,1,0,0:0:0:0:
256,192,39448,1,8,0:0:0:0:
256,192,39584,1,0,0:0:0:0:
256,192,39652,1,0,0:0:0:0:
256,192,39720,1,8,0:0:0:0:
256,192,39857,1,8,0:0:0:0:
256,192,39925,1,8,0:0:0:0:
256,192,39993,1,8,0:0:0:0:
256,192,40061,1,8,0:0:0:0:
256,192,40129,1,0,0:0:0:0:
256,192,40266,1,8,0:0:0:0:
256,192,40402,1,0,0:0:0:0:
256,192,40470,1,0,0:0:0:0:
256,192,40538,1,8,0:0:0:0:
256,192,40675,1,0,0:0:0:0:
256,192,40743,1,0,0:0:0:0:
256,192,40811,1,8,0:0:0:0:
256,192,40879,1,8,0:0:0:0:
256,192,40948,1,0,0:0:0:0:
256,192,41084,1,8,0:0:0:0:
256,192,41220,1,4,0:0:0:0:
256,192,41357,1,8,0:0:0:0:
256,192,41493,1,0,0:0:0:0:
256,192,41561,1,0,0:0:0:0:
256,192,41629,1,8,0:0:0:0:
256,192,41766,1,0,0:0:0:0:
256,192,41902,1,8,0:0:0:0:
256,192,41970,1,8,0:0:0:0:
256,192,42038,1,0,0:0:0:0:
256,192,42107,1,0,0:0:0:0:
256,192,42175,1,8,0:0:0:0:
256,192,42311,1,0,0:0:0:0:
256,192,42448,1,8,0:0:0:0:
256,192,42516,1,0,0:0:0:0:
256,192,42584,1,0,0:0:0:0:
256,192,42652,1,0,0:0:0:0:
256,192,42720,1,8,0:0:0:0:
256,192,42788,1,8,0:0:0:0:
256,192,42857,1,0,0:0:0:0:
256,192,42993,1,8,0:0:0:0:
256,192,43129,1,8,0:0:0:0:
256,192,43198,1,8,0:0:0:0:
256,192,43266,1,8,0:0:0:0:
256,192,43402,1,4,0:0:0:0:
256,192,43538,1,8,0:0:0:0:
256,192,43675,1,0,0:0:0:0:
256,192,43743,1,0,0:0:0:0:
256,192,43811,1,8,0:0:0:0:
256,192,43879,1,8,0:0:0:0:
256,192,43948,1,0,0:0:0:0:
256,192,44084,1,8,0:0:0:0:
256,192,44220,1,0,0:0:0:0:
256,192,44288,1,0,0:0:0:0:
256,192,44357,1,8,0:0:0:0:
256,192,44493,1,0,0:0:0:0:
256,192,44629,1,8,0:0:0:0:
256,192,44698,1,8,0:0:0:0:
256,192,44766,1,0,0:0:0:0:
256,192,44834,1,0,0:0:0:0:
256,192,44902,1,8,0:0:0:0:
256,192,44970,1,0,0:0:0:0:
256,192,45038,1,8,0:0:0:0:
256,192,45107,1,8,0:0:0:0:
256,192,45175,1,0,0:0:0:0:
256,192,45243,1,0,0:0:0:0:
256,192,45311,1,8,0:0:0:0:
256,192,45379,1,8,0:0:0:0:
256,192,45448,1,0,0:0:0:0:
256,192,45584,1,4,0:0:0:0:
256,192,45720,1,8,0:0:0:0:
256,192,45857,1,0,0:0:0:0:
256,192,45925,1,0,0:0:0:0:
256,192,45993,1,8,0:0:0:0:
256,192,46129,1,0,0:0:0:0:
256,192,46266,1,8,0:0:0:0:
256,192,46334,1,8,0:0:0:0:
256,192,46402,1,0,0:0:0:0:
256,192,46470,1,0,0:0:0:0:
256,192,46538,1,8,0:0:0:0:
256,192,46675,1,0,0:0:0:0:
256,192,46811,1,8,0:0:0:0:
256,192,46948,1,0,0:0:0:0:
256,192,47016,1,0,0:0:0:0:
256,192,47084,1,8,0:0:0:0:
256,192,47152,1,0,0:0:0:0:
256,192,47288,1,0,0:0:0:0:
256,192,47357,1,8,0:0:0:0:
256,192,47493,1,0,0:0:0:0:
256,192,47561,1,0,0:0:0:0:
256,192,47629,1,8,0:0:0:0:
256,192,47766,1,0,0:0:0:0:
256,192,47902,1,8,0:0:0:0:
256,192,47970,1,8,0:0:0:0:
256,192,48038,1,0,0:0:0:0:
256,192,48107,1,0,0:0:0:0:
256,192,48175,1,8,0:0:0:0:
256,192,48311,1,0,0:0:0:0:
256,192,48448,1,8,0:0:0:0:
256,192,48584,1,0,0:0:0:0:
256,192,48652,1,0,0:0:0:0:
256,192,48720,1,8,0:0:0:0:
256,192,48857,1,8,0:0:0:0:
256,192,48925,1,8,0:0:0:0:
256,192,48993,1,0,0:0:0:0:
256,192,49061,1,0,0:0:0:0:
256,192,49129,1,8,0:0:0:0:
256,192,49198,1,8,0:0:0:0:
256,192,49266,1,8,0:0:0:0:
256,192,49334,1,8,0:0:0:0:
256,192,49402,1,0,0:0:0:0:
256,192,49470,1,0,0:0:0:0:
256,192,49538,1,8,0:0:0:0:
256,192,49607,1,0,0:0:0:0:
256,192,49675,1,8,0:0:0:0:
256,192,49743,1,8,0:0:0:0:
256,192,49811,1,0,0:0:0:0:
256,192,49948,1,4,0:0:0:0:
256,192,50084,1,8,0:0:0:0:
256,192,50220,1,0,0:0:0:0:
256,192,50288,1,0,0:0:0:0:
256,192,50357,1,8,0:0:0:0:
256,192,50493,1,0,0:0:0:0:
256,192,50561,1,0,0:0:0:0:
256,192,50629,1,8,0:0:0:0:
256,192,50698,1,8,0:0:0:0:
256,192,50766,1,0,0:0:0:0:
256,192,50834,1,0,0:0:0:0:
256,192,50902,1,8,0:0:0:0:
256,192,51038,1,0,0:0:0:0:
256,192,51175,1,8,0:0:0:0:
256,192,51243,1,8,0:0:0:0:
256,192,51311,1,0,0:0:0:0:
256,192,51379,1,0,0:0:0:0:
256,192,51448,1,8,0:0:0:0:
256,192,51584,1,0,0:0:0:0:
256,192,51720,1,8,0:0:0:0:
256,192,51857,1,0,0:0:0:0:
256,192,51925,1,0,0:0:0:0:
256,192,51993,1,8,0:0:0:0:
256,192,52129,1,8,0:0:0:0:
256,192,52198,1,0,0:0:0:0:
256,192,52266,1,0,0:0:0:0:
256,192,52334,1,0,0:0:0:0:
256,192,52402,1,8,0:0:0:0:
256,192,52470,1,0,0:0:0:0:
256,192,52538,1,8,0:0:0:0:
256,192,52607,1,0,0:0:0:0:
256,192,52675,1,0,0:0:0:0:
256,192,52743,1,0,0:0:0:0:
256,192,52811,1,8,0:0:0:0:
256,192,52879,1,0,0:0:0:0:
256,192,52948,1,8,0:0:0:0:
256,192,53016,1,8,0:0:0:0:
256,192,53084,1,0,0:0:0:0:
256,192,53152,1,0,0:0:0:0:
256,192,53220,1,8,0:0:0:0:
256,192,53288,1,8,0:0:0:0:
256,192,53357,1,8,0:0:0:0:
256,192,53425,1,8,0:0:0:0:
256,192,53493,1,0,0:0:0:0:
256,192,53561,1,0,0:0:0:0:
256,192,53629,1,8,0:0:0:0:
256,192,53698,1,8,0:0:0:0:
256,192,53766,1,0,0:0:0:0:
256,192,53834,1,0,0:0:0:0:
256,192,53902,1,8,0:0:0:0:
256,192,53970,1,0,0:0:0:0:
256,192,54038,1,8,0:0:0:0:
256,192,54107,1,8,0:0:0:0:
256,192,54175,1,0,0:0:0:0:
256,192,54311,1,4,0:0:0:0:
256,192,54584,1,0,0:0:0:0:
256,192,54652,1,0,0:0:0:0:
256,192,54720,1,8,0:0:0:0:
256,192,54856,1,0,0:0:0:0:
256,192,54993,1,8,0:0:0:0:
256,192,55061,1,8,0:0:0:0:
256,192,55129,1,0,0:0:0:0:
256,192,55265,1,0,0:0:0:0:
256,192,55402,1,8,0:0:0:0:
256,192,55470,1,8,0:0:0:0:
256,192,55538,1,8,0:0:0:0:
256,192,55606,1,8,0:0:0:0:
256,192,55674,1,0,0:0:0:0:
256,192,55743,1,0,0:0:0:0:
256,192,55811,1,8,0:0:0:0:
256,192,55879,1,8,0:0:0:0:
256,192,55947,1,0,0:0:0:0:
256,192,56084,1,8,0:0:0:0:
256,192,56220,1,0,0:0:0:0:
256,192,56288,1,0,0:0:0:0:
256,192,56356,1,8,0:0:0:0:
256,192,56493,1,4,0:0:0:0:
256,192,56765,1,0,0:0:0:0:
256,192,56834,1,0,0:0:0:0:
256,192,56902,1,8,0:0:0:0:
256,192,57038,1,0,0:0:0:0:
256,192,57174,1,8,0:0:0:0:
256,192,57243,1,8,0:0:0:0:
256,192,57311,1,0,0:0:0:0:
256,192,57379,1,0,0:0:0:0:
256,192,57448,1,8,0:0:0:0:
256,192,57584,1,0,0:0:0:0:
256,192,57720,1,8,0:0:0:0:
256,192,57857,1,8,0:0:0:0:
256,192,57925,1,8,0:0:0:0:
256,192,57993,1,8,0:0:0:0:
256,192,58061,1,8,0:0:0:0:
256,192,58129,1,0,0:0:0:0:
256,192,58198,1,0,0:0:0:0:
256,192,58266,1,0,0:0:0:0:
256,192,58334,1,0,0:0:0:0:
256,192,58402,1,8,0:0:0:0:
256,192,58470,1,8,0:0:0:0:
256,192,58538,1,8,0:0:0:0:
256,192,58675,1,4,0:0:0:0:
256,192,58948,1,0,0:0:0:0:
256,192,59016,1,0,0:0:0:0:
256,192,59084,1,8,0:0:0:0:
256,192,59220,1,0,0:0:0:0:
256,192,59357,1,8,0:0:0:0:
256,192,59425,1,8,0:0:0:0:
256,192,59493,1,0,0:0:0:0:
256,192,59629,1,0,0:0:0:0:
256,192,59766,1,8,0:0:0:0:
256,192,59834,1,8,0:0:0:0:
256,192,59902,1,8,0:0:0:0:
256,192,60038,1,0,0:0:0:0:
256,192,60107,1,0,0:0:0:0:
256,192,60175,1,0,0:0:0:0:
256,192,60311,1,8,0:0:0:0:
256,192,60448,1,8,0:0:0:0:
256,192,60516,1,8,0:0:0:0:
256,192,60585,1,0,0:0:0:0:
256,192,60653,1,0,0:0:0:0:
256,192,60720,1,8,0:0:0:0:
256,192,60857,1,0,0:0:0:0:
256,192,60925,1,0,0:0:0:0:
256,192,60993,1,8,0:0:0:0:
256,192,61061,1,8,0:0:0:0:
256,192,61129,1,8,0:0:0:0:
256,192,61198,1,8,0:0:0:0:
256,192,61266,1,0,0:0:0:0:
256,192,61334,1,0,0:0:0:0:
256,192,61402,1,8,0:0:0:0:
256,192,61470,1,8,0:0:0:0:
256,192,61538,1,8,0:0:0:0:
256,192,61607,1,8,0:0:0:0:
256,192,61675,1,0,0:0:0:0:
256,192,61743,1,0,0:0:0:0:
256,192,61811,1,8,0:0:0:0:
256,192,61879,1,0,0:0:0:0:
256,192,61948,1,8,0:0:0:0:
256,192,62016,1,8,0:0:0:0:
256,192,62084,1,8,0:0:0:0:
256,192,62152,1,8,0:0:0:0:
256,192,62220,1,0,0:0:0:0:
256,192,62288,1,0,0:0:0:0:
256,192,62357,1,8,0:0:0:0:
256,192,62425,1,8,0:0:0:0:
256,192,62493,1,0,0:0:0:0:
256,192,62561,1,0,0:0:0:0:
256,192,62629,1,8,0:0:0:0:
256,192,62698,1,0,0:0:0:0:
256,192,62766,1,8,0:0:0:0:
256,192,62834,1,8,0:0:0:0:
256,192,62902,1,0,0:0:0:0:
256,192,63038,1,4,0:0:0:0:
256,192,63175,1,8,0:0:0:0:
256,192,63244,1,0,0:0:0:0:
256,192,63312,1,0,0:0:0:0:
256,192,63380,1,0,0:0:0:0:
256,192,63448,1,8,0:0:0:0:
256,192,63516,1,8,0:0:0:0:
256,192,63585,1,0,0:0:0:0:
256,192,63653,1,0,0:0:0:0:
256,192,63721,1,8,0:0:0:0:
256,192,63789,1,0,0:0:0:0:
256,192,63857,1,0,0:0:0:0:
256,192,63925,1,0,0:0:0:0:
256,192,63994,1,8,0:0:0:0:
256,192,64062,1,8,0:0:0:0:
256,192,64130,1,0,0:0:0:0:
256,192,64266,1,8,0:0:0:0:
256,192,64403,1,0,0:0:0:0:
256,192,64539,1,8,0:0:0:0:
256,192,64675,1,8,0:0:0:0:
256,192,64812,1,0,0:0:0:0:
256,192,64948,1,8,0:0:0:0:
256,192,65085,1,8,0:0:0:0:
256,192,65221,1,0,0:0:0:0:
256,192,65289,1,0,0:0:0:0:
256,192,65357,1,8,0:0:0:0:
256,192,65426,1,0,0:0:0:0:
256,192,65494,1,0,0:0:0:0:
256,192,65562,1,0,0:0:0:0:
256,192,65630,1,8,0:0:0:0:
256,192,65698,1,8,0:0:0:0:
256,192,65767,1,0,0:0:0:0:
256,192,65835,1,0,0:0:0:0:
256,192,65903,1,8,0:0:0:0:
256,192,65971,1,0,0:0:0:0:
256,192,66039,1,0,0:0:0:0:
256,192,66107,1,0,0:0:0:0:
256,192,66176,1,8,0:0:0:0:
256,192,66244,1,8,0:0:0:0:
256,192,66312,1,0,0:0:0:0:
256,192,66448,1,8,0:0:0:0:
256,192,66585,1,0,0:0:0:0:
256,192,66721,1,8,0:0:0:0:
256,192,66857,1,8,0:0:0:0:
256,192,66994,1,0,0:0:0:0:
256,192,67130,1,8,0:0:0:0:
256,192,67267,1,8,0:0:0:0:
256,192,67403,1,0,0:0:0:0:
256,192,67471,1,0,0:0:0:0:
256,192,67539,1,8,0:0:0:0:
256,192,67608,1,0,0:0:0:0:
256,192,67676,1,0,0:0:0:0:
256,192,67744,1,0,0:0:0:0:
256,192,67812,1,8,0:0:0:0:
256,192,67880,1,8,0:0:0:0:
256,192,67949,1,0,0:0:0:0:
256,192,68017,1,0,0:0:0:0:
256,192,68085,1,8,0:0:0:0:
256,192,68153,1,0,0:0:0:0:
256,192,68221,1,0,0:0:0:0:
256,192,68289,1,0,0:0:0:0:
256,192,68358,1,8,0:0:0:0:
256,192,68426,1,8,0:0:0:0:
256,192,68494,1,0,0:0:0:0:
256,192,68630,1,8,0:0:0:0:
256,192,68767,1,0,0:0:0:0:
256,192,68903,1,8,0:0:0:0:
256,192,69039,1,8,0:0:0:0:
256,192,69176,1,0,0:0:0:0:
256,192,69312,1,8,0:0:0:0:
256,192,69449,1,8,0:0:0:0:
256,192,69585,1,0,0:0:0:0:
256,192,69653,1,0,0:0:0:0:
256,192,69721,1,8,0:0:0:0:
256,192,69790,1,0,0:0:0:0:
256,192,69858,1,0,0:0:0:0:
256,192,69926,1,0,0:0:0:0:
256,192,69994,1,8,0:0:0:0:
256,192,70062,1,8,0:0:0:0:
256,192,70131,1,0,0:0:0:0:
256,192,70199,1,0,0:0:0:0:
256,192,70267,1,8,0:0:0:0:
256,192,70335,1,0,0:0:0:0:
256,192,70403,1,0,0:0:0:0:
256,192,70471,1,0,0:0:0:0:
256,192,70540,1,8,0:0:0:0:
256,192,70608,1,8,0:0:0:0:
256,192,70676,1,0,0:0:0:0:
256,192,70811,1,8,0:0:0:0:
256,192,70948,1,8,0:0:0:0:
256,192,71016,1,8,0:0:0:0:
256,192,71084,1,8,0:0:0:0:
256,192,71152,1,8,0:0:0:0:
256,192,71220,1,0,0:0:0:0:
256,192,71288,1,0,0:0:0:0:
256,192,71357,1,8,0:0:0:0:
256,192,71425,1,0,0:0:0:0:
256,192,71493,1,8,0:0:0:0:
256,192,71561,1,8,0:0:0:0:
256,192,71629,1,8,0:0:0:0:
256,192,71766,1,4,0:0:0:0:
256,192,71902,1,8,0:0:0:0:
256,192,71971,1,0,0:0:0:0:
256,192,72039,1,0,0:0:0:0:
256,192,72107,1,0,0:0:0:0:
256,192,72175,1,8,0:0:0:0:
256,192,72243,1,8,0:0:0:0:
256,192,72312,1,0,0:0:0:0:
256,192,72380,1,0,0:0:0:0:
256,192,72448,1,8,0:0:0:0:
256,192,72516,1,0,0:0:0:0:
256,192,72584,1,0,0:0:0:0:
256,192,72652,1,0,0:0:0:0:
256,192,72721,1,8,0:0:0:0:
256,192,72789,1,8,0:0:0:0:
256,192,72857,1,0,0:0:0:0:
256,192,72993,1,8,0:0:0:0:
256,192,73130,1,8,0:0:0:0:
256,192,73266,1,0,0:0:0:0:
256,192,73402,1,8,0:0:0:0:
256,192,73539,1,0,0:0:0:0:
256,192,73675,1,8,0:0:0:0:
256,192,73812,1,8,0:0:0:0:
256,192,73948,1,0,0:0:0:0:
256,192,74016,1,0,0:0:0:0:
256,192,74084,1,8,0:0:0:0:
256,192,74153,1,0,0:0:0:0:
256,192,74221,1,0,0:0:0:0:
256,192,74289,1,0,0:0:0:0:
256,192,74357,1,8,0:0:0:0:
256,192,74425,1,8,0:0:0:0:
256,192,74494,1,0,0:0:0:0:
256,192,74562,1,0,0:0:0:0:
256,192,74630,1,8,0:0:0:0:
256,192,74698,1,0,0:0:0:0:
256,192,74766,1,0,0:0:0:0:
256,192,74834,1,0,0:0:0:0:
256,192,74903,1,8,0:0:0:0:
256,192,74971,1,8,0:0:0:0:
256,192,75039,1,0,0:0:0:0:
256,192,75175,1,8,0:0:0:0:
256,192,75311,1,8,0:0:0:0:
256,192,75448,1,0,0:0:0:0:
256,192,75584,1,0,0:0:0:0:
256,192,75652,1,8,0:0:0:0:
256,192,75720,1,0,0:0:0:0:
256,192,75788,1,0,0:0:0:0:
256,192,75857,1,8,0:0:0:0:
256,192,75925,1,0,0:0:0:0:
256,192,75993,1,8,0:0:0:0:
256,192,76061,1,8,0:0:0:0:
256,192,76130,1,0,0:0:0:0:
256,192,76198,1,0,0:0:0:0:
256,192,76266,1,8,0:0:0:0:
256,192,76335,1,0,0:0:0:0:
256,192,76403,1,0,0:0:0:0:
256,192,76471,1,0,0:0:0:0:
256,192,76539,1,8,0:0:0:0:
256,192,76607,1,8,0:0:0:0:
256,192,76676,1,0,0:0:0:0:
256,192,76744,1,0,0:0:0:0:
256,192,76812,1,8,0:0:0:0:
256,192,76880,1,0,0:0:0:0:
256,192,76948,1,0,0:0:0:0:
256,192,77016,1,0,0:0:0:0:
256,192,77085,1,8,0:0:0:0:
256,192,77153,1,8,0:0:0:0:
256,192,77221,1,0,0:0:0:0:
256,192,77357,1,8,0:0:0:0:
256,192,77494,1,0,0:0:0:0:
256,192,77630,1,8,0:0:0:0:
256,192,77766,1,8,0:0:0:0:
256,192,77903,1,0,0:0:0:0:
256,192,78039,1,8,0:0:0:0:
256,192,78176,1,8,0:0:0:0:
256,192,78311,1,0,0:0:0:0:
256,192,78448,1,0,0:0:0:0:
256,192,78516,1,0,0:0:0:0:
256,192,78584,1,8,0:0:0:0:
256,192,78652,1,8,0:0:0:0:
256,192,78720,1,0,0:0:0:0:
256,192,78857,1,0,0:0:0:0:
256,192,78993,1,8,0:0:0:0:
256,192,79061,1,0,0:0:0:0:
256,192,79129,1,8,0:0:0:0:
256,192,79198,1,8,0:0:0:0:
256,192,79266,1,8,0:0:0:0:
256,192,79334,1,8,0:0:0:0:
256,192,79402,1,0,0:0:0:0:
256,192,79470,1,0,0:0:0:0:
256,192,79538,1,8,0:0:0:0:
256,192,79607,1,0,0:0:0:0:
256,192,79675,1,8,0:0:0:0:
256,192,79743,1,8,0:0:0:0:
256,192,79811,1,0,0:0:0:0:
256,192,79879,1,0,0:0:0:0:
256,192,79948,1,8,0:0:0:0:
256,192,80016,1,0,0:0:0:0:
256,192,80084,1,0,0:0:0:0:
256,192,80152,1,0,0:0:0:0:
256,192,80220,1,8,0:0:0:0:
256,192,80288,1,8,0:0:0:0:
256,192,80357,1,0,0:0:0:0:
256,192,80493,1,4,0:0:0:0:
256,192,80629,1,8,0:0:0:0:
256,192,80765,1,0,0:0:0:0:
256,192,80834,1,0,0:0:0:0:
256,192,80902,1,8,0:0:0:0:
256,192,81038,1,0,0:0:0:0:
256,192,81174,1,8,0:0:0:0:
256,192,81311,1,0,0:0:0:0:
256,192,81379,1,0,0:0:0:0:
256,192,81447,1,8,0:0:0:0:
256,192,81584,1,0,0:0:0:0:
256,192,81721,1,8,0:0:0:0:
256,192,81789,1,0,0:0:0:0:
256,192,81857,1,8,0:0:0:0:
256,192,81925,1,8,0:0:0:0:
256,192,81993,1,0,0:0:0:0:
256,192,82061,1,0,0:0:0:0:
256,192,82130,1,8,0:0:0:0:
256,192,82266,1,0,0:0:0:0:
256,192,82402,1,8,0:0:0:0:
256,192,82471,1,8,0:0:0:0:
256,192,82539,1,0,0:0:0:0:
256,192,82675,1,12,0:0:0:0:
256,192,82811,1,0,0:0:0:0:
256,192,82879,1,0,0:0:0:0:
256,192,82947,1,0,0:0:0:0:
256,192,83015,1,0,0:0:0:0:
256,192,83084,1,8,0:0:0:0:
256,192,83220,1,0,0:0:0:0:
256,192,83288,1,0,0:0:0:0:
256,192,83356,1,8,0:0:0:0:
256,192,83493,1,8,0:0:0:0:
256,192,83561,1,8,0:0:0:0:
256,192,83629,1,8,0:0:0:0:
256,192,83697,1,8,0:0:0:0:
256,192,83765,1,0,0:0:0:0:
256,192,83902,1,8,0:0:0:0:
256,192,84038,1,0,0:0:0:0:
256,192,84106,1,0,0:0:0:0:
256,192,84174,1,8,0:0:0:0:
256,192,84311,1,0,0:0:0:0:
256,192,84379,1,0,0:0:0:0:
256,192,84447,1,8,0:0:0:0:
256,192,84515,1,8,0:0:0:0:
256,192,84584,1,0,0:0:0:0:
256,192,84720,1,8,0:0:0:0:
256,192,84856,1,4,0:0:0:0:
256,192,84993,1,8,0:0:0:0:
256,192,85129,1,0,0:0:0:0:
256,192,85197,1,0,0:0:0:0:
256,192,85265,1,8,0:0:0:0:
256,192,85402,1,0,0:0:0:0:
256,192,85538,1,8,0:0:0:0:
256,192,85606,1,8,0:0:0:0:
256,192,85674,1,0,0:0:0:0:
256,192,85743,1,0,0:0:0:0:
256,192,85811,1,8,0:0:0:0:
256,192,85947,1,0,0:0:0:0:
256,192,86084,1,8,0:0:0:0:
256,192,86152,1,0,0:0:0:0:
256,192,86220,1,0,0:0:0:0:
256,192,86288,1,0,0:0:0:0:
256,192,86356,1,8,0:0:0:0:
256,192,86424,1,8,0:0:0:0:
256,192,86493,1,0,0:0:0:0:
256,192,86629,1,8,0:0:0:0:
256,192,86765,1,8,0:0:0:0:
256,192,86834,1,8,0:0:0:0:
256,192,86902,1,8,0:0:0:0:
256,192,87038,1,4,0:0:0:0:
256,192,87174,1,8,0:0:0:0:
256,192,87311,1,0,0:0:0:0:
256,192,87379,1,0,0:0:0:0:
256,192,87447,1,8,0:0:0:0:
256,192,87515,1,8,0:0:0:0:
256,192,87584,1,0,0:0:0:0:
256,192,87720,1,8,0:0:0:0:
256,192,87856,1,0,0:0:0:0:
256,192,87924,1,0,0:0:0:0:
256,192,87993,1,8,0:0:0:0:
256,192,88129,1,0,0:0:0:0:
256,192,88265,1,8,0:0:0:0:
256,192,88334,1,8,0:0:0:0:
256,192,88402,1,0,0:0:0:0:
256,192,88470,1,0,0:0:0:0:
256,192,88538,1,8,0:0:0:0:
256,192,88606,1,0,0:0:0:0:
256,192,88674,1,8,0:0:0:0:
256,192,88743,1,8,0:0:0:0:
256,192,88811,1,0,0:0:0:0:
256,192,88879,1,0,0:0:0:0:
256,192,88947,1,8,0:0:0:0:
256,192,89015,1,8,0:0:0:0:
256,192,89084,1,0,0:0:0:0:
256,192,89220,1,4,0:0:0:0:
256,192,89356,1,8,0:0:0:0:
256,192,89493,1,0,0:0:0:0:
256,192,89561,1,0,0:0:0:0:
256,192,89629,1,8,0:0:0:0:
256,192,89765,1,0,0:0:0:0:
256,192,89902,1,8,0:0:0:0:
256,192,89970,1,8,0:0:0:0:
256,192,90038,1,0,0:0:0:0:
256,192,90106,1,0,0:0:0:0:
256,192,90174,1,8,0:0:0:0:
256,192,90311,1,0,0:0:0:0:
256,192,90447,1,8,0:0:0:0:
256,192,90584,1,0,0:0:0:0:
256,192,90652,1,0,0:0:0:0:
256,192,90720,1,8,0:0:0:0:
256,192,90788,1,0,0:0:0:0:
256,192,90924,1,0,0:0:0:0:
256,192,90993,1,8,0:0:0:0:
256,192,91129,1,0,0:0:0:0:
256,192,91197,1,0,0:0:0:0:
256,192,91265,1,8,0:0:0:0:
256,192,91402,1,0,0:0:0:0:
256,192,91538,1,8,0:0:0:0:
256,192,91606,1,8,0:0:0:0:
256,192,91674,1,0,0:0:0:0:
256,192,91743,1,0,0:0:0:0:
256,192,91811,1,8,0:0:0:0:
256,192,91947,1,0,0:0:0:0:
256,192,92084,1,8,0:0:0:0:
256,192,92220,1,0,0:0:0:0:
256,192,92288,1,0,0:0:0:0:
256,192,92356,1,8,0:0:0:0:
256,192,92493,1,8,0:0:0:0:
256,192,92561,1,8,0:0:0:0:
256,192,92629,1,0,0:0:0:0:
256,192,92698,1,0,0:0:0:0:
256,192,92766,1,8,0:0:0:0:
256,192,92834,1,8,0:0:0:0:
256,192,92902,1,8,0:0:0:0:
256,192,92970,1,8,0:0:0:0:
256,192,93038,1,0,0:0:0:0:
256,192,93107,1,0,0:0:0:0:
256,192,93175,1,0,0:0:0:0:
256,192,93243,1,0,0:0:0:0:
256,192,93311,1,8,0:0:0:0:
256,192,93379,1,8,0:0:0:0:
256,192,93448,1,8,0:0:0:0:
256,192,93584,1,4,0:0:0:0:
256,192,93720,1,8,0:0:0:0:
256,192,93856,1,0,0:0:0:0:
256,192,93924,1,0,0:0:0:0:
256,192,93993,1,8,0:0:0:0:
256,192,94129,1,0,0:0:0:0:
256,192,94197,1,0,0:0:0:0:
256,192,94265,1,8,0:0:0:0:
256,192,94334,1,8,0:0:0:0:
256,192,94402,1,0,0:0:0:0:
256,192,94470,1,0,0:0:0:0:
256,192,94538,1,8,0:0:0:0:
256,192,94674,1,0,0:0:0:0:
256,192,94811,1,8,0:0:0:0:
256,192,94879,1,8,0:0:0:0:
256,192,94947,1,0,0:0:0:0:
256,192,95015,1,0,0:0:0:0:
256,192,95084,1,8,0:0:0:0:
256,192,95220,1,0,0:0:0:0:
256,192,95356,1,8,0:0:0:0:
256,192,95493,1,0,0:0:0:0:
256,192,95561,1,0,0:0:0:0:
256,192,95629,1,8,0:0:0:0:
256,192,95766,1,8,0:0:0:0:
256,192,95834,1,8,0:0:0:0:
256,192,95902,1,8,0:0:0:0:
256,192,95970,1,8,0:0:0:0:
256,192,96038,1,0,0:0:0:0:
256,192,96107,1,0,0:0:0:0:
256,192,96175,1,8,0:0:0:0:
256,192,96243,1,8,0:0:0:0:
256,192,96311,1,8,0:0:0:0:
256,192,96379,1,8,0:0:0:0:
256,192,96448,1,0,0:0:0:0:
256,192,96516,1,0,0:0:0:0:
256,192,96584,1,8,0:0:0:0:
256,192,96652,1,8,0:0:0:0:
256,192,96720,1,0,0:0:0:0:
256,192,96788,1,0,0:0:0:0:
256,192,96857,1,8,0:0:0:0:
256,192,96925,1,8,0:0:0:0:
256,192,96993,1,0,0:0:0:0:
256,192,97061,1,0,0:0:0:0:
256,192,97129,1,8,0:0:0:0:
256,192,97198,1,0,0:0:0:0:
256,192,97266,1,8,0:0:0:0:
256,192,97334,1,8,0:0:0:0:
256,192,97402,1,0,0:0:0:0:
256,192,97470,1,0,0:0:0:0:
256,192,97538,1,8,0:0:0:0:
256,192,97607,1,0,0:0:0:0:
256,192,97675,1,8,0:0:0:0:
256,192,97743,1,8,0:0:0:0:
256,192,97811,1,0,0:0:0:0:
256,192,97948,1,12,0:0:0:0:
256,192,98084,1,0,0:0:0:0:
256,192,98152,1,0,0:0:0:0:
256,192,98220,1,0,0:0:0:0:
256,192,98357,1,0,0:0:0:0:
256,192,98493,1,0,0:0:0:0:
256,192,98561,1,0,0:0:0:0:
256,192,98629,1,0,0:0:0:0:
256,192,98766,1,0,0:0:0:0:
256,192,98902,1,0,0:0:0:0:
256,192,98970,1,0,0:0:0:0:
256,192,99038,1,0,0:0:0:0:
256,192,99175,1,0,0:0:0:0:
256,192,99311,1,0,0:0:0:0:
256,192,99379,1,0,0:0:0:0:
256,192,99448,1,0,0:0:0:0:
256,192,99584,1,0,0:0:0:0:
256,192,99652,1,0,0:0:0:0:
256,192,99720,1,0,0:0:0:0:
256,192,99857,1,12,0:0:0:0:
256,192,99993,1,12,0:0:0:0:
256,192,100129,1,12,0:0:0:0:
256,192,100266,1,0,0:0:0:0:
256,192,100334,1,0,0:0:0:0:
256,192,100402,1,0,0:0:0:0:
256,192,100539,1,0,0:0:0:0:
256,192,100675,1,0,0:0:0:0:
256,192,100743,1,0,0:0:0:0:
256,192,100811,1,0,0:0:0:0:
256,192,100948,1,0,0:0:0:0:
256,192,101084,1,0,0:0:0:0:
256,192,101152,1,0,0:0:0:0:
256,192,101220,1,0,0:0:0:0:
256,192,101357,1,0,0:0:0:0:
256,192,101493,1,0,0:0:0:0:
256,192,101561,1,0,0:0:0:0:
256,192,101630,1,0,0:0:0:0:
256,192,101766,1,0,0:0:0:0:
256,192,101834,1,0,0:0:0:0:
256,192,101902,1,0,0:0:0:0:
256,192,102038,1,0,0:0:0:0:
256,192,102107,1,0,0:0:0:0:
256,192,102175,1,0,0:0:0:0:
256,192,102311,1,12,0:0:0:0:
256,192,102584,1,8,0:0:0:0:
256,192,102652,1,0,0:0:0:0:
256,192,102720,1,8,0:0:0:0:
256,192,102788,1,0,0:0:0:0:
256,192,102857,1,8,0:0:0:0:
256,192,102925,1,8,0:0:0:0:
256,192,102993,1,0,0:0:0:0:
256,192,103061,1,0,0:0:0:0:
256,192,103129,1,8,0:0:0:0:
256,192,103198,1,0,0:0:0:0:
256,192,103266,1,8,0:0:0:0:
256,192,103334,1,8,0:0:0:0:
256,192,103402,1,0,0:0:0:0:
256,192,103470,1,0,0:0:0:0:
256,192,103538,1,8,0:0:0:0:
256,192,103607,1,0,0:0:0:0:
256,192,103675,1,8,0:0:0:0:
256,192,103743,1,8,0:0:0:0:
256,192,103811,1,0,0:0:0:0:
256,192,103879,1,0,0:0:0:0:
256,192,103948,1,8,0:0:0:0:
256,192,104016,1,8,0:0:0:0:
256,192,104084,1,0,0:0:0:0:
256,192,104220,1,8,0:0:0:0:
256,192,104357,1,8,0:0:0:0:
256,192,104493,1,12,0:0:0:0:
256,192,104766,1,8,0:0:0:0:
256,192,104834,1,8,0:0:0:0:
256,192,104902,1,0,0:0:0:0:
256,192,105038,1,12,0:0:0:0:
256,192,105175,1,0,0:0:0:0:
256,192,105243,1,0,0:0:0:0:
256,192,105311,1,8,0:0:0:0:
256,192,105379,1,8,0:0:0:0:
256,192,105448,1,0,0:0:0:0:
256,192,105584,1,4,0:0:0:0:
256,192,105720,1,4,0:0:0:0:
256,192,106129,1,4,0:0:0:0:
256,192,106266,1,4,0:0:0:0:
256,192,106675,1,4,0:0:0:0:
256,192,106811,1,8,0:0:0:0:
256,192,106948,1,0,0:0:0:0:
256,192,107016,1,0,0:0:0:0:
256,192,107084,1,8,0:0:0:0:
128,96,107220,2,0,L|352:128,1,210
256,192,107766,1,0,0:0:0:0:
256,192,107902,1,8,0:0:0:0:
256,192,108038,1,0,0:0:0:0:
256,192,108107,1,0,0:0:0:0:
256,192,108175,1,8,0:0:0:0:
256,192,108379,1,0,0:0:0:0:
256,192,108448,1,8,0:0:0:0:
256,192,108584,1,8,0:0:0:0:
256,192,108652,1,8,0:0:0:0:
256,192,108720,1,0,0:0:0:0:
256,192,108857,1,8,0:0:0:0:
256,192,108993,1,0,0:0:0:0:
256,192,109061,1,8,0:0:0:0:
256,192,109129,1,0,0:0:0:0:
256,192,109198,1,0,0:0:0:0:
256,192,109266,1,8,0:0:0:0:
256,192,109538,1,8,0:0:0:0:
256,192,109607,1,8,0:0:0:0:
256,192,109675,1,0,0:0:0:0:
256,192,109811,1,0,0:0:0:0:
256,192,109948,1,8,0:0:0:0:
256,192,110084,1,8,0:0:0:0:
256,192,110220,1,0,0:0:0:0:
256,192,110288,1,0,0:0:0:0:
256,192,110357,1,0,0:0:0:0:
256,192,110493,1,8,0:0:0:0:
256,192,110629,1,8,0:0:0:0:
256,192,110766,1,0,0:0:0:0:
256,192,110902,1,8,0:0:0:0:
256,192,110970,1,0,0:0:0:0:
256,192,111038,1,0,0:0:0:0:
256,192,111107,1,0,0:0:0:0:
256,192,111175,1,8,0:0:0:0:
256,192,111243,1,0,0:0:0:0:
256,192,111311,1,8,0:0:0:0:
256,192,111379,1,8,0:0:0:0:
256,192,111448,1,0,0:0:0:0:
256,192,111516,1,0,0:0:0:0:
256,192,111584,1,8,0:0:0:0:
256,192,111652,1,0,0:0:0:0:
256,192,111720,1,0,0:0:0:0:
256,192,111788,1,0,0:0:0:0:
256,192,111857,1,8,0:0:0:0:
256,192,111925,1,8,0:0:0:0:
256,192,111993,1,0,0:0:0:0:
256,192,112061,1,0,0:0:0:0:
256,192,112129,1,8,0:0:0:0:
256,192,112198,1,8,0:0:0:0:
256,192,112266,1,0,0:0:0:0:
256,192,112334,1,8,0:0:0:0:
256,192,112402,1,0,0:0:0:0:
256,192,112470,1,0,0:0:0:0:
256,192,112538,1,8,0:0:0:0:
256,192,112607,1,8,0:0:0:0:
256,192,112675,1,0,0:0:0:0:
256,192,112811,1,8,0:0:0:0:
256,192,112879,1,0,0:0:0:0:
256,192,112948,1,8,0:0:0:0:
256,192,113016,1,8,0:0:0:0:
256,192,113084,1,0,0:0:0:0:
256,192,113220,1,0,0:0:0:0:
256,192,113357,1,0,0:0:0:0:
256,192,113493,1,8,0:0:0:0:
256,192,113629,1,0,0:0:0:0:
256,192,113766,1,8,0:0:0:0:
256,192,113902,1,8,0:0:0:0:
256,192,114038,1,0,0:0:0:0:
256,192,114175,1,8,0:0:0:0:
256,192,114311,1,8,0:0:0:0:
256,192,114379,1,8,0:0:0:0:
256,192,114448,1,0,0:0:0:0:
256,192,114516,1,0,0:0:0:0:
256,192,114584,1,8,0:0:0:0:
256,192,114652,1,0,0:0:0:0:
256,192,114720,1,8,0:0:0:0:
256,192,114788,1,8,0:0:0:0:
256,192,114857,1,0,0:0:0:0:
256,192,114925,1,0,0:0:0:0:
256,192,114993,1,8,0:0:0:0:
256,192,115061,1,0,0:0:0:0:
256,192,115129,1,8,0:0:0:0:
256,192,115198,1,8,0:0:0:0:
256,192,115266,1,0,0:0:0:0:
256,192,115334,1,0,0:0:0:0:
256,192,115402,1,8,0:0:0:0:
256,192,115470,1,8,0:0:0:0:
256,192,115538,1,8,0:0:0:0:
256,192,115607,1,8,0:0:0:0:
256,192,115675,1,0,0:0:0:0:
256,192,115948,1,8,0:0:0:0:
256,192,116016,1,8,0:0:0:0:
256,192,116084,1,0,0:0:0:0:
256,192,116152,1,0,0:0:0:0:
256,192,116220,1,8,0:0:0:0:
256,192,116493,1,8,0:0:0:0:
256,192,116629,1,8,0:0:0:0:
256,192,116698,1,8,0:0:0:0:
256,192,116766,1,0,0:0:0:0:
256,192,116834,1,8,0:0:0:0:
256,192,116902,1,8,0:0:0:0:
256,192,116970,1,0,0:0:0:0:
256,192,117038,1,0,0:0:0:0:
256,192,117107,1,8,0:0:0:0:
256,192,117175,1,8,0:0:0:0:
256,192,117243,1,0,0:0:0:0:
256,192,117311,1,8,0:0:0:0:
256,192,117584,1,8,0:0:0:0:
256,192,117652,1,8,0:0:0:0:
256,192,117720,1,0,0:0:0:0:
256,192,117788,1,0,0:0:0:0:
256,192,117857,1,8,0:0:0:0:
256,192,117925,1,8,0:0:0:0:
256,192,117993,1,0,0:0:0:0:
256,192,118061,1,0,0:0:0:0:
256,192,118129,1,8,0:0:0:0:
256,192,118198,1,8,0:0:0:0:
256,192,118266,1,0,0:0:0:0:
256,192,118334,1,0,0:0:0:0:
256,192,118402,1,8,0:0:0:0:
256,192,118470,1,8,0:0:0:0:
256,192,118538,1,0,0:0:0:0:
256,192,118607,1,0,0:0:0:0:
256,192,118675,1,8,0:0:0:0:
256,192,118811,1,0,0:0:0:0:
256,192,118879,1,0,0:0:0:0:
256,192,118948,1,8,0:0:0:0:
256,192,119016,1,8,0:0:0:0:
256,192,119084,1,0,0:0:0:0:
256,192,119152,1,8,0:0:0:0:
256,192,119220,1,0,0:0:0:0:
256,192,119357,1,0,0:0:0:0:
256,192,119493,1,8,0:0:0:0:
256,192,119629,1,8,0:0:0:0:
256,192,119766,1,8,0:0:0:0:
256,192,119834,1,8,0:0:0:0:
256,192,119902,1,0,0:0:0:0:
256,192,119970,1,0,0:0:0:0:
256,192,120038,1,8,0:0:0:0:
256,192,120107,1,0,0:0:0:0:
256,192,120175,1,8,0:0:0:0:
256,192,120243,1,0,0:0:0:0:
256,192,120311,1,8,0:0:0:0:
256,192,120379,1,8,0:0:0:0:
256,192,120448,1,0,0:0:0:0:
256,192,120516,1,0,0:0:0:0:
256,192,120584,1,8,0:0:0:0:
256,192,120652,1,0,0:0:0:0:
256,192,120720,1,8,0:0:0:0:
256,192,120788,1,0,0:0:0:0:
256,192,120857,1,8,0:0:0:0:
256,192,120925,1,8,0:0:0:0:
256,192,120993,1,0,0:0:0:0:
256,192,121061,1,0,0:0:0:0:
256,192,121129,1,8,0:0:0:0:
256,192,121198,1,0,0:0:0:0:
256,192,121266,1,8,0:0:0:0:
256,192,121334,1,0,0:0:0:0:
256,192,121402,1,8,0:0:0:0:
256,192,121470,1,8,0:0:0:0:
256,192,121538,1,0,0:0:0:0:
256,192,121607,1,8,0:0:0:0:
256,192,121675,1,0,0:0:0:0:
256,192,121743,1,0,0:0:0:0:
256,192,121811,1,8,0:0:0:0:
256,192,121879,1,0,0:0:0:0:
256,192,121948,1,8,0:0:0:0:
256,192,122016,1,8,0:0:0:0:
256,192,122084,1,8,0:0:0:0:
256,192,122152,1,8,0:0:0:0:
256,192,122220,1,0,0:0:0:0:
256,192,122288,1,0,0:0:0:0:
256,192,122357,1,8,0:0:0:0:
256,192,122425,1,8,0:0:0:0:
256,192,122493,1,0,0:0:0:0:
256,192,122561,1,0,0:0:0:0:
256,192,122629,1,8,0:0:0:0:
256,192,122698,1,0,0:0:0:0:
256,192,122766,1,8,0:0:0:0:
256,192,122834,1,8,0:0:0:0:
256,192,122902,1,0,0:0:0:0:
256,192,122970,1,0,0:0:0:0:
256,192,123038,1,8,0:0:0:0:
256,192,123107,1,8,0:0:0:0:
256,192,123175,1,0,0:0:0:0:
256,192,123243,1,0,0:0:0:0:
256,192,123311,1,8,0:0:0:0:
256,192,123379,1,8,0:0:0:0:
256,192,123448,1,8,0:0:0:0:
256,192,123516,1,8,0:0:0:0:
256,192,123584,1,0,0:0:0:0:
256,192,123652,1,0,0:0:0:0:
256,192,123720,1,8,0:0:0:0:
256,192,123788,1,0,0:0:0:0:
256,192,123857,1,8,0:0:0:0:
256,192,123925,1,8,0:0:0:0:
256,192,123993,1,8,0:0:0:0:
256,192,124129,1,4,0:0:0:0:
256,192,124266,1,8,0:0:0:0:
256,192,124402,1,0,0:0:0:0:
256,192,124470,1,0,0:0:0:0:
256,192,124538,1,8,0:0:0:0:
256,192,124675,1,0,0:0:0:0:
256,192,124811,1,8,0:0:0:0:
256,192,124879,1,8,0:0:0:0:
256,192,124948,1,0,0:0:0:0:
256,192,125016,1,0,0:0:0:0:
256,192,125084,1,8,0:0:0:0:
256,192,125220,1,0,0:0:0:0:
256,192,125357,1,8,0:0:0:0:
256,192,125493,1,0,0:0:0:0:
256,192,125561,1,0,0:0:0:0:
256,192,125629,1,8,0:0:0:0:
256,192,125698,1,0,0:0:0:0:
256,192,125834,1,0,0:0:0:0:
256,192,125902,1,8,0:0:0:0:
256,192,126038,1,0,0:0:0:0:
256,192,126107,1,0,0:0:0:0:
256,192,126175,1,8,0:0:0:0:
256,192,126311,1,0,0:0:0:0:
256,192,126448,1,8,0:0:0:0:
256,192,126584,1,0,0:0:0:0:
256,192,126652,1,0,0:0:0:0:
256,192,126720,1,8,0:0:0:0:
256,192,126857,1,0,0:0:0:0:
256,192,126925,1,0,0:0:0:0:
256,192,126993,1,8,0:0:0:0:
256,192,127061,1,8,0:0:0:0:
256,192,127129,1,0,0:0:0:0:
256,192,127198,1,0,0:0:0:0:
256,192,127266,1,8,0:0:0:0:
256,192,127402,1,0,0:0:0:0:
256,192,127538,1,8,0:0:0:0:
256,192,127675,1,0,0:0:0:0:
256,192,127743,1,0,0:0:0:0:
256,192,127811,1,8,0:0:0:0:
256,192,127948,1,0,0:0:0:0:
256,192,128084,1,8,0:0:0:0:
256,192,128152,1,8,0:0:0:0:
256,192,128220,1,8,0:0:0:0:
256,192,128357,1,0,0:0:0:0:
256,192,128493,1,8,0:0:0:0:
256,192,128561,1,8,0:0:0:0:
256,192,128629,1,0,0:0:0:0:
256,192,128766,1,0,0:0:0:0:
256,192,128902,1,8,0:0:0:0:
256,192,129038,1,0,0:0:0:0:
256,192,129107,1,0,0:0:0:0:
256,192,129175,1,0,0:0:0:0:
256,192,129243,1,0,0:0:0:0:
256,192,129311,1,8,0:0:0:0:
256,192,129448,1,0,0:0:0:0:
256,192,129584,1,8,0:0:0:0:
256,192,129652,1,8,0:0:0:0:
256,192,129720,1,8,0:0:0:0:
256,192,129788,1,8,0:0:0:0:
256,192,129857,1,0,0:0:0:0:
256,192,129925,1,0,0:0:0:0:
256,192,129993,1,8,0:0:0:0:
256,192,130061,1,8,0:0:0:0:
256,192,130129,1,0,0:0:0:0:
256,192,130198,1,0,0:0:0:0:
256,192,130266,1,8,0:0:0:0:
256,192,130334,1,0,0:0:0:0:
256,192,130402,1,8,0:0:0:0:
256,192,130470,1,8,0:0:0:0:
256,192,130538,1,0,0:0:0:0:
256,192,130675,1,4,0:0:0:0:
256,192,130811,1,8,0:0:0:0:
256,192,130948,1,0,0:0:0:0:
256,192,131016,1,0,0:0:0:0:
256,192,131084,1,8,0:0:0:0:
256,192,131220,1,0,0:0:0:0:
256,192,131357,1,8,0:0:0:0:
256,192,131425,1,8,0:0:0:0:
256,192,131493,1,0,0:0:0:0:
256,192,131561,1,0,0:0:0:0:
256,192,131629,1,8,0:0:0:0:
256,192,131766,1,0,0:0:0:0:
256,192,131902,1,8,0:0:0:0:
256,192,132038,1,0,0:0:0:0:
256,192,132107,1,8,0:0:0:0:
256,192,132175,1,0,0:0:0:0:
256,192,132243,1,0,0:0:0:0:
256,192,132311,1,8,0:0:0:0:
256,192,132379,1,0,0:0:0:0:
256,192,132448,1,8,0:0:0:0:
256,192,132516,1,8,0:0:0:0:
256,192,132584,1,0,0:0:0:0:
256,192,132652,1,0,0:0:0:0:
256,192,132720,1,8,0:0:0:0:
256,192,132857,1,4,0:0:0:0:
256,192,132993,1,8,0:0:0:0:
224,192,133129,1,0,0:0:0:0:
256,192,133198,1,0,0:0:0:0:
256,192,133266,1,8,0:0:0:0:
256,192,133334,1,8,0:0:0:0:
256,192,133402,1,0,0:0:0:0:
256,192,133538,1,8,0:0:0:0:
256,192,133675,1,0,0:0:0:0:
256,192,133743,1,0,0:0:0:0:
256,192,133811,1,8,0:0:0:0:
256,192,133948,1,8,0:0:0:0:
256,192,134016,1,8,0:0:0:0:
256,192,134084,1,0,0:0:0:0:
256,192,134152,1,0,0:0:0:0:
256,192,134220,1,8,0:0:0:0:
256,192,134288,1,8,0:0:0:0:
256,192,134357,1,0,0:0:0:0:
256,192,134425,1,0,0:0:0:0:
256,192,134493,1,8,0:0:0:0:
256,192,134561,1,8,0:0:0:0:
256,192,134629,1,8,0:0:0:0:
256,192,134698,1,8,0:0:0:0:
256,192,134766,1,8,0:0:0:0:
256,192,134834,1,8,0:0:0:0:
256,192,134902,1,8,0:0:0:0:
256,192,135038,1,4,0:0:0:0:
256,192,135175,1,8,0:0:0:0:
256,192,135311,1,0,0:0:0:0:
256,192,135379,1,0,0:0:0:0:
256,192,135448,1,8,0:0:0:0:
256,192,135584,1,0,0:0:0:0:
256,192,135720,1,8,0:0:0:0:
256,192,135788,1,8,0:0:0:0:
256,192,135857,1,0,0:0:0:0:
256,192,135993,1,0,0:0:0:0:
256,192,136129,1,8,0:0:0:0:
256,192,136198,1,0,0:0:0:0:
256,192,136266,1,8,0:0:0:0:
256,192,136402,1,0,0:0:0:0:
256,192,136538,1,8,0:0:0:0:
256,192,136607,1,8,0:0:0:0:
256,192,136675,1,0,0:0:0:0:
256,192,136811,1,8,0:0:0:0:
256,192,136948,1,8,0:0:0:0:
256,192,137016,1,8,0:0:0:0:
256,192,137084,1,0,0:0:0:0:
256,192,137152,1,0,0:0:0:0:
256,192,137220,1,8,0:0:0:0:
256,192,137357,1,0,0:0:0:0:
256,192,137493,1,8,0:0:0:0:
256,192,137561,1,8,0:0:0:0:
256,192,137629,1,0,0:0:0:0:
256,192,137765,1,8,0:0:0:0:
256,192,137834,1,8,0:0:0:0:
256,192,137902,1,0,0:0:0:0:
256,192,138038,1,8,0:0:0:0:
256,192,138107,1,0,0:0:0:0:
256,192,138175,1,8,0:0:0:0:
256,192,138311,1,0,0:0:0:0:
256,192,138448,1,12,0:0:0:0:
256,192,138720,1,0,0:0:0:0:
256,192,138788,1,0,0:0:0:0:
256,192,138857,1,8,0:0:0:0:
256,192,138993,1,0,0:0:0:0:
256,192,139129,1,8,0:0:0:0:
256,192,139198,1,8,0:0:0:0:
256,192,139266,1,0,0:0:0:0:
256,192,139402,1,0,0:0:0:0:
256,192,139470,1,0,0:0:0:0:
256,192,139538,1,8,0:0:0:0:
256,192,139607,1,8,0:0:0:0:
256,192,139675,1,8,0:0:0:0:
256,192,139743,1,8,0:0:0:0:
256,192,139811,1,0,0:0:0:0:
256,192,139879,1,0,0:0:0:0:
256,192,139948,1,8,0:0:0:0:
256,192,140016,1,8,0:0:0:0:
256,192,140084,1,8,0:0:0:0:
256,192,140152,1,8,0:0:0:0:
256,192,140220,1,8,0:0:0:0:
256,192,140357,1,0,0:0:0:0:
256,192,140493,1,12,0:0:0:0:
256,192,140629,1,0,0:0:0:0:
256,192,140766,1,0,0:0:0:0:
256,192,140902,1,12,0:0:0:0:
256,192,141038,1,0,0:0:0:0:
256,192,141175,1,0,0:0:0:0:
256,192,141311,1,12,0:0:0:0:
256,192,141448,1,0,0:0:0:0:
256,192,141584,1,12,0:0:0:0:
256,192,141720,1,0,0:0:0:0:
256,192,141788,1,0,0:0:0:0:
256,192,141857,1,0,0:0:0:0:
256,192,141993,1,12,0:0:0:0:
256,192,142129,1,0,0:0:0:0:
256,192,142198,1,0,0:0:0:0:
256,192,142266,1,0,0:0:0:0:
256,192,142402,1,12,0:0:0:0:
256,192,142538,1,0,0:0:0:0:
256,192,142675,1,12,0:0:0:0:
256,192,142811,1,0,0:0:0:0:
256,192,142879,1,0,0:0:0:0:
256,192,142948,1,0,0:0:0:0:
256,192,143016,1,0,0:0:0:0:
256,192,143084,1,8,0:0:0:0:
256,192,143220,1,0,0:0:0:0:
256,192,143288,1,0,0:0:0:0:
256,192,143357,1,0,0:0:0:0:
256,192,143425,1,0,0:0:0:0:
256,192,143493,1,8,0:0:0:0:
256,192,143629,1,8,0:0:0:0:
256,192,143766,1,4,0:0:0:0:
256,192,143902,1,4,0:0:0:0:
256,192,144175,1,4,0:0:0:0:
256,192,144311,1,4,0:0:0:0:
256,192,144448,1,4,0:0:0:0:
256,192,144720,1,4,0:0:0:0:
256,192,144993,1,4,0:0:0:0:
256,192,145266,1,4,0:0:0:0:
256,192,145538,1,4,0:0:0:0:
256,192,145675,1,4,0:0:0:0:
256,192,145811,1,4,0:0:0:0:
256,192,145948,1,8,0:0:0:0:
256,192,146016,1,8,0:0:0:0:
256,192,146084,1,8,0:0:0:0:
256,192,146152,1,8,0:0:0:0:
256,192,146220,1,0,0:0:0:0:
256,192,146288,1,0,0:0:0:0:
256,192,146357,1,8,0:0:0:0:
256,192,146425,1,8,0:0:0:0:
256,192,146493,1,0,0:0:0:0:
256,192,146561,1,0,0:0:0:0:
256,192,146629,1,8,0:0:0:0:
256,192,146698,1,0,0:0:0:0:
256,192,146766,1,8,0:0:0:0:
256,192,146834,1,8,0:0:0:0:
256,192,146902,1,0,0:0:0:0:
256,192,146970,1,0,0:0:0:0:
256,192,147038,1,8,0:0:0:0:
256,192,147107,1,8,0:0:0:0:
256,192,147175,1,8,0:0:0:0:
256,192,147243,1,8,0:0:0:0:
256,192,147311,1,0,0:0:0:0:
256,192,147379,1,0,0:0:0:0:
256,192,147448,1,8,0:0:0:0:
256,192,147516,1,8,0:0:0:0:
256,192,147584,1,8,0:0:0:0:
256,192,147652,1,8,0:0:0:0:
256,192,147720,1,0,0:0:0:0:
256,192,147788,1,0,0:0:0:0:
256,192,147857,1,8,0:0:0:0:
256,192,147925,1,8,0:0:0:0:
256,192,147993,1,0,0:0:0:0:
256,192,148129,1,4,0:0:0:0:
256,192,148266,1,8,0:0:0:0:
256,192,148335,1,0,0:0:0:0:
256,192,148403,1,0,0:0:0:0:
256,192,148471,1,0,0:0:0:0:
256,192,148539,1,8,0:0:0:0:
256,192,148607,1,8,0:0:0:0:
256,192,148676,1,0,0:0:0:0:
256,192,148744,1,0,0:0:0:0:
256,192,148812,1,8,0:0:0:0:
256,192,148880,1,0,0:0:0:0:
256,192,148948,1,0,0:0:0:0:
256,192,149016,1,0,0:0:0:0:
256,192,149085,1,8,0:0:0:0:
256,192,149153,1,8,0:0:0:0:
256,192,149221,1,0,0:0:0:0:
256,192,149357,1,8,0:0:0:0:
256,192,149494,1,0,0:0:0:0:
256,192,149630,1,8,0:0:0:0:
256,192,149766,1,8,0:0:0:0:
256,192,149903,1,0,0:0:0:0:
256,192,150039,1,8,0:0:0:0:
256,192,150176,1,8,0:0:0:0:
256,192,150312,1,0,0:0:0:0:
256,192,150380,1,0,0:0:0:0:
256,192,150448,1,8,0:0:0:0:
256,192,150517,1,0,0:0:0:0:
256,192,150585,1,0,0:0:0:0:
256,192,150653,1,0,0:0:0:0:
256,192,150721,1,8,0:0:0:0:
256,192,150789,1,8,0:0:0:0:
256,192,150858,1,0,0:0:0:0:
256,192,150926,1,0,0:0:0:0:
256,192,150994,1,8,0:0:0:0:
256,192,151062,1,0,0:0:0:0:
256,192,151130,1,0,0:0:0:0:
256,192,151198,1,0,0:0:0:0:
256,192,151267,1,8,0:0:0:0:
256,192,151335,1,8,0:0:0:0:
256,192,151403,1,0,0:0:0:0:
256,192,151539,1,8,0:0:0:0:
256,192,151676,1,0,0:0:0:0:
256,192,151812,1,8,0:0:0:0:
256,192,151948,1,8,0:0:0:0:
256,192,152085,1,0,0:0:0:0:
256,192,152221,1,8,0:0:0:0:
256,192,152358,1,8,0:0:0:0:
256,192,152494,1,0,0:0:0:0:
256,192,152562,1,0,0:0:0:0:
256,192,152630,1,8,0:0:0:0:
256,192,152699,1,0,0:0:0:0:
256,192,152767,1,0,0:0:0:0:
256,192,152835,1,0,0:0:0:0:
256,192,152903,1,8,0:0:0:0:
256,192,152971,1,8,0:0:0:0:
256,192,153040,1,0,0:0:0:0:
256,192,153108,1,0,0:0:0:0:
256,192,153176,1,8,0:0:0:0:
256,192,153244,1,0,0:0:0:0:
256,192,153312,1,0,0:0:0:0:
256,192,153380,1,0,0:0:0:0:
256,192,153449,1,8,0:0:0:0:
256,192,153517,1,8,0:0:0:0:
256,192,153585,1,0,0:0:0:0:
256,192,153721,1,8,0:0:0:0:
256,192,153858,1,0,0:0:0:0:
256,192,153994,1,8,0:0:0:0:
256,192,154130,1,8,0:0:0:0:
256,192,154267,1,0,0:0:0:0:
256,192,154403,1,8,0:0:0:0:
256,192,154540,1,8,0:0:0:0:
256,192,154676,1,0,0:0:0:0:
256,192,154744,1,0,0:0:0:0:
256,192,154812,1,8,0:0:0:0:
256,192,154881,1,0,0:0:0:0:
256,192,154949,1,0,0:0:0:0:
256,192,155017,1,0,0:0:0:0:
256,192,155085,1,8,0:0:0:0:
256,192,155153,1,8,0:0:0:0:
256,192,155222,1,0,0:0:0:0:
256,192,155290,1,0,0:0:0:0:
256,192,155358,1,8,0:0:0:0:
256,192,155425,1,0,0:0:0:0:
256,192,155493,1,0,0:0:0:0:
256,192,155561,1,0,0:0:0:0:
256,192,155629,1,8,0:0:0:0:
256,192,155698,1,0,0:0:0:0:
256,192,155766,1,8,0:0:0:0:
256,192,155834,1,8,0:0:0:0:
256,192,155902,1,0,0:0:0:0:
256,192,155970,1,0,0:0:0:0:
256,192,156038,1,8,0:0:0:0:
256,192,156107,1,8,0:0:0:0:
256,192,156175,1,0,0:0:0:0:
256,192,156243,1,0,0:0:0:0:
256,192,156311,1,8,0:0:0:0:
256,192,156379,1,8,0:0:0:0:
256,192,156448,1,8,0:0:0:0:
256,192,156516,1,8,0:0:0:0:
256,192,156584,1,0,0:0:0:0:
256,192,156652,1,0,0:0:0:0:
256,192,156720,1,0,0:0:0:0:
256,192,156857,1,4,0:0:0:0:
256,192,156993,1,8,0:0:0:0:
256,192,157062,1,0,0:0:0:0:
256,192,157130,1,0,0:0:0:0:
256,192,157198,1,0,0:0:0:0:
256,192,157266,1,8,0:0:0:0:
256,192,157334,1,8,0:0:0:0:
256,192,157403,1,0,0:0:0:0:
256,192,157471,1,0,0:0:0:0:
256,192,157539,1,8,0:0:0:0:
256,192,157607,1,0,0:0:0:0:
256,192,157675,1,0,0:0:0:0:
256,192,157743,1,0,0:0:0:0:
256,192,157812,1,8,0:0:0:0:
256,192,157880,1,8,0:0:0:0:
256,192,157948,1,0,0:0:0:0:
256,192,158084,1,8,0:0:0:0:
256,192,158221,1,8,0:0:0:0:
256,192,158357,1,0,0:0:0:0:
256,192,158493,1,8,0:0:0:0:
256,192,158630,1,0,0:0:0:0:
256,192,158766,1,8,0:0:0:0:
256,192,158903,1,8,0:0:0:0:
256,192,159039,1,0,0:0:0:0:
256,192,159107,1,0,0:0:0:0:
256,192,159175,1,8,0:0:0:0:
256,192,159244,1,0,0:0:0:0:
256,192,159312,1,0,0:0:0:0:
256,192,159380,1,0,0:0:0:0:
256,192,159448,1,8,0:0:0:0:
256,192,159516,1,8,0:0:0:0:
256,192,159585,1,0,0:0:0:0:
256,192,159653,1,0,0:0:0:0:
256,192,159721,1,8,0:0:0:0:
256,192,159789,1,0,0:0:0:0:
256,192,159857,1,0,0:0:0:0:
256,192,159925,1,0,0:0:0:0:
256,192,159994,1,8,0:0:0:0:
256,192,160062,1,8,0:0:0:0:
256,192,160130,1,0,0:0:0:0:
256,192,160266,1,8,0:0:0:0:
256,192,160402,1,8,0:0:0:0:
256,192,160539,1,0,0:0:0:0:
256,192,160675,1,8,0:0:0:0:
256,192,160812,1,0,0:0:0:0:
256,192,160948,1,8,0:0:0:0:
256,192,161085,1,8,0:0:0:0:
256,192,161221,1,0,0:0:0:0:
256,192,161289,1,0,0:0:0:0:
256,192,161357,1,8,0:0:0:0:
256,192,161426,1,0,0:0:0:0:
256,192,161494,1,0,0:0:0:0:
256,192,161562,1,0,0:0:0:0:
256,192,161630,1,8,0:0:0:0:
256,192,161698,1,8,0:0:0:0:
256,192,161767,1,0,0:0:0:0:
256,192,161835,1,0,0:0:0:0:
256,192,161903,1,8,0:0:0:0:
256,192,161971,1,0,0:0:0:0:
256,192,162039,1,0,0:0:0:0:
256,192,162107,1,0,0:0:0:0:
256,192,162176,1,8,0:0:0:0:
256,192,162244,1,8,0:0:0:0:
256,192,162312,1,0,0:0:0:0:
256,192,162448,1,8,0:0:0:0:
256,192,162585,1,0,0:0:0:0:
256,192,162721,1,8,0:0:0:0:
256,192,162857,1,8,0:0:0:0:
256,192,162994,1,0,0:0:0:0:
256,192,163130,1,8,0:0:0:0:
256,192,163267,1,8,0:0:0:0:
256,192,163402,1,0,0:0:0:0:
256,192,163470,1,8,0:0:0:0:
256,192,163538,1,8,0:0:0:0:
256,192,163607,1,8,0:0:0:0:
256,192,163675,1,8,0:0:0:0:
256,192,163811,1,0,0:0:0:0:
256,192,163948,1,8,0:0:0:0:
256,192,164084,1,8,0:0:0:0:
256,192,164220,1,0,0:0:0:0:
256,192,164357,1,8,0:0:0:0:
256,192,164425,1,8,0:0:0:0:
256,192,164493,1,0,0:0:0:0:
256,192,164629,1,0,0:0:0:0:
256,192,164766,1,8,0:0:0:0:
256,192,164902,1,8,0:0:0:0:
256,192,165038,1,0,0:0:0:0:
256,192,165107,1,0,0:0:0:0:
256,192,165175,1,0,0:0:0:0:
256,192,165243,1,0,0:0:0:0:
256,192,165311,1,8,0:0:0:0:
256,192,165379,1,8,0:0:0:0:
256,192,165448,1,0,0:0:0:0:
256,192,165584,1,4,0:0:0:0:
256,192,165720,1,8,0:0:0:0:
256,192,165856,1,0,0:0:0:0:
256,192,165925,1,0,0:0:0:0:
256,192,165993,1,8,0:0:0:0:
256,192,166129,1,0,0:0:0:0:
256,192,166265,1,8,0:0:0:0:
256,192,166402,1,0,0:0:0:0:
256,192,166470,1,0,0:0:0:0:
256,192,166538,1,8,0:0:0:0:
256,192,166675,1,0,0:0:0:0:
256,192,166812,1,8,0:0:0:0:
256,192,166880,1,0,0:0:0:0:
256,192,166948,1,8,0:0:0:0:
256,192,167016,1,8,0:0:0:0:
256,192,167084,1,0,0:0:0:0:
256,192,167152,1,0,0:0:0:0:
256,192,167221,1,8,0:0:0:0:
256,192,167357,1,0,0:0:0:0:
256,192,167493,1,8,0:0:0:0:
256,192,167562,1,8,0:0:0:0:
256,192,167630,1,0,0:0:0:0:
256,192,167766,1,12,0:0:0:0:
256,192,167902,1,0,0:0:0:0:
256,192,167970,1,0,0:0:0:0:
256,192,168038,1,0,0:0:0:0:
256,192,168106,1,0,0:0:0:0:
256,192,168175,1,8,0:0:0:0:
256,192,168311,1,0,0:0:0:0:
256,192,168379,1,0,0:0:0:0:
256,192,168447,1,8,0:0:0:0:
256,192,168584,1,8,0:0:0:0:
256,192,168652,1,8,0:0:0:0:
256,192,168720,1,8,0:0:0:0:
256,192,168788,1,8,0:0:0:0:
256,192,168856,1,0,0:0:0:0:
256,192,168993,1,8,0:0:0:0:
256,192,169129,1,0,0:0:0:0:
256,192,169197,1,0,0:0:0:0:
256,192,169265,1,8,0:0:0:0:
256,192,169402,1,0,0:0:0:0:
256,192,169470,1,0,0:0:0:0:
256,192,169538,1,8,0:0:0:0:
256,192,169606,1,8,0:0:0:0:
256,192,169675,1,0,0:0:0:0:
256,192,169811,1,8,0:0:0:0:
256,192,169947,1,4,0:0:0:0:
256,192,170084,1,8,0:0:0:0:
256,192,170220,1,0,0:0:0:0:
256,192,170288,1,0,0:0:0:0:
256,192,170356,1,8,0:0:0:0:
256,192,170493,1,0,0:0:0:0:
256,192,170629,1,8,0:0:0:0:
256,192,170697,1,8,0:0:0:0:
256,192,170765,1,0,0:0:0:0:
256,192,170834,1,0,0:0:0:0:
256,192,170902,1,8,0:0:0:0:
256,192,171038,1,0,0:0:0:0:
256,192,171175,1,8,0:0:0:0:
256,192,171243,1,0,0:0:0:0:
256,192,171311,1,0,0:0:0:0:
256,192,171379,1,0,0:0:0:0:
256,192,171447,1,8,0:0:0:0:
256,192,171515,1,8,0:0:0:0:
256,192,171584,1,0,0:0:0:0:
256,192,171720,1,8,0:0:0:0:
256,192,171856,1,8,0:0:0:0:
256,192,171925,1,8,0:0:0:0:
256,192,171993,1,8,0:0:0:0:
256,192,172129,1,4,0:0:0:0:
256,192,172265,1,8,0:0:0:0:
256,192,172402,1,0,0:0:0:0:
256,192,172470,1,0,0:0:0:0:
256,192,172538,1,8,0:0:0:0:
256,192,172606,1,8,0:0:0:0:
256,192,172675,1,0,0:0:0:0:
256,192,172811,1,8,0:0:0:0:
256,192,172947,1,0,0:0:0:0:
256,192,173015,1,0,0:0:0:0:
256,192,173084,1,8,0:0:0:0:
256,192,173220,1,0,0:0:0:0:
256,192,173356,1,8,0:0:0:0:
256,192,173425,1,8,0:0:0:0:
256,192,173493,1,0,0:0:0:0:
256,192,173561,1,0,0:0:0:0:
256,192,173629,1,8,0:0:0:0:
256,192,173697,1,0,0:0:0:0:
256,192,173765,1,8,0:0:0:0:
256,192,173834,1,8,0:0:0:0:
256,192,173902,1,0,0:0:0:0:
256,192,173970,1,0,0:0:0:0:
256,192,174038,1,8,0:0:0:0:
256,192,174106,1,8,0:0:0:0:
256,192,174175,1,0,0:0:0:0:
256,192,174311,1,4,0:0:0:0:
256,192,174447,1,8,0:0:0:0:
256,192,174584,1,0,0:0:0:0:
256,192,174652,1,0,0:0:0:0:
256,192,174720,1,8,0:0:0:0:
256,192,174856,1,0,0:0:0:0:
256,192,174993,1,8,0:0:0:0:
256,192,175061,1,8,0:0:0:0:
256,192,175129,1,0,0:0:0:0:
256,192,175197,1,0,0:0:0:0:
256,192,175265,1,8,0:0:0:0:
256,192,175402,1,0,0:0:0:0:
256,192,175538,1,8,0:0:0:0:
256,192,175675,1,0,0:0:0:0:
256,192,175743,1,0,0:0:0:0:
256,192,175811,1,8,0:0:0:0:
256,192,175879,1,0,0:0:0:0:
256,192,176015,1,0,0:0:0:0:
256,192,176084,1,8,0:0:0:0:
256,192,176220,1,0,0:0:0:0:
256,192,176288,1,0,0:0:0:0:
256,192,176356,1,8,0:0:0:0:
256,192,176493,1,0,0:0:0:0:
256,192,176629,1,8,0:0:0:0:
256,192,176697,1,8,0:0:0:0:
256,192,176765,1,0,0:0:0:0:
256,192,176834,1,0,0:0:0:0:
256,192,176902,1,8,0:0:0:0:
256,192,177038,1,0,0:0:0:0:
256,192,177175,1,8,0:0:0:0:
256,192,177311,1,0,0:0:0:0:
256,192,177379,1,0,0:0:0:0:
256,192,177447,1,8,0:0:0:0:
256,192,177584,1,8,0:0:0:0:
256,192,177652,1,8,0:0:0:0:
256,192,177720,1,8,0:0:0:0:
256,192,177788,1,8,0:0:0:0:
256,192,177857,1,0,0:0:0:0:
256,192,177925,1,0,0:0:0:0:
256,192,177993,1,8,0:0:0:0:
256,192,178061,1,0,0:0:0:0:
256,192,178129,1,8,0:0:0:0:
256,192,178198,1,8,0:0:0:0:
256,192,178266,1,8,0:0:0:0:
256,192,178334,1,8,0:0:0:0:
256,192,178402,1,0,0:0:0:0:
256,192,178470,1,0,0:0:0:0:
256,192,178538,1,0,0:0:0:0:
256,192,178675,1,4,0:0:0:0:
256,192,178811,1,8,0:0:0:0:
256,192,178947,1,0,0:0:0:0:
256,192,179015,1,0,0:0:0:0:
256,192,179084,1,8,0:0:0:0:
256,192,179220,1,0,0:0:0:0:
256,192,179288,1,0,0:0:0:0:
256,192,179356,1,8,0:0:0:0:
256,192,179425,1,8,0:0:0:0:
256,192,179493,1,0,0:0:0:0:
256,192,179561,1,0,0:0:0:0:
256,192,179629,1,8,0:0:0:0:
256,192,179765,1,0,0:0:0:0:
256,192,179902,1,8,0:0:0:0:
256,192,179970,1,8,0:0:0:0:
256,192,180038,1,0,0:0:0:0:
256,192,180106,1,0,0:0:0:0:
256,192,180175,1,8,0:0:0:0:
256,192,180311,1,0,0:0:0:0:
256,192,180447,1,8,0:0:0:0:
256,192,180584,1,0,0:0:0:0:
256,192,180652,1,0,0:0:0:0:
256,192,180720,1,8,0:0:0:0:
256,192,180857,1,0,0:0:0:0:
256,192,180925,1,0,0:0:0:0:
256,192,180993,1,8,0:0:0:0:
256,192,181061,1,8,0:0:0:0:
256,192,181129,1,8,0:0:0:0:
256,192,181198,1,8,0:0:0:0:
256,192,181266,1,0,0:0:0:0:
256,192,181334,1,0,0:0:0:0:
256,192,181402,1,8,0:0:0:0:
256,192,181470,1,8,0:0:0:0:
256,192,181538,1,0,0:0:0:0:
256,192,181607,1,0,0:0:0:0:
256,192,181675,1,8,0:0:0:0:
256,192,181743,1,8,0:0:0:0:
256,192,181811,1,0,0:0:0:0:
256,192,181948,1,12,0:0:0:0:
256,192,182129,1,12,0:0:0:0:
256,192,182311,1,12,0:0:0:0:
256,192,182493,1,8,0:0:0:0:
256,192,182561,1,8,0:0:0:0:
256,192,182629,1,8,0:0:0:0:
256,192,182698,1,8,0:0:0:0:
256,192,182766,1,0,0:0:0:0:
256,192,182834,1,0,0:0:0:0:
256,192,182902,1,0,0:0:0:0:
256,192,183038,1,4,0:0:0:0:
256,192,183311,1,0,0:0:0:0:
256,192,183379,1,0,0:0:0:0:
256,192,183447,1,8,0:0:0:0:
256,192,183583,1,0,0:0:0:0:
256,192,183720,1,8,0:0:0:0:
256,192,183788,1,8,0:0:0:0:
256,192,183856,1,0,0:0:0:0:
256,192,183992,1,0,0:0:0:0:
256,192,184129,1,8,0:0:0:0:
256,192,184197,1,8,0:0:0:0:
256,192,184265,1,8,0:0:0:0:
256,192,184333,1,8,0:0:0:0:
256,192,184401,1,0,0:0:0:0:
256,192,184470,1,0,0:0:0:0:
256,192,184538,1,8,0:0:0:0:
256,192,184606,1,8,0:0:0:0:
256,192,184674,1,0,0:0:0:0:
256,192,184811,1,8,0:0:0:0:
256,192,184947,1,0,0:0:0:0:
256,192,185015,1,0,0:0:0:0:
256,192,185083,1,8,0:0:0:0:
256,192,185220,1,4,0:0:0:0:
256,192,185492,1,0,0:0:0:0:
256,192,185561,1,0,0:0:0:0:
256,192,185629,1,8,0:0:0:0:
256,192,185765,1,0,0:0:0:0:
256,192,185901,1,8,0:0:0:0:
256,192,185970,1,8,0:0:0:0:
256,192,186038,1,0,0:0:0:0:
256,192,186107,1,0,0:0:0:0:
256,192,186174,1,8,0:0:0:0:
256,192,186311,1,0,0:0:0:0:
256,192,186448,1,8,0:0:0:0:
256,192,186584,1,8,0:0:0:0:
256,192,186652,1,8,0:0:0:0:
256,192,186720,1,8,0:0:0:0:
256,192,186788,1,8,0:0:0:0:
256,192,186857,1,0,0:0:0:0:
256,192,186925,1,0,0:0:0:0:
256,192,186993,1,0,0:0:0:0:
256,192,187061,1,0,0:0:0:0:
256,192,187129,1,8,0:0:0:0:
256,192,187198,1,8,0:0:0:0:
256,192,187266,1,8,0:0:0:0:
256,192,187402,1,4,0:0:0:0:
256,192,187675,1,0,0:0:0:0:
256,192,187743,1,0,0:0:0:0:
256,192,187811,1,8,0:0:0:0:
256,192,187947,1,0,0:0:0:0:
256,192,188084,1,8,0:0:0:0:
256,192,188152,1,8,0:0:0:0:
256,192,188220,1,0,0:0:0:0:
256,192,188356,1,0,0:0:0:0:
256,192,188425,1,0,0:0:0:0:
256,192,188493,1,8,0:0:0:0:
256,192,188561,1,0,0:0:0:0:
256,192,188629,1,8,0:0:0:0:
256,192,188698,1,8,0:0:0:0:
256,192,188765,1,0,0:0:0:0:
256,192,188902,1,8,0:0:0:0:
256,192,189038,1,0,0:0:0:0:
256,192,189107,1,0,0:0:0:0:
256,192,189175,1,8,0:0:0:0:
256,192,189243,1,8,0:0:0:0:
256,192,189311,1,0,0:0:0:0:
256,192,189447,1,8,0:0:0:0:
256,192,189584,1,8,0:0:0:0:
256,192,189652,1,8,0:0:0:0:
256,192,189720,1,8,0:0:0:0:
256,192,189788,1,8,0:0:0:0:
256,192,189857,1,0,0:0:0:0:
256,192,189925,1,0,0:0:0:0:
256,192,189993,1,8,0:0:0:0:
256,192,190061,1,8,0:0:0:0:
256,192,190129,1,0,0:0:0:0:
256,192,190198,1,0,0:0:0:0:
256,192,190266,1,8,0:0:0:0:
256,192,190334,1,8,0:0:0:0:
256,192,190402,1,0,0:0:0:0:
256,192,190470,1,0,0:0:0:0:
256,192,190538,1,8,0:0:0:0:
256,192,190607,1,0,0:0:0:0:
256,192,190675,1,8,0:0:0:0:
256,192,190743,1,8,0:0:0:0:
256,192,190811,1,8,0:0:0:0:
256,192,190879,1,8,0:0:0:0:
256,192,190948,1,0,0:0:0:0:
256,192,191016,1,0,0:0:0:0:
256,192,191084,1,0,0:0:0:0:
256,192,191152,1,0,0:0:0:0:
256,192,191220,1,8,0:0:0:0:
256,192,191288,1,8,0:0:0:0:
256,192,191357,1,0,0:0:0:0:
256,192,191425,1,0,0:0:0:0:
256,192,191493,1,8,0:0:0:0:
256,192,191561,1,8,0:0:0:0:
256,192,191629,1,0,0:0:0:0:
256,192,191766,1,4,0:0:0:0:
256,192,191902,1,4,0:0:0:0:
