osu file format v14

[General]
AudioFilename: audio.mp3
AudioLeadIn: 0
PreviewTime: -1
Countdown: 1
SampleSet: Normal
StackLeniency: 0.7
Mode: 0
LetterboxInBreaks: 0
WidescreenStoryboard: 1

[Editor]
DistanceSpacing: 1.8
BeatDivisor: 4
GridSize: 8
TimelineZoom: 2.5

[Metadata]
Title:Judgement Day
TitleUnicode:Judgement Day
Artist:Dragonforce
ArtistUnicode:Dragonforce
Creator:notelock
Version:Apocalypse
Source:
Tags:
BeatmapID:1987838
BeatmapSetID:951928

[Difficulty]
HPDrainRate:6
CircleSize:4
OverallDifficulty:9.4
ApproachRate:9.8
SliderMultiplier:1.4
SliderTickRate:1

[Events]
//Background and Video events
0,0,"f361f86aa52fd926a5e1440efb99ff56.jpg",0,0
//Break Periods
2,182970,187092
2,286470,296292
//Storyboard Layer 0 (Background)
//Storyboard Layer 1 (Fail)
//Storyboard Layer 2 (Pass)
//Storyboard Layer 3 (Foreground)
//Storyboard Layer 4 (Overlay)
//Storyboard Sound Samples

[TimingPoints]
47171,300,4,1,0,73,1,0
63671,-333.333333333333,4,1,0,73,0,0
63971,-100,4,1,0,73,0,0
87971,-100,4,3,0,73,0,0
97571,-76.9230769230769,4,1,0,73,0,0
146771,-76.9230769230769,4,3,0,73,0,0
173171,-125,4,3,0,73,0,0
174371,-83.3333333333333,4,3,0,73,0,0
177971,-263.157894736841,4,1,0,73,0,0
191021,-125,4,1,0,73,0,0
218771,-76.9230769230769,4,1,0,73,0,0
226571,-40,4,1,0,73,0,0
227171,-76.9230769230769,4,1,0,73,0,0
232571,-71.4285714285714,4,1,0,73,0,0
238571,-100,4,1,0,73,0,0
244871,-83.3333333333333,4,1,0,73,0,0
246371,-100,4,1,0,73,0,0
270971,-62.5,4,1,0,73,0,0
278171,-100,4,1,0,73,0,0
284771,500,4,1,0,100,1,0
284771,-217.391304347826,4,1,0,73,0,0
300771,-166.666666666667,4,1,0,73,0,0
301771,-100,4,1,0,73,0,0
346516,-100,4,1,0,63,0,0
349516,-100,4,1,0,55,0,0
350766,-100,4,1,0,50,0,0
351516,-100,4,1,0,40,0,0
352766,-100,4,1,0,40,0,0
354391,-100,4,1,0,37,0,0
355766,-100,4,1,0,35,0,0
356266,-100,4,1,0,31,0,0
356766,-100,4,1,0,26,0,0
357516,-100,4,1,0,17,0,0
358766,-100,4,1,0,12,0,0
359516,-100,4,1,0,9,0,0

[HitObjects]
256,192,43571,12,0,47096,0:0:0:0:
103,100,47171,6,0,L|79:142,3,35,0|0|0|0,3:3|3:3|3:3|3:3,3:3:0:0:
158,181,47471,2,0,L|174:226,3,35
89,244,47771,2,0,L|65:286,3,35,0|0|0|0,3:3|3:3|3:3|3:3,3:3:0:0:
189,305,48071,1,0,0:0:0:0:
220,290,48146,1,0,0:0:0:0:
252,276,48221,1,0,0:0:0:0:
284,262,48296,1,0,0:0:0:0:
313,250,48371,6,0,L|352:229,3,35,0|0|0|0,3:3|3:3|3:3|3:3,3:3:0:0:
278,94,48671,2,0,L|256:137,3,35
126,198,48971,2,0,L|174:200,3,35,0|0|0|0,3:3|3:3|3:3|3:3,3:3:0:0:
309,222,49271,1,0,0:0:0:0:
342,214,49346,1,0,0:0:0:0:
372,195,49421,1,0,0:0:0:0:
393,167,49496,1,0,0:0:0:0:
403,134,49571,6,0,L|407:87,3,35,0|0|0|0,3:3|3:3|3:3|3:3,3:3:0:0:
254,118,49871,2,0,L|278:144,3,35
205,226,50171,2,0,L|162:213,3,35,0|0|0|0,3:3|3:3|3:3|3:3,3:3:0:0:
249,327,50471,1,0,0:0:0:0:
281,315,50546,1,0,0:0:0:0:
316,309,50621,1,0,0:0:0:0:
351,310,50696,1,0,0:0:0:0:
382,315,50771,6,0,L|423:323,3,35,0|0|0|0,3:3|3:3|3:3|3:3,3:3:0:0:
396,180,51071,2,0,L|362:177,3,35
413,51,51371,2,0,L|451:58,3,35,0|0|0|0,3:3|3:3|3:3|3:3,3:3:0:0:
201,23,51671,1,0,0:0:0:0:
155,48,51746,1,0,0:0:0:0:
130,94,51821,1,0,0:0:0:0:
132,145,51896,1,0,0:0:0:0:
144,184,51971,5,0,3:3:0:0:
167,209,52046,1,0,3:3:0:0:
194,231,52121,1,0,3:3:0:0:
225,248,52196,1,0,3:3:0:0:
257,257,52271,2,0,L|291:267,3,35,0|0|0|0,3:3|3:3|3:3|3:3,3:3:0:0:
440,180,52571,1,0,3:3:0:0:
420,208,52646,1,0,3:3:0:0:
406,240,52721,1,0,3:3:0:0:
400,275,52796,1,0,3:3:0:0:
402,310,52871,6,0,L|411:351,3,35,0|0|0|0,3:3|3:3|3:3|3:3,3:3:0:0:
298,305,53171,1,0,3:3:0:0:
265,290,53246,1,0,3:3:0:0:
233,276,53321,1,0,3:3:0:0:
201,262,53396,1,0,3:3:0:0:
169,248,53471,2,0,L|126:227,3,35,0|0|0|0,3:3|3:3|3:3|3:3,3:3:0:0:
209,109,53771,2,0,L|226:140,3,35,0|0|0|0,3:3|3:3|3:3|3:3,3:3:0:0:
349,129,54071,2,0,L|371:92,3,35,0|0|0|0,3:3|3:3|3:3|3:3,3:3:0:0:
434,215,54371,5,0,3:3:0:0:
395,235,54446,1,0,3:3:0:0:
356,255,54521,1,0,3:3:0:0:
317,275,54596,1,0,3:3:0:0:
278,295,54671,2,0,L|221:293,3,35,0|0|0|0,3:3|3:3|3:3|3:3,3:3:0:0:
111,229,54971,1,0,3:3:0:0:
141,198,55046,1,0,3:3:0:0:
167,162,55121,1,0,3:3:0:0:
187,123,55196,1,0,3:3:0:0:
201,82,55271,2,0,L|212:33,3,35,0|0|0|0,3:3|3:3|3:3|3:3,3:3:0:0:
325,122,55571,6,0,L|352:94,3,35,0|0|0|0,3:3|3:3|3:3|3:3,3:3:0:0:
368,261,55871,2,0,L|348:221,3,35,0|0|0|0,3:3|3:3|3:3|3:3,3:3:0:0:
241,326,56171,2,0,L|264:290,3,35,0|0|0|0,3:3|3:3|3:3|3:3,3:3:0:0:
125,256,56471,1,0,3:3:0:0:
110,246,56546,1,0,3:3:0:0:
95,237,56621,1,0,3:3:0:0:
80,227,56696,1,0,3:3:0:0:
64,217,56771,2,0,L|56:175,1,35,8|0,3:3|3:3,3:3:0:0:
69,97,56921,5,0,3:3:0:0:
98,79,56996,1,0,3:3:0:0:
128,61,57071,1,0,3:3:0:0:
155,47,57146,1,0,3:3:0:0:
187,34,57221,1,8,3:3:0:0:
221,28,57296,1,0,3:3:0:0:
256,30,57371,1,0,3:3:0:0:
289,40,57446,1,0,3:3:0:0:
319,58,57521,1,0,3:3:0:0:
339,85,57596,1,0,3:3:0:0:
356,116,57671,2,0,L|370:149,3,35,8|0|0|0,3:3|3:3|3:3|3:3,3:3:0:0:
351,201,57971,5,0,3:3:0:0:
329,228,58046,1,0,3:3:0:0:
308,256,58121,1,0,3:3:0:0:
287,284,58196,1,0,3:3:0:0:
244,268,58271,1,0,3:3:0:0:
215,287,58346,1,0,3:3:0:0:
184,304,58421,1,0,3:3:0:0:
155,322,58496,1,0,3:3:0:0:
117,340,58571,1,0,3:3:0:0:
88,303,58646,1,0,3:3:0:0:
59,266,58721,1,0,3:3:0:0:
30,229,58796,1,0,3:3:0:0:
0,192,58871,1,0,3:3:0:0:
0,129,58946,1,0,3:3:0:0:
42,82,59021,1,0,3:3:0:0:
102,64,59096,1,0,3:3:0:0:
161,80,59171,6,0,P|191:99|211:138,1,70,0|0,3:3|3:3,3:3:0:0:
284,252,59471,1,0,0:0:0:0:
284,252,59546,1,0,0:0:0:0:
284,252,59621,1,0,0:0:0:0:
387,111,59771,1,0,3:3:0:0:
434,279,59921,1,0,3:3:0:0:
302,163,60071,1,0,0:0:0:0:
302,163,60146,1,0,0:0:0:0:
302,163,60221,1,0,0:0:0:0:
195,301,60371,6,0,L|151:214,1,70,0|0,3:3|3:3,3:3:0:0:
218,71,60671,1,0,0:0:0:0:
218,71,60746,1,0,0:0:0:0:
218,71,60821,1,0,0:0:0:0:
325,209,60971,1,0,3:3:0:0:
150,223,61121,1,0,3:3:0:0:
293,323,61271,1,0,0:0:0:0:
293,323,61346,1,0,0:0:0:0:
293,323,61421,6,0,L|310:236,1,70
195,313,61721,1,0,0:0:0:0:
167,140,61871,1,0,0:0:0:0:
255,256,62021,1,0,0:0:0:0:
223,83,62171,1,0,0:0:0:0:
151,242,62321,1,0,0:0:0:0:
126,68,62471,1,0,0:0:0:0:
289,221,62621,1,0,0:0:0:0:
291,46,62771,5,0,0:0:0:0:
322,32,62846,1,0,0:0:0:0:
357,30,62921,1,0,0:0:0:0:
390,42,62996,1,0,0:0:0:0:
416,65,63071,1,0,0:0:0:0:
431,96,63146,1,0,0:0:0:0:
434,131,63221,1,0,0:0:0:0:
424,164,63296,1,0,0:0:0:0:
402,191,63371,1,0,0:0:0:0:
374,212,63446,1,0,0:0:0:0:
346,233,63521,1,0,0:0:0:0:
318,255,63596,1,0,0:0:0:0:
290,276,63671,2,0,L|254:286,1,31.4999990386963
185,228,63971,5,0,0:0:0:0:
185,228,64046,1,0,0:0:0:0:
185,228,64121,1,0,0:0:0:0:
108,70,64271,1,0,0:0:0:0:
62,239,64421,1,0,0:0:0:0:
191,121,64571,1,0,0:0:0:0:
274,274,64721,1,0,0:0:0:0:
361,122,64871,1,0,0:0:0:0:
361,122,64946,5,0,0:0:0:0:
361,122,65021,1,0,0:0:0:0:
407,290,65171,1,0,0:0:0:0:
251,209,65321,1,0,0:0:0:0:
331,53,65471,1,0,0:0:0:0:
383,220,65621,2,0,L|340:298,1,70
230,150,65921,1,0,0:0:0:0:
230,150,66071,2,0,L|171:209,1,70
47,315,66371,5,0,0:0:0:0:
215,267,66521,1,0,0:0:0:0:
77,159,66671,1,0,0:0:0:0:
272,176,66821,1,0,0:0:0:0:
90,249,66971,1,0,0:0:0:0:
229,110,67121,1,0,0:0:0:0:
47,184,67271,1,0,0:0:0:0:
256,265,67421,1,0,0:0:0:0:
109,134,67571,5,0,0:0:0:0:
103,99,67646,1,0,0:0:0:0:
111,65,67721,1,0,0:0:0:0:
131,37,67796,1,0,0:0:0:0:
160,18,67871,1,0,0:0:0:0:
195,11,67946,1,0,0:0:0:0:
229,18,68021,1,0,0:0:0:0:
258,37,68096,1,0,0:0:0:0:
278,65,68171,1,0,0:0:0:0:
297,94,68246,1,0,0:0:0:0:
324,116,68321,1,0,0:0:0:0:
357,128,68396,1,0,0:0:0:0:
392,128,68471,1,0,0:0:0:0:
425,118,68546,1,0,0:0:0:0:
453,97,68621,1,0,0:0:0:0:
473,68,68696,1,0,0:0:0:0:
482,35,68771,5,4,0:0:0:0:
431,224,68921,1,0,0:0:0:0:
329,56,69071,1,0,0:0:0:0:
310,254,69221,1,0,0:0:0:0:
437,78,69371,1,0,0:0:0:0:
426,287,69521,1,0,0:0:0:0:
307,113,69671,1,0,0:0:0:0:
175,259,69821,1,0,0:0:0:0:
358,287,69971,6,0,L|362:199,1,70
248,56,70271,2,0,L|269:146,1,70
164,304,70571,2,0,P|189:226|180:151,1,140
73,70,71021,1,0,0:0:0:0:
70,295,71171,2,0,L|117:222,1,70
262,108,71471,1,0,0:0:0:0:
262,108,71546,1,0,0:0:0:0:
262,108,71621,5,0,0:0:0:0:
375,267,71771,1,0,0:0:0:0:
185,217,71921,1,0,0:0:0:0:
372,161,72071,1,0,0:0:0:0:
372,161,72146,1,0,0:0:0:0:
372,161,72221,1,0,0:0:0:0:
259,321,72371,1,0,0:0:0:0:
97,209,72521,1,0,0:0:0:0:
291,181,72671,6,0,L|259:147,1,35
175,121,72821,1,0,0:0:0:0:
335,303,72971,1,0,0:0:0:0:
368,109,73121,1,0,0:0:0:0:
464,258,73271,2,0,L|477:290,1,35
466,384,73421,1,0,0:0:0:0:
383,46,73571,5,0,0:0:0:0:
348,40,73646,1,0,0:0:0:0:
313,44,73721,1,0,0:0:0:0:
281,58,73796,1,0,0:0:0:0:
253,77,73871,2,0,P|208:104|169:113,1,70
65,71,74171,1,0,0:0:0:0:
174,180,74321,1,0,0:0:0:0:
152,22,74471,1,0,0:0:0:0:
73,201,74621,1,0,0:0:0:0:
267,225,74771,5,0,0:0:0:0:
267,225,74846,1,0,0:0:0:0:
267,225,74921,1,0,0:0:0:0:
403,84,75071,1,0,0:0:0:0:
403,84,75146,1,0,0:0:0:0:
403,84,75221,1,0,0:0:0:0:
418,279,75371,1,0,0:0:0:0:
418,279,75446,1,0,0:0:0:0:
418,279,75521,1,0,0:0:0:0:
303,120,75671,1,0,0:0:0:0:
303,120,75746,1,0,0:0:0:0:
303,120,75821,1,0,0:0:0:0:
225,252,75971,5,0,0:0:0:0:
186,286,76046,1,0,0:0:0:0:
135,298,76121,1,0,0:0:0:0:
86,284,76196,1,0,0:0:0:0:
49,247,76271,1,0,0:0:0:0:
35,197,76346,1,0,0:0:0:0:
47,146,76421,1,0,0:0:0:0:
78,105,76496,1,0,0:0:0:0:
125,83,76571,6,0,P|142:78|160:78,1,35
228,149,76721,1,0,0:0:0:0:
258,187,76796,1,0,0:0:0:0:
300,211,76871,1,0,0:0:0:0:
348,217,76946,1,0,0:0:0:0:
395,205,77021,1,0,0:0:0:0:
434,176,77096,1,0,0:0:0:0:
454,145,77171,5,0,3:1:0:0:
261,79,77321,1,0,3:1:0:0:
485,14,77471,1,0,3:1:0:0:
111,164,77771,5,0,3:1:0:0:
304,230,77921,1,0,3:1:0:0:
80,295,78071,1,0,3:1:0:0:
80,295,78371,6,0,L|117:217,1,70
268,104,78671,1,0,0:0:0:0:
268,104,78746,1,0,0:0:0:0:
268,104,78821,1,0,0:0:0:0:
336,295,78971,1,0,0:0:0:0:
170,177,79121,1,0,0:0:0:0:
368,135,79271,2,0,L|409:113,2,35
223,277,79571,5,0,0:0:0:0:
80,132,79721,1,0,0:0:0:0:
275,187,79871,1,0,0:0:0:0:
275,187,79946,1,0,0:0:0:0:
275,187,80021,1,0,0:0:0:0:
140,34,80171,2,0,L|188:99,1,70
378,144,80471,2,0,L|342:70,1,70
167,177,80771,5,0,0:0:0:0:
366,213,80921,1,0,0:0:0:0:
180,294,81071,1,0,0:0:0:0:
382,287,81221,1,0,0:0:0:0:
228,154,81371,1,0,0:0:0:0:
386,63,81521,1,0,0:0:0:0:
256,233,81671,1,0,0:0:0:0:
441,328,81821,1,0,0:0:0:0:
318,89,81971,5,0,0:0:0:0:
134,242,82121,2,0,B|125:275|125:275|173:238|232:226,1,140
391,174,82571,2,0,L|419:145,3,35
418,250,82871,2,0,L|393:275,3,35
324,246,83171,6,0,L|253:290,1,70
84,189,83471,2,0,L|50:167,2,35
272,114,83771,1,0,0:0:0:0:
145,272,83921,1,0,0:0:0:0:
340,216,84071,1,0,0:0:0:0:
340,216,84146,1,0,0:0:0:0:
340,216,84221,1,0,0:0:0:0:
147,122,84371,6,0,L|196:72,1,70
348,89,84671,1,0,0:0:0:0:
348,89,84746,1,0,0:0:0:0:
348,89,84821,1,0,0:0:0:0:
339,291,84971,1,0,0:0:0:0:
476,141,85121,1,0,0:0:0:0:
280,196,85271,1,0,0:0:0:0:
280,196,85346,1,0,0:0:0:0:
280,196,85421,1,0,0:0:0:0:
85,137,85571,5,0,0:0:0:0:
233,275,85721,1,0,0:0:0:0:
325,94,85871,1,0,0:0:0:0:
163,217,86021,1,0,0:0:0:0:
78,67,86171,1,0,0:0:0:0:
280,196,86321,1,0,0:0:0:0:
436,115,86471,1,0,0:0:0:0:
348,271,86621,1,0,0:0:0:0:
145,267,86771,5,0,0:0:0:0:
108,246,86846,1,0,0:0:0:0:
82,214,86921,1,0,0:0:0:0:
69,174,86996,1,0,0:0:0:0:
73,133,87071,1,0,0:0:0:0:
92,95,87146,1,0,0:0:0:0:
123,68,87221,1,0,0:0:0:0:
161,49,87296,1,0,0:0:0:0:
202,42,87371,5,0,0:0:0:0:
237,44,87446,1,0,0:0:0:0:
270,55,87521,1,0,0:0:0:0:
300,74,87596,1,0,0:0:0:0:
326,96,87671,1,0,0:0:0:0:
328,122,87746,1,0,0:0:0:0:
330,148,87821,1,0,0:0:0:0:
332,174,87896,1,0,0:0:0:0:
334,200,87971,6,0,P|326:221|311:237,3,35,0|0|0|0,3:3|3:3|3:3|3:3,3:3:0:0:
299,254,88271,1,0,3:3:0:0:
271,232,88346,1,0,3:3:0:0:
239,217,88421,1,0,3:3:0:0:
206,208,88496,1,0,3:3:0:0:
171,207,88571,2,0,L|129:208,3,35,0|0|0|0,3:3|3:3|3:3|3:3,3:3:0:0:
101,201,88871,1,0,3:3:0:0:
70,183,88946,1,0,3:3:0:0:
52,154,89021,1,0,3:3:0:0:
50,119,89096,1,0,3:3:0:0:
64,88,89171,2,0,L|87:51,3,35,0|0|0|0,3:3|3:3|3:3|3:3,3:3:0:0:
167,98,89471,2,0,L|189:135,3,35,0|0|0|0,3:3|3:3|3:3|3:3,3:3:0:0:
271,89,89771,2,0,L|293:51,3,35,0|0|0|0,3:3|3:3|3:3|3:3,3:3:0:0:
345,24,90071,5,2,0:0:0:0:
462,139,90221,1,2,0:0:0:0:
391,301,90371,1,0,3:3:0:0:
401,287,90446,1,0,3:3:0:0:
412,273,90521,1,0,3:3:0:0:
423,259,90596,1,0,3:3:0:0:
433,245,90671,2,0,L|414:207,3,35,0|0|0|0,3:3|3:3|3:3|3:3,3:3:0:0:
246,250,90971,1,0,3:3:0:0:
232,261,91046,1,0,3:3:0:0:
218,271,91121,1,0,3:3:0:0:
204,280,91196,1,0,3:3:0:0:
189,290,91271,2,0,L|151:268,3,35,0|0|0|0,3:3|3:3|3:3|3:3,3:3:0:0:
168,83,91571,5,0,3:3:0:0:
197,101,91646,1,0,3:3:0:0:
230,114,91721,1,0,3:3:0:0:
264,119,91796,1,0,3:3:0:0:
299,118,91871,2,0,L|347:110,3,35,0|0|0|0,3:3|3:3|3:3|3:3,3:3:0:0:
368,233,92171,1,0,3:3:0:0:
352,240,92246,1,0,3:3:0:0:
336,247,92321,1,0,3:3:0:0:
320,254,92396,1,0,3:3:0:0:
304,261,92471,2,0,L|252:261,3,35,0|0|0|0,3:3|3:3|3:3|3:3,3:3:0:0:
175,231,92771,5,0,3:2:0:0:
151,226,92846,1,0,3:2:0:0:
130,213,92921,1,0,3:2:0:0:
115,194,92996,1,0,3:2:0:0:
109,170,93071,1,0,3:2:0:0:
111,146,93146,1,0,3:2:0:0:
122,124,93221,1,0,3:2:0:0:
140,108,93296,1,0,3:2:0:0:
162,99,93371,5,0,3:2:0:0:
206,88,93446,1,0,3:2:0:0:
251,96,93521,1,0,3:2:0:0:
288,122,93596,1,0,3:2:0:0:
312,160,93671,1,0,3:2:0:0:
319,205,93746,1,0,3:2:0:0:
307,248,93821,1,0,3:2:0:0:
279,283,93896,1,0,3:2:0:0:
239,304,93971,5,0,3:2:0:0:
197,262,94046,1,0,3:2:0:0:
176,207,94121,1,0,3:2:0:0:
178,148,94196,1,0,3:2:0:0:
203,95,94271,1,0,3:2:0:0:
248,56,94346,1,0,3:2:0:0:
304,38,94421,1,0,3:2:0:0:
363,44,94496,1,0,3:2:0:0:
414,73,94571,5,0,0:0:0:0:
378,111,94646,1,0,0:0:0:0:
342,150,94721,1,0,0:0:0:0:
307,188,94796,1,0,0:0:0:0:
271,226,94871,1,0,0:0:0:0:
235,265,94946,1,0,0:0:0:0:
199,303,95021,1,0,0:0:0:0:
154,327,95096,1,0,0:0:0:0:
103,319,95171,5,0,0:0:0:0:
94,261,95246,1,0,0:0:0:0:
121,209,95321,1,0,0:0:0:0:
173,183,95396,1,0,0:0:0:0:
231,193,95471,1,0,0:0:0:0:
289,198,95546,1,0,0:0:0:0:
338,167,95621,1,0,0:0:0:0:
357,112,95696,1,0,0:0:0:0:
337,57,95771,1,0,0:0:0:0:
287,26,95846,1,0,0:0:0:0:
230,33,95921,1,0,0:0:0:0:
188,80,95996,1,0,0:0:0:0:
197,138,96071,1,0,0:0:0:0:
231,186,96146,1,0,0:0:0:0:
283,213,96221,1,0,0:0:0:0:
342,213,96296,1,0,0:0:0:0:
395,186,96371,5,0,0:0:0:0:
75,125,96521,1,0,0:0:0:0:
375,31,96671,1,0,0:0:0:0:
229,289,96971,5,0,0:0:0:0:
469,278,97121,1,0,0:0:0:0:
325,117,97271,1,0,0:0:0:0:
325,117,97571,5,0,3:3:0:0:
325,117,97646,1,0,3:3:0:0:
325,117,97721,2,0,L|281:178,1,45.4999979171754,0|0,3:3|3:3,3:3:0:0:
209,245,97871,1,0,3:3:0:0:
209,245,97946,1,0,3:3:0:0:
209,245,98021,2,0,L|165:184,1,45.4999979171754,0|0,3:3|3:3,3:3:0:0:
133,90,98171,1,0,3:3:0:0:
133,90,98246,1,0,3:3:0:0:
133,90,98321,2,0,L|198:127,1,45.4999979171754,0|0,3:3|3:3,3:3:0:0:
330,199,98471,1,0,3:3:0:0:
330,199,98546,1,0,3:3:0:0:
330,199,98621,2,0,L|258:222,1,45.4999979171754,0|0,3:3|3:3,3:3:0:0:
97,249,98771,5,0,3:3:0:0:
97,249,98846,1,0,3:3:0:0:
97,249,98921,2,0,L|172:247,1,45.4999979171754,0|0,3:3|3:3,3:3:0:0:
215,143,99071,1,0,3:3:0:0:
215,143,99146,1,0,3:3:0:0:
215,143,99221,2,0,L|278:183,1,45.4999979171754,0|0,3:3|3:3,3:3:0:0:
306,300,99371,1,0,3:3:0:0:
306,300,99446,1,0,3:3:0:0:
306,300,99521,2,0,L|369:259,1,45.4999979171754,0|0,3:3|3:3,3:3:0:0:
435,136,99671,1,0,3:3:0:0:
435,136,99746,1,0,3:3:0:0:
435,136,99821,2,0,L|376:88,1,45.4999979171754,0|0,3:3|3:3,3:3:0:0:
248,81,99971,5,0,3:3:0:0:
234,109,100046,1,0,3:3:0:0:
219,137,100121,2,0,L|168:167,1,45.4999979171754,0|0,3:3|3:3,3:3:0:0:
37,203,100271,1,0,3:3:0:0:
51,231,100346,1,0,3:3:0:0:
66,259,100421,2,0,L|117:289,1,45.4999979171754,0|0,3:3|3:3,3:3:0:0:
232,289,100571,1,0,3:3:0:0:
264,257,100646,1,0,3:3:0:0:
281,215,100721,2,0,L|281:157,1,45.4999979171754,0|0,3:3|3:3,3:3:0:0:
319,48,100871,1,0,3:3:0:0:
341,87,100946,1,0,3:3:0:0:
367,127,101021,2,0,L|386:185,1,45.4999979171754,0|0,3:3|3:3,3:3:0:0:
369,297,101171,5,0,3:3:0:0:
320,326,101246,1,0,3:3:0:0:
264,333,101321,1,0,3:3:0:0:
211,316,101396,1,0,3:3:0:0:
175,283,101471,2,0,L|123:228,3,45.4999979171754,0|0|0|0,3:3|3:3|3:3|3:3,3:3:0:0:
256,189,101771,1,0,3:3:0:0:
269,170,101846,1,0,3:3:0:0:
278,149,101921,1,0,3:3:0:0:
283,127,101996,1,0,3:3:0:0:
287,111,102071,2,0,L|277:59,1,45.4999979171754,0|0,3:3|3:3,3:3:0:0:
145,79,102221,2,0,L|174:115,1,45.4999979171754,0|0,3:3|3:3,3:3:0:0:
88,205,102371,5,8,2:3:0:0:
93,249,102446,1,0,2:3:0:0:
122,283,102521,1,0,2:3:0:0:
165,295,102596,1,0,2:3:0:0:
208,280,102671,5,8,2:3:0:0:
247,302,102746,1,0,2:3:0:0:
291,297,102821,1,0,2:3:0:0:
325,267,102896,1,0,2:3:0:0:
334,223,102971,5,8,2:3:0:0:
290,211,103046,1,0,2:3:0:0:
257,180,103121,1,0,2:3:0:0:
241,138,103196,1,0,2:3:0:0:
244,93,103271,5,8,2:3:0:0:
288,80,103346,1,0,2:3:0:0:
332,85,103421,1,0,2:3:0:0:
372,108,103496,1,0,2:3:0:0:
399,144,103571,5,8,2:3:0:0:
443,143,103646,1,0,2:3:0:0:
476,113,103721,1,0,2:3:0:0:
481,69,103796,1,0,2:3:0:0:
455,33,103871,5,8,2:3:0:0:
415,54,103946,1,0,2:3:0:0:
371,63,104021,1,0,2:3:0:0:
326,57,104096,1,0,2:3:0:0:
285,38,104171,5,8,2:3:0:0:
262,77,104246,1,0,2:3:0:0:
224,101,104321,1,0,2:3:0:0:
179,105,104396,1,0,2:3:0:0:
138,87,104471,5,8,2:3:0:0:
112,124,104546,1,0,2:3:0:0:
102,168,104621,1,0,2:3:0:0:
108,213,104696,1,0,2:3:0:0:
130,253,104771,6,0,L|161:305,3,45.4999979171754,8|0|0|0,2:3|2:3|2:3|2:3,2:3:0:0:
280,287,105071,2,0,L|254:245,1,45.4999979171754,8|0,2:3|2:3,2:3:0:0:
236,158,105221,1,8,2:3:0:0:
263,116,105296,1,0,2:3:0:0:
305,88,105371,1,8,2:3:0:0:
353,77,105446,1,0,2:3:0:0:
402,85,105521,1,0,2:3:0:0:
445,110,105596,1,0,2:3:0:0:
476,150,105671,1,8,2:3:0:0:
490,197,105746,1,0,2:3:0:0:
485,247,105821,1,0,2:3:0:0:
463,291,105896,1,0,2:3:0:0:
425,324,105971,6,0,L|363:341,1,45.4999979171754,8|0,2:3|2:3,2:3:0:0:
254,311,106121,2,0,L|191:294,3,45.4999979171754,0|0|0|0,2:3|2:3|2:3|2:3,2:3:0:0:
88,256,106421,2,0,L|65:189,1,45.4999979171754,0|0,2:3|2:3,2:3:0:0:
92,87,106571,2,0,L|151:113,3,45.4999979171754,0|0|0|0,2:3|2:3|2:3|2:3,2:3:0:0:
263,150,106871,2,0,L|319:118,3,45.4999979171754,0|0|0|0,2:3|2:3|2:3|2:3,2:3:0:0:
382,226,107171,5,0,3:3:0:0:
382,226,107246,1,0,3:3:0:0:
382,226,107321,2,0,L|335:266,1,45.4999979171754,0|0,3:3|3:3,3:3:0:0:
157,261,107471,1,0,3:3:0:0:
157,261,107546,1,0,3:3:0:0:
157,261,107621,2,0,L|204:301,1,45.4999979171754,0|0,3:3|3:3,3:3:0:0:
417,320,107771,1,0,3:3:0:0:
417,320,107846,1,0,3:3:0:0:
417,320,107921,2,0,L|355:315,1,45.4999979171754,0|0,3:3|3:3,3:3:0:0:
204,187,108071,1,0,3:3:0:0:
204,187,108146,1,0,3:3:0:0:
204,187,108221,2,0,L|251:147,1,45.4999979171754,0|0,3:3|3:3,3:3:0:0:
433,162,108371,5,0,3:3:0:0:
433,162,108446,1,0,3:3:0:0:
433,162,108521,2,0,L|445:98,1,45.4999979171754,0|0,3:3|3:3,3:3:0:0:
273,40,108671,1,0,3:3:0:0:
273,40,108746,1,0,3:3:0:0:
273,40,108821,2,0,L|285:104,1,45.4999979171754,0|0,3:3|3:3,3:3:0:0:
155,173,108971,1,0,3:3:0:0:
155,173,109046,1,0,3:3:0:0:
155,173,109121,2,0,L|143:109,1,45.4999979171754,0|0,3:3|3:3,3:3:0:0:
260,262,109271,1,0,3:3:0:0:
260,262,109346,1,0,3:3:0:0:
260,262,109421,2,0,L|251:306,1,45.4999979171754,0|0,3:3|3:3,3:3:0:0:
374,326,109571,5,0,3:3:0:0:
374,326,109646,1,0,3:3:0:0:
374,326,109721,2,0,L|366:254,1,45.4999979171754,0|0,3:3|3:3,3:3:0:0:
283,174,109871,1,0,3:3:0:0:
283,174,109946,1,0,3:3:0:0:
283,174,110021,2,0,L|234:120,1,45.4999979171754,0|0,3:3|3:3,3:3:0:0:
81,138,110171,1,0,3:3:0:0:
81,138,110246,1,0,3:3:0:0:
81,138,110321,2,0,L|89:210,1,45.4999979171754,0|0,3:3|3:3,3:3:0:0:
172,290,110471,1,0,3:3:0:0:
172,290,110546,1,0,3:3:0:0:
172,290,110621,2,0,L|220:343,1,45.4999979171754,0|0,3:3|3:3,3:3:0:0:
394,305,110771,5,0,3:3:0:0:
394,305,110846,1,0,3:3:0:0:
394,305,110921,2,0,L|387:242,1,45.4999979171754,0|0,3:3|3:3,3:3:0:0:
260,63,111071,1,0,3:3:0:0:
260,63,111146,1,0,3:3:0:0:
260,63,111221,2,0,L|253:126,1,45.4999979171754,0|0,3:3|3:3,3:3:0:0:
152,332,111371,1,0,3:3:0:0:
152,332,111446,1,0,3:3:0:0:
152,332,111521,2,0,L|145:269,1,45.4999979171754,0|0,3:3|3:3,3:3:0:0:
78,171,111671,5,0,3:3:0:0:
75,159,111746,1,0,3:3:0:0:
73,148,111821,1,0,3:3:0:0:
70,137,111896,1,0,3:3:0:0:
68,126,111971,6,0,P|87:68|126:32,1,90.9999958343508,4|4,0:0|0:0,0:0:0:0:
210,183,112271,1,0,1:2:0:0:
323,52,112421,1,0,1:2:0:0:
343,62,112496,1,0,1:2:0:0:
361,70,112571,1,0,1:2:0:0:
189,89,112721,1,0,1:2:0:0:
341,171,112871,1,0,1:2:0:0:
374,200,112946,1,0,1:2:0:0:
391,242,113021,1,0,1:2:0:0:
388,287,113096,1,0,1:2:0:0:
364,326,113171,6,0,P|320:350|268:347,1,90.9999958343508,0|0,1:2|1:2,1:2:0:0:
129,263,113471,1,0,1:2:0:0:
122,246,113546,1,0,1:2:0:0:
113,231,113621,1,0,1:2:0:0:
196,79,113771,1,0,1:2:0:0:
260,239,113921,2,0,L|337:174,1,90.9999958343508,0|0,1:2|1:2,1:2:0:0:
420,327,114221,1,0,1:2:0:0:
247,318,114371,5,0,3:3:0:0:
186,300,114446,1,0,3:3:0:0:
146,252,114521,1,0,3:3:0:0:
138,190,114596,1,0,3:3:0:0:
165,133,114671,1,0,3:3:0:0:
219,101,114746,1,0,3:3:0:0:
282,103,114821,1,0,3:3:0:0:
338,133,114896,1,0,3:3:0:0:
369,188,114971,6,0,L|391:235,1,45.4999979171754,0|0,3:3|3:3,3:3:0:0:
314,337,115121,2,0,L|286:266,1,45.4999979171754,0|0,3:3|3:3,3:3:0:0:
238,182,115271,2,0,L|217:234,1,45.4999979171754,0|0,3:3|3:3,3:3:0:0:
172,339,115421,2,0,L|149:290,1,45.4999979171754,0|0,3:3|3:3,3:3:0:0:
59,181,115571,1,4,0:0:0:0:
443,102,115871,1,4,0:0:0:0:
77,343,116171,1,4,0:0:0:0:
306,44,116471,1,4,0:0:0:0:
267,295,116771,5,0,3:3:0:0:
303,334,116846,1,0,3:3:0:0:
356,343,116921,1,0,3:3:0:0:
403,318,116996,1,0,3:3:0:0:
425,269,117071,1,0,3:3:0:0:
412,217,117146,1,0,3:3:0:0:
370,183,117221,1,0,3:3:0:0:
316,183,117296,1,0,3:3:0:0:
273,216,117371,1,0,3:3:0:0:
239,257,117446,1,0,3:3:0:0:
187,273,117521,1,0,3:3:0:0:
136,257,117596,1,0,3:3:0:0:
103,214,117671,1,0,3:3:0:0:
100,160,117746,1,0,3:3:0:0:
128,115,117821,1,0,3:3:0:0:
178,93,117896,1,0,3:3:0:0:
232,90,117971,6,0,L|286:110,3,45.4999979171754,0|0|0|0,2:0|2:0|2:0|2:0,2:0:0:0:
321,168,118271,2,0,L|363:152,3,45.4999979171754,0|0|0|0,2:0|2:0|2:0|2:0,2:0:0:0:
435,182,118571,2,0,P|469:222|374:245,1,181.999991668702
353,74,119021,1,2,0:0:0:0:
134,307,119171,5,8,3:3:0:0:
85,274,119246,1,0,3:3:0:0:
59,221,119321,1,0,3:3:0:0:
63,163,119396,1,0,3:3:0:0:
94,114,119471,1,8,3:3:0:0:
146,86,119546,1,0,3:3:0:0:
205,88,119621,1,0,3:3:0:0:
254,119,119696,1,0,3:3:0:0:
281,172,119771,1,8,3:3:0:0:
321,214,119846,1,0,3:3:0:0:
377,227,119921,1,0,3:3:0:0:
432,208,119996,1,0,3:3:0:0:
467,161,120071,1,8,3:3:0:0:
471,103,120146,1,0,3:3:0:0:
442,52,120221,1,0,3:3:0:0:
390,25,120296,1,0,3:3:0:0:
332,32,120371,2,0,P|246:75|142:65,1,181.999991668702,0|0,3:3|3:3,3:3:0:0:
50,103,120821,5,0,0:0:0:0:
259,227,120971,2,0,P|350:209|396:117,1,181.999991668702
395,138,121571,6,0,L|408:88,1,45.4999979171754
273,79,121721,2,0,L|293:126,1,45.4999979171754
155,136,121871,2,0,L|167:87,1,45.4999979171754
38,75,122021,2,0,L|48:129,1,45.4999979171754
71,210,122171,1,0,3:3:0:0:
86,226,122246,1,0,3:3:0:0:
102,242,122321,1,0,3:3:0:0:
118,259,122396,1,0,3:3:0:0:
133,275,122471,5,0,3:3:0:0:
167,279,122546,1,0,3:3:0:0:
201,283,122621,1,0,3:3:0:0:
235,287,122696,1,0,3:3:0:0:
269,291,122771,5,0,3:3:0:0:
310,273,122846,1,0,3:3:0:0:
339,238,122921,1,0,3:3:0:0:
349,194,122996,1,0,3:3:0:0:
340,150,123071,1,0,3:3:0:0:
295,154,123146,1,0,3:3:0:0:
251,144,123221,1,0,3:3:0:0:
212,120,123296,1,0,3:3:0:0:
184,85,123371,1,0,3:3:0:0:
131,106,123446,1,0,3:3:0:0:
92,147,123521,1,0,3:3:0:0:
74,200,123596,1,0,3:3:0:0:
79,256,123671,1,0,3:3:0:0:
147,268,123746,1,0,3:3:0:0:
214,279,123821,1,0,3:3:0:0:
281,290,123896,1,0,3:3:0:0:
349,301,123971,6,0,L|431:248,2,90.9999958343508
206,184,124421,1,0,0:0:0:0:
206,184,124496,1,0,0:0:0:0:
206,184,124571,2,0,P|167:118|129:96,1,90.9999958343508
329,43,124871,2,0,L|343:152,1,90.9999958343508
320,268,125171,5,0,3:3:0:0:
261,310,125246,1,0,3:3:0:0:
190,318,125321,1,0,3:3:0:0:
124,290,125396,1,0,3:3:0:0:
80,232,125471,1,0,3:3:0:0:
71,161,125546,1,0,3:3:0:0:
98,94,125621,2,0,L|136:56,1,45.4999979171754,4|0,3:3|3:3,3:3:0:0:
333,33,125771,5,0,3:3:0:0:
398,49,125846,1,0,3:3:0:0:
441,101,125921,1,0,3:3:0:0:
443,168,125996,1,0,3:3:0:0:
405,223,126071,1,0,3:3:0:0:
341,243,126146,1,0,3:3:0:0:
278,221,126221,1,0,3:3:0:0:
241,165,126296,1,0,3:3:0:0:
247,97,126371,5,4,0:0:0:0:
479,235,126521,1,0,0:0:0:0:
408,42,126671,1,0,0:0:0:0:
174,304,126971,5,4,0:0:0:0:
124,46,127121,1,0,0:0:0:0:
22,224,127271,1,0,0:0:0:0:
255,185,127571,6,0,P|302:141|354:132,1,90.9999958343508
401,224,127871,1,2,0:0:0:0:
401,224,127946,1,0,0:0:0:0:
401,224,128021,1,0,0:0:0:0:
339,324,128171,2,0,L|243:273,1,90.9999958343508
142,307,128471,1,2,0:0:0:0:
142,307,128546,1,0,0:0:0:0:
142,307,128621,1,0,0:0:0:0:
96,197,128771,5,0,0:0:0:0:
249,302,128921,1,0,0:0:0:0:
202,193,129071,1,2,0:0:0:0:
202,193,129146,1,0,0:0:0:0:
202,193,129221,1,0,0:0:0:0:
293,118,129371,6,0,L|316:218,1,90.9999958343508
448,314,129671,2,0,L|412:219,1,90.9999958343508
232,173,129971,1,0,0:0:0:0:
413,112,130121,1,0,0:0:0:0:
226,70,130271,1,0,0:0:0:0:
346,218,130421,1,0,0:0:0:0:
284,37,130571,1,0,0:0:0:0:
241,223,130721,1,0,0:0:0:0:
170,45,130871,1,0,0:0:0:0:
146,234,131021,1,0,0:0:0:0:
307,131,131171,6,0,L|321:241,1,90.9999958343508
316,241,131396,1,0,0:0:0:0:
309,260,131471,1,0,0:0:0:0:
140,166,131621,1,0,0:0:0:0:
134,133,131696,1,0,0:0:0:0:
130,100,131771,2,0,L|121:52,3,45.4999979171754
258,46,132071,2,0,L|237:162,1,90.9999958343508
251,323,132371,6,0,P|310:284|331:256,1,90.9999958343508
283,138,132671,1,2,0:0:0:0:
283,138,132746,1,0,0:0:0:0:
283,138,132821,1,0,0:0:0:0:
119,155,132971,2,0,L|205:189,1,90.9999958343508
340,196,133271,1,2,0:0:0:0:
369,170,133346,1,0,0:0:0:0:
393,142,133421,1,0,0:0:0:0:
285,57,133571,6,0,P|219:56|165:68,1,90.9999958343508
101,160,133871,1,2,0:0:0:0:
101,160,133946,1,0,0:0:0:0:
101,160,134021,1,0,0:0:0:0:
183,268,134171,2,0,L|216:165,1,90.9999958343508
353,36,134471,2,0,L|320:139,1,90.9999958343508
124,79,134771,5,0,0:0:0:0:
187,199,134921,1,0,0:0:0:0:
305,132,135071,1,0,0:0:0:0:
236,310,135221,1,0,0:0:0:0:
114,162,135371,1,0,0:0:0:0:
282,252,135521,1,0,0:0:0:0:
251,63,135671,1,0,0:0:0:0:
163,233,135821,1,0,0:0:0:0:
288,171,135971,5,0,3:3:0:0:
296,164,136046,1,0,3:3:0:0:
305,157,136121,1,0,3:3:0:0:
314,150,136196,1,0,3:3:0:0:
323,143,136271,1,0,3:3:0:0:
332,136,136346,1,0,3:3:0:0:
341,129,136421,1,0,3:3:0:0:
350,122,136496,1,0,3:3:0:0:
359,115,136571,5,8,3:3:0:0:
394,87,136646,1,0,3:3:0:0:
439,84,136721,1,0,3:3:0:0:
477,107,136796,1,0,3:3:0:0:
495,148,136871,1,8,3:3:0:0:
486,192,136946,1,0,3:3:0:0:
454,223,137021,1,0,3:3:0:0:
409,230,137096,1,0,3:3:0:0:
365,216,137171,6,0,L|320:193,3,45.4999979171754,0|0|0|0,3:3|3:3|3:3|3:3,3:3:0:0:
192,140,137471,1,0,3:3:0:0:
162,123,137546,1,0,3:3:0:0:
128,118,137621,1,0,3:3:0:0:
95,126,137696,1,0,3:3:0:0:
67,145,137771,2,0,L|35:192,3,45.4999979171754,0|0|0|0,3:3|3:3|3:3|3:3,3:3:0:0:
58,287,138071,1,0,3:3:0:0:
89,304,138146,1,0,3:3:0:0:
124,316,138221,1,0,3:3:0:0:
160,320,138296,1,0,3:3:0:0:
196,317,138371,2,0,L|250:306,3,45.4999979171754,8|0|0|0,3:3|3:3|3:3|3:3,3:3:0:0:
324,327,138671,2,0,L|377:315,3,45.4999979171754,8|0|0|0,3:3|3:3|3:3|3:3,3:3:0:0:
444,238,138971,5,8,3:3:0:0:
461,215,139046,1,0,3:3:0:0:
472,189,139121,1,0,3:3:0:0:
474,161,139196,1,0,3:3:0:0:
468,133,139271,1,0,3:3:0:0:
454,108,139346,1,0,3:3:0:0:
434,89,139421,1,0,3:3:0:0:
408,76,139496,1,0,3:3:0:0:
386,64,139571,2,0,P|357:53|327:54,3,45.4999979171754,0|0|0|0,3:3|3:3|3:3|3:3,3:3:0:0:
227,75,139871,5,0,3:3:0:0:
207,115,139946,1,0,3:3:0:0:
212,159,140021,1,0,3:3:0:0:
240,195,140096,1,0,3:3:0:0:
274,219,140171,2,0,L|339:225,3,45.4999979171754,0|0|0|0,3:3|3:3|3:3|3:3,3:3:0:0:
456,264,140471,2,0,L|395:284,1,45.4999979171754,0|0,3:3|3:3,3:3:0:0:
304,322,140621,2,0,L|263:305,1,45.4999979171754,0|0,3:3|3:3,3:3:0:0:
153,237,140771,1,8,3:3:0:0:
124,202,140846,1,0,3:3:0:0:
117,157,140921,1,0,3:3:0:0:
132,115,140996,1,0,3:3:0:0:
166,86,141071,1,8,3:3:0:0:
211,78,141146,1,0,3:3:0:0:
254,90,141221,1,0,3:3:0:0:
297,101,141296,1,0,3:3:0:0:
330,100,141371,5,8,3:3:0:0:
355,103,141446,1,0,3:3:0:0:
379,113,141521,1,0,3:3:0:0:
400,129,141596,1,0,3:3:0:0:
415,150,141671,2,0,L|438:200,3,45.4999979171754,0|0|0|0,3:3|3:3|3:3|3:3,3:3:0:0:
320,257,141971,5,8,3:3:0:0:
310,252,142046,1,0,3:3:0:0:
300,246,142121,1,0,3:3:0:0:
290,241,142196,1,0,3:3:0:0:
280,235,142271,1,0,3:3:0:0:
270,230,142346,1,0,3:3:0:0:
260,225,142421,1,0,3:3:0:0:
250,219,142496,1,0,3:3:0:0:
234,208,142571,5,8,3:3:0:0:
208,186,142646,1,0,3:3:0:0:
196,154,142721,1,0,3:3:0:0:
197,120,142796,1,0,3:3:0:0:
210,89,142871,1,0,3:3:0:0:
234,65,142946,1,0,3:3:0:0:
265,51,143021,1,0,3:3:0:0:
299,49,143096,1,0,3:3:0:0:
337,56,143171,5,8,3:3:0:0:
386,82,143246,1,0,3:3:0:0:
419,128,143321,1,0,3:3:0:0:
426,184,143396,1,0,3:3:0:0:
407,237,143471,1,0,3:3:0:0:
366,275,143546,1,0,3:3:0:0:
312,291,143621,1,0,3:3:0:0:
257,280,143696,1,0,3:3:0:0:
209,249,143771,5,8,3:3:0:0:
154,219,143846,1,0,3:3:0:0:
98,244,143921,1,0,3:3:0:0:
83,304,143996,1,0,3:3:0:0:
121,352,144071,1,0,3:3:0:0:
182,352,144146,1,0,3:3:0:0:
239,324,144221,1,0,3:3:0:0:
302,316,144296,1,0,3:3:0:0:
363,330,144371,5,8,3:3:0:0:
432,316,144446,1,0,3:3:0:0:
468,255,144521,1,0,3:3:0:0:
448,187,144596,1,0,3:3:0:0:
384,156,144671,1,8,3:3:0:0:
319,183,144746,1,0,3:3:0:0:
255,213,144821,1,8,3:3:0:0:
192,182,144896,1,0,3:3:0:0:
177,113,144971,1,0,3:3:0:0:
222,59,145046,1,0,3:3:0:0:
293,61,145121,1,8,3:3:0:0:
335,117,145196,1,0,3:3:0:0:
339,191,145271,1,8,3:3:0:0:
300,253,145346,1,0,3:3:0:0:
233,283,145421,1,8,3:3:0:0:
161,270,145496,1,0,3:3:0:0:
109,217,145571,6,8,L|88:77,1,136.499993751526,8|12,3:3|3:3,3:3:0:0:
287,97,146021,1,2,3:3:0:0:
172,256,146771,6,0,L|119:229,3,45.4999979171754
186,130,147071,2,0,L|158:85,3,45.4999979171754
313,120,147371,2,0,L|363:89,3,45.4999979171754
413,199,147671,2,0,L|465:199,3,45.4999979171754
393,299,147971,5,0,0:0:0:0:
362,306,148046,1,0,0:0:0:0:
330,306,148121,1,0,0:0:0:0:
298,301,148196,1,0,0:0:0:0:
269,289,148271,1,0,0:0:0:0:
242,272,148346,1,0,0:0:0:0:
220,249,148421,1,0,0:0:0:0:
202,223,148496,1,0,0:0:0:0:
190,193,148571,5,0,0:0:0:0:
201,163,148646,1,0,0:0:0:0:
218,137,148721,1,0,0:0:0:0:
243,116,148796,1,0,0:0:0:0:
271,103,148871,1,0,0:0:0:0:
303,98,148946,1,0,0:0:0:0:
334,101,149021,1,0,0:0:0:0:
364,112,149096,1,0,0:0:0:0:
389,132,149171,6,0,L|432:167,3,45.4999979171754
309,234,149471,2,0,L|256:261,3,45.4999979171754
113,177,149771,2,0,L|172:159,3,45.4999979171754
310,71,150071,2,0,L|358:88,3,45.4999979171754
421,237,150371,5,0,0:0:0:0:
407,260,150446,1,0,0:0:0:0:
389,281,150521,1,0,0:0:0:0:
367,296,150596,1,0,0:0:0:0:
342,307,150671,1,0,0:0:0:0:
315,311,150746,1,0,0:0:0:0:
288,309,150821,1,0,0:0:0:0:
262,302,150896,1,0,0:0:0:0:
238,288,150971,6,0,L|189:255,3,45.4999979171754
48,228,151271,2,0,L|98:200,3,45.4999979171754
220,82,151571,5,0,0:0:0:0:
250,73,151646,1,0,0:0:0:0:
281,65,151721,2,0,L|336:69,1,45.4999979171754
462,176,151871,1,0,0:0:0:0:
446,203,151946,1,0,0:0:0:0:
429,230,152021,2,0,L|386:265,1,45.4999979171754
233,329,152171,1,0,0:0:0:0:
205,315,152246,1,0,0:0:0:0:
177,299,152321,2,0,L|146:265,1,45.4999979171754
286,196,152471,1,0,0:0:0:0:
310,177,152546,1,0,0:0:0:0:
335,156,152621,2,0,L|364:109,1,45.4999979171754
214,75,152771,5,0,0:0:0:0:
188,94,152846,1,0,0:0:0:0:
156,100,152921,2,0,L|105:100,1,45.4999979171754
8,177,153071,1,0,0:0:0:0:
34,196,153146,1,0,0:0:0:0:
66,202,153221,2,0,L|117:202,1,45.4999979171754
304,257,153371,1,0,0:0:0:0:
302,224,153446,1,0,0:0:0:0:
286,196,153521,2,0,L|253:156,1,45.4999979171754
145,66,153671,1,0,0:0:0:0:
114,75,153746,1,0,0:0:0:0:
90,98,153821,2,0,L|60:139,1,45.4999979171754
98,273,153971,5,0,0:0:0:0:
128,306,154046,1,0,0:0:0:0:
169,323,154121,1,0,0:0:0:0:
214,321,154196,1,0,0:0:0:0:
254,300,154271,5,0,0:0:0:0:
296,317,154346,1,0,0:0:0:0:
341,314,154421,1,0,0:0:0:0:
380,292,154496,1,0,0:0:0:0:
406,255,154571,1,0,0:0:0:0:
414,211,154646,1,0,0:0:0:0:
401,167,154721,1,0,0:0:0:0:
371,134,154796,1,0,0:0:0:0:
329,117,154871,1,0,0:0:0:0:
285,108,154946,1,0,0:0:0:0:
240,107,155021,1,0,0:0:0:0:
197,119,155096,1,0,0:0:0:0:
166,133,155171,6,0,L|105:157,1,45.4999979171754
103,242,155321,2,0,L|48:273,3,45.4999979171754
261,315,155621,2,0,L|325:278,1,45.4999979171754
430,197,155771,2,0,L|360:185,3,45.4999979171754
206,140,156071,2,0,L|273:127,3,45.4999979171754
348,68,156371,5,0,0:0:0:0:
377,82,156446,1,0,0:0:0:0:
399,107,156521,1,0,0:0:0:0:
410,137,156596,1,0,0:0:0:0:
409,170,156671,1,0,0:0:0:0:
396,200,156746,1,0,0:0:0:0:
373,224,156821,1,0,0:0:0:0:
343,237,156896,1,0,0:0:0:0:
310,237,156971,1,0,0:0:0:0:
279,226,157046,1,0,0:0:0:0:
255,204,157121,1,0,0:0:0:0:
240,174,157196,1,0,0:0:0:0:
235,138,157271,6,0,L|254:89,3,45.4999979171754
315,59,157571,1,0,0:0:0:0:
343,94,157646,1,0,0:0:0:0:
381,118,157721,1,0,0:0:0:0:
425,130,157796,1,0,0:0:0:0:
468,142,157871,1,0,0:0:0:0:
494,178,157946,1,0,0:0:0:0:
493,223,158021,1,0,0:0:0:0:
464,257,158096,1,0,0:0:0:0:
420,267,158171,1,0,0:0:0:0:
380,247,158246,1,0,0:0:0:0:
348,215,158321,1,0,0:0:0:0:
310,191,158396,1,0,0:0:0:0:
267,176,158471,6,0,P|236:167|215:166,3,45.4999979171754
102,167,158771,1,0,0:0:0:0:
63,204,158846,1,0,0:0:0:0:
48,256,158921,1,0,0:0:0:0:
62,308,158996,1,0,0:0:0:0:
100,346,159071,1,0,0:0:0:0:
153,359,159146,1,0,0:0:0:0:
204,344,159221,1,0,0:0:0:0:
242,305,159296,1,0,0:0:0:0:
279,265,159371,1,0,0:0:0:0:
328,243,159446,1,0,0:0:0:0:
383,241,159521,1,0,0:0:0:0:
433,260,159596,1,0,0:0:0:0:
470,293,159671,2,0,L|495:334,3,45.4999979171754
381,344,159971,5,0,0:0:0:0:
323,333,160046,1,0,0:0:0:0:
280,294,160121,1,0,0:0:0:0:
265,237,160196,1,0,0:0:0:0:
282,182,160271,1,0,0:0:0:0:
321,139,160346,1,0,0:0:0:0:
324,81,160421,1,0,0:0:0:0:
290,34,160496,1,0,0:0:0:0:
244,11,160571,2,0,B|214:2|214:2|180:6,3,45.4999979171754
67,103,160871,2,0,L|112:107,3,45.4999979171754
181,251,161171,5,0,0:0:0:0:
203,256,161246,1,0,0:0:0:0:
224,263,161321,2,0,L|271:277,1,45.4999979171754
441,198,161471,5,0,0:0:0:0:
437,170,161546,1,0,0:0:0:0:
435,142,161621,2,0,L|402:91,1,45.4999979171754
244,130,161771,5,0,0:0:0:0:
215,115,161846,1,0,0:0:0:0:
186,101,161921,2,0,L|136:80,1,45.4999979171754
54,200,162071,5,0,0:0:0:0:
57,236,162146,1,0,0:0:0:0:
65,271,162221,2,0,L|96:318,1,45.4999979171754
248,335,162371,5,0,0:0:0:0:
286,322,162446,1,0,0:0:0:0:
322,302,162521,2,0,P|352:277|365:258,1,45.4999979171754
412,156,162671,1,0,0:0:0:0:
392,114,162746,1,0,0:0:0:0:
364,77,162821,1,0,0:0:0:0:
325,52,162896,1,0,0:0:0:0:
283,32,162971,2,0,L|227:11,3,45.4999979171754
64,120,163271,2,0,P|88:138|118:145,3,45.4999979171754
264,96,163571,5,0,0:0:0:0:
310,48,163646,1,0,0:0:0:0:
377,48,163721,1,0,0:0:0:0:
424,95,163796,1,0,0:0:0:0:
424,161,163871,1,0,0:0:0:0:
378,209,163946,1,0,0:0:0:0:
317,229,164021,1,0,0:0:0:0:
295,290,164096,1,0,0:0:0:0:
330,344,164171,1,0,0:0:0:0:
393,350,164246,1,0,0:0:0:0:
438,304,164321,1,0,0:0:0:0:
427,239,164396,1,0,0:0:0:0:
386,188,164471,1,0,0:0:0:0:
322,172,164546,1,0,0:0:0:0:
260,193,164621,1,0,0:0:0:0:
219,251,164696,1,0,0:0:0:0:
212,316,164771,5,0,0:0:0:0:
271,23,165071,1,0,0:0:0:0:
465,159,165371,1,0,0:0:0:0:
329,352,165671,1,0,0:0:0:0:
135,217,165971,5,0,0:0:0:0:
92,203,166046,1,0,0:0:0:0:
63,169,166121,1,0,0:0:0:0:
58,124,166196,1,0,0:0:0:0:
78,84,166271,1,0,0:0:0:0:
116,62,166346,1,0,0:0:0:0:
161,64,166421,1,0,0:0:0:0:
199,88,166496,1,0,0:0:0:0:
243,99,166571,1,0,0:0:0:0:
288,95,166646,1,0,0:0:0:0:
329,76,166721,1,0,0:0:0:0:
371,58,166796,1,0,0:0:0:0:
415,61,166871,1,0,0:0:0:0:
454,85,166946,1,0,0:0:0:0:
476,124,167021,1,0,0:0:0:0:
478,169,167096,1,0,0:0:0:0:
458,210,167171,6,0,L|444:256,3,45.4999979171754
337,266,167471,2,0,L|306:308,3,45.4999979171754
203,253,167771,1,0,0:0:0:0:
190,248,167846,1,0,0:0:0:0:
178,244,167921,1,0,0:0:0:0:
166,239,167996,1,0,0:0:0:0:
154,235,168071,1,0,0:0:0:0:
141,230,168146,1,0,0:0:0:0:
129,226,168221,1,0,0:0:0:0:
117,222,168296,1,0,0:0:0:0:
103,218,168371,2,0,L|45:198,3,45.4999979171754
209,142,168671,2,0,L|252:156,3,45.4999979171754
371,291,168971,2,0,L|327:276,3,45.4999979171754
469,214,169271,2,0,L|512:228,3,45.4999979171754
411,123,169571,5,0,0:0:0:0:
379,109,169646,1,0,0:0:0:0:
348,95,169721,1,0,0:0:0:0:
317,82,169796,1,0,0:0:0:0:
285,68,169871,1,0,0:0:0:0:
263,95,169946,1,0,0:0:0:0:
242,121,170021,1,0,0:0:0:0:
220,147,170096,1,0,0:0:0:0:
190,174,170171,1,0,0:0:0:0:
158,160,170246,1,0,0:0:0:0:
127,146,170321,1,0,0:0:0:0:
96,133,170396,1,0,0:0:0:0:
67,122,170471,1,0,0:0:0:0:
69,162,170546,1,0,0:0:0:0:
66,196,170621,1,0,0:0:0:0:
63,230,170696,1,0,0:0:0:0:
60,264,170771,5,0,0:0:0:0:
74,306,170846,1,0,0:0:0:0:
110,333,170921,1,0,0:0:0:0:
154,337,170996,1,0,0:0:0:0:
194,315,171071,1,0,0:0:0:0:
230,288,171146,1,0,0:0:0:0:
274,278,171221,1,0,0:0:0:0:
319,286,171296,1,0,0:0:0:0:
357,311,171371,1,0,0:0:0:0:
393,337,171446,1,0,0:0:0:0:
438,339,171521,1,0,0:0:0:0:
476,317,171596,1,0,0:0:0:0:
496,276,171671,1,0,0:0:0:0:
497,230,171746,1,0,0:0:0:0:
477,189,171821,1,0,0:0:0:0:
442,160,171896,1,0,0:0:0:0:
398,150,171971,6,0,L|340:162,3,45.4999979171754
237,246,172271,2,0,L|179:258,3,45.4999979171754
229,101,172571,2,0,L|171:113,3,45.4999979171754
68,197,172871,2,0,L|10:209,3,45.4999979171754
21,308,173171,6,8,L|34:281,1,28,8|0,0:0|0:0,0:0:0:0:
112,144,173321,2,8,L|125:177,1,28,8|0,0:0|0:0,0:0:0:0:
180,324,173471,2,8,L|197:291,1,28,8|0,0:0|0:0,0:0:0:0:
189,81,173621,2,8,L|201:56,1,28,8|0,0:0|0:0,0:0:0:0:
259,210,173771,2,8,L|269:236,1,28,8|0,0:0|0:0,0:0:0:0:
348,97,173921,2,8,L|360:71,1,28,8|0,0:0|0:0,0:0:0:0:
423,179,174071,2,8,L|410:204,1,28,8|0,0:0|0:0,0:0:0:0:
332,342,174221,2,8,L|321:315,1,28,8|0,0:0|0:0,0:0:0:0:
166,291,174371,5,8,0:0:0:0:
166,291,174446,2,0,L|157:198,1,83.9999974365235
71,193,174671,1,8,0:0:0:0:
71,193,174746,2,0,L|62:100,1,83.9999974365235
148,110,174971,1,8,0:0:0:0:
148,110,175046,2,0,L|139:17,1,83.9999974365235
262,91,175271,1,8,0:0:0:0:
262,91,175346,2,0,L|253:184,1,83.9999974365235
248,271,175571,5,8,0:0:0:0:
259,302,175646,1,0,0:0:0:0:
282,327,175721,1,0,0:0:0:0:
311,342,175796,1,0,0:0:0:0:
344,345,175871,1,0,0:0:0:0:
386,344,175946,1,0,0:0:0:0:
422,323,176021,1,0,0:0:0:0:
442,287,176096,1,0,0:0:0:0:
442,245,176171,1,0,0:0:0:0:
420,205,176246,1,0,0:0:0:0:
413,159,176321,1,0,0:0:0:0:
430,117,176396,1,0,0:0:0:0:
421,72,176471,1,0,0:0:0:0:
400,36,176546,1,0,0:0:0:0:
365,14,176621,1,0,0:0:0:0:
324,11,176696,1,0,0:0:0:0:
290,17,176771,5,0,0:0:0:0:
256,32,176846,1,0,0:0:0:0:
234,63,176921,1,0,0:0:0:0:
230,100,176996,1,0,0:0:0:0:
238,132,177071,1,0,0:0:0:0:
253,157,177146,1,0,0:0:0:0:
260,185,177221,1,0,0:0:0:0:
259,214,177296,1,0,0:0:0:0:
249,242,177371,1,0,0:0:0:0:
232,266,177446,1,0,0:0:0:0:
222,279,177521,1,0,0:0:0:0:
210,291,177596,1,0,0:0:0:0:
196,300,177671,1,0,0:0:0:0:
181,308,177746,1,0,0:0:0:0:
168,312,177821,1,0,0:0:0:0:
154,316,177896,1,0,0:0:0:0:
144,316,177971,6,0,B|102:290|81:240|94:192|94:192|107:144|150:111|200:110|200:110|249:109|293:141|308:188|308:188|322:236|304:287|262:314|262:314|205:286|205:286|227:256|227:256|200:238|200:238|222:216|222:216|191:192|191:192|216:168|216:168|185:135,1,851.199989609375,4|0,0:0|0:0,0:0:0:0:
255,192,187571,5,0,0:0:0:0:
256,192,187646,12,0,190871,0:0:0:0:
123,262,191171,5,0,0:0:0:0:
217,112,191321,2,0,L|211:187,1,56
108,276,191621,5,0,0:0:0:0:
247,89,191771,2,0,L|241:164,1,56
90,296,192071,5,0,0:0:0:0:
281,64,192221,1,0,0:0:0:0:
215,355,192371,2,0,L|203:288,1,56
285,180,192671,5,0,0:0:0:0:
279,283,192821,1,0,0:0:0:0:
372,350,192971,2,0,L|380:289,1,56
464,44,193421,6,0,P|475:83|469:107,1,56
435,237,193721,2,0,L|428:175,1,56
350,55,194021,1,0,0:0:0:0:
281,153,194171,2,0,L|292:226,1,56
171,151,194471,2,0,L|188:23,1,112
70,106,194921,5,0,0:0:0:0:
25,198,195071,1,0,0:0:0:0:
121,243,195221,1,0,0:0:0:0:
76,335,195371,2,0,L|52:274,1,56
191,139,195821,5,0,0:0:0:0:
226,237,195971,1,0,0:0:0:0:
346,200,196121,1,0,0:0:0:0:
322,311,196271,1,0,0:0:0:0:
268,165,196421,1,0,0:0:0:0:
392,269,196571,2,0,P|422:273|492:209,1,112
442,58,197021,1,0,0:0:0:0:
344,106,197171,6,0,L|325:48,1,56
234,138,197471,1,0,0:0:0:0:
319,224,197621,1,0,0:0:0:0:
189,329,197771,1,0,0:0:0:0:
234,223,197921,2,0,L|246:282,1,56
330,341,198221,2,0,P|364:342|394:325,1,56
474,208,198521,2,0,L|468:271,1,56
372,202,198821,1,0,0:0:0:0:
457,35,198971,2,0,L|462:90,1,56
330,127,199271,5,0,0:0:0:0:
302,128,199346,1,0,0:0:0:0:
275,122,199421,1,0,0:0:0:0:
251,108,199496,1,0,0:0:0:0:
232,87,199571,5,0,0:0:0:0:
214,52,199646,1,0,0:0:0:0:
184,27,199721,1,0,0:0:0:0:
147,16,199796,1,0,0:0:0:0:
108,19,199871,1,0,0:0:0:0:
74,37,199946,1,0,0:0:0:0:
48,66,200021,1,0,0:0:0:0:
36,103,200096,1,0,0:0:0:0:
39,142,200171,2,0,L|54:175,3,28
103,289,200471,5,0,0:0:0:0:
129,324,200546,1,0,0:0:0:0:
171,339,200621,1,0,0:0:0:0:
214,330,200696,1,0,0:0:0:0:
245,299,200771,1,0,0:0:0:0:
261,252,200846,1,0,0:0:0:0:
302,224,200921,1,0,0:0:0:0:
351,225,200996,1,0,0:0:0:0:
391,256,201071,1,0,0:0:0:0:
404,304,201146,1,0,0:0:0:0:
387,350,201221,1,0,0:0:0:0:
345,377,201296,1,0,0:0:0:0:
296,375,201371,5,0,0:0:0:0:
280,321,201446,1,0,0:0:0:0:
265,267,201521,1,0,0:0:0:0:
249,214,201596,1,0,0:0:0:0:
234,160,201671,1,0,0:0:0:0:
458,195,201821,1,0,0:0:0:0:
358,55,201971,6,0,L|338:120,1,56
248,54,202271,2,0,L|231:0,1,56
148,111,202571,1,0,0:0:0:0:
35,62,202721,2,0,L|26:132,1,56
95,215,203021,5,0,0:0:0:0:
213,177,203171,1,0,0:0:0:0:
52,153,203321,1,0,0:0:0:0:
141,267,203471,1,0,0:0:0:0:
132,134,203621,1,0,0:0:0:0:
59,259,203771,2,0,L|79:321,1,56
179,352,204071,1,0,0:0:0:0:
261,268,204221,1,0,0:0:0:0:
397,328,204371,6,0,L|317:343,1,56
427,247,204671,2,0,L|482:257,1,56
341,235,204971,1,0,0:0:0:0:
326,137,205121,1,0,0:0:0:0:
394,66,205271,1,0,0:0:0:0:
480,105,205421,1,0,0:0:0:0:
411,169,205571,1,0,0:0:0:0:
297,49,205721,5,0,0:0:0:0:
206,148,205871,1,0,0:0:0:0:
282,276,206021,1,0,0:0:0:0:
229,78,206171,2,0,P|192:73|132:133,1,112
58,344,206771,6,0,L|44:282,1,56
151,193,207071,2,0,L|138:247,1,56
58,140,207371,1,0,0:0:0:0:
197,114,207521,1,0,0:0:0:0:
64,35,207671,1,0,0:0:0:0:
232,146,207821,2,0,L|241:215,1,56
315,299,208121,2,0,L|322:243,1,56
408,177,208421,1,0,0:0:0:0:
458,277,208571,5,0,0:0:0:0:
435,114,208721,1,0,0:0:0:0:
399,317,208871,2,0,L|392:368,3,28
279,329,209171,5,0,0:0:0:0:
245,349,209246,1,0,0:0:0:0:
207,353,209321,1,0,0:0:0:0:
170,339,209396,1,0,0:0:0:0:
144,310,209471,1,0,0:0:0:0:
133,273,209546,1,0,0:0:0:0:
140,235,209621,1,0,0:0:0:0:
162,203,209696,1,0,0:0:0:0:
197,185,209771,5,0,0:0:0:0:
229,194,209846,1,0,0:0:0:0:
263,193,209921,1,0,0:0:0:0:
295,184,209996,1,0,0:0:0:0:
324,166,210071,5,0,0:0:0:0:
346,128,210146,1,0,0:0:0:0:
348,84,210221,1,0,0:0:0:0:
331,43,210296,1,0,0:0:0:0:
298,13,210371,1,0,0:0:0:0:
255,2,210446,1,0,0:0:0:0:
211,11,210521,1,0,0:0:0:0:
176,38,210596,1,0,0:0:0:0:
157,78,210671,5,0,0:0:0:0:
177,125,210746,1,0,0:0:0:0:
210,162,210821,1,0,0:0:0:0:
252,188,210896,1,0,0:0:0:0:
301,200,210971,1,0,0:0:0:0:
351,196,211046,1,0,0:0:0:0:
398,176,211121,1,0,0:0:0:0:
436,144,211196,1,0,0:0:0:0:
462,101,211271,2,0,L|468:62,3,28
502,199,211571,5,0,0:0:0:0:
486,301,211721,1,0,0:0:0:0:
391,355,211871,1,0,0:0:0:0:
421,246,212021,1,0,0:0:0:0:
357,122,212171,5,0,0:0:0:0:
301,193,212321,1,0,0:0:0:0:
252,31,212471,2,0,L|241:110,1,56
169,218,212771,5,0,0:0:0:0:
77,79,212921,2,0,L|72:141,1,56
10,273,213221,1,0,0:0:0:0:
112,355,213371,1,0,0:0:0:0:
259,307,213521,1,0,0:0:0:0:
95,257,213671,1,0,0:0:0:0:
299,338,213821,2,0,L|316:269,1,56
395,157,214121,5,0,0:0:0:0:
230,97,214271,1,0,0:0:0:0:
441,234,214421,2,0,L|484:179,1,56
368,78,214721,5,0,0:0:0:0:
340,226,214871,1,0,0:0:0:0:
334,40,215021,1,0,0:0:0:0:
381,283,215171,5,0,0:0:0:0:
356,319,215246,1,0,0:0:0:0:
318,344,215321,1,0,0:0:0:0:
274,351,215396,1,0,0:0:0:0:
231,341,215471,1,0,0:0:0:0:
195,314,215546,1,0,0:0:0:0:
173,276,215621,1,0,0:0:0:0:
167,232,215696,1,0,0:0:0:0:
179,189,215771,6,0,L|195:156,1,28
129,76,215921,2,0,L|117:101,1,28
68,214,216071,2,0,L|83:180,1,28
43,45,216221,2,0,L|31:70,1,28
0,265,216371,5,0,0:0:0:0:
18,299,216446,1,0,0:0:0:0:
46,327,216521,1,0,0:0:0:0:
80,346,216596,1,0,0:0:0:0:
118,355,216671,1,0,0:0:0:0:
157,353,216746,1,0,0:0:0:0:
194,340,216821,1,0,0:0:0:0:
226,317,216896,1,0,0:0:0:0:
250,287,216971,2,0,L|263:248,1,28
337,180,217121,2,0,L|346:224,1,28
419,328,217271,2,0,L|434:250,1,56
496,117,217571,6,0,L|456:136,1,28
337,85,217721,2,0,L|362:72,1,28
251,176,217871,2,0,P|206:178|180:168,1,56
35,91,218171,6,0,L|26:131,1,28
89,229,218321,6,0,L|98:269,1,28
188,357,218471,2,0,L|200:279,1,56
236,57,218771,5,0,0:0:0:0:
299,326,218921,1,0,0:0:0:0:
366,161,219071,1,0,0:0:0:0:
186,184,219221,5,0,0:0:0:0:
475,301,219371,1,0,0:0:0:0:
303,209,219521,1,0,0:0:0:0:
350,48,219671,5,0,0:0:0:0:
240,256,219821,1,0,0:0:0:0:
383,166,219971,5,0,0:0:0:0:
113,246,220121,1,0,0:0:0:0:
331,106,220271,5,0,0:0:0:0:
148,320,220421,1,0,0:0:0:0:
396,161,220571,5,0,0:0:0:0:
99,249,220721,1,0,0:0:0:0:
339,96,220871,5,0,0:0:0:0:
138,331,221021,1,0,0:0:0:0:
74,281,221171,6,0,P|92:208|116:149,1,136.499993751526,0|0,3:0|3:0,3:0:0:0:
142,100,221471,6,0,P|172:168|190:236,1,136.499993751526
247,243,221771,5,0,0:0:0:0:
276,223,221846,1,0,0:0:0:0:
308,210,221921,1,0,0:0:0:0:
342,203,221996,1,0,0:0:0:0:
378,205,222071,1,0,0:0:0:0:
420,212,222146,1,0,0:0:0:0:
456,237,222221,1,0,0:0:0:0:
479,273,222296,1,0,0:0:0:0:
487,316,222371,6,0,L|472:360,3,45.4999979171754
363,285,222671,2,0,L|384:328,3,45.4999979171754
251,277,222971,2,0,L|240:232,3,45.4999979171754
83,122,223571,5,0,0:0:0:0:
118,159,223646,1,0,0:0:0:0:
169,168,223721,1,0,0:0:0:0:
215,145,223796,1,0,0:0:0:0:
240,98,223871,5,0,0:0:0:0:
264,133,223946,1,0,0:0:0:0:
301,156,224021,1,0,0:0:0:0:
344,160,224096,1,0,0:0:0:0:
385,145,224171,5,0,0:0:0:0:
369,166,224246,1,0,0:0:0:0:
360,190,224321,1,0,0:0:0:0:
358,216,224396,1,0,0:0:0:0:
362,242,224471,2,0,L|400:384,1,136.499993751526
340,345,224771,6,0,L|296:320,3,45.4999979171754
207,308,225071,2,0,L|160:328,3,45.4999979171754
67,262,225371,1,0,0:0:0:0:
92,224,225446,1,0,0:0:0:0:
108,181,225521,1,0,0:0:0:0:
114,136,225596,1,0,0:0:0:0:
109,93,225671,2,0,L|90:48,3,45.4999979171754
216,75,225971,6,0,P|233:110|240:168,1,90.9999958343508
432,336,226271,2,0,P|415:301|400:248,1,90.9999958343508
121,164,226571,2,0,B|67:125|-16:172|-3:263|61:294|118:281|118:281|158:271|189:287|207:304,1,350
276,72,227171,5,0,0:0:0:0:
287,104,227246,1,0,0:0:0:0:
306,134,227321,1,0,0:0:0:0:
331,158,227396,1,0,0:0:0:0:
362,173,227471,1,0,0:0:0:0:
400,206,227546,1,0,0:0:0:0:
401,257,227621,1,0,0:0:0:0:
365,293,227696,1,0,0:0:0:0:
314,290,227771,5,0,0:0:0:0:
272,276,227846,1,0,0:0:0:0:
229,271,227921,1,0,0:0:0:0:
185,276,227996,1,0,0:0:0:0:
146,291,228071,1,0,0:0:0:0:
95,302,228146,1,0,0:0:0:0:
49,281,228221,1,0,0:0:0:0:
26,234,228296,1,0,0:0:0:0:
37,184,228371,6,0,L|56:136,3,45.4999979171754
216,92,228671,2,0,L|192:160,3,45.4999979171754
344,93,228971,1,0,0:0:0:0:
348,127,229046,1,0,0:0:0:0:
359,160,229121,1,0,0:0:0:0:
375,191,229196,1,0,0:0:0:0:
396,219,229271,2,0,L|432:256,3,45.4999979171754
318,280,229571,5,0,0:0:0:0:
274,309,229646,1,0,0:0:0:0:
224,321,229721,1,0,0:0:0:0:
172,314,229796,1,0,0:0:0:0:
126,290,229871,1,0,0:0:0:0:
89,243,229946,1,0,0:0:0:0:
73,186,230021,1,0,0:0:0:0:
79,128,230096,1,0,0:0:0:0:
107,75,230171,5,0,0:0:0:0:
152,38,230246,1,0,0:0:0:0:
211,7,230321,1,0,0:0:0:0:
277,0,230396,1,0,0:0:0:0:
341,10,230471,1,0,0:0:0:0:
399,43,230546,1,0,0:0:0:0:
442,93,230621,1,0,0:0:0:0:
466,155,230696,1,0,0:0:0:0:
468,221,230771,6,0,L|464:280,3,45.4999979171754
289,276,231071,2,0,L|296:216,3,45.4999979171754
130,303,231371,1,0,0:0:0:0:
444,117,231521,1,0,0:0:0:0:
106,147,231671,1,0,0:0:0:0:
437,325,231821,1,0,0:0:0:0:
261,35,231971,2,0,P|368:69|441:155,1,227.499989585877
334,316,232571,6,0,P|285:311|224:256,1,97.9999970092774
37,184,232871,2,0,P|86:179|138:134,1,97.9999970092774
302,74,233171,6,0,L|362:93,3,48.9999985046387
226,216,233471,2,0,L|166:235,3,48.9999985046387
346,318,233771,2,0,P|399:267|394:187,1,146.999995513916
372,157,234071,1,0,0:0:0:0:
332,128,234146,1,0,0:0:0:0:
284,120,234221,1,0,0:0:0:0:
237,133,234296,1,0,0:0:0:0:
204,161,234371,2,0,P|152:199|140:90,1,195.999994018555
411,210,234971,5,0,0:0:0:0:
194,223,235121,1,0,0:0:0:0:
406,84,235271,1,0,0:0:0:0:
116,304,235421,1,0,0:0:0:0:
357,329,235571,5,0,0:0:0:0:
106,88,235721,1,0,0:0:0:0:
478,226,235871,1,0,0:0:0:0:
114,253,236021,1,0,0:0:0:0:
480,114,236171,5,0,0:0:0:0:
138,160,236321,1,0,0:0:0:0:
480,304,236471,1,0,0:0:0:0:
255,68,236621,1,0,0:0:0:0:
338,252,236771,5,0,0:0:0:0:
380,228,236846,1,0,0:0:0:0:
403,186,236921,1,0,0:0:0:0:
400,138,236996,1,0,0:0:0:0:
371,99,237071,1,0,0:0:0:0:
325,82,237146,1,0,0:0:0:0:
278,92,237221,1,0,0:0:0:0:
249,130,237296,1,0,0:0:0:0:
242,175,237371,6,0,P|241:256|181:325,1,146.999995513916
82,182,237821,1,0,0:0:0:0:
82,182,237971,2,0,P|83:101|143:32,1,146.999995513916
316,81,238421,1,0,0:0:0:0:
316,81,238571,2,0,B|240:203|410:203|298:330,1,245
208,316,239171,5,0,0:0:0:0:
196,272,239246,1,0,0:0:0:0:
169,235,239321,1,0,0:0:0:0:
131,212,239396,1,0,0:0:0:0:
88,196,239471,1,0,0:0:0:0:
47,177,239546,1,0,0:0:0:0:
20,140,239621,1,0,0:0:0:0:
15,95,239696,1,0,0:0:0:0:
33,54,239771,5,0,0:0:0:0:
69,27,239846,1,0,0:0:0:0:
113,20,239921,1,0,0:0:0:0:
154,42,239996,1,0,0:0:0:0:
181,79,240071,1,0,0:0:0:0:
208,119,240146,1,0,0:0:0:0:
250,142,240221,1,0,0:0:0:0:
297,159,240296,1,0,0:0:0:0:
346,162,240371,5,0,0:0:0:0:
406,151,240446,1,0,0:0:0:0:
439,100,240521,1,0,0:0:0:0:
426,41,240596,1,0,0:0:0:0:
371,11,240671,1,0,0:0:0:0:
313,30,240746,1,0,0:0:0:0:
286,85,240821,1,0,0:0:0:0:
280,143,240896,1,0,0:0:0:0:
245,191,240971,1,0,0:0:0:0:
191,215,241046,1,0,0:0:0:0:
133,208,241121,1,0,0:0:0:0:
86,173,241196,1,0,0:0:0:0:
77,113,241271,1,0,0:0:0:0:
87,55,241346,1,0,0:0:0:0:
129,14,241421,1,0,0:0:0:0:
187,6,241496,1,0,0:0:0:0:
245,30,241571,5,0,0:0:0:0:
245,30,241646,1,0,0:0:0:0:
245,30,241721,1,0,0:0:0:0:
245,30,241796,1,0,0:0:0:0:
245,30,241871,6,0,L|205:42,1,35
72,127,242021,1,0,0:0:0:0:
72,127,242096,1,0,0:0:0:0:
72,127,242171,1,0,0:0:0:0:
72,127,242246,1,0,0:0:0:0:
72,127,242321,6,0,L|132:129,1,35
321,231,242471,1,0,0:0:0:0:
321,231,242546,1,0,0:0:0:0:
321,231,242621,1,0,0:0:0:0:
321,231,242696,1,0,0:0:0:0:
321,231,242771,6,0,L|285:208,1,35
99,165,242921,1,0,0:0:0:0:
99,165,242996,1,0,0:0:0:0:
99,165,243071,1,0,0:0:0:0:
99,165,243146,1,0,0:0:0:0:
99,165,243221,2,0,L|139:174,1,35
398,108,243371,2,0,L|441:96,3,35
461,146,243671,2,0,L|426:167,1,35
245,248,243821,2,0,L|281:270,1,35
435,298,243971,5,0,0:0:0:0:
435,298,244046,1,0,0:0:0:0:
435,298,244121,1,0,0:0:0:0:
435,298,244196,1,0,0:0:0:0:
435,298,244271,2,0,P|370:241|356:199,1,105
299,70,244571,5,0,0:0:0:0:
299,70,244646,1,0,0:0:0:0:
299,70,244721,1,0,0:0:0:0:
299,70,244796,1,0,0:0:0:0:
299,70,244871,2,0,P|243:135|188:157,1,125.999996154785
92,169,245171,5,0,0:0:0:0:
46,192,245246,1,0,0:0:0:0:
33,242,245321,1,0,0:0:0:0:
60,285,245396,1,0,0:0:0:0:
110,294,245471,2,0,L|159:287,3,41.9999987182618
271,166,245771,5,0,0:0:0:0:
361,156,245846,1,0,0:0:0:0:
419,226,245921,1,0,0:0:0:0:
393,313,245996,1,0,0:0:0:0:
307,341,246071,2,0,L|255:340,3,41.9999987182618
113,306,246371,6,0,P|142:233|116:161,1,140
248,45,246821,1,0,0:0:0:0:
388,191,246971,1,0,0:0:0:0:
75,97,247121,1,0,0:0:0:0:
446,85,247271,1,0,0:0:0:0:
60,298,247421,5,0,0:0:0:0:
473,140,247721,5,0,0:0:0:0:
57,57,248021,5,0,0:0:0:0:
320,279,248321,6,0,P|381:283|414:299,2,70
171,244,248771,1,0,0:0:0:0:
120,209,248846,1,0,0:0:0:0:
106,149,248921,1,0,0:0:0:0:
136,95,248996,1,0,0:0:0:0:
194,76,249071,1,0,0:0:0:0:
250,101,249146,1,0,0:0:0:0:
278,156,249221,1,0,0:0:0:0:
319,197,249296,1,0,0:0:0:0:
371,230,249371,5,0,0:0:0:0:
418,263,249446,1,0,0:0:0:0:
429,319,249521,1,0,0:0:0:0:
396,368,249596,1,0,0:0:0:0:
340,379,249671,1,0,0:0:0:0:
291,347,249746,1,0,0:0:0:0:
288,291,249821,1,0,0:0:0:0:
318,243,249896,1,0,0:0:0:0:
350,195,249971,6,0,L|361:158,3,35
207,139,250271,6,0,L|196:176,3,35
55,84,250571,6,0,L|66:47,7,35
180,72,251171,5,0,0:0:0:0:
245,75,251246,1,0,0:0:0:0:
301,109,251321,1,0,0:0:0:0:
333,167,251396,1,0,0:0:0:0:
334,232,251471,1,0,0:0:0:0:
302,290,251546,1,0,0:0:0:0:
246,325,251621,1,0,0:0:0:0:
181,329,251696,1,0,0:0:0:0:
122,300,251771,5,0,0:0:0:0:
72,252,251846,1,0,0:0:0:0:
57,185,251921,1,0,0:0:0:0:
82,121,251996,1,0,0:0:0:0:
138,81,252071,1,0,0:0:0:0:
207,80,252146,1,0,0:0:0:0:
266,117,252221,1,0,0:0:0:0:
294,180,252296,1,0,0:0:0:0:
282,248,252371,5,0,0:0:0:0:
279,316,252446,1,0,0:0:0:0:
322,368,252521,1,0,0:0:0:0:
390,378,252596,1,0,0:0:0:0:
446,339,252671,1,0,0:0:0:0:
462,272,252746,1,0,0:0:0:0:
436,209,252821,1,0,0:0:0:0:
394,153,252896,1,0,0:0:0:0:
328,136,252971,5,0,0:0:0:0:
265,164,253046,1,0,0:0:0:0:
217,213,253121,1,0,0:0:0:0:
164,261,253196,1,0,0:0:0:0:
92,265,253271,1,0,0:0:0:0:
34,222,253346,1,0,0:0:0:0:
18,152,253421,1,0,0:0:0:0:
50,88,253496,1,0,0:0:0:0:
116,59,253571,5,0,0:0:0:0:
185,79,253646,1,0,0:0:0:0:
241,125,253721,1,0,0:0:0:0:
312,141,253796,1,0,0:0:0:0:
361,86,253871,1,0,0:0:0:0:
336,17,253946,1,0,0:0:0:0:
264,5,254021,1,0,0:0:0:0:
209,59,254096,1,0,0:0:0:0:
181,130,254171,5,0,0:0:0:0:
189,206,254246,1,0,0:0:0:0:
230,270,254321,1,0,0:0:0:0:
296,308,254396,1,0,0:0:0:0:
373,312,254471,1,0,0:0:0:0:
442,281,254546,1,0,0:0:0:0:
490,221,254621,1,0,0:0:0:0:
506,146,254696,1,0,0:0:0:0:
470,74,254771,5,0,0:0:0:0:
402,31,254846,1,0,0:0:0:0:
323,28,254921,1,0,0:0:0:0:
253,66,254996,1,0,0:0:0:0:
212,135,255071,1,0,0:0:0:0:
212,217,255146,1,0,0:0:0:0:
268,285,255221,1,0,0:0:0:0:
356,298,255296,1,0,0:0:0:0:
429,247,255371,5,0,0:0:0:0:
443,153,255446,1,0,0:0:0:0:
378,65,255521,1,0,0:0:0:0:
269,44,255596,1,0,0:0:0:0:
175,90,255671,1,0,0:0:0:0:
340,223,255971,5,0,0:0:0:0:
328,248,256046,1,0,0:0:0:0:
311,270,256121,1,0,0:0:0:0:
289,287,256196,1,0,0:0:0:0:
264,299,256271,1,0,0:0:0:0:
236,304,256346,1,0,0:0:0:0:
208,303,256421,1,0,0:0:0:0:
182,295,256496,1,0,0:0:0:0:
157,281,256571,2,0,L|128:251,3,35
127,141,256871,5,0,0:0:0:0:
161,117,256946,1,0,0:0:0:0:
201,104,257021,1,0,0:0:0:0:
243,103,257096,1,0,0:0:0:0:
283,115,257171,1,0,0:0:0:0:
318,137,257246,1,0,0:0:0:0:
352,175,257321,1,0,0:0:0:0:
372,216,257396,1,0,0:0:0:0:
379,263,257471,2,0,L|371:314,3,35
290,322,257771,5,0,0:0:0:0:
290,322,257846,1,0,0:0:0:0:
290,322,257921,2,0,L|271:285,1,35
124,162,258071,1,0,0:0:0:0:
124,162,258146,1,0,0:0:0:0:
124,162,258221,2,0,L|128:203,1,35
112,302,258371,5,0,0:0:0:0:
140,356,258446,1,0,0:0:0:0:
198,375,258521,1,0,0:0:0:0:
253,349,258596,1,0,0:0:0:0:
274,291,258671,1,0,0:0:0:0:
254,234,258746,1,0,0:0:0:0:
247,176,258821,1,0,0:0:0:0:
278,126,258896,1,0,0:0:0:0:
333,107,258971,1,0,0:0:0:0:
388,127,259046,1,0,0:0:0:0:
418,177,259121,1,0,0:0:0:0:
413,236,259196,1,0,0:0:0:0:
379,288,259271,1,0,0:0:0:0:
324,317,259346,1,0,0:0:0:0:
262,313,259421,1,0,0:0:0:0:
210,277,259496,1,0,0:0:0:0:
184,222,259571,5,0,0:0:0:0:
216,209,259646,1,0,0:0:0:0:
240,184,259721,1,0,0:0:0:0:
250,151,259796,1,0,0:0:0:0:
245,117,259871,1,0,0:0:0:0:
227,83,259946,1,0,0:0:0:0:
194,57,260021,1,0,0:0:0:0:
153,49,260096,1,0,0:0:0:0:
107,66,260171,1,0,0:0:0:0:
85,92,260246,1,0,0:0:0:0:
71,135,260321,1,0,0:0:0:0:
70,183,260396,1,0,0:0:0:0:
91,227,260471,1,0,0:0:0:0:
145,258,260546,1,0,0:0:0:0:
211,259,260621,1,0,0:0:0:0:
266,215,260696,1,0,0:0:0:0:
285,153,260771,6,0,P|318:78|441:93,1,210
376,278,261371,1,0,0:0:0:0:
376,278,261521,1,0,0:0:0:0:
229,155,261671,1,0,0:0:0:0:
229,155,261821,1,0,0:0:0:0:
179,313,261971,2,0,P|81:288|64:235,1,140
67,260,262421,5,0,0:0:0:0:
393,171,262571,1,0,0:0:0:0:
393,171,262721,1,0,0:0:0:0:
179,313,262871,1,0,0:0:0:0:
179,313,263021,1,0,0:0:0:0:
188,134,263171,6,0,P|231:73|312:68,1,140
311,199,263621,1,0,0:0:0:0:
89,216,263771,1,0,0:0:0:0:
249,280,263921,1,0,0:0:0:0:
88,82,264071,1,0,0:0:0:0:
137,317,264221,2,0,B|165:352|165:352|274:353,1,140
420,128,264821,2,0,B|334:103|334:103|287:48,1,140
136,83,265271,1,0,0:0:0:0:
319,161,265421,1,0,0:0:0:0:
228,54,265571,5,0,0:0:0:0:
194,43,265646,1,0,0:0:0:0:
159,43,265721,1,0,0:0:0:0:
126,54,265796,1,0,0:0:0:0:
98,74,265871,1,0,0:0:0:0:
77,102,265946,1,0,0:0:0:0:
65,135,266021,1,0,0:0:0:0:
65,170,266096,1,0,0:0:0:0:
74,203,266171,6,0,L|88:245,3,35
219,179,266471,2,0,L|232:137,3,35
346,201,266771,5,0,0:0:0:0:
375,209,266846,1,0,0:0:0:0:
398,229,266921,1,0,0:0:0:0:
411,257,266996,1,0,0:0:0:0:
411,287,267071,1,0,0:0:0:0:
399,315,267146,1,0,0:0:0:0:
377,336,267221,1,0,0:0:0:0:
349,346,267296,1,0,0:0:0:0:
318,344,267371,1,0,0:0:0:0:
282,333,267446,1,0,0:0:0:0:
255,306,267521,1,0,0:0:0:0:
244,269,267596,1,0,0:0:0:0:
254,233,267671,1,0,0:0:0:0:
281,197,267746,1,0,0:0:0:0:
293,153,267821,1,0,0:0:0:0:
286,109,267896,1,0,0:0:0:0:
261,72,267971,6,0,P|208:48|133:70,1,140
38,247,268421,6,0,P|91:271|166:249,1,140
355,48,268871,1,0,0:0:0:0:
207,326,269021,1,0,0:0:0:0:
386,143,269171,1,0,0:0:0:0:
411,160,269246,1,0,0:0:0:0:
430,184,269321,1,0,0:0:0:0:
442,211,269396,1,0,0:0:0:0:
447,242,269471,1,0,0:0:0:0:
443,272,269546,1,0,0:0:0:0:
431,300,269621,1,0,0:0:0:0:
412,324,269696,1,0,0:0:0:0:
387,342,269771,2,0,L|342:357,3,35
271,309,270071,5,0,0:0:0:0:
258,286,270146,1,0,0:0:0:0:
245,263,270221,1,0,0:0:0:0:
232,240,270296,1,0,0:0:0:0:
220,217,270371,1,0,0:0:0:0:
190,151,270446,1,0,0:0:0:0:
202,79,270521,1,0,0:0:0:0:
253,27,270596,1,0,0:0:0:0:
324,13,270671,1,0,0:0:0:0:
391,41,270746,1,0,0:0:0:0:
430,101,270821,1,0,0:0:0:0:
429,174,270896,1,0,0:0:0:0:
387,233,270971,6,0,L|325:254,3,56
170,195,271271,2,0,L|232:174,3,56
107,91,271571,5,0,0:0:0:0:
169,28,271646,1,0,0:0:0:0:
255,8,271721,1,0,0:0:0:0:
339,36,271796,1,0,0:0:0:0:
395,104,271871,1,0,0:0:0:0:
407,191,271946,1,0,0:0:0:0:
371,272,272021,1,0,0:0:0:0:
298,322,272096,1,0,0:0:0:0:
210,326,272171,6,0,L|139:303,3,56
73,159,272471,2,0,L|1:182,3,56
79,42,272771,5,0,0:0:0:0:
135,86,272846,1,0,0:0:0:0:
206,97,272921,1,0,0:0:0:0:
274,74,272996,1,0,0:0:0:0:
339,36,273071,1,0,0:0:0:0:
410,37,273146,1,0,0:0:0:0:
470,72,273221,1,0,0:0:0:0:
512,130,273296,1,0,0:0:0:0:
512,204,273371,5,0,0:0:0:0:
469,260,273446,1,0,0:0:0:0:
399,274,273521,1,0,0:0:0:0:
328,260,273596,1,0,0:0:0:0:
270,216,273671,1,0,0:0:0:0:
237,152,273746,1,0,0:0:0:0:
190,98,273821,1,0,0:0:0:0:
121,78,273896,1,0,0:0:0:0:
53,100,273971,5,0,0:0:0:0:
9,157,274046,1,0,0:0:0:0:
4,228,274121,1,0,0:0:0:0:
40,290,274196,1,0,0:0:0:0:
104,322,274271,1,0,0:0:0:0:
176,325,274346,1,0,0:0:0:0:
241,294,274421,1,0,0:0:0:0:
283,235,274496,1,0,0:0:0:0:
292,164,274571,6,0,L|290:92,3,56
461,291,274871,2,0,L|463:363,3,56
409,201,275171,6,0,B|404:156|346:108|284:118|229:220|174:200|143:160|106:78,1,336
447,370,275921,1,0,0:0:0:0:
351,144,276071,1,0,0:0:0:0:
174,317,276221,1,0,0:0:0:0:
189,138,276371,2,0,L|101:52,1,112
112,238,276671,1,0,0:0:0:0:
112,238,276821,2,0,P|219:247|312:145,1,224
406,57,277271,1,0,0:0:0:0:
184,76,277421,1,0,0:0:0:0:
403,159,277571,5,0,0:0:0:0:
403,214,277646,1,0,0:0:0:0:
375,262,277721,1,0,0:0:0:0:
327,289,277796,1,0,0:0:0:0:
272,289,277871,1,0,0:0:0:0:
225,272,277946,1,0,0:0:0:0:
195,232,278021,1,0,0:0:0:0:
175,193,278096,1,0,0:0:0:0:
180,149,278171,2,0,L|196:117,3,35
291,36,278471,6,0,L|306:68,3,35
284,180,278771,1,0,0:0:0:0:
295,226,278846,1,0,0:0:0:0:
329,262,278921,1,0,0:0:0:0:
375,276,278996,1,0,0:0:0:0:
422,267,279071,1,0,0:0:0:0:
459,235,279146,1,0,0:0:0:0:
476,190,279221,1,0,0:0:0:0:
469,142,279296,1,0,0:0:0:0:
440,104,279371,1,0,0:0:0:0:
395,85,279446,1,0,0:0:0:0:
347,89,279521,1,0,0:0:0:0:
302,110,279596,1,0,0:0:0:0:
254,115,279671,2,0,L|204:104,3,35
53,61,279971,5,0,0:0:0:0:
87,104,280046,1,0,0:0:0:0:
105,157,280121,1,0,0:0:0:0:
105,212,280196,1,0,0:0:0:0:
94,267,280271,1,0,0:0:0:0:
115,318,280346,1,0,0:0:0:0:
160,350,280421,1,0,0:0:0:0:
215,352,280496,1,0,0:0:0:0:
262,325,280571,5,0,0:0:0:0:
248,271,280646,1,0,0:0:0:0:
263,218,280721,1,0,0:0:0:0:
303,180,280796,1,0,0:0:0:0:
357,168,280871,5,0,0:0:0:0:
362,113,280946,1,0,0:0:0:0:
343,61,281021,1,0,0:0:0:0:
302,24,281096,1,0,0:0:0:0:
248,9,281171,1,0,0:0:0:0:
194,20,281246,1,0,0:0:0:0:
150,54,281321,1,0,0:0:0:0:
127,105,281396,1,0,0:0:0:0:
124,160,281471,1,0,0:0:0:0:
142,213,281546,1,0,0:0:0:0:
179,255,281621,1,0,0:0:0:0:
229,280,281696,1,0,0:0:0:0:
284,284,281771,6,0,L|326:273,1,35
441,226,281921,2,0,L|404:220,1,35
233,150,282071,2,0,L|276:137,1,35
464,93,282221,2,0,L|418:88,1,35
217,34,282371,5,0,0:0:0:0:
190,56,282446,1,0,0:0:0:0:
158,71,282521,1,0,0:0:0:0:
124,76,282596,1,0,0:0:0:0:
90,86,282671,1,0,0:0:0:0:
63,107,282746,1,0,0:0:0:0:
46,138,282821,1,0,0:0:0:0:
41,172,282896,1,0,0:0:0:0:
49,206,282971,1,0,0:0:0:0:
68,243,283046,1,0,0:0:0:0:
99,271,283121,1,0,0:0:0:0:
138,285,283196,1,0,0:0:0:0:
180,285,283271,1,0,0:0:0:0:
228,274,283346,1,0,0:0:0:0:
267,245,283421,1,0,0:0:0:0:
291,203,283496,1,0,0:0:0:0:
295,154,283571,5,0,0:0:0:0:
265,119,283646,1,0,0:0:0:0:
225,98,283721,1,0,0:0:0:0:
180,94,283796,1,0,0:0:0:0:
133,107,283871,1,0,0:0:0:0:
89,141,283946,1,0,0:0:0:0:
64,190,284021,1,0,0:0:0:0:
62,246,284096,1,0,0:0:0:0:
85,296,284171,1,0,0:0:0:0:
143,341,284246,1,0,0:0:0:0:
214,356,284321,1,0,0:0:0:0:
284,337,284396,1,0,0:0:0:0:
339,290,284471,1,0,0:0:0:0:
382,222,284546,1,0,0:0:0:0:
380,137,284621,1,0,0:0:0:0:
333,60,284696,1,0,0:0:0:0:
233,40,284771,6,0,P|194:60|257:163,1,193.199993514405
123,109,296771,5,0,0:0:0:0:
56,177,297021,1,0,0:0:0:0:
195,98,297271,1,0,0:0:0:0:
56,240,297521,1,0,0:0:0:0:
274,71,297771,1,0,0:0:0:0:
70,317,298021,1,0,0:0:0:0:
367,50,298271,1,0,0:0:0:0:
72,378,298521,1,0,0:0:0:0:
464,109,298771,1,0,0:0:0:0:
40,260,299021,1,0,0:0:0:0:
503,176,299271,1,0,0:0:0:0:
8,42,299521,1,0,0:0:0:0:
511,306,299771,1,0,0:0:0:0:
88,7,300021,1,0,0:0:0:0:
426,365,300271,5,0,0:0:0:0:
251,3,300521,1,0,0:0:0:0:
134,277,300771,6,0,P|177:227|187:204,1,83.9999974365235
294,92,301521,1,0,0:0:0:0:
332,263,301771,2,0,P|376:227|421:204,2,105
184,280,302771,2,0,P|113:296|26:270,1,140
91,113,303521,1,0,0:0:0:0:
257,48,303771,2,0,L|357:101,2,105
43,107,304771,2,0,P|100:178|165:198,1,140
323,230,305521,1,0,0:0:0:0:
396,94,305771,2,0,B|385:27|385:27|340:40,2,105
381,273,306771,6,0,L|288:166,1,140
112,92,307521,1,0,0:0:0:0:
211,272,307771,1,0,0:0:0:0:
254,129,308021,1,0,0:0:0:0:
97,308,308271,1,0,0:0:0:0:
48,42,308521,5,0,0:0:0:0:
269,259,308771,2,0,L|426:278,1,140
366,65,309521,1,0,0:0:0:0:
193,163,309771,2,0,L|244:233,1,70
102,305,310271,1,0,0:0:0:0:
243,305,310521,1,0,0:0:0:0:
102,305,310771,2,0,P|81:222|100:158,1,140
275,73,311521,1,0,0:0:0:0:
259,199,311771,6,0,P|306:258|353:286,2,105
175,95,312771,2,0,B|129:51|58:83|69:152|69:152|76:224,1,210
198,250,313771,2,0,P|269:276|295:319,2,105
62,306,314771,1,0,0:0:0:0:
329,212,315021,1,0,0:0:0:0:
81,170,315271,2,0,L|58:95,1,70
239,96,315771,1,0,0:0:0:0:
417,189,316021,1,0,0:0:0:0:
114,229,316271,5,0,0:0:0:0:
146,114,316521,1,0,0:0:0:0:
236,254,316771,2,0,P|290:298|366:313,1,140
399,155,317521,1,0,0:0:0:0:
206,102,317771,2,0,L|84:80,2,105
287,179,318771,2,0,B|404:234|282:273|406:337,1,210
433,143,319771,2,0,P|374:73|346:57,2,105
280,220,320771,2,0,B|198:254|149:204|149:204|77:242,1,210
167,98,321771,5,0,0:0:0:0:
286,194,322146,1,0,0:0:0:0:
383,88,322521,1,0,0:0:0:0:
408,247,322771,2,0,L|366:311,1,70
138,115,323271,1,0,0:0:0:0:
380,130,323521,1,0,0:0:0:0:
380,130,323646,1,0,0:0:0:0:
380,130,323771,1,0,0:0:0:0:
80,234,324021,1,0,0:0:0:0:
347,261,324271,1,0,0:0:0:0:
165,168,324521,1,0,0:0:0:0:
358,127,324771,6,0,P|340:62|222:91,1,210
267,198,325771,2,0,P|258:257|221:303,2,105
260,86,326771,2,0,P|200:48|81:108,1,210
137,168,327771,2,0,P|170:217|175:270,2,105
76,297,328771,2,0,P|175:339|264:290,1,210
371,190,329771,2,0,P|390:118|379:73,1,105
113,79,330521,1,0,0:0:0:0:
113,79,330646,1,0,0:0:0:0:
113,79,330771,5,0,0:0:0:0:
206,218,331021,1,0,0:0:0:0:
347,78,331271,2,0,L|311:144,1,70
319,330,331771,1,0,0:0:0:0:
104,172,332021,1,0,0:0:0:0:
408,202,332271,1,0,0:0:0:0:
137,264,332521,1,0,0:0:0:0:
306,73,332771,6,0,L|399:197,1,140
137,100,333521,1,0,0:0:0:0:
137,100,333771,2,0,P|164:187|164:221,2,105
340,178,334771,2,0,P|409:178|461:125,1,140
227,51,335521,1,0,0:0:0:0:
223,299,335771,2,0,L|254:197,2,105
93,195,336771,2,0,P|109:98|168:61,1,140
326,93,337521,1,0,0:0:0:0:
211,298,337771,6,0,B|265:229|265:229|319:198,1,140
438,144,338521,1,0,0:0:0:0:
413,317,338771,2,0,L|360:254,1,70
194,70,339271,2,0,L|172:143,1,70
139,308,339771,1,0,0:0:0:0:
397,132,340021,1,0,0:0:0:0:
386,127,340521,1,0,0:0:0:0:
268,192,340771,2,0,P|314:246|392:263,1,140
151,85,341521,5,0,0:0:0:0:
151,85,341771,2,0,P|171:174|167:207,2,105
73,283,342771,2,0,L|100:137,1,140
402,82,343521,1,0,0:0:0:0:
271,207,343771,2,0,L|322:302,2,105
102,61,344771,2,0,B|169:131|213:38|256:93,1,140
417,243,345521,1,0,0:0:0:0:
417,243,345771,2,0,P|349:183|277:163,1,140
82,252,346521,5,0,0:0:0:0:
82,252,346771,2,0,L|154:212,1,70
450,112,347271,2,0,L|353:101,1,70
119,112,347771,1,0,0:0:0:0:
429,263,348021,1,0,0:0:0:0:
220,262,348271,1,0,0:0:0:0:
305,99,348521,1,0,0:0:0:0:
305,99,348771,2,0,P|347:195|340:249,1,140
141,177,349521,5,0,0:0:0:0:
135,303,349771,2,0,P|211:319|250:308,2,105
218,93,350771,2,0,L|302:227,1,140
463,320,351521,1,0,0:0:0:0:
245,287,351771,2,0,L|157:218,2,105
366,168,352771,2,0,P|350:82|296:76,1,140
131,119,353521,1,0,0:0:0:0:
256,304,353771,2,0,L|367:292,1,105
382,114,354521,5,0,0:0:0:0:
382,114,354771,2,0,P|299:157|238:170,1,140
126,135,355521,1,0,0:0:0:0:
230,298,355771,5,0,0:0:0:0:
396,176,356021,1,0,0:0:0:0:
130,155,356271,1,0,0:0:0:0:
212,283,356521,1,0,0:0:0:0:
275,98,356771,2,0,L|421:71,1,140
411,286,357521,1,0,0:0:0:0:
411,286,357771,2,0,P|334:262|306:258,2,105
436,180,358771,2,0,P|382:115|316:94,1,140
295,266,359521,5,0,0:0:0:0:
131,136,359771,2,0,L|85:242,2,105
351,115,360771,5,0,0:0:0:0:
256,192,360896,12,0,365521,0:0:0:0:
