osu file format v14

[General]
AudioFilename: audio.mp3
AudioLeadIn: 0
PreviewTime: 283682
Countdown: 1
SampleSet: Soft
StackLeniency: 0.7
Mode: 0
LetterboxInBreaks: 0
WidescreenStoryboard: 0

[Editor]
Bookmarks: 17875,249340,252182
DistanceSpacing: 1.6
BeatDivisor: 8
GridSize: 16
TimelineZoom: 2

[Metadata]
Title:Curse of Darkness
TitleUnicode:Curse of Darkness
Artist:Dragonforce
ArtistUnicode:Dragonforce
Creator:Metronome
Version:Legend
Source:Reaching into Infinity
Tags:power metal stream symphony of the night
BeatmapID:1636501
BeatmapSetID:779292

[Difficulty]
HPDrainRate:6
CircleSize:4
OverallDifficulty:8.5
ApproachRate:9.4
SliderMultiplier:1.5
SliderTickRate:1

[Events]
//Background and Video events
0,0,"curse of darkness.png",0,0
//Break Periods
2,10812,12598
2,13338,15124
2,15864,17335
2,20837,149019
2,153856,221326
2,232172,240274
2,252856,279432
2,300856,327432
//Storyboard Layer 0 (Background)
//Storyboard Layer 1 (Fail)
//Storyboard Layer 2 (Pass)
//Storyboard Layer 3 (Foreground)
//Storyboard Sound Samples

[TimingPoints]
507,315.789473684211,4,2,0,100,1,0
40928,-100,4,2,0,100,0,0
83875,-100,4,2,0,100,0,1
103454,-100,4,2,0,100,0,0
124296,-100,4,2,0,100,0,1
144507,-100,4,2,0,100,0,0
150664,-55.5555555555556,4,2,0,100,0,0
151130,315.789473684211,4,2,0,100,1,0
221866,-100,4,2,0,100,0,0
242077,-100,4,2,0,100,0,1
246814,-55.5555555555556,4,2,0,100,0,1
247130,-100,4,2,0,100,0,1
249340,-55.5555555555556,4,2,0,100,0,1
249656,-100,4,2,0,100,0,1
252182,-66.6666666666667,4,2,0,100,0,1
279972,-55.5555555555556,4,2,0,100,0,1
282498,-100,4,2,0,100,0,0
283761,-50,4,2,0,100,0,0
285024,-76.9230769230769,4,2,0,100,0,1
305235,-100,4,2,0,100,0,0
329235,-50,4,2,0,100,0,0
329866,-100,4,2,0,100,0,0

[HitObjects]
414,88,507,6,0,L|402:194,1,75
318,153,822,2,0,L|330:259,1,75
219,284,1138,2,0,L|231:178,1,75
123,332,1453,2,0,L|111:226,1,75
110,84,1770,5,0,0:0:0:0:
325,227,2085,1,0,0:0:0:0:
123,332,2401,1,0,0:0:0:0:
318,153,2717,1,0,0:0:0:0:
423,236,3033,6,0,L|411:342,1,75
337,311,3349,2,0,L|325:205,1,75
247,239,3664,2,0,L|235:345,1,75
161,314,3980,2,0,L|149:208,1,75
414,161,4296,6,0,L|423:236,1,75
328,235,4612,2,0,L|337:161,1,75
238,164,4927,2,0,L|247:239,1,75
152,238,5243,2,0,L|161:164,1,75
65,121,5559,6,0,L|94:200,1,75
152,238,5875,2,0,L|177:308,1,75
248,284,6191,2,0,L|222:213,1,75
161,164,6507,2,0,L|135:93,1,75
219,19,6822,6,0,P|258:24|306:33,1,75
366,115,7138,2,0,P|325:119|279:129,1,75
222,213,7454,2,0,P|262:217|309:227,1,75
369,309,7770,2,0,P|331:312|282:323,1,75
171,343,8085,6,0,L|96:331,1,75
17,243,8401,2,0,L|92:255,1,75
133,128,8717,2,0,L|59:140,1,75
147,201,9033,2,0,L|221:212,1,75
370,250,9349,6,0,P|409:254|445:262,1,75
403,365,9665,2,0,P|366:375|329:377,1,75
291,162,9981,2,0,P|328:165|366:174,1,75
315,304,10296,1,0,0:0:0:0:
315,304,10454,1,0,0:0:0:0:
315,304,10612,1,4,0:0:0:0:
222,213,13138,5,4,0:0:0:0:
291,162,15664,5,4,0:0:0:0:
143,153,17875,5,8,3:0:0:0:
166,248,18033,1,8,3:0:0:0:
189,343,18191,1,8,3:0:0:0:
349,230,18507,5,8,3:0:0:0:
372,135,18665,1,8,3:0:0:0:
267,45,18980,5,8,3:0:0:0:
215,146,19138,1,8,3:0:0:0:
166,248,19296,1,8,3:0:0:0:
120,309,19454,5,0,0:0:0:0:
90,287,19532,1,0,0:0:0:0:
68,256,19611,1,0,0:0:0:0:
58,221,19690,1,0,0:0:0:0:
60,184,19769,1,0,0:0:0:0:
73,150,19848,1,0,0:0:0:0:
97,121,19927,1,0,0:0:0:0:
128,102,20006,1,0,0:0:0:0:
143,153,20085,5,0,0:0:0:0:
162,192,20163,1,0,0:0:0:0:
192,225,20242,1,0,0:0:0:0:
229,247,20321,1,0,0:0:0:0:
272,259,20400,1,0,0:0:0:0:
316,257,20479,1,0,0:0:0:0:
358,243,20558,1,0,0:0:0:0:
394,218,20637,1,0,0:0:0:0:
65,140,149559,5,0,0:0:0:0:
65,140,149638,1,0,0:0:0:0:
65,140,149717,1,0,0:0:0:0:
143,216,149875,5,0,0:0:0:0:
143,216,149954,1,0,0:0:0:0:
143,216,150033,1,0,0:0:0:0:
218,96,150191,5,0,0:0:0:0:
218,96,150270,1,0,0:0:0:0:
218,96,150349,1,0,0:0:0:0:
340,268,150507,5,0,0:0:0:0:
340,268,150586,1,0,0:0:0:0:
340,268,150664,2,0,B|363:209|403:189|403:189|438:151|449:93|412:45|347:23,1,269.999991760254
293,34,151130,5,0,0:0:0:0:
250,56,151208,1,0,0:0:0:0:
218,96,151287,1,0,0:0:0:0:
201,142,151366,1,0,0:0:0:0:
201,190,151445,1,0,0:0:0:0:
443,157,151761,5,0,0:0:0:0:
293,34,152077,1,0,0:0:0:0:
280,130,152235,1,0,0:0:0:0:
122,54,152551,5,0,0:0:0:0:
367,92,152708,2,0,P|415:141|426:179,1,75
389,277,153024,5,0,0:0:0:0:
201,190,153340,1,0,0:0:0:0:
166,153,153419,1,0,0:0:0:0:
149,108,153498,1,0,0:0:0:0:
145,58,153577,1,0,0:0:0:0:
161,12,153656,1,0,0:0:0:0:
62,301,221866,6,0,L|107:206,1,75
171,287,222182,2,0,L|195:187,1,75
265,158,222498,6,0,L|310:253,1,75
374,172,222814,2,0,L|398:272,1,75
328,323,223130,5,0,0:0:0:0:
94,233,223445,1,0,0:0:0:0:
297,225,223761,1,0,0:0:0:0:
62,301,224077,1,0,0:0:0:0:
253,312,224393,6,0,L|341:325,1,75
391,214,224708,2,0,L|303:225,1,75
253,114,225024,2,0,L|327:124,1,75
392,15,225339,2,0,L|317:24,1,75
401,314,225656,6,0,L|301:325,1,75
242,214,225972,2,0,L|316:223,1,75
401,114,226287,2,0,L|313:125,1,75
243,14,226603,2,0,L|317:23,1,75
242,214,226919,6,0,L|317:225,1,75
254,116,227235,2,0,L|152:101,1,75
127,265,227550,2,0,L|202:276,1,75
139,166,227866,2,0,L|65:156,1,75
147,79,230708,6,0,L|165:274,1,187.5
240,267,231182,6,0,L|257:80,1,187.5
333,82,231656,6,0,L|348:225,1,112.5
359,268,231972,1,0,0:0:0:0:
172,64,240814,5,0,0:0:0:0:
134,64,240892,1,0,0:0:0:0:
100,78,240971,1,0,0:0:0:0:
72,103,241050,1,0,0:0:0:0:
55,137,241129,1,0,0:0:0:0:
51,174,241208,1,0,0:0:0:0:
60,210,241287,1,0,0:0:0:0:
81,241,241366,1,0,0:0:0:0:
111,262,241445,1,0,0:0:0:0:
147,272,241524,1,0,0:0:0:0:
184,268,241603,1,0,0:0:0:0:
218,251,241682,1,0,0:0:0:0:
243,224,241761,1,0,0:0:0:0:
258,190,241840,1,0,0:0:0:0:
259,152,241919,1,0,0:0:0:0:
247,117,241998,1,0,0:0:0:0:
217,84,242077,5,0,0:0:0:0:
181,56,242155,1,0,0:0:0:0:
139,43,242234,1,0,0:0:0:0:
94,46,242313,1,0,0:0:0:0:
53,64,242392,1,0,0:0:0:0:
22,96,242471,1,0,0:0:0:0:
4,138,242550,1,0,0:0:0:0:
3,182,242629,1,0,0:0:0:0:
11,226,242708,1,0,0:0:0:0:
58,297,242814,5,0,0:0:0:0:
126,346,242919,5,0,0:0:0:0:
210,348,243024,5,0,0:0:0:0:
286,310,243130,5,0,0:0:0:0:
352,257,243235,5,0,0:0:0:0:
435,271,243340,5,0,0:0:0:0:
415,310,243419,1,0,0:0:0:0:
373,324,243497,1,0,0:0:0:0:
328,324,243576,1,0,0:0:0:0:
279,304,243655,5,0,0:0:0:0:
236,272,243734,1,0,0:0:0:0:
214,224,243813,1,0,0:0:0:0:
217,171,243892,1,0,0:0:0:0:
236,130,243971,5,0,0:0:0:0:
277,112,244050,1,0,0:0:0:0:
312,83,244129,1,0,0:0:0:0:
332,41,244208,1,0,0:0:0:0:
359,76,244287,5,0,0:0:0:0:
380,115,244366,1,0,0:0:0:0:
380,160,244445,1,0,0:0:0:0:
362,201,244524,1,0,0:0:0:0:
338,230,244603,5,0,0:0:0:0:
305,247,244681,1,0,0:0:0:0:
268,253,244760,1,0,0:0:0:0:
231,246,244839,1,0,0:0:0:0:
198,228,244918,1,0,0:0:0:0:
174,200,244997,1,0,0:0:0:0:
159,166,245076,1,0,0:0:0:0:
157,129,245155,1,0,0:0:0:0:
167,93,245234,1,0,0:0:0:0:
189,62,245313,1,0,0:0:0:0:
219,40,245392,1,0,0:0:0:0:
255,29,245471,1,0,0:0:0:0:
292,31,245550,1,0,0:0:0:0:
327,45,245629,1,0,0:0:0:0:
355,69,245708,1,0,0:0:0:0:
374,101,245787,1,0,0:0:0:0:
378,150,245866,5,0,0:0:0:0:
364,194,245944,1,0,0:0:0:0:
337,232,246023,1,0,0:0:0:0:
294,251,246102,1,0,0:0:0:0:
248,253,246181,1,0,0:0:0:0:
201,249,246260,1,0,0:0:0:0:
154,246,246339,1,0,0:0:0:0:
108,255,246418,1,0,0:0:0:0:
73,284,246497,1,0,0:0:0:0:
61,329,246576,1,0,0:0:0:0:
78,372,246655,1,0,0:0:0:0:
118,395,246734,1,0,0:0:0:0:
165,382,246814,6,0,B|192:353|193:328|193:328|209:303|224:297|228:275|228:275|246:264|251:237|274:223|291:183,1,202.499993820191
289,175,247130,5,0,0:0:0:0:
249,182,247208,1,0,0:0:0:0:
275,123,247287,5,0,0:0:0:0:
241,143,247366,1,0,0:0:0:0:
244,80,247445,5,0,0:0:0:0:
221,110,247524,1,0,0:0:0:0:
199,51,247603,5,0,0:0:0:0:
190,86,247682,1,0,0:0:0:0:
147,42,247761,5,0,0:0:0:0:
152,75,247840,1,0,0:0:0:0:
94,52,247919,5,0,0:0:0:0:
113,78,247998,1,0,0:0:0:0:
50,81,248077,5,0,0:0:0:0:
78,96,248156,1,0,0:0:0:0:
19,125,248235,5,0,0:0:0:0:
51,124,248314,1,0,0:0:0:0:
6,176,248393,5,0,0:0:0:0:
37,161,248472,1,0,0:0:0:0:
14,229,248551,5,0,0:0:0:0:
36,200,248630,1,0,0:0:0:0:
41,275,248708,5,0,0:0:0:0:
50,236,248787,1,0,0:0:0:0:
83,301,248866,5,0,0:0:0:0:
76,266,248945,1,0,0:0:0:0:
112,285,249024,5,0,0:0:0:0:
128,314,249103,1,0,0:0:0:0:
157,296,249182,5,0,0:0:0:0:
188,317,249261,1,0,0:0:0:0:
227,301,249340,6,0,B|223:261|205:244|205:244|197:215|203:200|189:182|189:182|193:161|176:140|181:113|163:74,1,202.499993820191
155,38,249656,5,0,0:0:0:0:
190,10,249735,1,0,0:0:0:0:
234,4,249814,1,0,0:0:0:0:
288,17,249893,5,0,0:0:0:0:
333,50,249972,1,0,0:0:0:0:
339,105,250051,1,0,0:0:0:0:
325,147,250130,5,0,0:0:0:0:
305,187,250208,1,0,0:0:0:0:
300,231,250287,1,0,0:0:0:0:
328,279,250366,5,0,0:0:0:0:
384,284,250445,1,0,0:0:0:0:
419,240,250524,1,0,0:0:0:0:
401,186,250603,5,0,0:0:0:0:
404,129,250682,1,0,0:0:0:0:
426,77,250761,1,0,0:0:0:0:
476,51,250840,1,0,0:0:0:0:
478,111,250919,5,0,0:0:0:0:
458,167,250998,1,0,0:0:0:0:
401,186,251077,1,0,0:0:0:0:
341,180,251156,1,0,0:0:0:0:
283,162,251235,1,0,0:0:0:0:
231,130,251314,1,0,0:0:0:0:
174,108,251393,1,0,0:0:0:0:
115,96,251472,1,0,0:0:0:0:
58,116,251551,1,0,0:0:0:0:
19,162,251630,1,0,0:0:0:0:
11,220,251708,1,0,0:0:0:0:
31,276,251787,1,0,0:0:0:0:
78,312,251866,1,0,0:0:0:0:
137,319,251945,1,0,0:0:0:0:
194,293,252024,1,0,0:0:0:0:
254,292,252103,1,0,0:0:0:0:
330,339,252182,6,0,P|379:356|444:342,1,112.500004291535
391,228,252498,1,0,0:0:0:0:
391,228,252577,1,0,0:0:0:0:
391,228,252656,1,0,0:0:0:0:
252,349,279972,6,0,B|216:355|76:348|102:202|102:172|117:105|248:48|276:95|337:134|309:150|311:235|400:220|479:114|462:24|437:10|401:-33|306:32|265:-36|150:-34|109:57|30:15|34:179,1,1012.49996910095
45,233,281235,5,0,0:0:0:0:
49,272,281313,1,0,0:0:0:0:
54,312,281392,1,0,0:0:0:0:
156,317,281551,5,0,0:0:0:0:
160,273,281629,1,0,0:0:0:0:
166,229,281708,1,0,0:0:0:0:
266,228,281866,5,0,0:0:0:0:
270,274,281944,1,0,0:0:0:0:
274,321,282023,1,0,0:0:0:0:
375,324,282182,5,0,0:0:0:0:
380,274,282260,1,0,0:0:0:0:
385,223,282339,1,0,0:0:0:0:
394,107,282498,5,0,0:0:0:0:
368,83,282576,1,0,0:0:0:0:
335,72,282655,1,0,0:0:0:0:
301,76,282734,1,0,0:0:0:0:
272,95,282813,1,0,0:0:0:0:
254,124,282892,1,0,0:0:0:0:
249,158,282971,1,0,0:0:0:0:
260,191,283050,1,0,0:0:0:0:
293,226,283130,5,0,0:0:0:0:
255,272,283208,1,0,0:0:0:0:
196,272,283287,1,0,0:0:0:0:
158,227,283366,1,0,0:0:0:0:
198,168,283445,1,0,0:0:0:0:
254,124,283523,1,0,0:0:0:0:
257,54,283602,1,0,0:0:0:0:
205,6,283681,1,0,0:0:0:0:
114,37,283761,6,0,B|142:88|97:148|97:148|161:174|162:261,1,225
227,156,284077,2,0,B|229:95|198:50|198:50|229:95|339:121,1,225
302,190,284393,2,0,B|308:250|290:236|290:303|290:303|226:291|251:313|169:309,1,225
133,250,284708,2,0,B|192:211|161:149|161:149|200:116|159:66|224:29,1,225
273,29,285024,5,0,0:0:0:0:
302,190,285182,1,0,0:0:0:0:
352,49,285340,5,0,0:0:0:0:
352,49,285419,1,0,0:0:0:0:
352,49,285498,1,0,0:0:0:0:
162,152,285656,6,0,P|134:199|136:253,1,97.4999955368044
203,369,285972,1,0,0:0:0:0:
203,369,286051,1,0,0:0:0:0:
203,369,286130,1,0,0:0:0:0:
379,223,286287,5,0,0:0:0:0:
273,29,286445,1,0,0:0:0:0:
236,234,286603,5,0,0:0:0:0:
236,234,286682,1,0,0:0:0:0:
236,234,286761,1,0,0:0:0:0:
364,56,286919,6,0,P|315:32|268:29,1,97.4999955368044
149,109,287235,1,0,0:0:0:0:
149,109,287314,1,0,0:0:0:0:
149,109,287393,1,0,0:0:0:0:
132,240,287551,5,0,0:0:0:0:
319,125,287708,1,0,0:0:0:0:
114,37,287866,5,0,0:0:0:0:
114,37,287945,1,0,0:0:0:0:
114,37,288024,1,0,0:0:0:0:
217,257,288182,6,0,B|169:270|169:270|107:219,1,97.4999955368044
114,37,288498,1,0,0:0:0:0:
114,37,288577,1,0,0:0:0:0:
114,37,288656,1,0,0:0:0:0:
283,68,288814,5,0,0:0:0:0:
332,79,288892,1,0,0:0:0:0:
370,112,288971,1,0,0:0:0:0:
388,160,289050,1,0,0:0:0:0:
381,210,289129,1,0,0:0:0:0:
351,251,289208,1,0,0:0:0:0:
305,273,289287,1,0,0:0:0:0:
254,271,289366,1,0,0:0:0:0:
218,258,289445,5,0,0:0:0:0:
182,247,289523,1,0,0:0:0:0:
147,258,289602,1,0,0:0:0:0:
123,287,289681,1,0,0:0:0:0:
120,324,289760,1,0,0:0:0:0:
137,357,289839,1,0,0:0:0:0:
169,374,289918,1,0,0:0:0:0:
381,210,290077,5,0,0:0:0:0:
249,56,290235,1,0,0:0:0:0:
182,247,290393,1,0,0:0:0:0:
182,247,290472,1,0,0:0:0:0:
182,247,290551,1,0,0:0:0:0:
78,77,295130,6,0,P|82:110|114:163,1,75
458,302,295445,2,0,P|450:268|429:232,1,75
176,192,295761,6,0,L|147:261,1,75
336,192,296076,2,0,L|364:122,1,75
236,269,296393,6,0,B|257:304|257:304|314:337,1,75
276,115,296708,2,0,B|255:80|255:80|198:47,1,75
100,147,297024,5,0,0:0:0:0:
286,321,297182,1,0,0:0:0:0:
372,79,297340,1,0,0:0:0:0:
272,161,297498,5,0,0:0:0:0:
272,161,297577,1,0,0:0:0:0:
272,161,297656,1,0,0:0:0:0:
250,200,297735,1,0,0:0:0:0:
247,243,297813,1,0,0:0:0:0:
260,286,297892,1,0,0:0:0:0:
286,321,297971,1,0,0:0:0:0:
323,345,298050,1,0,0:0:0:0:
366,355,298129,1,0,0:0:0:0:
410,350,298208,1,0,0:0:0:0:
449,331,298287,1,0,0:0:0:0:
480,299,298366,1,0,0:0:0:0:
498,259,298445,1,0,0:0:0:0:
501,215,298524,1,0,0:0:0:0:
486,168,298603,5,0,0:0:0:0:
464,124,298681,1,0,0:0:0:0:
428,91,298760,1,0,0:0:0:0:
382,78,298839,1,0,0:0:0:0:
333,77,298918,1,0,0:0:0:0:
284,79,298997,1,0,0:0:0:0:
236,76,299076,1,0,0:0:0:0:
189,64,299155,1,0,0:0:0:0:
201,116,299235,5,0,0:0:0:0:
199,168,299313,1,0,0:0:0:0:
181,217,299392,1,0,0:0:0:0:
149,258,299471,1,0,0:0:0:0:
106,288,299550,1,0,0:0:0:0:
56,303,299629,1,0,0:0:0:0:
103,325,299708,5,0,0:0:0:0:
154,333,299787,1,0,0:0:0:0:
206,326,299866,1,0,0:0:0:0:
255,307,299945,1,0,0:0:0:0:
299,279,300024,1,0,0:0:0:0:
335,241,300103,1,0,0:0:0:0:
361,196,300182,5,0,0:0:0:0:
381,78,300340,1,0,0:0:0:0:
269,120,300498,1,0,0:0:0:0:
269,120,300577,1,0,0:0:0:0:
269,120,300656,1,0,0:0:0:0:
96,86,327972,5,0,0:0:0:0:
89,138,328051,1,0,0:0:0:0:
84,190,328130,1,0,0:0:0:0:
78,241,328208,1,0,0:0:0:0:
71,293,328287,1,0,0:0:0:0:
286,308,328603,5,0,0:0:0:0:
310,261,328682,1,0,0:0:0:0:
333,215,328760,1,0,0:0:0:0:
355,168,328839,1,0,0:0:0:0:
380,122,328918,1,0,0:0:0:0:
89,138,329235,6,0,B|111:153|113:179|113:179|134:222|212:254,1,150
433,318,329551,1,0,0:0:0:0:
442,0,329708,1,0,0:0:0:0:
256,192,329787,12,0,330498,0:0:0:0:
