osu file format v14

[General]
AudioFilename: marc hudson is ducking weeb.mp3
AudioLeadIn: 0
PreviewTime: 108104
Countdown: 0
SampleSet: Normal
StackLeniency: 0.7
Mode: 1
LetterboxInBreaks: 0
WidescreenStoryboard: 0

[Editor]
Bookmarks: 46643,58950,68797,78643,88489,98335,137720,142643,152489,162335,172181,315556
DistanceSpacing: 0.2
BeatDivisor: 3
GridSize: 8
TimelineZoom: 3.000006

[Metadata]
Title:WAR!
TitleUnicode:WAR!
Artist:DragonForce
ArtistUnicode:DragonForce
Creator:zigizigiefe
Version:Tatsujin
Source:
Tags:marathon df herman li sam totman marc hudson reaching into infinity speed power metal
BeatmapID:1356668
BeatmapSetID:639689

[Difficulty]
HPDrainRate:4
CircleSize:3.1
OverallDifficulty:6.5
ApproachRate:6.9
SliderMultiplier:1.4
SliderTickRate:1

[Events]
//Background and Video events
0,0,"pizza ile gazoz 25 lira.png",0,0
//Break Periods
//Storyboard Layer 0 (Background)
//Storyboard Layer 1 (Fail)
//Storyboard Layer 2 (Pass)
//Storyboard Layer 3 (Foreground)
//Storyboard Sound Samples

[TimingPoints]
351,500,4,1,0,30,1,0
28101,-100,4,1,0,30,0,0
28351,521.739130434783,4,1,0,30,1,0
28351,-98.9815402009652,4,1,0,30,0,0
28611,-102.343506099851,4,1,0,30,0,0
28872,500,4,1,0,30,1,8
28872,-110.548175236545,4,1,0,30,0,0
29122,-114.576673564182,4,1,0,30,0,0
29372,600,4,1,0,28,1,8
29372,-99.0916859697271,4,1,0,30,0,0
29672,-102.986569315522,4,1,0,30,0,0
29972,666.666666666667,4,1,0,28,1,8
29972,-96.4802710709696,4,1,0,30,0,0
30305,571.428571428571,4,1,0,28,1,8
30305,-117.362076088181,4,1,0,30,0,0
30590,705.882352941176,4,1,0,28,1,0
30590,-99.241097489784,4,1,0,30,0,0
30942,-103.869721462955,4,1,0,30,0,0
31295,666.666666666667,4,1,0,28,1,8
31295,-115.359946103833,4,1,0,30,0,0
31628,750,4,1,0,28,1,8
31628,-107.816769712544,4,1,0,30,0,0
32003,967.741935483871,4,1,0,25,1,8
32003,-88.0890028552203,4,1,0,30,0,0
32486,981.59509202454,4,1,0,25,1,8
32486,-91.825274642073,4,1,0,30,0,0
32977,956.175298804781,4,1,0,25,1,8
32977,-97.4102964715242,4,1,0,30,0,0
36797,307.692307692308,4,1,0,90,1,0
108181,-100,4,1,0,90,0,9
127873,-100,4,1,0,90,0,8
182027,-100,4,1,0,90,0,9
201720,-100,4,1,0,90,0,8
241104,-100,4,1,0,90,0,9
260797,-100,4,1,0,90,0,8
292797,-100,4,1,0,90,0,9
313710,307.692307692308,4,1,0,90,1,0

[HitObjects]
160,96,351,5,0,0:0:0:0:
160,96,601,1,0,0:0:0:0:
352,96,851,1,8,0:0:0:0:
352,96,1101,1,8,0:0:0:0:
160,96,1351,1,0,0:0:0:0:
352,96,1601,1,8,0:0:0:0:
352,96,1851,1,8,0:0:0:0:
352,96,2101,1,8,0:0:0:0:
160,96,2351,1,0,0:0:0:0:
160,96,2601,1,0,0:0:0:0:
352,96,2851,1,8,0:0:0:0:
352,96,3101,1,8,0:0:0:0:
160,96,3351,1,0,0:0:0:0:
352,96,3601,1,8,0:0:0:0:
160,96,3851,1,0,0:0:0:0:
352,96,4101,1,8,0:0:0:0:
160,96,4351,1,0,0:0:0:0:
352,96,4601,1,8,0:0:0:0:
352,96,4851,1,8,0:0:0:0:
160,96,5101,1,0,0:0:0:0:
160,96,5351,1,0,0:0:0:0:
160,96,5601,1,0,0:0:0:0:
352,96,5851,1,8,0:0:0:0:
352,96,6101,1,8,0:0:0:0:
160,96,6351,1,0,0:0:0:0:
160,96,6601,1,0,0:0:0:0:
352,96,6851,1,8,0:0:0:0:
352,96,7101,1,8,0:0:0:0:
160,96,7351,1,0,0:0:0:0:
352,96,7601,1,8,0:0:0:0:
352,96,7851,1,8,0:0:0:0:
352,96,8101,1,8,0:0:0:0:
160,96,8351,5,0,0:0:0:0:
160,96,8601,1,0,0:0:0:0:
352,96,8851,1,8,0:0:0:0:
352,96,9101,1,8,0:0:0:0:
160,96,9351,1,0,0:0:0:0:
352,96,9601,1,8,0:0:0:0:
352,96,9851,1,8,0:0:0:0:
352,96,10101,1,8,0:0:0:0:
160,96,10351,1,0,0:0:0:0:
160,96,10601,1,0,0:0:0:0:
352,96,10851,1,8,0:0:0:0:
352,96,11101,1,8,0:0:0:0:
160,96,11351,1,0,0:0:0:0:
352,96,11601,1,8,0:0:0:0:
352,96,11851,1,8,0:0:0:0:
160,96,12101,1,0,0:0:0:0:
160,96,12351,1,0,0:0:0:0:
352,96,12601,1,8,0:0:0:0:
352,96,12851,1,8,0:0:0:0:
160,96,13101,1,0,0:0:0:0:
160,96,13351,1,0,0:0:0:0:
160,96,13601,1,0,0:0:0:0:
352,96,13851,1,8,0:0:0:0:
352,96,14101,1,8,0:0:0:0:
160,96,14351,1,0,0:0:0:0:
160,96,14601,1,0,0:0:0:0:
352,96,14851,1,8,0:0:0:0:
352,96,15101,1,8,0:0:0:0:
160,96,15351,1,0,0:0:0:0:
352,96,15601,1,8,0:0:0:0:
352,96,15851,1,8,0:0:0:0:
352,96,16101,1,8,0:0:0:0:
160,96,16351,5,0,0:0:0:0:
160,96,16601,1,0,0:0:0:0:
352,96,16851,1,8,0:0:0:0:
352,96,17101,1,8,0:0:0:0:
160,96,17351,1,0,0:0:0:0:
352,96,17601,1,8,0:0:0:0:
352,96,17851,1,8,0:0:0:0:
352,96,18101,1,8,0:0:0:0:
160,96,18351,1,0,0:0:0:0:
160,96,18601,1,0,0:0:0:0:
352,96,18851,1,8,0:0:0:0:
352,96,19101,1,8,0:0:0:0:
160,96,19351,1,0,0:0:0:0:
352,96,19601,1,8,0:0:0:0:
160,96,19851,1,0,0:0:0:0:
352,96,20101,1,8,0:0:0:0:
160,96,20351,1,0,0:0:0:0:
352,96,20601,1,8,0:0:0:0:
352,96,20851,1,8,0:0:0:0:
160,96,21101,1,0,0:0:0:0:
160,96,21351,1,0,0:0:0:0:
160,96,21601,1,0,0:0:0:0:
352,96,21851,1,8,0:0:0:0:
352,96,22101,1,8,0:0:0:0:
160,96,22351,1,0,0:0:0:0:
160,96,22601,1,0,0:0:0:0:
352,96,22851,1,8,0:0:0:0:
352,96,23101,1,8,0:0:0:0:
160,96,23351,1,0,0:0:0:0:
160,96,23601,1,0,0:0:0:0:
352,96,23851,1,8,0:0:0:0:
352,96,24101,1,8,0:0:0:0:
160,96,24351,5,0,0:0:0:0:
160,96,24601,1,0,0:0:0:0:
352,96,24851,1,8,0:0:0:0:
352,96,25101,1,8,0:0:0:0:
160,96,25351,1,0,0:0:0:0:
352,96,25601,1,8,0:0:0:0:
352,96,25851,1,8,0:0:0:0:
352,96,26101,1,8,0:0:0:0:
160,96,26351,1,0,0:0:0:0:
160,96,26601,1,0,0:0:0:0:
352,96,26851,1,8,0:0:0:0:
352,96,27101,1,8,0:0:0:0:
160,96,27351,1,0,0:0:0:0:
352,96,27601,1,8,0:0:0:0:
352,96,27851,1,8,0:0:0:0:
160,96,28101,1,0,0:0:0:0:
160,96,28351,1,0,0:0:0:0:
352,96,28611,1,8,0:0:0:0:
352,96,28872,1,8,0:0:0:0:
160,96,29122,1,0,0:0:0:0:
160,96,29372,1,0,0:0:0:0:
160,96,29672,1,0,0:0:0:0:
352,96,29972,1,8,0:0:0:0:
352,96,30305,1,8,0:0:0:0:
160,96,30590,1,0,0:0:0:0:
160,96,30942,1,0,0:0:0:0:
352,96,31295,1,8,0:0:0:0:
352,96,31628,1,8,0:0:0:0:
160,96,32003,1,0,0:0:0:0:
160,96,32486,1,0,0:0:0:0:
352,96,32977,1,8,0:0:0:0:
160,288,36797,1,4,0:0:0:0:
352,96,40489,1,8,0:0:0:0:
352,96,40527,1,8,0:0:0:0:
352,288,40694,1,12,0:0:0:0:
352,288,40899,1,12,0:0:0:0:
352,96,41104,1,8,0:0:0:0:
352,96,41143,1,8,0:0:0:0:
352,288,41309,1,12,0:0:0:0:
352,288,41514,1,12,0:0:0:0:
160,288,41720,1,4,0:0:0:0:
352,288,42335,1,12,0:0:0:0:
160,288,42540,1,4,0:0:0:0:
160,288,42745,1,4,0:0:0:0:
352,288,42950,1,12,0:0:0:0:
352,288,43566,1,12,0:0:0:0:
352,288,43771,1,12,0:0:0:0:
352,288,43976,1,12,0:0:0:0:
160,288,44181,1,4,0:0:0:0:
352,288,44797,1,12,0:0:0:0:
160,288,45002,1,4,0:0:0:0:
160,288,45207,1,4,0:0:0:0:
352,288,45412,1,12,0:0:0:0:
352,288,45617,1,12,0:0:0:0:
352,288,45822,1,12,0:0:0:0:
352,96,46027,1,8,0:0:0:0:
352,96,46066,1,8,0:0:0:0:
352,288,46232,1,12,0:0:0:0:
352,288,46438,1,12,0:0:0:0:
160,288,46643,1,4,0:0:0:0:
352,96,46797,1,8,0:0:0:0:
160,96,46873,1,0,0:0:0:0:
160,96,46950,1,0,0:0:0:0:
160,96,47027,1,0,0:0:0:0:
352,96,47104,1,8,0:0:0:0:
160,96,47181,1,0,0:0:0:0:
352,96,47258,1,8,0:0:0:0:
352,96,47335,1,8,0:0:0:0:
160,96,47412,1,0,0:0:0:0:
352,96,47489,1,8,0:0:0:0:
160,96,47566,1,0,0:0:0:0:
160,96,47643,1,0,0:0:0:0:
352,96,47720,1,8,0:0:0:0:
160,96,47797,1,0,0:0:0:0:
352,96,47873,1,8,0:0:0:0:
352,96,48027,1,8,0:0:0:0:
160,96,48104,1,0,0:0:0:0:
160,96,48181,1,0,0:0:0:0:
160,96,48258,1,0,0:0:0:0:
352,96,48335,1,8,0:0:0:0:
160,96,48412,1,0,0:0:0:0:
352,96,48489,1,8,0:0:0:0:
160,96,48566,1,0,0:0:0:0:
160,96,48643,1,0,0:0:0:0:
352,96,48720,1,8,0:0:0:0:
160,96,48797,1,0,0:0:0:0:
160,96,48873,1,0,0:0:0:0:
352,96,48950,1,8,0:0:0:0:
352,96,49027,1,8,0:0:0:0:
160,96,49104,1,0,0:0:0:0:
352,96,49258,1,8,0:0:0:0:
160,96,49335,1,0,0:0:0:0:
160,96,49412,1,0,0:0:0:0:
160,96,49489,1,0,0:0:0:0:
352,96,49566,1,8,0:0:0:0:
160,96,49643,1,0,0:0:0:0:
352,96,49720,1,8,0:0:0:0:
352,96,49797,1,8,0:0:0:0:
160,96,49873,1,0,0:0:0:0:
352,96,49950,1,8,0:0:0:0:
160,96,50027,1,0,0:0:0:0:
160,96,50104,1,0,0:0:0:0:
352,96,50181,1,8,0:0:0:0:
160,96,50258,1,0,0:0:0:0:
352,96,50335,1,8,0:0:0:0:
160,96,50412,1,0,0:0:0:0:
160,96,50489,1,0,0:0:0:0:
352,96,50566,1,8,0:0:0:0:
352,96,50643,1,8,0:0:0:0:
160,96,50720,1,0,0:0:0:0:
352,96,50797,1,8,0:0:0:0:
160,96,50873,1,0,0:0:0:0:
352,96,50950,1,8,0:0:0:0:
352,96,51027,1,8,0:0:0:0:
352,96,51104,1,8,0:0:0:0:
160,96,51181,1,0,0:0:0:0:
352,96,51258,1,8,0:0:0:0:
352,96,51335,1,8,0:0:0:0:
352,96,51412,1,8,0:0:0:0:
352,96,51489,1,8,0:0:0:0:
160,96,51566,1,0,0:0:0:0:
352,96,51720,1,8,0:0:0:0:
160,96,51797,1,0,0:0:0:0:
160,96,51873,1,0,0:0:0:0:
160,96,51950,1,0,0:0:0:0:
352,96,52027,1,8,0:0:0:0:
160,96,52104,1,0,0:0:0:0:
352,96,52181,1,8,0:0:0:0:
352,96,52258,1,8,0:0:0:0:
160,96,52335,1,0,0:0:0:0:
352,96,52412,1,8,0:0:0:0:
160,96,52489,1,0,0:0:0:0:
160,96,52566,1,0,0:0:0:0:
352,96,52643,1,8,0:0:0:0:
160,96,52720,1,0,0:0:0:0:
352,96,52797,1,8,0:0:0:0:
352,96,52950,1,8,0:0:0:0:
160,96,53027,1,0,0:0:0:0:
160,96,53104,1,0,0:0:0:0:
160,96,53181,1,0,0:0:0:0:
352,96,53258,1,8,0:0:0:0:
160,96,53335,1,0,0:0:0:0:
352,96,53412,1,8,0:0:0:0:
160,96,53489,1,0,0:0:0:0:
160,96,53566,1,0,0:0:0:0:
352,96,53643,1,8,0:0:0:0:
160,96,53720,1,0,0:0:0:0:
160,96,53797,1,0,0:0:0:0:
352,96,53873,1,8,0:0:0:0:
352,96,53950,1,8,0:0:0:0:
160,96,54027,1,0,0:0:0:0:
352,96,54181,1,8,0:0:0:0:
160,96,54258,1,0,0:0:0:0:
160,96,54335,1,0,0:0:0:0:
160,96,54412,1,0,0:0:0:0:
352,96,54489,1,8,0:0:0:0:
160,96,54566,1,0,0:0:0:0:
352,96,54643,1,8,0:0:0:0:
352,96,54720,1,8,0:0:0:0:
160,96,54797,1,0,0:0:0:0:
352,96,54873,1,8,0:0:0:0:
160,96,54950,1,0,0:0:0:0:
160,96,55027,1,0,0:0:0:0:
352,96,55104,1,8,0:0:0:0:
160,96,55181,1,0,0:0:0:0:
352,96,55258,1,8,0:0:0:0:
160,96,55335,1,0,0:0:0:0:
160,96,55412,1,0,0:0:0:0:
352,96,55489,1,8,0:0:0:0:
352,96,55566,1,8,0:0:0:0:
160,96,55643,1,0,0:0:0:0:
352,96,55720,1,8,0:0:0:0:
160,96,55797,1,0,0:0:0:0:
352,96,55873,1,8,0:0:0:0:
352,96,55950,1,8,0:0:0:0:
352,96,56027,1,8,0:0:0:0:
160,96,56104,1,0,0:0:0:0:
352,96,56181,1,8,0:0:0:0:
160,96,56258,1,0,0:0:0:0:
352,96,56335,1,8,0:0:0:0:
352,96,56412,1,8,0:0:0:0:
160,96,56489,1,0,0:0:0:0:
352,96,56643,1,8,0:0:0:0:
352,96,56720,1,8,0:0:0:0:
352,96,56797,1,8,0:0:0:0:
352,96,56873,1,8,0:0:0:0:
160,96,56950,1,0,0:0:0:0:
160,96,57027,1,0,0:0:0:0:
352,96,57104,1,8,0:0:0:0:
160,96,57258,1,0,0:0:0:0:
160,96,57335,1,0,0:0:0:0:
352,96,57412,1,8,0:0:0:0:
160,96,57566,1,0,0:0:0:0:
160,288,57720,1,4,0:0:0:0:
160,288,58335,1,4,0:0:0:0:
160,288,58950,1,4,0:0:0:0:
352,96,59104,1,8,0:0:0:0:
160,96,59258,1,0,0:0:0:0:
160,96,59335,1,0,0:0:0:0:
352,96,59412,1,8,0:0:0:0:
160,96,59566,1,0,0:0:0:0:
160,96,59643,1,0,0:0:0:0:
352,96,59720,1,8,0:0:0:0:
352,96,59797,1,8,0:0:0:0:
160,96,59873,1,0,0:0:0:0:
352,96,60027,1,8,0:0:0:0:
160,96,60181,1,0,0:0:0:0:
352,96,60335,1,8,0:0:0:0:
160,96,60489,1,0,0:0:0:0:
160,96,60566,1,0,0:0:0:0:
352,96,60643,1,8,0:0:0:0:
160,96,60720,1,0,0:0:0:0:
352,96,60797,1,8,0:0:0:0:
352,96,60873,1,8,0:0:0:0:
160,96,60950,1,0,0:0:0:0:
352,96,61104,1,8,0:0:0:0:
352,96,61181,1,8,0:0:0:0:
352,96,61258,1,8,0:0:0:0:
160,96,61412,1,0,0:0:0:0:
352,96,61566,1,8,0:0:0:0:
160,96,61720,1,0,0:0:0:0:
160,96,61797,1,0,0:0:0:0:
352,96,61873,1,8,0:0:0:0:
352,96,61950,1,8,0:0:0:0:
160,96,62027,1,0,0:0:0:0:
352,96,62181,1,8,0:0:0:0:
352,96,62258,1,8,0:0:0:0:
160,96,62335,1,0,0:0:0:0:
160,96,62412,1,0,0:0:0:0:
352,96,62489,1,8,0:0:0:0:
160,96,62643,1,0,0:0:0:0:
160,96,62720,1,0,0:0:0:0:
352,96,62797,1,8,0:0:0:0:
160,96,62950,1,0,0:0:0:0:
352,96,63104,1,8,0:0:0:0:
352,96,63258,1,8,0:0:0:0:
160,96,63335,1,0,0:0:0:0:
160,96,63412,1,0,0:0:0:0:
160,96,63489,1,0,0:0:0:0:
352,96,63566,1,8,0:0:0:0:
352,96,63643,1,8,0:0:0:0:
160,96,63720,1,0,0:0:0:0:
160,96,63873,1,0,0:0:0:0:
352,96,64027,1,8,0:0:0:0:
160,96,64181,1,0,0:0:0:0:
160,96,64258,1,0,0:0:0:0:
352,96,64335,1,8,0:0:0:0:
160,96,64489,1,0,0:0:0:0:
352,96,64566,1,8,0:0:0:0:
352,96,64643,1,8,0:0:0:0:
352,96,64720,1,8,0:0:0:0:
160,96,64797,1,0,0:0:0:0:
352,96,64950,1,8,0:0:0:0:
160,96,65104,1,0,0:0:0:0:
352,96,65258,1,8,0:0:0:0:
352,96,65335,1,8,0:0:0:0:
160,96,65412,1,0,0:0:0:0:
160,96,65489,1,0,0:0:0:0:
352,96,65566,1,8,0:0:0:0:
160,96,65643,1,0,0:0:0:0:
352,96,65720,1,8,0:0:0:0:
160,96,65873,1,0,0:0:0:0:
160,96,65950,1,0,0:0:0:0:
352,96,66027,1,8,0:0:0:0:
352,96,66104,1,8,0:0:0:0:
352,96,66181,1,8,0:0:0:0:
352,96,66258,1,8,0:0:0:0:
160,96,66335,1,0,0:0:0:0:
352,96,66489,1,8,0:0:0:0:
160,96,66643,1,0,0:0:0:0:
160,96,66720,1,0,0:0:0:0:
352,96,66797,1,8,0:0:0:0:
160,96,66873,1,0,0:0:0:0:
352,96,66950,1,8,0:0:0:0:
352,96,67027,1,8,0:0:0:0:
352,96,67104,1,8,0:0:0:0:
160,96,67258,1,0,0:0:0:0:
352,96,67412,1,8,0:0:0:0:
352,96,67566,1,8,0:0:0:0:
160,96,67643,1,0,0:0:0:0:
160,96,67720,1,0,0:0:0:0:
160,96,67797,1,0,0:0:0:0:
352,96,67873,1,8,0:0:0:0:
352,96,67950,1,8,0:0:0:0:
160,96,68027,1,0,0:0:0:0:
160,96,68104,1,0,0:0:0:0:
352,96,68181,1,8,0:0:0:0:
160,96,68258,1,0,0:0:0:0:
352,96,68335,1,8,0:0:0:0:
352,96,68412,1,8,0:0:0:0:
160,96,68489,1,0,0:0:0:0:
160,96,68566,1,0,0:0:0:0:
352,96,68643,1,8,0:0:0:0:
160,96,68797,1,0,0:0:0:0:
160,96,68873,1,0,0:0:0:0:
352,96,68950,1,8,0:0:0:0:
160,96,69027,1,0,0:0:0:0:
352,96,69104,1,8,0:0:0:0:
352,96,69181,1,8,0:0:0:0:
160,96,69258,1,0,0:0:0:0:
352,96,69335,1,8,0:0:0:0:
160,96,69412,1,0,0:0:0:0:
160,96,69489,1,0,0:0:0:0:
352,96,69566,1,8,0:0:0:0:
160,96,69643,1,0,0:0:0:0:
352,96,69720,1,8,0:0:0:0:
352,96,69797,1,8,0:0:0:0:
352,96,69873,1,8,0:0:0:0:
352,96,69950,1,8,0:0:0:0:
160,96,70027,1,0,0:0:0:0:
160,96,70104,1,0,0:0:0:0:
160,96,70181,1,0,0:0:0:0:
160,96,70258,1,0,0:0:0:0:
352,96,70335,1,8,0:0:0:0:
352,96,70412,1,8,0:0:0:0:
160,96,70489,1,0,0:0:0:0:
160,96,70566,1,0,0:0:0:0:
352,96,70643,1,8,0:0:0:0:
352,96,70694,1,8,0:0:0:0:
352,96,70745,1,8,0:0:0:0:
160,96,70797,1,0,0:0:0:0:
160,96,70848,1,0,0:0:0:0:
160,96,70899,1,0,0:0:0:0:
352,96,70950,1,8,0:0:0:0:
352,96,71027,1,8,0:0:0:0:
160,96,71104,1,0,0:0:0:0:
160,96,71181,1,0,0:0:0:0:
352,96,71258,1,8,0:0:0:0:
160,96,71335,1,0,0:0:0:0:
352,96,71412,1,8,0:0:0:0:
352,96,71489,1,8,0:0:0:0:
352,96,71566,1,8,0:0:0:0:
160,96,71643,1,0,0:0:0:0:
352,96,71720,1,8,0:0:0:0:
352,96,71797,1,8,0:0:0:0:
160,96,71873,1,0,0:0:0:0:
160,96,71950,1,0,0:0:0:0:
352,96,72027,1,8,0:0:0:0:
352,96,72104,1,8,0:0:0:0:
352,96,72181,1,8,0:0:0:0:
160,96,72258,1,0,0:0:0:0:
352,96,72335,1,8,0:0:0:0:
352,96,72412,1,8,0:0:0:0:
160,96,72489,1,0,0:0:0:0:
160,96,72566,1,0,0:0:0:0:
352,96,72643,1,8,0:0:0:0:
352,96,72720,1,8,0:0:0:0:
160,96,72797,1,0,0:0:0:0:
160,96,72873,1,0,0:0:0:0:
352,96,72950,1,8,0:0:0:0:
352,96,73027,1,8,0:0:0:0:
160,96,73104,1,0,0:0:0:0:
352,96,73181,1,8,0:0:0:0:
352,96,73258,1,8,0:0:0:0:
160,96,73335,1,0,0:0:0:0:
352,96,73412,1,8,0:0:0:0:
160,96,73489,1,0,0:0:0:0:
352,96,73566,1,8,0:0:0:0:
352,96,73643,1,8,0:0:0:0:
160,96,73720,1,0,0:0:0:0:
160,96,73797,1,0,0:0:0:0:
352,96,73873,1,8,0:0:0:0:
160,96,73950,1,0,0:0:0:0:
352,96,74027,1,8,0:0:0:0:
352,96,74104,1,8,0:0:0:0:
160,96,74181,1,0,0:0:0:0:
160,96,74258,1,0,0:0:0:0:
352,96,74335,1,8,0:0:0:0:
352,96,74412,1,8,0:0:0:0:
352,96,74489,1,8,0:0:0:0:
160,96,74566,1,0,0:0:0:0:
352,96,74643,1,8,0:0:0:0:
352,96,74720,1,8,0:0:0:0:
352,96,74797,1,8,0:0:0:0:
352,96,74873,1,8,0:0:0:0:
160,96,74950,1,0,0:0:0:0:
160,96,75027,1,0,0:0:0:0:
352,96,75104,1,8,0:0:0:0:
160,96,75181,1,0,0:0:0:0:
352,96,75258,1,8,0:0:0:0:
352,96,75335,1,8,0:0:0:0:
352,96,75412,1,8,0:0:0:0:
160,96,75489,1,0,0:0:0:0:
352,96,75566,1,8,0:0:0:0:
352,96,75643,1,8,0:0:0:0:
160,96,75720,1,0,0:0:0:0:
160,96,75797,1,0,0:0:0:0:
352,96,75873,1,8,0:0:0:0:
352,96,75950,1,8,0:0:0:0:
352,96,76027,1,8,0:0:0:0:
352,96,76104,1,8,0:0:0:0:
160,96,76181,1,0,0:0:0:0:
352,96,76258,5,8,0:0:0:0:
160,96,76335,1,0,0:0:0:0:
160,96,76412,1,0,0:0:0:0:
352,96,76489,1,8,0:0:0:0:
160,96,76540,1,0,0:0:0:0:
352,96,76591,1,8,0:0:0:0:
160,96,76643,1,0,0:0:0:0:
352,96,76694,1,8,0:0:0:0:
160,96,76745,1,0,0:0:0:0:
352,96,76797,1,8,0:0:0:0:
160,96,76873,1,0,0:0:0:0:
352,96,76950,1,8,0:0:0:0:
352,96,77027,1,8,0:0:0:0:
352,96,77104,1,8,0:0:0:0:
160,96,77181,1,0,0:0:0:0:
352,96,77258,1,8,0:0:0:0:
160,96,77335,1,0,0:0:0:0:
352,96,77412,5,8,0:0:0:0:
352,96,77489,1,8,0:0:0:0:
352,96,77566,1,8,0:0:0:0:
352,96,77643,1,8,0:0:0:0:
160,96,77720,1,0,0:0:0:0:
160,96,77797,1,0,0:0:0:0:
352,96,77873,1,8,0:0:0:0:
160,96,77950,1,0,0:0:0:0:
352,96,78027,1,8,0:0:0:0:
352,96,78104,1,8,0:0:0:0:
160,96,78181,1,0,0:0:0:0:
352,96,78258,1,8,0:0:0:0:
160,96,78335,1,0,0:0:0:0:
160,96,78489,1,0,0:0:0:0:
160,288,78643,1,4,0:0:0:0:
352,96,78797,1,8,0:0:0:0:
160,96,78950,1,0,0:0:0:0:
160,96,79027,1,0,0:0:0:0:
352,96,79104,1,8,0:0:0:0:
160,96,79258,1,0,0:0:0:0:
352,96,79335,1,8,0:0:0:0:
352,96,79412,1,8,0:0:0:0:
352,96,79489,1,8,0:0:0:0:
160,96,79566,1,0,0:0:0:0:
352,96,79720,1,8,0:0:0:0:
160,96,79873,1,0,0:0:0:0:
352,96,80027,1,8,0:0:0:0:
160,96,80104,1,0,0:0:0:0:
160,96,80181,1,0,0:0:0:0:
160,96,80258,1,0,0:0:0:0:
352,96,80335,1,8,0:0:0:0:
160,96,80412,1,0,0:0:0:0:
352,96,80489,1,8,0:0:0:0:
160,96,80643,1,0,0:0:0:0:
352,96,80797,1,8,0:0:0:0:
352,96,80873,1,8,0:0:0:0:
352,96,80950,1,8,0:0:0:0:
160,96,81104,1,0,0:0:0:0:
352,96,81258,1,8,0:0:0:0:
160,96,81412,1,0,0:0:0:0:
160,96,81489,1,0,0:0:0:0:
352,96,81566,1,8,0:0:0:0:
352,96,81643,1,8,0:0:0:0:
160,96,81720,1,0,0:0:0:0:
352,96,81873,1,8,0:0:0:0:
352,96,81950,1,8,0:0:0:0:
160,96,82027,1,0,0:0:0:0:
352,96,82181,1,8,0:0:0:0:
160,96,82335,1,0,0:0:0:0:
160,96,82412,1,0,0:0:0:0:
352,96,82489,1,8,0:0:0:0:
160,96,82643,1,0,0:0:0:0:
160,96,82720,1,0,0:0:0:0:
352,96,82797,1,8,0:0:0:0:
160,96,82873,1,0,0:0:0:0:
352,96,82950,1,8,0:0:0:0:
160,96,83027,1,0,0:0:0:0:
160,96,83104,1,0,0:0:0:0:
160,96,83181,1,0,0:0:0:0:
352,96,83258,1,8,0:0:0:0:
352,96,83335,1,8,0:0:0:0:
160,96,83412,1,0,0:0:0:0:
160,96,83566,1,0,0:0:0:0:
352,96,83720,1,8,0:0:0:0:
160,96,83873,1,0,0:0:0:0:
160,96,83950,1,0,0:0:0:0:
352,96,84027,1,8,0:0:0:0:
352,96,84181,1,8,0:0:0:0:
352,96,84258,1,8,0:0:0:0:
352,96,84335,1,8,0:0:0:0:
352,96,84412,1,8,0:0:0:0:
160,96,84489,1,0,0:0:0:0:
352,96,84643,1,8,0:0:0:0:
160,96,84797,1,0,0:0:0:0:
352,96,84950,1,8,0:0:0:0:
352,96,85027,1,8,0:0:0:0:
160,96,85104,1,0,0:0:0:0:
160,96,85181,1,0,0:0:0:0:
352,96,85258,1,8,0:0:0:0:
160,96,85335,1,0,0:0:0:0:
352,96,85412,1,8,0:0:0:0:
160,96,85566,1,0,0:0:0:0:
160,96,85643,1,0,0:0:0:0:
352,96,85720,1,8,0:0:0:0:
352,96,85797,1,8,0:0:0:0:
352,96,85873,1,8,0:0:0:0:
160,96,86027,1,0,0:0:0:0:
352,96,86181,1,8,0:0:0:0:
160,96,86335,1,0,0:0:0:0:
160,96,86412,1,0,0:0:0:0:
352,96,86489,1,8,0:0:0:0:
160,96,86566,1,0,0:0:0:0:
352,96,86643,1,8,0:0:0:0:
352,96,86720,1,8,0:0:0:0:
352,96,86797,1,8,0:0:0:0:
352,96,86873,1,8,0:0:0:0:
160,96,86950,1,0,0:0:0:0:
352,96,87104,1,8,0:0:0:0:
352,96,87258,1,8,0:0:0:0:
160,96,87335,5,0,0:0:0:0:
160,96,87412,1,0,0:0:0:0:
160,96,87489,1,0,0:0:0:0:
352,96,87566,1,8,0:0:0:0:
352,96,87643,1,8,0:0:0:0:
352,96,87720,1,8,0:0:0:0:
160,96,87797,1,0,0:0:0:0:
352,96,87873,1,8,0:0:0:0:
352,96,87950,1,8,0:0:0:0:
160,96,88027,1,0,0:0:0:0:
160,96,88104,1,0,0:0:0:0:
352,96,88181,1,8,0:0:0:0:
352,96,88258,1,8,0:0:0:0:
352,96,88335,1,8,0:0:0:0:
352,96,88412,1,8,0:0:0:0:
160,96,88489,1,0,0:0:0:0:
352,96,88643,1,8,0:0:0:0:
160,96,88797,1,0,0:0:0:0:
160,96,88873,1,0,0:0:0:0:
352,96,88950,1,8,0:0:0:0:
160,96,89104,1,0,0:0:0:0:
352,96,89258,1,8,0:0:0:0:
160,96,89412,1,0,0:0:0:0:
160,96,89489,1,0,0:0:0:0:
352,96,89566,1,8,0:0:0:0:
352,96,89643,1,8,0:0:0:0:
160,96,89720,1,0,0:0:0:0:
352,96,89873,1,8,0:0:0:0:
160,96,90027,1,0,0:0:0:0:
160,96,90104,1,0,0:0:0:0:
352,96,90181,1,8,0:0:0:0:
160,96,90335,1,0,0:0:0:0:
352,96,90489,1,8,0:0:0:0:
160,96,90643,1,0,0:0:0:0:
160,96,90720,1,0,0:0:0:0:
352,96,90797,1,8,0:0:0:0:
160,96,90950,1,0,0:0:0:0:
352,96,91104,1,8,0:0:0:0:
160,96,91258,1,0,0:0:0:0:
160,96,91335,1,0,0:0:0:0:
352,96,91412,1,8,0:0:0:0:
352,96,91489,1,8,0:0:0:0:
160,96,91566,1,0,0:0:0:0:
352,96,91720,1,8,0:0:0:0:
352,96,91797,1,8,0:0:0:0:
160,96,91873,1,0,0:0:0:0:
352,96,92027,1,8,0:0:0:0:
160,96,92181,1,0,0:0:0:0:
352,96,92335,1,8,0:0:0:0:
160,96,92489,1,0,0:0:0:0:
160,96,92566,1,0,0:0:0:0:
352,96,92643,1,8,0:0:0:0:
160,96,92797,1,0,0:0:0:0:
160,96,92873,1,0,0:0:0:0:
352,96,92950,1,8,0:0:0:0:
160,96,93027,1,0,0:0:0:0:
352,96,93104,1,8,0:0:0:0:
352,96,93181,1,8,0:0:0:0:
160,96,93258,1,0,0:0:0:0:
352,96,93335,1,8,0:0:0:0:
160,96,93412,1,0,0:0:0:0:
352,96,93566,1,8,0:0:0:0:
160,96,93720,1,0,0:0:0:0:
160,96,93797,1,0,0:0:0:0:
352,96,93873,1,8,0:0:0:0:
352,96,93950,1,8,0:0:0:0:
160,96,94027,1,0,0:0:0:0:
352,96,94181,1,8,0:0:0:0:
160,96,94335,1,0,0:0:0:0:
160,96,94412,1,0,0:0:0:0:
352,96,94489,1,8,0:0:0:0:
160,96,94643,1,0,0:0:0:0:
352,96,94797,1,8,0:0:0:0:
160,96,94950,1,0,0:0:0:0:
160,96,95027,1,0,0:0:0:0:
352,96,95104,1,8,0:0:0:0:
160,96,95258,1,0,0:0:0:0:
352,96,95412,1,8,0:0:0:0:
352,96,95489,1,8,0:0:0:0:
160,96,95566,1,0,0:0:0:0:
352,96,95720,1,8,0:0:0:0:
160,96,95873,1,0,0:0:0:0:
352,96,96027,1,8,0:0:0:0:
160,96,96181,1,0,0:0:0:0:
160,96,96258,1,0,0:0:0:0:
352,96,96335,1,8,0:0:0:0:
160,96,96489,1,0,0:0:0:0:
352,96,96643,1,8,0:0:0:0:
160,96,96797,1,0,0:0:0:0:
160,96,96873,1,0,0:0:0:0:
352,96,96950,1,8,0:0:0:0:
160,96,97104,1,0,0:0:0:0:
160,96,97181,1,0,0:0:0:0:
352,96,97258,1,8,0:0:0:0:
160,96,97335,1,0,0:0:0:0:
352,96,97412,1,8,0:0:0:0:
352,96,97489,1,8,0:0:0:0:
352,96,97566,1,8,0:0:0:0:
160,96,97643,1,0,0:0:0:0:
352,96,97720,1,8,0:0:0:0:
160,96,97797,1,0,0:0:0:0:
352,96,97873,1,8,0:0:0:0:
352,96,97950,1,8,0:0:0:0:
160,96,98027,1,0,0:0:0:0:
160,96,98104,1,0,0:0:0:0:
352,96,98181,1,8,0:0:0:0:
160,96,98258,1,0,0:0:0:0:
352,96,98335,1,8,0:0:0:0:
352,96,98489,1,8,0:0:0:0:
160,96,98643,1,0,0:0:0:0:
160,96,98720,1,0,0:0:0:0:
352,96,98797,1,8,0:0:0:0:
160,96,98950,1,0,0:0:0:0:
352,96,99104,1,8,0:0:0:0:
160,96,99258,1,0,0:0:0:0:
160,96,99335,1,0,0:0:0:0:
352,96,99412,1,8,0:0:0:0:
352,96,99489,1,8,0:0:0:0:
160,96,99566,1,0,0:0:0:0:
352,96,99720,1,8,0:0:0:0:
160,96,99873,1,0,0:0:0:0:
160,96,99950,1,0,0:0:0:0:
352,96,100027,1,8,0:0:0:0:
160,96,100181,1,0,0:0:0:0:
352,96,100335,1,8,0:0:0:0:
352,96,100412,1,8,0:0:0:0:
160,96,100489,1,0,0:0:0:0:
160,96,100566,1,0,0:0:0:0:
352,96,100643,1,8,0:0:0:0:
160,96,100797,1,0,0:0:0:0:
352,96,100950,1,8,0:0:0:0:
160,96,101027,1,0,0:0:0:0:
160,96,101104,1,0,0:0:0:0:
352,96,101258,1,8,0:0:0:0:
160,96,101412,1,0,0:0:0:0:
160,96,101489,1,0,0:0:0:0:
352,96,101566,1,8,0:0:0:0:
352,96,101643,1,8,0:0:0:0:
160,96,101720,1,0,0:0:0:0:
352,96,101873,1,8,0:0:0:0:
160,96,102027,1,0,0:0:0:0:
352,96,102181,1,8,0:0:0:0:
160,96,102335,1,0,0:0:0:0:
160,96,102412,1,0,0:0:0:0:
352,96,102489,1,8,0:0:0:0:
160,96,102643,1,0,0:0:0:0:
352,96,102797,1,8,0:0:0:0:
160,96,102873,1,0,0:0:0:0:
352,96,102950,1,8,0:0:0:0:
352,96,103027,1,8,0:0:0:0:
160,96,103104,1,0,0:0:0:0:
160,96,103181,1,0,0:0:0:0:
352,96,103258,1,8,0:0:0:0:
352,96,103412,1,8,0:0:0:0:
160,96,103566,1,0,0:0:0:0:
160,96,103643,1,0,0:0:0:0:
352,96,103720,1,8,0:0:0:0:
160,96,103873,1,0,0:0:0:0:
352,96,104027,1,8,0:0:0:0:
352,96,104104,1,8,0:0:0:0:
160,96,104181,1,0,0:0:0:0:
160,96,104258,1,0,0:0:0:0:
352,96,104335,1,8,0:0:0:0:
160,96,104489,1,0,0:0:0:0:
352,96,104643,1,8,0:0:0:0:
160,96,104797,1,0,0:0:0:0:
160,96,104873,1,0,0:0:0:0:
352,96,104950,1,8,0:0:0:0:
160,96,105104,1,0,0:0:0:0:
352,96,105258,1,8,0:0:0:0:
352,96,105335,1,8,0:0:0:0:
160,96,105412,1,0,0:0:0:0:
352,96,105566,1,8,0:0:0:0:
160,96,105720,1,0,0:0:0:0:
160,96,105797,1,0,0:0:0:0:
352,96,105873,1,8,0:0:0:0:
160,96,105950,1,0,0:0:0:0:
352,96,106027,1,8,0:0:0:0:
352,96,106104,1,8,0:0:0:0:
160,96,106181,1,0,0:0:0:0:
160,96,106258,1,0,0:0:0:0:
352,96,106335,1,8,0:0:0:0:
352,96,106412,1,8,0:0:0:0:
352,96,106489,1,8,0:0:0:0:
160,96,106566,1,0,0:0:0:0:
352,96,106643,1,8,0:0:0:0:
160,96,106720,1,0,0:0:0:0:
352,96,106797,1,8,0:0:0:0:
160,96,106873,1,0,0:0:0:0:
352,96,106950,1,8,0:0:0:0:
352,96,107027,1,8,0:0:0:0:
352,96,107104,1,8,0:0:0:0:
352,96,107181,1,8,0:0:0:0:
160,96,107258,1,0,0:0:0:0:
352,96,107566,1,8,0:0:0:0:
352,96,107643,1,8,0:0:0:0:
352,96,107720,1,8,0:0:0:0:
352,96,107797,1,8,0:0:0:0:
160,96,107873,1,0,0:0:0:0:
160,288,108181,1,4,0:0:0:0:
352,96,108335,1,8,0:0:0:0:
160,96,108412,1,0,0:0:0:0:
160,96,108489,1,0,0:0:0:0:
160,96,108566,1,0,0:0:0:0:
352,96,108643,1,8,0:0:0:0:
160,96,108720,1,0,0:0:0:0:
352,96,108797,1,8,0:0:0:0:
160,96,108873,1,0,0:0:0:0:
160,96,108950,1,0,0:0:0:0:
352,96,109027,1,8,0:0:0:0:
352,96,109104,1,8,0:0:0:0:
160,96,109181,1,0,0:0:0:0:
352,96,109258,1,8,0:0:0:0:
160,96,109335,1,0,0:0:0:0:
352,96,109412,1,8,0:0:0:0:
352,96,109566,1,8,0:0:0:0:
352,96,109643,1,8,0:0:0:0:
160,96,109720,1,0,0:0:0:0:
160,96,109797,1,0,0:0:0:0:
352,96,109873,1,8,0:0:0:0:
160,96,109950,1,0,0:0:0:0:
352,96,110027,1,8,0:0:0:0:
352,96,110104,1,8,0:0:0:0:
160,96,110181,1,0,0:0:0:0:
352,96,110258,1,8,0:0:0:0:
160,96,110335,1,0,0:0:0:0:
160,96,110412,1,0,0:0:0:0:
352,96,110489,1,8,0:0:0:0:
160,96,110566,1,0,0:0:0:0:
352,96,110643,1,8,0:0:0:0:
160,96,110797,1,0,0:0:0:0:
160,96,110873,1,0,0:0:0:0:
352,96,110950,1,8,0:0:0:0:
160,96,111027,1,0,0:0:0:0:
352,96,111104,1,8,0:0:0:0:
160,96,111181,1,0,0:0:0:0:
352,96,111258,1,8,0:0:0:0:
352,96,111335,1,8,0:0:0:0:
160,96,111412,1,0,0:0:0:0:
352,96,111489,1,8,0:0:0:0:
160,96,111566,1,0,0:0:0:0:
160,96,111643,1,0,0:0:0:0:
352,96,111720,1,8,0:0:0:0:
160,96,111797,1,0,0:0:0:0:
352,96,111873,1,8,0:0:0:0:
352,96,112027,1,8,0:0:0:0:
352,96,112104,1,8,0:0:0:0:
160,96,112181,1,0,0:0:0:0:
160,96,112258,1,0,0:0:0:0:
352,96,112335,1,8,0:0:0:0:
160,96,112489,1,0,0:0:0:0:
160,96,112566,1,0,0:0:0:0:
352,96,112643,1,8,0:0:0:0:
160,96,112720,1,0,0:0:0:0:
160,96,112873,1,0,0:0:0:0:
352,96,112950,1,8,0:0:0:0:
160,96,113104,1,0,0:0:0:0:
352,96,113258,1,8,0:0:0:0:
160,96,113335,1,0,0:0:0:0:
160,96,113412,1,0,0:0:0:0:
160,96,113489,1,0,0:0:0:0:
352,96,113566,1,8,0:0:0:0:
160,96,113643,1,0,0:0:0:0:
352,96,113720,1,8,0:0:0:0:
160,96,113797,1,0,0:0:0:0:
160,96,113873,1,0,0:0:0:0:
352,96,113950,1,8,0:0:0:0:
160,96,114027,1,0,0:0:0:0:
160,96,114104,1,0,0:0:0:0:
352,96,114181,1,8,0:0:0:0:
160,96,114258,1,0,0:0:0:0:
352,96,114335,1,8,0:0:0:0:
352,96,114489,1,8,0:0:0:0:
352,96,114566,1,8,0:0:0:0:
160,96,114643,1,0,0:0:0:0:
160,96,114720,1,0,0:0:0:0:
352,96,114797,1,8,0:0:0:0:
160,96,114873,1,0,0:0:0:0:
352,96,114950,1,8,0:0:0:0:
352,96,115027,1,8,0:0:0:0:
160,96,115104,1,0,0:0:0:0:
352,96,115181,1,8,0:0:0:0:
160,96,115258,1,0,0:0:0:0:
160,96,115335,1,0,0:0:0:0:
352,96,115412,1,8,0:0:0:0:
352,96,115489,1,8,0:0:0:0:
352,96,115566,1,8,0:0:0:0:
160,96,115720,1,0,0:0:0:0:
160,96,115797,1,0,0:0:0:0:
352,96,115873,1,8,0:0:0:0:
352,96,115950,1,8,0:0:0:0:
352,96,116027,1,8,0:0:0:0:
160,96,116104,1,0,0:0:0:0:
352,96,116181,1,8,0:0:0:0:
352,96,116258,1,8,0:0:0:0:
160,96,116335,1,0,0:0:0:0:
352,96,116412,1,8,0:0:0:0:
160,96,116489,1,0,0:0:0:0:
160,96,116566,1,0,0:0:0:0:
352,96,116643,1,8,0:0:0:0:
160,96,116720,1,0,0:0:0:0:
352,96,116797,1,8,0:0:0:0:
352,96,116950,1,8,0:0:0:0:
352,96,117027,1,8,0:0:0:0:
160,96,117104,1,0,0:0:0:0:
160,96,117181,1,0,0:0:0:0:
352,96,117258,1,8,0:0:0:0:
352,96,117412,1,8,0:0:0:0:
352,96,117489,1,8,0:0:0:0:
352,96,117566,1,8,0:0:0:0:
352,96,117643,1,8,0:0:0:0:
352,96,117720,1,8,0:0:0:0:
352,96,117797,1,8,0:0:0:0:
352,96,117873,1,8,0:0:0:0:
352,96,117950,1,8,0:0:0:0:
160,96,118027,1,0,0:0:0:0:
352,96,118181,1,8,0:0:0:0:
160,96,118258,1,0,0:0:0:0:
160,96,118335,1,0,0:0:0:0:
160,96,118412,1,0,0:0:0:0:
352,96,118489,1,8,0:0:0:0:
160,96,118566,1,0,0:0:0:0:
352,96,118643,1,8,0:0:0:0:
160,96,118720,1,0,0:0:0:0:
160,96,118797,1,0,0:0:0:0:
352,96,118873,1,8,0:0:0:0:
352,96,118950,1,8,0:0:0:0:
160,96,119027,1,0,0:0:0:0:
352,96,119104,1,8,0:0:0:0:
160,96,119181,1,0,0:0:0:0:
352,96,119258,1,8,0:0:0:0:
352,96,119412,1,8,0:0:0:0:
352,96,119489,1,8,0:0:0:0:
160,96,119566,1,0,0:0:0:0:
160,96,119643,1,0,0:0:0:0:
352,96,119720,1,8,0:0:0:0:
160,96,119797,1,0,0:0:0:0:
352,96,119873,1,8,0:0:0:0:
352,96,119950,1,8,0:0:0:0:
160,96,120027,1,0,0:0:0:0:
352,96,120104,1,8,0:0:0:0:
160,96,120181,1,0,0:0:0:0:
160,96,120258,1,0,0:0:0:0:
352,96,120335,1,8,0:0:0:0:
160,96,120412,1,0,0:0:0:0:
352,96,120489,1,8,0:0:0:0:
160,96,120643,1,0,0:0:0:0:
160,96,120720,1,0,0:0:0:0:
352,96,120797,1,8,0:0:0:0:
160,96,120873,1,0,0:0:0:0:
352,96,120950,1,8,0:0:0:0:
160,96,121027,1,0,0:0:0:0:
352,96,121104,1,8,0:0:0:0:
352,96,121181,1,8,0:0:0:0:
160,96,121258,1,0,0:0:0:0:
352,96,121335,1,8,0:0:0:0:
160,96,121412,1,0,0:0:0:0:
160,96,121489,1,0,0:0:0:0:
352,96,121566,1,8,0:0:0:0:
160,96,121643,1,0,0:0:0:0:
352,96,121720,1,8,0:0:0:0:
352,96,121873,1,8,0:0:0:0:
352,96,121950,1,8,0:0:0:0:
160,96,122027,1,0,0:0:0:0:
160,96,122104,1,0,0:0:0:0:
352,96,122181,1,8,0:0:0:0:
160,96,122258,1,0,0:0:0:0:
160,96,122335,1,0,0:0:0:0:
352,96,122489,1,8,0:0:0:0:
160,96,122566,1,0,0:0:0:0:
160,96,122720,1,0,0:0:0:0:
352,96,122797,1,8,0:0:0:0:
160,96,122950,1,0,0:0:0:0:
352,96,123104,1,8,0:0:0:0:
160,96,123181,1,0,0:0:0:0:
160,96,123258,1,0,0:0:0:0:
160,96,123335,1,0,0:0:0:0:
352,96,123412,1,8,0:0:0:0:
160,96,123489,1,0,0:0:0:0:
352,96,123566,1,8,0:0:0:0:
160,96,123643,1,0,0:0:0:0:
160,96,123720,1,0,0:0:0:0:
352,96,123797,1,8,0:0:0:0:
160,96,123873,1,0,0:0:0:0:
160,96,123950,1,0,0:0:0:0:
352,96,124027,1,8,0:0:0:0:
160,96,124104,1,0,0:0:0:0:
352,96,124181,1,8,0:0:0:0:
352,96,124335,1,8,0:0:0:0:
352,96,124412,1,8,0:0:0:0:
160,96,124489,1,0,0:0:0:0:
160,96,124566,1,0,0:0:0:0:
352,96,124643,1,8,0:0:0:0:
160,96,124720,1,0,0:0:0:0:
352,96,124797,1,8,0:0:0:0:
352,96,124873,1,8,0:0:0:0:
160,96,124950,1,0,0:0:0:0:
352,96,125027,1,8,0:0:0:0:
160,96,125104,1,0,0:0:0:0:
160,96,125181,1,0,0:0:0:0:
352,96,125258,1,8,0:0:0:0:
352,96,125335,1,8,0:0:0:0:
352,96,125412,1,8,0:0:0:0:
160,96,125566,1,0,0:0:0:0:
160,96,125643,1,0,0:0:0:0:
352,96,125720,1,8,0:0:0:0:
352,96,125797,1,8,0:0:0:0:
352,96,125873,1,8,0:0:0:0:
160,96,125950,1,0,0:0:0:0:
352,96,126027,1,8,0:0:0:0:
352,96,126104,1,8,0:0:0:0:
160,96,126181,1,0,0:0:0:0:
352,96,126258,1,8,0:0:0:0:
160,96,126335,1,0,0:0:0:0:
160,96,126412,1,0,0:0:0:0:
352,96,126489,1,8,0:0:0:0:
352,96,126566,1,8,0:0:0:0:
160,96,126643,1,0,0:0:0:0:
160,96,126720,1,0,0:0:0:0:
352,96,126797,1,8,0:0:0:0:
160,96,126873,1,0,0:0:0:0:
352,96,126950,1,8,0:0:0:0:
352,96,127027,1,8,0:0:0:0:
160,96,127104,1,0,0:0:0:0:
160,96,127181,1,0,0:0:0:0:
352,96,127258,1,8,0:0:0:0:
160,96,127335,1,0,0:0:0:0:
160,96,127412,1,0,0:0:0:0:
160,96,127489,1,0,0:0:0:0:
352,96,127566,1,8,0:0:0:0:
352,96,127643,1,8,0:0:0:0:
160,96,127720,1,0,0:0:0:0:
352,96,127873,1,8,0:0:0:0:
352,96,127950,1,8,0:0:0:0:
160,96,128027,1,0,0:0:0:0:
352,96,128104,1,8,0:0:0:0:
160,96,128181,1,0,0:0:0:0:
160,96,128258,1,0,0:0:0:0:
352,96,128335,1,8,0:0:0:0:
160,96,128412,1,0,0:0:0:0:
352,96,128489,1,8,0:0:0:0:
352,96,128566,1,8,0:0:0:0:
160,96,128643,1,0,0:0:0:0:
352,96,128720,1,8,0:0:0:0:
160,96,128797,1,0,0:0:0:0:
160,96,128873,1,0,0:0:0:0:
352,96,128950,1,8,0:0:0:0:
160,96,129027,1,0,0:0:0:0:
352,96,129104,1,8,0:0:0:0:
352,96,129181,1,8,0:0:0:0:
160,96,129258,1,0,0:0:0:0:
160,96,129335,1,0,0:0:0:0:
352,96,129412,1,8,0:0:0:0:
160,96,129489,1,0,0:0:0:0:
352,96,129566,1,8,0:0:0:0:
352,96,129643,1,8,0:0:0:0:
160,96,129720,1,0,0:0:0:0:
160,96,129797,1,0,0:0:0:0:
352,96,129873,1,8,0:0:0:0:
160,96,129950,1,0,0:0:0:0:
352,96,130027,1,8,0:0:0:0:
160,96,130104,1,0,0:0:0:0:
352,96,130181,1,8,0:0:0:0:
352,96,130258,1,8,0:0:0:0:
160,96,130335,1,0,0:0:0:0:
160,96,130412,1,0,0:0:0:0:
352,96,130489,1,8,0:0:0:0:
160,96,130566,1,0,0:0:0:0:
352,96,130643,1,8,0:0:0:0:
352,96,130720,1,8,0:0:0:0:
352,96,130797,1,8,0:0:0:0:
352,96,130873,1,8,0:0:0:0:
160,96,130950,1,0,0:0:0:0:
160,96,131027,1,0,0:0:0:0:
352,96,131104,1,8,0:0:0:0:
160,96,131181,1,0,0:0:0:0:
352,96,131258,1,8,0:0:0:0:
352,96,131335,1,8,0:0:0:0:
352,96,131412,1,8,0:0:0:0:
160,96,131489,1,0,0:0:0:0:
352,96,131566,1,8,0:0:0:0:
352,96,131617,1,8,0:0:0:0:
352,96,131668,1,8,0:0:0:0:
160,96,131720,1,0,0:0:0:0:
160,96,131797,1,0,0:0:0:0:
352,96,131873,1,8,0:0:0:0:
160,96,131950,1,0,0:0:0:0:
352,96,132027,1,8,0:0:0:0:
160,96,132104,1,0,0:0:0:0:
352,96,132181,1,8,0:0:0:0:
160,96,132258,1,0,0:0:0:0:
160,96,132335,1,0,0:0:0:0:
352,96,132412,1,8,0:0:0:0:
160,96,132489,1,0,0:0:0:0:
160,96,132566,1,0,0:0:0:0:
352,96,132643,1,8,0:0:0:0:
160,96,132720,1,0,0:0:0:0:
352,96,132797,1,8,0:0:0:0:
352,96,132950,1,8,0:0:0:0:
352,96,133027,1,8,0:0:0:0:
160,96,133104,1,0,0:0:0:0:
352,96,133181,1,8,0:0:0:0:
160,96,133258,1,0,0:0:0:0:
160,96,133335,1,0,0:0:0:0:
352,96,133412,1,8,0:0:0:0:
352,96,133566,1,8,0:0:0:0:
352,96,133643,1,8,0:0:0:0:
160,96,133720,1,0,0:0:0:0:
352,96,133797,1,8,0:0:0:0:
160,96,133873,1,0,0:0:0:0:
352,96,134027,1,8,0:0:0:0:
160,96,134104,1,0,0:0:0:0:
160,96,134181,1,0,0:0:0:0:
160,96,134258,1,0,0:0:0:0:
352,96,134335,1,8,0:0:0:0:
160,96,134412,1,0,0:0:0:0:
352,96,134489,1,8,0:0:0:0:
352,96,134566,1,8,0:0:0:0:
160,96,134643,1,0,0:0:0:0:
352,96,134720,1,8,0:0:0:0:
352,96,134797,1,8,0:0:0:0:
352,96,134873,1,8,0:0:0:0:
160,96,134950,1,0,0:0:0:0:
160,96,135027,1,0,0:0:0:0:
160,96,135104,1,0,0:0:0:0:
352,96,135258,1,8,0:0:0:0:
352,96,135297,1,8,0:0:0:0:
352,96,135412,1,8,0:0:0:0:
352,96,135450,1,8,0:0:0:0:
160,96,135566,1,0,0:0:0:0:
160,96,135604,1,0,0:0:0:0:
160,96,135720,1,0,0:0:0:0:
160,96,135758,1,0,0:0:0:0:
352,96,135873,1,8,0:0:0:0:
352,96,135912,1,8,0:0:0:0:
352,96,136027,1,8,0:0:0:0:
352,96,136066,1,8,0:0:0:0:
352,96,136181,1,8,0:0:0:0:
352,96,136258,1,8,0:0:0:0:
352,96,136335,1,8,0:0:0:0:
352,96,136489,1,8,0:0:0:0:
352,96,136566,1,8,0:0:0:0:
160,96,136643,1,0,0:0:0:0:
160,96,136694,1,0,0:0:0:0:
160,96,136745,1,0,0:0:0:0:
352,96,136797,1,8,0:0:0:0:
352,96,136873,1,8,0:0:0:0:
160,96,136950,1,0,0:0:0:0:
352,96,137104,1,8,0:0:0:0:
352,96,137155,1,8,0:0:0:0:
352,96,137207,1,8,0:0:0:0:
160,96,137258,1,0,0:0:0:0:
160,96,137309,1,0,0:0:0:0:
160,96,137361,1,0,0:0:0:0:
352,96,137412,1,8,0:0:0:0:
352,96,137514,1,8,0:0:0:0:
352,96,137617,1,8,0:0:0:0:
160,288,137720,1,4,0:0:0:0:
352,288,138335,1,12,0:0:0:0:
160,288,138540,1,4,0:0:0:0:
160,288,138745,1,4,0:0:0:0:
352,288,138950,1,12,0:0:0:0:
352,288,139566,1,12,0:0:0:0:
352,288,139771,1,12,0:0:0:0:
352,288,139976,1,12,0:0:0:0:
160,288,140181,1,4,0:0:0:0:
352,288,140797,1,12,0:0:0:0:
160,288,141002,1,4,0:0:0:0:
160,288,141207,1,4,0:0:0:0:
352,288,141412,1,12,0:0:0:0:
352,288,141617,1,12,0:0:0:0:
352,288,141822,1,12,0:0:0:0:
352,96,142027,1,8,0:0:0:0:
352,96,142066,1,8,0:0:0:0:
352,288,142232,1,12,0:0:0:0:
352,288,142438,1,12,0:0:0:0:
160,288,142643,1,4,0:0:0:0:
352,96,142797,1,8,0:0:0:0:
160,96,142873,1,0,0:0:0:0:
160,96,142950,1,0,0:0:0:0:
160,96,143027,1,0,0:0:0:0:
352,96,143104,1,8,0:0:0:0:
160,96,143258,1,0,0:0:0:0:
352,96,143335,1,8,0:0:0:0:
352,96,143412,1,8,0:0:0:0:
352,96,143489,1,8,0:0:0:0:
160,96,143566,1,0,0:0:0:0:
352,96,143720,1,8,0:0:0:0:
160,96,143873,1,0,0:0:0:0:
352,96,144027,1,8,0:0:0:0:
160,96,144181,1,0,0:0:0:0:
160,96,144258,1,0,0:0:0:0:
352,96,144335,1,8,0:0:0:0:
160,96,144412,1,0,0:0:0:0:
352,96,144489,1,8,0:0:0:0:
352,96,144566,1,8,0:0:0:0:
160,96,144643,1,0,0:0:0:0:
352,96,144797,1,8,0:0:0:0:
352,96,144873,1,8,0:0:0:0:
352,96,144950,1,8,0:0:0:0:
160,96,145104,1,0,0:0:0:0:
352,96,145258,1,8,0:0:0:0:
160,96,145412,1,0,0:0:0:0:
160,96,145489,1,0,0:0:0:0:
352,96,145566,1,8,0:0:0:0:
352,96,145643,1,8,0:0:0:0:
160,96,145720,1,0,0:0:0:0:
352,96,145873,1,8,0:0:0:0:
352,96,145950,1,8,0:0:0:0:
160,96,146027,1,0,0:0:0:0:
160,96,146104,1,0,0:0:0:0:
352,96,146181,1,8,0:0:0:0:
160,96,146335,1,0,0:0:0:0:
160,96,146412,1,0,0:0:0:0:
352,96,146489,1,8,0:0:0:0:
160,96,146643,1,0,0:0:0:0:
352,96,146797,1,8,0:0:0:0:
352,96,146950,1,8,0:0:0:0:
160,96,147027,1,0,0:0:0:0:
160,96,147104,1,0,0:0:0:0:
160,96,147181,1,0,0:0:0:0:
352,96,147258,1,8,0:0:0:0:
160,96,147335,1,0,0:0:0:0:
352,96,147412,1,8,0:0:0:0:
160,96,147566,1,0,0:0:0:0:
352,96,147720,1,8,0:0:0:0:
160,96,147873,1,0,0:0:0:0:
160,96,147950,1,0,0:0:0:0:
352,96,148027,1,8,0:0:0:0:
352,96,148181,1,8,0:0:0:0:
160,96,148258,1,0,0:0:0:0:
352,96,148335,1,8,0:0:0:0:
352,96,148412,1,8,0:0:0:0:
160,96,148489,1,0,0:0:0:0:
352,96,148643,1,8,0:0:0:0:
160,96,148797,1,0,0:0:0:0:
352,96,148950,1,8,0:0:0:0:
352,96,149027,1,8,0:0:0:0:
160,96,149104,1,0,0:0:0:0:
160,96,149181,1,0,0:0:0:0:
352,96,149258,1,8,0:0:0:0:
160,96,149335,1,0,0:0:0:0:
352,96,149412,1,8,0:0:0:0:
160,96,149566,1,0,0:0:0:0:
352,96,149720,1,8,0:0:0:0:
352,96,149797,1,8,0:0:0:0:
352,96,149873,1,8,0:0:0:0:
352,96,149950,1,8,0:0:0:0:
160,96,150027,1,0,0:0:0:0:
352,96,150181,1,8,0:0:0:0:
160,96,150335,1,0,0:0:0:0:
160,96,150412,1,0,0:0:0:0:
352,96,150489,1,8,0:0:0:0:
160,96,150566,1,0,0:0:0:0:
352,96,150643,1,8,0:0:0:0:
352,96,150720,1,8,0:0:0:0:
352,96,150797,1,8,0:0:0:0:
160,96,150950,1,0,0:0:0:0:
352,96,151104,1,8,0:0:0:0:
160,96,151258,1,0,0:0:0:0:
160,96,151335,1,0,0:0:0:0:
160,96,151412,1,0,0:0:0:0:
160,96,151489,1,0,0:0:0:0:
352,96,151566,1,8,0:0:0:0:
352,96,151643,1,8,0:0:0:0:
160,96,151720,1,0,0:0:0:0:
160,96,151797,1,0,0:0:0:0:
352,96,151873,1,8,0:0:0:0:
352,96,151950,1,8,0:0:0:0:
352,96,152027,1,8,0:0:0:0:
160,96,152104,1,0,0:0:0:0:
352,96,152181,1,8,0:0:0:0:
160,96,152258,1,0,0:0:0:0:
160,96,152335,1,0,0:0:0:0:
160,288,152489,1,4,0:0:0:0:
352,96,152643,1,8,0:0:0:0:
160,96,152797,1,0,0:0:0:0:
160,96,152873,1,0,0:0:0:0:
352,96,152950,1,8,0:0:0:0:
160,96,153027,1,0,0:0:0:0:
352,96,153104,1,8,0:0:0:0:
352,96,153181,1,8,0:0:0:0:
160,96,153258,1,0,0:0:0:0:
160,96,153412,1,0,0:0:0:0:
352,96,153566,1,8,0:0:0:0:
160,96,153720,1,0,0:0:0:0:
352,96,153873,1,8,0:0:0:0:
160,96,153950,1,0,0:0:0:0:
160,96,154027,1,0,0:0:0:0:
160,96,154104,1,0,0:0:0:0:
352,96,154181,1,8,0:0:0:0:
160,96,154258,1,0,0:0:0:0:
352,96,154335,1,8,0:0:0:0:
160,96,154489,1,0,0:0:0:0:
160,96,154566,1,0,0:0:0:0:
352,96,154643,1,8,0:0:0:0:
352,96,154720,1,8,0:0:0:0:
352,96,154797,1,8,0:0:0:0:
160,96,154950,1,0,0:0:0:0:
352,96,155104,1,8,0:0:0:0:
160,96,155258,1,0,0:0:0:0:
160,96,155335,1,0,0:0:0:0:
352,96,155412,1,8,0:0:0:0:
352,96,155489,1,8,0:0:0:0:
160,96,155566,1,0,0:0:0:0:
352,96,155720,1,8,0:0:0:0:
352,96,155797,1,8,0:0:0:0:
160,96,155873,1,0,0:0:0:0:
352,96,156027,1,8,0:0:0:0:
160,96,156181,1,0,0:0:0:0:
160,96,156258,1,0,0:0:0:0:
352,96,156335,1,8,0:0:0:0:
160,96,156489,1,0,0:0:0:0:
160,96,156566,1,0,0:0:0:0:
352,96,156643,1,8,0:0:0:0:
160,96,156720,1,0,0:0:0:0:
352,96,156797,1,8,0:0:0:0:
352,96,156873,1,8,0:0:0:0:
160,96,156950,1,0,0:0:0:0:
160,96,157027,1,0,0:0:0:0:
352,96,157104,1,8,0:0:0:0:
352,96,157181,1,8,0:0:0:0:
352,96,157258,1,8,0:0:0:0:
160,96,157412,1,0,0:0:0:0:
352,96,157566,1,8,0:0:0:0:
160,96,157720,1,0,0:0:0:0:
160,96,157797,1,0,0:0:0:0:
352,96,157873,1,8,0:0:0:0:
160,96,158027,1,0,0:0:0:0:
352,96,158104,1,8,0:0:0:0:
352,96,158181,1,8,0:0:0:0:
352,96,158258,1,8,0:0:0:0:
160,96,158335,1,0,0:0:0:0:
352,96,158489,1,8,0:0:0:0:
160,96,158643,1,0,0:0:0:0:
352,96,158797,1,8,0:0:0:0:
352,96,158873,1,8,0:0:0:0:
160,96,158950,1,0,0:0:0:0:
160,96,159027,1,0,0:0:0:0:
352,96,159104,1,8,0:0:0:0:
160,96,159181,1,0,0:0:0:0:
352,96,159258,1,8,0:0:0:0:
352,96,159335,1,8,0:0:0:0:
160,96,159412,1,0,0:0:0:0:
352,96,159566,1,8,0:0:0:0:
352,96,159643,1,8,0:0:0:0:
352,96,159720,1,8,0:0:0:0:
160,96,159873,1,0,0:0:0:0:
352,96,160027,5,8,0:0:0:0:
160,96,160181,1,0,0:0:0:0:
160,96,160258,1,0,0:0:0:0:
352,96,160335,1,8,0:0:0:0:
160,96,160412,1,0,0:0:0:0:
352,96,160489,1,8,0:0:0:0:
352,96,160566,1,8,0:0:0:0:
352,96,160643,1,8,0:0:0:0:
352,96,160720,1,8,0:0:0:0:
160,96,160797,1,0,0:0:0:0:
352,96,160950,1,8,0:0:0:0:
160,96,161104,5,0,0:0:0:0:
352,96,161181,1,8,0:0:0:0:
352,96,161258,1,8,0:0:0:0:
352,96,161335,1,8,0:0:0:0:
160,96,161412,1,0,0:0:0:0:
160,96,161489,1,0,0:0:0:0:
352,96,161566,1,8,0:0:0:0:
160,96,161643,1,0,0:0:0:0:
352,96,161720,1,8,0:0:0:0:
352,96,161797,1,8,0:0:0:0:
160,96,161873,1,0,0:0:0:0:
160,96,161950,1,0,0:0:0:0:
352,96,162027,1,8,0:0:0:0:
160,96,162181,1,0,0:0:0:0:
160,288,162335,1,4,0:0:0:0:
352,96,162489,1,8,0:0:0:0:
160,96,162643,1,0,0:0:0:0:
160,96,162720,1,0,0:0:0:0:
352,96,162797,1,8,0:0:0:0:
160,96,162950,1,0,0:0:0:0:
352,96,163104,1,8,0:0:0:0:
160,96,163258,1,0,0:0:0:0:
160,96,163335,1,0,0:0:0:0:
352,96,163412,1,8,0:0:0:0:
352,96,163489,1,8,0:0:0:0:
160,96,163566,1,0,0:0:0:0:
352,96,163720,1,8,0:0:0:0:
160,96,163873,1,0,0:0:0:0:
160,96,163950,1,0,0:0:0:0:
352,96,164027,1,8,0:0:0:0:
160,96,164181,1,0,0:0:0:0:
352,96,164335,1,8,0:0:0:0:
352,96,164412,1,8,0:0:0:0:
160,96,164489,1,0,0:0:0:0:
160,96,164566,1,0,0:0:0:0:
352,96,164643,1,8,0:0:0:0:
160,96,164797,1,0,0:0:0:0:
352,96,164950,1,8,0:0:0:0:
160,96,165104,1,0,0:0:0:0:
160,96,165181,1,0,0:0:0:0:
352,96,165258,1,8,0:0:0:0:
352,96,165335,1,8,0:0:0:0:
160,96,165412,1,0,0:0:0:0:
352,96,165566,1,8,0:0:0:0:
352,96,165643,1,8,0:0:0:0:
160,96,165720,1,0,0:0:0:0:
352,96,165873,1,8,0:0:0:0:
160,96,166027,1,0,0:0:0:0:
352,96,166181,1,8,0:0:0:0:
160,96,166335,1,0,0:0:0:0:
160,96,166412,1,0,0:0:0:0:
352,96,166489,1,8,0:0:0:0:
160,96,166643,1,0,0:0:0:0:
160,96,166720,1,0,0:0:0:0:
352,96,166797,1,8,0:0:0:0:
160,96,166873,1,0,0:0:0:0:
352,96,166950,1,8,0:0:0:0:
352,96,167027,1,8,0:0:0:0:
160,96,167104,1,0,0:0:0:0:
352,96,167181,1,8,0:0:0:0:
160,96,167258,1,0,0:0:0:0:
352,96,167412,1,8,0:0:0:0:
160,96,167566,1,0,0:0:0:0:
160,96,167643,1,0,0:0:0:0:
352,96,167720,1,8,0:0:0:0:
352,96,167797,1,8,0:0:0:0:
160,96,167873,1,0,0:0:0:0:
352,96,168027,1,8,0:0:0:0:
160,96,168181,1,0,0:0:0:0:
160,96,168258,1,0,0:0:0:0:
352,96,168335,1,8,0:0:0:0:
160,96,168489,1,0,0:0:0:0:
352,96,168643,1,8,0:0:0:0:
160,96,168797,1,0,0:0:0:0:
160,96,168873,1,0,0:0:0:0:
352,96,168950,1,8,0:0:0:0:
160,96,169104,1,0,0:0:0:0:
352,96,169258,1,8,0:0:0:0:
352,96,169335,1,8,0:0:0:0:
160,96,169412,1,0,0:0:0:0:
352,96,169566,1,8,0:0:0:0:
160,96,169720,1,0,0:0:0:0:
352,96,169873,1,8,0:0:0:0:
160,96,170027,1,0,0:0:0:0:
160,96,170104,1,0,0:0:0:0:
352,96,170181,1,8,0:0:0:0:
160,96,170335,1,0,0:0:0:0:
352,96,170489,1,8,0:0:0:0:
160,96,170643,1,0,0:0:0:0:
160,96,170720,1,0,0:0:0:0:
352,96,170797,1,8,0:0:0:0:
160,96,170950,1,0,0:0:0:0:
160,96,171027,1,0,0:0:0:0:
352,96,171104,1,8,0:0:0:0:
352,96,171181,1,8,0:0:0:0:
352,96,171258,1,8,0:0:0:0:
352,96,171335,1,8,0:0:0:0:
160,96,171412,1,0,0:0:0:0:
160,96,171489,1,0,0:0:0:0:
352,96,171566,1,8,0:0:0:0:
160,96,171643,1,0,0:0:0:0:
352,96,171720,1,8,0:0:0:0:
352,96,171797,1,8,0:0:0:0:
160,96,171873,1,0,0:0:0:0:
160,96,171950,1,0,0:0:0:0:
352,96,172027,1,8,0:0:0:0:
160,96,172104,1,0,0:0:0:0:
352,96,172181,1,8,0:0:0:0:
352,96,172335,1,8,0:0:0:0:
160,96,172489,1,0,0:0:0:0:
160,96,172566,1,0,0:0:0:0:
352,96,172643,1,8,0:0:0:0:
160,96,172797,1,0,0:0:0:0:
352,96,172950,1,8,0:0:0:0:
160,96,173104,1,0,0:0:0:0:
160,96,173181,1,0,0:0:0:0:
352,96,173258,1,8,0:0:0:0:
352,96,173335,1,8,0:0:0:0:
160,96,173412,1,0,0:0:0:0:
352,96,173566,1,8,0:0:0:0:
160,96,173720,1,0,0:0:0:0:
160,96,173797,1,0,0:0:0:0:
352,96,173873,1,8,0:0:0:0:
160,96,174027,1,0,0:0:0:0:
352,96,174181,1,8,0:0:0:0:
352,96,174258,1,8,0:0:0:0:
160,96,174335,1,0,0:0:0:0:
160,96,174412,1,0,0:0:0:0:
352,96,174489,1,8,0:0:0:0:
160,96,174643,1,0,0:0:0:0:
352,96,174797,1,8,0:0:0:0:
160,96,174873,1,0,0:0:0:0:
160,96,174950,1,0,0:0:0:0:
352,96,175104,1,8,0:0:0:0:
160,96,175258,1,0,0:0:0:0:
160,96,175335,1,0,0:0:0:0:
352,96,175412,1,8,0:0:0:0:
352,96,175489,1,8,0:0:0:0:
160,96,175566,1,0,0:0:0:0:
352,96,175720,1,8,0:0:0:0:
160,96,175873,1,0,0:0:0:0:
352,96,176027,1,8,0:0:0:0:
160,96,176181,1,0,0:0:0:0:
160,96,176258,1,0,0:0:0:0:
352,96,176335,1,8,0:0:0:0:
160,96,176489,1,0,0:0:0:0:
352,96,176643,1,8,0:0:0:0:
160,96,176720,1,0,0:0:0:0:
352,96,176797,1,8,0:0:0:0:
352,96,176873,1,8,0:0:0:0:
160,96,176950,1,0,0:0:0:0:
160,96,177027,1,0,0:0:0:0:
352,96,177104,1,8,0:0:0:0:
352,96,177258,1,8,0:0:0:0:
160,96,177412,1,0,0:0:0:0:
160,96,177489,1,0,0:0:0:0:
352,96,177566,1,8,0:0:0:0:
160,96,177720,1,0,0:0:0:0:
352,96,177873,1,8,0:0:0:0:
352,96,177950,1,8,0:0:0:0:
160,96,178027,1,0,0:0:0:0:
160,96,178104,1,0,0:0:0:0:
352,96,178181,1,8,0:0:0:0:
160,96,178335,1,0,0:0:0:0:
352,96,178489,1,8,0:0:0:0:
160,96,178643,1,0,0:0:0:0:
160,96,178720,1,0,0:0:0:0:
352,96,178797,1,8,0:0:0:0:
160,96,178950,1,0,0:0:0:0:
352,96,179104,1,8,0:0:0:0:
352,96,179181,1,8,0:0:0:0:
160,96,179258,1,0,0:0:0:0:
352,96,179412,1,8,0:0:0:0:
352,96,179566,1,8,0:0:0:0:
352,96,179643,1,8,0:0:0:0:
352,96,179720,1,8,0:0:0:0:
160,288,179873,1,4,0:0:0:0:
352,96,180027,1,8,0:0:0:0:
352,96,180104,1,8,0:0:0:0:
352,96,180181,1,8,0:0:0:0:
160,288,180335,1,4,0:0:0:0:
352,96,180489,1,8,0:0:0:0:
352,96,180566,1,8,0:0:0:0:
160,96,180643,1,0,0:0:0:0:
352,96,180797,1,8,0:0:0:0:
352,96,180873,5,8,0:0:0:0:
352,96,180950,1,8,0:0:0:0:
352,96,181027,1,8,0:0:0:0:
160,96,181104,1,0,0:0:0:0:
160,96,181181,1,0,0:0:0:0:
160,96,181258,1,0,0:0:0:0:
160,96,181335,1,0,0:0:0:0:
352,96,181412,1,8,0:0:0:0:
352,96,181489,1,8,0:0:0:0:
352,96,181566,1,8,0:0:0:0:
352,96,181643,1,8,0:0:0:0:
160,96,181720,1,0,0:0:0:0:
160,96,181797,1,0,0:0:0:0:
160,96,181873,1,0,0:0:0:0:
160,288,182027,5,4,0:0:0:0:
352,96,182181,1,8,0:0:0:0:
160,96,182258,1,0,0:0:0:0:
160,96,182335,1,0,0:0:0:0:
160,96,182412,1,0,0:0:0:0:
352,96,182489,1,8,0:0:0:0:
160,96,182566,1,0,0:0:0:0:
352,96,182643,1,8,0:0:0:0:
160,96,182720,1,0,0:0:0:0:
160,96,182797,1,0,0:0:0:0:
352,96,182873,1,8,0:0:0:0:
352,96,182950,1,8,0:0:0:0:
160,96,183027,1,0,0:0:0:0:
352,96,183104,1,8,0:0:0:0:
160,96,183181,1,0,0:0:0:0:
352,96,183258,1,8,0:0:0:0:
352,96,183412,1,8,0:0:0:0:
352,96,183489,1,8,0:0:0:0:
160,96,183566,1,0,0:0:0:0:
160,96,183643,1,0,0:0:0:0:
352,96,183720,1,8,0:0:0:0:
160,96,183797,1,0,0:0:0:0:
352,96,183873,1,8,0:0:0:0:
352,96,183950,1,8,0:0:0:0:
160,96,184027,1,0,0:0:0:0:
352,96,184104,1,8,0:0:0:0:
160,96,184181,1,0,0:0:0:0:
160,96,184258,1,0,0:0:0:0:
352,96,184335,1,8,0:0:0:0:
160,96,184412,1,0,0:0:0:0:
352,96,184489,1,8,0:0:0:0:
160,96,184643,1,0,0:0:0:0:
160,96,184720,1,0,0:0:0:0:
352,96,184797,1,8,0:0:0:0:
160,96,184873,1,0,0:0:0:0:
352,96,184950,1,8,0:0:0:0:
160,96,185027,1,0,0:0:0:0:
352,96,185104,1,8,0:0:0:0:
352,96,185181,1,8,0:0:0:0:
160,96,185258,1,0,0:0:0:0:
352,96,185335,1,8,0:0:0:0:
160,96,185412,1,0,0:0:0:0:
160,96,185489,1,0,0:0:0:0:
352,96,185566,1,8,0:0:0:0:
160,96,185643,1,0,0:0:0:0:
352,96,185720,1,8,0:0:0:0:
352,96,185873,1,8,0:0:0:0:
352,96,185950,1,8,0:0:0:0:
160,96,186027,1,0,0:0:0:0:
160,96,186104,1,0,0:0:0:0:
352,96,186181,1,8,0:0:0:0:
160,96,186335,1,0,0:0:0:0:
160,96,186412,1,0,0:0:0:0:
352,96,186489,1,8,0:0:0:0:
160,96,186566,1,0,0:0:0:0:
160,96,186720,1,0,0:0:0:0:
352,96,186797,1,8,0:0:0:0:
160,96,186950,1,0,0:0:0:0:
352,96,187104,1,8,0:0:0:0:
160,96,187181,1,0,0:0:0:0:
160,96,187258,1,0,0:0:0:0:
160,96,187335,1,0,0:0:0:0:
352,96,187412,1,8,0:0:0:0:
160,96,187489,1,0,0:0:0:0:
352,96,187566,1,8,0:0:0:0:
160,96,187643,1,0,0:0:0:0:
160,96,187720,1,0,0:0:0:0:
352,96,187797,1,8,0:0:0:0:
160,96,187873,1,0,0:0:0:0:
160,96,187950,1,0,0:0:0:0:
352,96,188027,1,8,0:0:0:0:
160,96,188104,1,0,0:0:0:0:
352,96,188181,1,8,0:0:0:0:
352,96,188335,1,8,0:0:0:0:
352,96,188412,1,8,0:0:0:0:
160,96,188489,1,0,0:0:0:0:
160,96,188566,1,0,0:0:0:0:
352,96,188643,1,8,0:0:0:0:
160,96,188720,1,0,0:0:0:0:
352,96,188797,1,8,0:0:0:0:
352,96,188873,1,8,0:0:0:0:
160,96,188950,1,0,0:0:0:0:
352,96,189027,1,8,0:0:0:0:
160,96,189104,1,0,0:0:0:0:
160,96,189181,1,0,0:0:0:0:
352,96,189258,1,8,0:0:0:0:
352,96,189335,1,8,0:0:0:0:
352,96,189412,1,8,0:0:0:0:
160,96,189566,1,0,0:0:0:0:
160,96,189643,1,0,0:0:0:0:
352,96,189720,1,8,0:0:0:0:
352,96,189797,1,8,0:0:0:0:
352,96,189873,1,8,0:0:0:0:
160,96,189950,1,0,0:0:0:0:
352,96,190027,1,8,0:0:0:0:
352,96,190104,1,8,0:0:0:0:
160,96,190181,1,0,0:0:0:0:
352,96,190258,1,8,0:0:0:0:
160,96,190335,1,0,0:0:0:0:
160,96,190412,1,0,0:0:0:0:
352,96,190489,1,8,0:0:0:0:
160,96,190566,1,0,0:0:0:0:
352,96,190643,1,8,0:0:0:0:
352,96,190797,1,8,0:0:0:0:
352,96,190873,1,8,0:0:0:0:
160,96,190950,1,0,0:0:0:0:
160,96,191027,1,0,0:0:0:0:
352,96,191104,1,8,0:0:0:0:
352,96,191258,1,8,0:0:0:0:
352,96,191335,1,8,0:0:0:0:
352,96,191412,1,8,0:0:0:0:
352,96,191489,1,8,0:0:0:0:
352,96,191566,1,8,0:0:0:0:
352,96,191643,1,8,0:0:0:0:
352,96,191720,1,8,0:0:0:0:
352,96,191797,1,8,0:0:0:0:
160,96,191873,1,0,0:0:0:0:
352,96,192027,1,8,0:0:0:0:
160,96,192104,1,0,0:0:0:0:
160,96,192181,1,0,0:0:0:0:
160,96,192258,1,0,0:0:0:0:
352,96,192335,1,8,0:0:0:0:
160,96,192412,1,0,0:0:0:0:
352,96,192489,1,8,0:0:0:0:
160,96,192566,1,0,0:0:0:0:
160,96,192643,1,0,0:0:0:0:
352,96,192720,1,8,0:0:0:0:
352,96,192797,1,8,0:0:0:0:
160,96,192873,1,0,0:0:0:0:
352,96,192950,1,8,0:0:0:0:
160,96,193027,1,0,0:0:0:0:
352,96,193104,1,8,0:0:0:0:
352,96,193258,1,8,0:0:0:0:
352,96,193335,1,8,0:0:0:0:
160,96,193412,1,0,0:0:0:0:
160,96,193489,1,0,0:0:0:0:
352,96,193566,1,8,0:0:0:0:
160,96,193643,1,0,0:0:0:0:
352,96,193720,1,8,0:0:0:0:
352,96,193797,1,8,0:0:0:0:
160,96,193873,1,0,0:0:0:0:
352,96,193950,1,8,0:0:0:0:
160,96,194027,1,0,0:0:0:0:
160,96,194104,1,0,0:0:0:0:
352,96,194181,1,8,0:0:0:0:
160,96,194258,1,0,0:0:0:0:
352,96,194335,1,8,0:0:0:0:
160,96,194489,1,0,0:0:0:0:
160,96,194566,1,0,0:0:0:0:
352,96,194643,1,8,0:0:0:0:
352,96,194720,1,8,0:0:0:0:
352,96,194797,1,8,0:0:0:0:
160,96,194873,1,0,0:0:0:0:
352,96,194950,1,8,0:0:0:0:
352,96,195027,1,8,0:0:0:0:
160,96,195104,1,0,0:0:0:0:
352,96,195181,1,8,0:0:0:0:
160,96,195258,1,0,0:0:0:0:
160,96,195335,1,0,0:0:0:0:
352,96,195412,1,8,0:0:0:0:
160,96,195489,1,0,0:0:0:0:
352,96,195566,1,8,0:0:0:0:
352,96,195720,1,8,0:0:0:0:
352,96,195797,1,8,0:0:0:0:
160,96,195873,1,0,0:0:0:0:
160,96,195950,1,0,0:0:0:0:
352,96,196027,1,8,0:0:0:0:
160,96,196104,1,0,0:0:0:0:
160,96,196181,1,0,0:0:0:0:
352,96,196335,1,8,0:0:0:0:
160,96,196412,1,0,0:0:0:0:
160,96,196566,1,0,0:0:0:0:
352,96,196643,1,8,0:0:0:0:
160,96,196797,1,0,0:0:0:0:
352,96,196950,1,8,0:0:0:0:
160,96,197027,1,0,0:0:0:0:
160,96,197104,1,0,0:0:0:0:
160,96,197181,1,0,0:0:0:0:
352,96,197258,1,8,0:0:0:0:
160,96,197335,1,0,0:0:0:0:
352,96,197412,1,8,0:0:0:0:
160,96,197489,1,0,0:0:0:0:
160,96,197566,1,0,0:0:0:0:
352,96,197643,1,8,0:0:0:0:
160,96,197720,1,0,0:0:0:0:
160,96,197797,1,0,0:0:0:0:
352,96,197873,1,8,0:0:0:0:
160,96,197950,1,0,0:0:0:0:
352,96,198027,1,8,0:0:0:0:
352,96,198181,1,8,0:0:0:0:
352,96,198258,1,8,0:0:0:0:
160,96,198335,1,0,0:0:0:0:
160,96,198412,1,0,0:0:0:0:
352,96,198489,1,8,0:0:0:0:
160,96,198566,1,0,0:0:0:0:
352,96,198643,1,8,0:0:0:0:
352,96,198720,1,8,0:0:0:0:
160,96,198797,1,0,0:0:0:0:
352,96,198873,1,8,0:0:0:0:
160,96,198950,1,0,0:0:0:0:
160,96,199027,1,0,0:0:0:0:
352,96,199104,1,8,0:0:0:0:
352,96,199181,1,8,0:0:0:0:
352,96,199258,1,8,0:0:0:0:
160,96,199412,1,0,0:0:0:0:
160,96,199489,1,0,0:0:0:0:
352,96,199566,1,8,0:0:0:0:
352,96,199643,1,8,0:0:0:0:
352,96,199720,1,8,0:0:0:0:
160,96,199797,1,0,0:0:0:0:
352,96,199873,1,8,0:0:0:0:
352,96,199950,1,8,0:0:0:0:
160,96,200027,1,0,0:0:0:0:
352,96,200104,1,8,0:0:0:0:
160,96,200181,1,0,0:0:0:0:
160,96,200258,1,0,0:0:0:0:
352,96,200335,1,8,0:0:0:0:
160,96,200412,1,0,0:0:0:0:
352,96,200489,1,8,0:0:0:0:
352,96,200643,1,8,0:0:0:0:
160,96,200720,1,0,0:0:0:0:
352,96,200797,1,8,0:0:0:0:
352,96,200873,1,8,0:0:0:0:
160,96,200950,1,0,0:0:0:0:
160,96,201104,1,0,0:0:0:0:
160,96,201181,1,0,0:0:0:0:
352,96,201258,1,8,0:0:0:0:
160,96,201335,1,0,0:0:0:0:
352,96,201412,1,8,0:0:0:0:
352,96,201489,1,8,0:0:0:0:
352,96,201566,1,8,0:0:0:0:
160,288,201720,1,4,0:0:0:0:
352,96,201873,1,8,0:0:0:0:
160,96,201950,1,0,0:0:0:0:
160,96,202027,1,0,0:0:0:0:
160,96,202104,1,0,0:0:0:0:
352,96,202181,1,8,0:0:0:0:
160,96,202258,1,0,0:0:0:0:
352,96,202335,1,8,0:0:0:0:
160,96,202412,1,0,0:0:0:0:
160,96,202489,1,0,0:0:0:0:
352,96,202566,1,8,0:0:0:0:
352,96,202643,1,8,0:0:0:0:
160,96,202720,1,0,0:0:0:0:
352,96,202797,1,8,0:0:0:0:
160,96,202873,1,0,0:0:0:0:
352,96,202950,1,8,0:0:0:0:
352,96,203027,1,8,0:0:0:0:
160,96,203104,1,0,0:0:0:0:
160,96,203181,1,0,0:0:0:0:
160,96,203258,1,0,0:0:0:0:
160,96,203335,1,0,0:0:0:0:
352,96,203412,1,8,0:0:0:0:
160,96,203489,1,0,0:0:0:0:
352,96,203566,1,8,0:0:0:0:
352,96,203643,1,8,0:0:0:0:
160,96,203720,1,0,0:0:0:0:
352,96,203797,1,8,0:0:0:0:
160,96,203873,1,0,0:0:0:0:
160,96,203950,1,0,0:0:0:0:
352,96,204027,1,8,0:0:0:0:
160,96,204104,1,0,0:0:0:0:
352,96,204181,1,8,0:0:0:0:
352,96,204258,1,8,0:0:0:0:
352,96,204335,1,8,0:0:0:0:
352,96,204412,1,8,0:0:0:0:
160,96,204489,1,0,0:0:0:0:
160,96,204566,1,0,0:0:0:0:
352,96,204643,1,8,0:0:0:0:
160,96,204720,1,0,0:0:0:0:
352,96,204797,1,8,0:0:0:0:
160,96,204873,1,0,0:0:0:0:
160,96,204950,1,0,0:0:0:0:
352,96,205027,1,8,0:0:0:0:
160,96,205104,1,0,0:0:0:0:
160,96,205181,1,0,0:0:0:0:
352,96,205258,1,8,0:0:0:0:
160,96,205335,1,0,0:0:0:0:
352,96,205412,1,8,0:0:0:0:
352,96,205489,1,8,0:0:0:0:
160,96,205566,1,0,0:0:0:0:
352,96,205643,1,8,0:0:0:0:
160,96,205720,1,0,0:0:0:0:
160,96,205797,1,0,0:0:0:0:
352,96,205873,1,8,0:0:0:0:
160,96,205950,1,0,0:0:0:0:
352,96,206027,1,8,0:0:0:0:
352,96,206104,1,8,0:0:0:0:
160,96,206181,1,0,0:0:0:0:
352,96,206258,1,8,0:0:0:0:
160,96,206335,1,0,0:0:0:0:
352,96,206412,1,8,0:0:0:0:
352,96,206489,1,8,0:0:0:0:
352,96,206566,1,8,0:0:0:0:
160,96,206643,1,0,0:0:0:0:
160,96,206720,1,0,0:0:0:0:
352,96,206797,1,8,0:0:0:0:
160,96,206873,1,0,0:0:0:0:
352,96,206950,1,8,0:0:0:0:
352,96,207027,1,8,0:0:0:0:
160,96,207104,1,0,0:0:0:0:
160,96,207181,1,0,0:0:0:0:
352,96,207258,1,8,0:0:0:0:
160,96,207335,1,0,0:0:0:0:
160,96,207412,1,0,0:0:0:0:
352,96,207489,1,8,0:0:0:0:
352,96,207566,1,8,0:0:0:0:
160,96,207643,1,0,0:0:0:0:
352,96,207720,1,8,0:0:0:0:
160,96,207797,1,0,0:0:0:0:
352,96,207873,1,8,0:0:0:0:
352,96,207950,1,8,0:0:0:0:
352,96,208027,1,8,0:0:0:0:
352,96,208104,1,8,0:0:0:0:
160,96,208181,1,0,0:0:0:0:
160,96,208258,1,0,0:0:0:0:
352,96,208335,1,8,0:0:0:0:
160,96,208412,1,0,0:0:0:0:
352,96,208489,1,8,0:0:0:0:
352,96,208566,1,8,0:0:0:0:
160,96,208643,1,0,0:0:0:0:
352,96,208720,1,8,0:0:0:0:
160,96,208797,1,0,0:0:0:0:
160,96,208873,1,0,0:0:0:0:
352,96,208950,1,8,0:0:0:0:
160,96,209027,1,0,0:0:0:0:
352,96,209104,1,8,0:0:0:0:
352,96,209181,1,8,0:0:0:0:
160,96,209258,1,0,0:0:0:0:
160,96,209335,1,0,0:0:0:0:
352,96,209412,1,8,0:0:0:0:
160,96,209489,1,0,0:0:0:0:
352,96,209566,1,8,0:0:0:0:
160,96,209643,1,0,0:0:0:0:
352,96,209720,1,8,0:0:0:0:
352,96,209797,1,8,0:0:0:0:
352,96,209873,1,8,0:0:0:0:
160,96,209950,1,0,0:0:0:0:
352,96,210027,1,8,0:0:0:0:
160,96,210104,1,0,0:0:0:0:
352,96,210181,1,8,0:0:0:0:
352,96,210258,1,8,0:0:0:0:
160,96,210335,1,0,0:0:0:0:
160,96,210412,1,0,0:0:0:0:
352,96,210489,1,8,0:0:0:0:
352,96,210566,1,8,0:0:0:0:
160,96,210643,1,0,0:0:0:0:
352,96,210720,1,8,0:0:0:0:
160,96,210797,1,0,0:0:0:0:
160,96,210873,1,0,0:0:0:0:
352,96,210950,1,8,0:0:0:0:
352,96,211027,1,8,0:0:0:0:
160,96,211104,1,0,0:0:0:0:
160,96,211181,1,0,0:0:0:0:
352,96,211258,1,8,0:0:0:0:
160,96,211412,1,0,0:0:0:0:
352,96,211566,1,8,0:0:0:0:
352,96,211643,1,8,0:0:0:0:
160,96,211720,1,0,0:0:0:0:
160,96,211797,1,0,0:0:0:0:
352,96,211873,1,8,0:0:0:0:
160,96,211950,1,0,0:0:0:0:
352,96,212027,1,8,0:0:0:0:
160,96,212104,1,0,0:0:0:0:
352,96,212181,1,8,0:0:0:0:
352,96,212258,1,8,0:0:0:0:
160,96,212335,1,0,0:0:0:0:
160,96,212412,1,0,0:0:0:0:
352,96,212489,1,8,0:0:0:0:
352,96,212566,1,8,0:0:0:0:
352,96,212643,1,8,0:0:0:0:
160,96,212720,1,0,0:0:0:0:
352,96,212797,1,8,0:0:0:0:
352,96,212873,1,8,0:0:0:0:
160,96,212950,1,0,0:0:0:0:
160,96,213027,1,0,0:0:0:0:
352,96,213104,1,8,0:0:0:0:
160,96,213181,1,0,0:0:0:0:
352,96,213258,1,8,0:0:0:0:
160,96,213412,1,0,0:0:0:0:
160,96,213450,1,0,0:0:0:0:
160,96,213566,1,0,0:0:0:0:
160,96,213604,1,0,0:0:0:0:
352,96,213720,1,8,0:0:0:0:
352,96,213758,1,8,0:0:0:0:
352,96,213873,1,8,0:0:0:0:
352,96,213912,1,8,0:0:0:0:
160,96,214027,1,0,0:0:0:0:
160,96,214104,1,0,0:0:0:0:
352,96,214181,1,8,0:0:0:0:
160,96,214258,1,0,0:0:0:0:
160,96,214335,1,0,0:0:0:0:
160,96,214412,1,0,0:0:0:0:
352,96,214489,1,8,0:0:0:0:
160,96,214566,1,0,0:0:0:0:
352,96,214643,1,8,0:0:0:0:
352,96,214720,1,8,0:0:0:0:
352,96,214797,1,8,0:0:0:0:
160,96,214873,1,0,0:0:0:0:
352,96,214950,1,8,0:0:0:0:
352,96,215027,1,8,0:0:0:0:
160,96,215104,1,0,0:0:0:0:
160,96,215181,1,0,0:0:0:0:
352,96,215258,1,8,0:0:0:0:
160,96,215335,1,0,0:0:0:0:
352,96,215412,1,8,0:0:0:0:
160,96,215489,1,0,0:0:0:0:
352,96,215566,1,8,0:0:0:0:
352,96,215643,1,8,0:0:0:0:
160,96,215720,1,0,0:0:0:0:
352,96,215797,1,8,0:0:0:0:
160,96,215873,1,0,0:0:0:0:
160,96,215950,1,0,0:0:0:0:
352,96,216027,1,8,0:0:0:0:
160,96,216104,1,0,0:0:0:0:
352,96,216181,1,8,0:0:0:0:
352,96,216258,1,8,0:0:0:0:
352,96,216335,1,8,0:0:0:0:
352,96,216412,1,8,0:0:0:0:
160,96,216489,1,0,0:0:0:0:
160,96,216566,1,0,0:0:0:0:
160,96,216643,1,0,0:0:0:0:
160,96,216720,1,0,0:0:0:0:
352,96,216797,1,8,0:0:0:0:
160,96,216873,1,0,0:0:0:0:
160,96,216950,1,0,0:0:0:0:
160,96,217027,1,0,0:0:0:0:
352,96,217104,1,8,0:0:0:0:
352,96,217181,1,8,0:0:0:0:
160,96,217258,1,0,0:0:0:0:
160,96,217335,1,0,0:0:0:0:
352,96,217412,1,8,0:0:0:0:
352,96,217489,1,8,0:0:0:0:
352,96,217566,1,8,0:0:0:0:
160,96,217643,1,0,0:0:0:0:
352,96,217720,1,8,0:0:0:0:
160,96,217797,1,0,0:0:0:0:
352,96,217873,1,8,0:0:0:0:
352,96,217950,1,8,0:0:0:0:
160,96,218027,1,0,0:0:0:0:
160,96,218104,1,0,0:0:0:0:
160,96,218181,1,0,0:0:0:0:
224,192,218335,2,4,L|320:192,3,69.99999833107
352,96,218950,1,8,0:0:0:0:
352,96,219027,1,8,0:0:0:0:
352,96,219104,1,8,0:0:0:0:
160,96,219181,1,0,0:0:0:0:
160,96,219258,1,0,0:0:0:0:
160,96,219335,1,0,0:0:0:0:
352,96,219412,1,8,0:0:0:0:
160,96,219489,1,0,0:0:0:0:
352,96,219566,1,8,0:0:0:0:
352,96,219643,1,8,0:0:0:0:
160,96,219720,1,0,0:0:0:0:
352,96,219797,1,8,0:0:0:0:
160,96,219873,1,0,0:0:0:0:
160,96,219950,1,0,0:0:0:0:
352,96,220027,1,8,0:0:0:0:
352,96,220104,1,8,0:0:0:0:
160,96,220181,1,0,0:0:0:0:
160,96,220258,1,0,0:0:0:0:
352,96,220335,1,8,0:0:0:0:
160,96,220412,1,0,0:0:0:0:
352,96,220489,1,8,0:0:0:0:
160,96,220566,1,0,0:0:0:0:
352,96,220643,1,8,0:0:0:0:
160,96,220720,1,0,0:0:0:0:
352,96,220797,1,8,0:0:0:0:
352,96,220873,1,8,0:0:0:0:
352,96,220950,1,8,0:0:0:0:
160,96,221027,1,0,0:0:0:0:
352,96,221104,1,8,0:0:0:0:
352,96,221181,1,8,0:0:0:0:
352,96,221258,1,8,0:0:0:0:
352,96,221335,1,8,0:0:0:0:
160,96,221412,1,0,0:0:0:0:
352,96,221566,1,8,0:0:0:0:
160,96,221643,1,0,0:0:0:0:
160,96,221797,1,0,0:0:0:0:
352,96,221873,1,8,0:0:0:0:
352,96,221950,1,8,0:0:0:0:
160,96,222027,1,0,0:0:0:0:
160,96,222104,1,0,0:0:0:0:
352,96,222181,1,8,0:0:0:0:
160,96,222335,1,0,0:0:0:0:
352,96,222489,1,8,0:0:0:0:
352,96,222540,1,8,0:0:0:0:
352,96,222591,1,8,0:0:0:0:
160,96,222643,1,0,0:0:0:0:
352,96,222797,1,8,0:0:0:0:
160,96,222950,1,0,0:0:0:0:
352,96,223027,1,8,0:0:0:0:
160,96,223104,1,0,0:0:0:0:
352,96,223181,1,8,0:0:0:0:
160,96,223258,1,0,0:0:0:0:
352,96,223412,1,8,0:0:0:0:
352,96,223489,1,8,0:0:0:0:
160,96,223566,1,0,0:0:0:0:
352,96,223720,1,8,0:0:0:0:
160,96,223873,1,0,0:0:0:0:
160,96,223950,1,0,0:0:0:0:
352,96,224027,1,8,0:0:0:0:
160,96,224104,1,0,0:0:0:0:
352,96,224181,1,8,0:0:0:0:
160,96,224232,1,0,0:0:0:0:
160,96,224284,1,0,0:0:0:0:
352,96,224335,1,8,0:0:0:0:
352,96,224412,1,8,0:0:0:0:
160,96,224489,1,0,0:0:0:0:
160,96,224566,1,0,0:0:0:0:
352,96,224643,1,8,0:0:0:0:
160,96,224720,1,0,0:0:0:0:
352,96,224797,1,8,0:0:0:0:
352,96,224848,1,8,0:0:0:0:
352,96,224899,1,8,0:0:0:0:
160,96,224950,1,0,0:0:0:0:
160,96,225027,1,0,0:0:0:0:
352,96,225104,1,8,0:0:0:0:
160,96,225181,1,0,0:0:0:0:
352,96,225258,1,8,0:0:0:0:
352,96,225335,1,8,0:0:0:0:
160,96,225412,1,0,0:0:0:0:
352,96,225464,1,8,0:0:0:0:
352,96,225515,1,8,0:0:0:0:
160,96,225566,1,0,0:0:0:0:
352,96,225643,1,8,0:0:0:0:
160,96,225720,1,0,0:0:0:0:
160,96,225797,1,0,0:0:0:0:
352,96,225873,1,8,0:0:0:0:
160,96,225950,1,0,0:0:0:0:
352,96,226027,1,8,0:0:0:0:
160,96,226181,1,0,0:0:0:0:
352,96,226335,1,8,0:0:0:0:
352,96,226412,1,8,0:0:0:0:
160,96,226489,1,0,0:0:0:0:
160,96,226566,1,0,0:0:0:0:
352,96,226643,1,8,0:0:0:0:
160,96,226720,1,0,0:0:0:0:
352,96,226797,1,8,0:0:0:0:
352,96,226873,1,8,0:0:0:0:
160,96,226950,1,0,0:0:0:0:
352,96,227027,1,8,0:0:0:0:
160,96,227104,1,0,0:0:0:0:
160,96,227181,1,0,0:0:0:0:
352,96,227258,1,8,0:0:0:0:
352,96,227335,1,8,0:0:0:0:
352,96,227412,1,8,0:0:0:0:
352,96,227489,1,8,0:0:0:0:
160,96,227566,1,0,0:0:0:0:
160,96,227668,1,0,0:0:0:0:
160,96,227771,1,0,0:0:0:0:
352,96,227873,1,8,0:0:0:0:
352,96,227976,1,8,0:0:0:0:
352,96,228079,1,8,0:0:0:0:
160,96,228181,1,0,0:0:0:0:
352,96,228284,1,8,0:0:0:0:
160,96,228386,1,0,0:0:0:0:
352,96,228489,1,8,0:0:0:0:
352,96,228591,1,8,0:0:0:0:
352,96,228694,1,8,0:0:0:0:
160,96,228797,1,0,0:0:0:0:
160,96,228873,1,0,0:0:0:0:
352,96,228950,1,8,0:0:0:0:
160,96,229027,1,0,0:0:0:0:
352,96,229104,1,8,0:0:0:0:
352,96,229181,1,8,0:0:0:0:
160,96,229258,1,0,0:0:0:0:
352,96,229335,1,8,0:0:0:0:
160,96,229412,1,0,0:0:0:0:
160,96,229489,1,0,0:0:0:0:
352,96,229566,1,8,0:0:0:0:
160,96,229643,1,0,0:0:0:0:
352,96,229720,1,8,0:0:0:0:
352,96,229797,1,8,0:0:0:0:
160,96,229873,1,0,0:0:0:0:
160,96,229950,1,0,0:0:0:0:
352,96,230027,1,8,0:0:0:0:
352,96,230104,1,8,0:0:0:0:
352,96,230181,1,8,0:0:0:0:
160,96,230258,1,0,0:0:0:0:
352,96,230335,1,8,0:0:0:0:
352,96,230412,1,8,0:0:0:0:
160,96,230489,1,0,0:0:0:0:
160,96,230643,1,0,0:0:0:0:
160,96,230720,1,0,0:0:0:0:
160,96,230797,1,0,0:0:0:0:
160,96,230873,1,0,0:0:0:0:
352,96,230950,1,8,0:0:0:0:
160,96,231104,1,0,0:0:0:0:
160,96,231181,1,0,0:0:0:0:
352,96,231258,1,8,0:0:0:0:
352,96,231335,1,8,0:0:0:0:
352,96,231412,1,8,0:0:0:0:
352,96,231489,1,8,0:0:0:0:
352,96,231566,1,8,0:0:0:0:
352,96,233720,1,8,0:0:0:0:
352,96,233797,1,8,0:0:0:0:
352,96,233873,1,8,0:0:0:0:
352,96,233950,1,8,0:0:0:0:
352,96,234027,1,8,0:0:0:0:
160,96,235412,1,0,0:0:0:0:
160,96,235450,1,0,0:0:0:0:
352,288,235566,1,12,0:0:0:0:
352,288,235771,1,12,0:0:0:0:
352,288,235976,1,12,0:0:0:0:
352,96,236181,1,8,0:0:0:0:
352,96,236258,1,8,0:0:0:0:
352,96,236335,1,8,0:0:0:0:
352,96,236412,1,8,0:0:0:0:
352,96,236489,1,8,0:0:0:0:
160,96,237104,1,0,0:0:0:0:
160,96,237720,1,0,0:0:0:0:
160,96,238335,1,0,0:0:0:0:
352,96,238643,1,8,0:0:0:0:
352,96,238720,1,8,0:0:0:0:
352,96,238797,1,8,0:0:0:0:
352,96,238873,1,8,0:0:0:0:
352,96,238950,1,8,0:0:0:0:
160,96,239566,1,0,0:0:0:0:
160,96,240181,1,0,0:0:0:0:
352,96,240489,1,8,0:0:0:0:
160,96,240566,1,0,0:0:0:0:
160,96,240643,1,0,0:0:0:0:
160,96,240720,1,0,0:0:0:0:
352,96,240797,1,8,0:0:0:0:
160,96,240873,1,0,0:0:0:0:
352,96,240950,1,8,0:0:0:0:
160,288,241104,1,4,0:0:0:0:
160,96,241258,1,0,0:0:0:0:
352,96,241412,1,8,0:0:0:0:
160,96,241566,1,0,0:0:0:0:
160,96,241720,1,0,0:0:0:0:
160,96,241873,1,0,0:0:0:0:
352,96,242027,1,8,0:0:0:0:
352,96,242181,1,8,0:0:0:0:
160,96,242335,1,0,0:0:0:0:
160,96,242489,1,0,0:0:0:0:
352,96,242643,1,8,0:0:0:0:
160,96,242797,1,0,0:0:0:0:
352,96,242950,1,8,0:0:0:0:
352,96,243104,1,8,0:0:0:0:
160,96,243258,1,0,0:0:0:0:
160,96,243566,1,0,0:0:0:0:
160,96,243720,1,0,0:0:0:0:
352,96,243873,1,8,0:0:0:0:
160,96,244027,1,0,0:0:0:0:
160,96,244181,1,0,0:0:0:0:
160,96,244335,1,0,0:0:0:0:
352,96,244489,1,8,0:0:0:0:
352,96,244643,1,8,0:0:0:0:
160,96,244797,1,0,0:0:0:0:
160,96,244950,1,0,0:0:0:0:
352,96,245104,1,8,0:0:0:0:
160,96,245258,1,0,0:0:0:0:
352,96,245412,1,8,0:0:0:0:
352,96,245566,1,8,0:0:0:0:
352,96,245720,1,8,0:0:0:0:
160,96,246027,1,0,0:0:0:0:
160,96,246181,1,0,0:0:0:0:
352,96,246335,1,8,0:0:0:0:
160,96,246489,1,0,0:0:0:0:
160,96,246643,1,0,0:0:0:0:
160,96,246797,1,0,0:0:0:0:
352,96,246950,1,8,0:0:0:0:
352,96,247104,1,8,0:0:0:0:
160,96,247258,1,0,0:0:0:0:
160,96,247412,1,0,0:0:0:0:
352,96,247566,1,8,0:0:0:0:
160,96,247720,1,0,0:0:0:0:
352,96,247873,1,8,0:0:0:0:
352,96,248027,1,8,0:0:0:0:
160,96,248181,1,0,0:0:0:0:
160,96,248489,1,0,0:0:0:0:
160,96,248643,1,0,0:0:0:0:
352,96,248797,1,8,0:0:0:0:
160,96,248950,1,0,0:0:0:0:
160,96,249104,1,0,0:0:0:0:
160,96,249258,1,0,0:0:0:0:
352,96,249412,1,8,0:0:0:0:
352,96,249566,1,8,0:0:0:0:
160,96,249720,1,0,0:0:0:0:
160,96,249873,1,0,0:0:0:0:
352,96,250027,1,8,0:0:0:0:
160,96,250181,1,0,0:0:0:0:
352,96,250335,1,8,0:0:0:0:
352,96,250489,1,8,0:0:0:0:
352,96,250643,1,8,0:0:0:0:
160,96,250797,1,0,0:0:0:0:
160,96,250873,1,0,0:0:0:0:
352,96,250950,1,8,0:0:0:0:
160,96,251104,1,0,0:0:0:0:
352,96,251258,1,8,0:0:0:0:
160,96,251412,1,0,0:0:0:0:
160,96,251489,1,0,0:0:0:0:
352,96,251566,1,8,0:0:0:0:
160,96,251720,1,0,0:0:0:0:
352,96,251873,1,8,0:0:0:0:
160,96,252027,1,0,0:0:0:0:
160,96,252104,1,0,0:0:0:0:
352,96,252181,1,8,0:0:0:0:
160,96,252335,1,0,0:0:0:0:
352,96,252489,1,8,0:0:0:0:
160,96,252643,1,0,0:0:0:0:
160,96,252720,1,0,0:0:0:0:
352,96,252797,1,8,0:0:0:0:
160,96,252950,1,0,0:0:0:0:
160,96,253027,1,0,0:0:0:0:
352,96,253104,1,8,0:0:0:0:
352,96,253181,1,8,0:0:0:0:
160,96,253258,1,0,0:0:0:0:
160,96,253335,1,0,0:0:0:0:
352,96,253412,1,8,0:0:0:0:
160,96,253566,1,0,0:0:0:0:
352,96,253720,1,8,0:0:0:0:
160,96,253873,1,0,0:0:0:0:
160,96,253950,1,0,0:0:0:0:
352,96,254027,1,8,0:0:0:0:
160,96,254181,1,0,0:0:0:0:
352,96,254335,1,8,0:0:0:0:
160,96,254489,1,0,0:0:0:0:
160,96,254566,1,0,0:0:0:0:
352,96,254643,1,8,0:0:0:0:
160,96,254797,1,0,0:0:0:0:
352,96,254950,1,8,0:0:0:0:
160,96,255104,1,0,0:0:0:0:
160,96,255181,1,0,0:0:0:0:
352,96,255258,1,8,0:0:0:0:
160,96,255412,1,0,0:0:0:0:
160,96,255489,1,0,0:0:0:0:
352,96,255566,1,8,0:0:0:0:
352,96,255643,1,8,0:0:0:0:
160,96,255720,1,0,0:0:0:0:
160,96,255797,1,0,0:0:0:0:
352,96,255873,1,8,0:0:0:0:
160,96,256027,1,0,0:0:0:0:
352,96,256181,1,8,0:0:0:0:
160,96,256335,1,0,0:0:0:0:
160,96,256412,1,0,0:0:0:0:
352,96,256489,1,8,0:0:0:0:
352,96,256566,1,8,0:0:0:0:
160,96,256643,1,0,0:0:0:0:
352,96,256797,1,8,0:0:0:0:
160,96,256950,1,0,0:0:0:0:
160,96,257027,1,0,0:0:0:0:
352,96,257104,1,8,0:0:0:0:
216,112,257181,1,8,0:0:0:0:
160,96,257258,1,0,0:0:0:0:
352,96,257412,1,8,0:0:0:0:
160,96,257566,1,0,0:0:0:0:
160,96,257643,1,0,0:0:0:0:
352,96,257720,1,8,0:0:0:0:
352,96,257797,1,8,0:0:0:0:
160,96,257873,1,0,0:0:0:0:
352,96,258027,1,8,0:0:0:0:
160,96,258181,1,0,0:0:0:0:
160,96,258258,1,0,0:0:0:0:
352,96,258335,1,8,0:0:0:0:
160,96,258412,1,0,0:0:0:0:
160,96,258489,1,0,0:0:0:0:
160,96,258566,1,0,0:0:0:0:
352,96,258643,1,8,0:0:0:0:
352,96,258720,1,8,0:0:0:0:
160,96,258797,1,0,0:0:0:0:
160,96,258873,1,0,0:0:0:0:
352,96,258950,1,8,0:0:0:0:
160,96,259027,1,0,0:0:0:0:
160,96,259104,1,0,0:0:0:0:
160,96,259181,1,0,0:0:0:0:
352,96,259258,1,8,0:0:0:0:
352,96,259335,1,8,0:0:0:0:
160,96,259412,1,0,0:0:0:0:
160,96,259489,1,0,0:0:0:0:
352,96,259566,1,8,0:0:0:0:
160,96,259643,1,0,0:0:0:0:
160,96,259720,1,0,0:0:0:0:
160,96,259797,1,0,0:0:0:0:
352,96,259873,1,8,0:0:0:0:
352,96,259950,1,8,0:0:0:0:
160,96,260027,1,0,0:0:0:0:
160,96,260104,1,0,0:0:0:0:
352,96,260181,1,8,0:0:0:0:
160,96,260258,1,0,0:0:0:0:
160,96,260335,1,0,0:0:0:0:
160,96,260412,1,0,0:0:0:0:
352,96,260489,1,8,0:0:0:0:
352,96,260566,1,8,0:0:0:0:
352,96,260643,1,8,0:0:0:0:
352,96,260720,1,8,0:0:0:0:
160,96,260797,1,0,0:0:0:0:
160,96,260873,1,0,0:0:0:0:
352,96,260950,1,8,0:0:0:0:
160,96,261027,1,0,0:0:0:0:
160,96,261104,1,0,0:0:0:0:
160,96,261181,1,0,0:0:0:0:
352,96,261258,1,8,0:0:0:0:
352,96,261335,1,8,0:0:0:0:
160,96,261412,1,0,0:0:0:0:
160,96,261489,1,0,0:0:0:0:
352,96,261566,1,8,0:0:0:0:
160,96,261643,1,0,0:0:0:0:
160,96,261720,1,0,0:0:0:0:
160,96,261797,1,0,0:0:0:0:
352,96,261873,1,8,0:0:0:0:
352,96,261950,1,8,0:0:0:0:
160,96,262027,1,0,0:0:0:0:
160,96,262104,1,0,0:0:0:0:
352,96,262181,1,8,0:0:0:0:
352,96,262258,1,8,0:0:0:0:
160,96,262335,1,0,0:0:0:0:
352,96,262412,1,8,0:0:0:0:
352,96,262489,1,8,0:0:0:0:
352,96,262566,1,8,0:0:0:0:
160,96,262643,1,0,0:0:0:0:
160,96,262797,1,0,0:0:0:0:
352,96,262873,1,8,0:0:0:0:
160,96,262950,1,0,0:0:0:0:
160,96,263104,1,0,0:0:0:0:
160,288,263258,1,4,0:0:0:0:
352,96,263412,1,8,0:0:0:0:
160,96,263489,1,0,0:0:0:0:
160,96,263566,1,0,0:0:0:0:
160,96,263643,1,0,0:0:0:0:
352,96,263720,1,8,0:0:0:0:
160,96,263873,1,0,0:0:0:0:
160,96,263950,1,0,0:0:0:0:
352,96,264027,1,8,0:0:0:0:
352,96,264104,1,8,0:0:0:0:
160,96,264181,1,0,0:0:0:0:
160,96,264258,1,0,0:0:0:0:
352,96,264335,1,8,0:0:0:0:
160,96,264489,1,0,0:0:0:0:
352,96,264643,1,8,0:0:0:0:
160,96,264797,1,0,0:0:0:0:
160,96,264873,1,0,0:0:0:0:
352,96,264950,1,8,0:0:0:0:
160,96,265027,1,0,0:0:0:0:
352,96,265104,1,8,0:0:0:0:
352,96,265181,1,8,0:0:0:0:
160,96,265258,1,0,0:0:0:0:
352,96,265412,1,8,0:0:0:0:
352,96,265489,1,8,0:0:0:0:
352,96,265566,1,8,0:0:0:0:
160,96,265720,1,0,0:0:0:0:
352,96,265873,1,8,0:0:0:0:
160,96,266027,1,0,0:0:0:0:
160,96,266104,1,0,0:0:0:0:
352,96,266181,1,8,0:0:0:0:
352,96,266258,1,8,0:0:0:0:
160,96,266335,1,0,0:0:0:0:
352,96,266412,1,8,0:0:0:0:
352,96,266489,1,8,0:0:0:0:
352,96,266566,1,8,0:0:0:0:
160,96,266643,1,0,0:0:0:0:
352,96,266797,1,8,0:0:0:0:
160,96,266950,1,0,0:0:0:0:
160,96,267027,1,0,0:0:0:0:
352,96,267104,1,8,0:0:0:0:
160,96,267258,1,0,0:0:0:0:
160,96,267335,1,0,0:0:0:0:
352,96,267412,1,8,0:0:0:0:
160,96,267489,1,0,0:0:0:0:
352,96,267566,1,8,0:0:0:0:
160,96,267643,1,0,0:0:0:0:
160,96,267720,1,0,0:0:0:0:
160,96,267797,1,0,0:0:0:0:
352,96,267873,1,8,0:0:0:0:
352,96,267950,1,8,0:0:0:0:
160,96,268027,1,0,0:0:0:0:
160,96,268181,1,0,0:0:0:0:
352,96,268335,1,8,0:0:0:0:
160,96,268489,1,0,0:0:0:0:
160,96,268566,1,0,0:0:0:0:
352,96,268643,1,8,0:0:0:0:
160,96,268797,1,0,0:0:0:0:
352,96,268873,1,8,0:0:0:0:
352,96,268950,1,8,0:0:0:0:
352,96,269027,1,8,0:0:0:0:
160,96,269104,1,0,0:0:0:0:
160,96,269181,1,0,0:0:0:0:
352,96,269258,1,8,0:0:0:0:
160,96,269412,1,0,0:0:0:0:
160,96,269489,1,0,0:0:0:0:
352,96,269566,1,8,0:0:0:0:
352,96,269643,1,8,0:0:0:0:
160,96,269720,1,0,0:0:0:0:
160,96,269797,1,0,0:0:0:0:
352,96,269873,1,8,0:0:0:0:
160,96,269950,1,0,0:0:0:0:
352,96,270027,1,8,0:0:0:0:
160,96,270181,1,0,0:0:0:0:
160,96,270258,1,0,0:0:0:0:
352,96,270335,1,8,0:0:0:0:
352,96,270412,1,8,0:0:0:0:
352,96,270489,1,8,0:0:0:0:
160,96,270643,1,0,0:0:0:0:
352,96,270797,1,8,0:0:0:0:
160,96,270950,1,0,0:0:0:0:
160,96,271027,1,0,0:0:0:0:
352,96,271104,1,8,0:0:0:0:
160,96,271181,1,0,0:0:0:0:
352,96,271258,1,8,0:0:0:0:
352,96,271335,1,8,0:0:0:0:
352,96,271412,1,8,0:0:0:0:
352,96,271489,1,8,0:0:0:0:
160,96,271566,1,0,0:0:0:0:
352,96,271720,1,8,0:0:0:0:
352,96,271873,1,8,0:0:0:0:
160,96,271950,5,0,0:0:0:0:
160,96,272027,1,0,0:0:0:0:
160,96,272104,1,0,0:0:0:0:
352,96,272181,1,8,0:0:0:0:
352,96,272258,1,8,0:0:0:0:
352,96,272335,1,8,0:0:0:0:
160,96,272412,1,0,0:0:0:0:
352,96,272489,1,8,0:0:0:0:
352,96,272566,1,8,0:0:0:0:
160,96,272643,1,0,0:0:0:0:
160,96,272720,1,0,0:0:0:0:
352,96,272797,1,8,0:0:0:0:
352,96,272873,1,8,0:0:0:0:
352,96,272950,1,8,0:0:0:0:
352,96,273027,1,8,0:0:0:0:
160,96,273104,1,0,0:0:0:0:
352,96,273258,1,8,0:0:0:0:
160,96,273412,1,0,0:0:0:0:
160,96,273489,1,0,0:0:0:0:
352,96,273566,1,8,0:0:0:0:
160,96,273720,1,0,0:0:0:0:
352,96,273873,1,8,0:0:0:0:
160,96,274027,1,0,0:0:0:0:
160,96,274104,1,0,0:0:0:0:
352,96,274181,1,8,0:0:0:0:
352,96,274258,1,8,0:0:0:0:
160,96,274335,1,0,0:0:0:0:
352,96,274489,1,8,0:0:0:0:
160,96,274643,1,0,0:0:0:0:
160,96,274720,1,0,0:0:0:0:
352,96,274797,1,8,0:0:0:0:
160,96,274950,1,0,0:0:0:0:
352,96,275104,1,8,0:0:0:0:
160,96,275258,1,0,0:0:0:0:
160,96,275335,1,0,0:0:0:0:
352,96,275412,1,8,0:0:0:0:
160,96,275566,1,0,0:0:0:0:
352,96,275720,1,8,0:0:0:0:
160,96,275873,1,0,0:0:0:0:
160,96,275950,1,0,0:0:0:0:
352,96,276027,1,8,0:0:0:0:
352,96,276104,1,8,0:0:0:0:
160,96,276181,1,0,0:0:0:0:
352,96,276335,1,8,0:0:0:0:
352,96,276412,1,8,0:0:0:0:
160,96,276489,1,0,0:0:0:0:
352,96,276643,1,8,0:0:0:0:
160,96,276797,1,0,0:0:0:0:
352,96,276950,1,8,0:0:0:0:
160,96,277104,1,0,0:0:0:0:
160,96,277181,1,0,0:0:0:0:
352,96,277258,1,8,0:0:0:0:
160,96,277412,1,0,0:0:0:0:
160,96,277489,1,0,0:0:0:0:
352,96,277566,1,8,0:0:0:0:
160,96,277643,1,0,0:0:0:0:
352,96,277720,1,8,0:0:0:0:
352,96,277797,1,8,0:0:0:0:
160,96,277873,1,0,0:0:0:0:
352,96,277950,1,8,0:0:0:0:
160,96,278027,1,0,0:0:0:0:
352,96,278181,1,8,0:0:0:0:
160,96,278335,1,0,0:0:0:0:
160,96,278412,1,0,0:0:0:0:
352,96,278489,1,8,0:0:0:0:
352,96,278566,1,8,0:0:0:0:
160,96,278643,1,0,0:0:0:0:
352,96,278797,1,8,0:0:0:0:
160,96,278950,1,0,0:0:0:0:
160,96,279027,1,0,0:0:0:0:
352,96,279104,1,8,0:0:0:0:
160,96,279258,1,0,0:0:0:0:
352,96,279412,1,8,0:0:0:0:
160,96,279566,1,0,0:0:0:0:
160,96,279643,1,0,0:0:0:0:
352,96,279720,1,8,0:0:0:0:
160,96,279873,1,0,0:0:0:0:
352,96,280027,1,8,0:0:0:0:
352,96,280104,1,8,0:0:0:0:
160,96,280181,1,0,0:0:0:0:
352,96,280335,1,8,0:0:0:0:
160,96,280489,1,0,0:0:0:0:
352,96,280643,1,8,0:0:0:0:
160,96,280797,1,0,0:0:0:0:
160,96,280873,1,0,0:0:0:0:
352,96,280950,1,8,0:0:0:0:
160,96,281104,1,0,0:0:0:0:
352,96,281258,1,8,0:0:0:0:
160,96,281412,1,0,0:0:0:0:
160,96,281489,1,0,0:0:0:0:
352,96,281566,1,8,0:0:0:0:
160,96,281720,1,0,0:0:0:0:
160,96,281797,1,0,0:0:0:0:
352,96,281873,1,8,0:0:0:0:
160,96,281950,1,0,0:0:0:0:
352,96,282027,1,8,0:0:0:0:
352,96,282104,1,8,0:0:0:0:
352,96,282181,1,8,0:0:0:0:
160,96,282258,1,0,0:0:0:0:
352,96,282335,1,8,0:0:0:0:
160,96,282412,1,0,0:0:0:0:
352,96,282489,1,8,0:0:0:0:
352,96,282566,1,8,0:0:0:0:
160,96,282643,1,0,0:0:0:0:
160,96,282720,1,0,0:0:0:0:
352,96,282797,1,8,0:0:0:0:
160,96,282873,1,0,0:0:0:0:
352,96,282950,1,8,0:0:0:0:
352,96,283104,1,8,0:0:0:0:
160,96,283258,1,0,0:0:0:0:
160,96,283335,1,0,0:0:0:0:
352,96,283412,1,8,0:0:0:0:
160,96,283566,1,0,0:0:0:0:
352,96,283720,1,8,0:0:0:0:
160,96,283873,1,0,0:0:0:0:
160,96,283950,1,0,0:0:0:0:
352,96,284027,1,8,0:0:0:0:
352,96,284104,1,8,0:0:0:0:
160,96,284181,1,0,0:0:0:0:
352,96,284335,1,8,0:0:0:0:
160,96,284489,1,0,0:0:0:0:
160,96,284566,1,0,0:0:0:0:
352,96,284643,1,8,0:0:0:0:
160,96,284797,1,0,0:0:0:0:
352,96,284950,1,8,0:0:0:0:
352,96,285027,1,8,0:0:0:0:
160,96,285104,1,0,0:0:0:0:
160,96,285181,1,0,0:0:0:0:
352,96,285258,1,8,0:0:0:0:
160,96,285412,1,0,0:0:0:0:
352,96,285566,1,8,0:0:0:0:
160,96,285643,1,0,0:0:0:0:
160,96,285720,1,0,0:0:0:0:
352,96,285873,1,8,0:0:0:0:
160,96,286027,1,0,0:0:0:0:
160,96,286104,1,0,0:0:0:0:
352,96,286181,1,8,0:0:0:0:
352,96,286258,1,8,0:0:0:0:
160,96,286335,1,0,0:0:0:0:
352,96,286489,1,8,0:0:0:0:
160,96,286643,1,0,0:0:0:0:
352,96,286797,1,8,0:0:0:0:
160,96,286950,1,0,0:0:0:0:
160,96,287027,1,0,0:0:0:0:
352,96,287104,1,8,0:0:0:0:
160,96,287258,1,0,0:0:0:0:
352,96,287412,1,8,0:0:0:0:
160,96,287489,1,0,0:0:0:0:
352,96,287566,1,8,0:0:0:0:
352,96,287643,1,8,0:0:0:0:
160,96,287720,1,0,0:0:0:0:
160,96,287797,1,0,0:0:0:0:
352,96,287873,1,8,0:0:0:0:
352,96,288027,1,8,0:0:0:0:
160,96,288181,1,0,0:0:0:0:
160,96,288258,1,0,0:0:0:0:
352,96,288335,1,8,0:0:0:0:
160,96,288489,1,0,0:0:0:0:
352,96,288643,1,8,0:0:0:0:
352,96,288720,1,8,0:0:0:0:
160,96,288797,1,0,0:0:0:0:
160,96,288873,1,0,0:0:0:0:
352,96,288950,1,8,0:0:0:0:
160,96,289104,1,0,0:0:0:0:
352,96,289258,1,8,0:0:0:0:
160,96,289412,1,0,0:0:0:0:
160,96,289489,1,0,0:0:0:0:
352,96,289566,1,8,0:0:0:0:
160,96,289720,1,0,0:0:0:0:
352,96,289873,1,8,0:0:0:0:
352,96,289950,1,8,0:0:0:0:
160,96,290027,1,0,0:0:0:0:
352,96,290181,1,8,0:0:0:0:
160,96,290335,1,0,0:0:0:0:
160,96,290412,1,0,0:0:0:0:
352,96,290489,1,8,0:0:0:0:
160,96,290566,1,0,0:0:0:0:
352,96,290643,1,8,0:0:0:0:
352,96,290720,1,8,0:0:0:0:
160,96,290797,1,0,0:0:0:0:
160,96,290873,1,0,0:0:0:0:
352,96,290950,1,8,0:0:0:0:
352,96,291027,1,8,0:0:0:0:
352,96,291104,1,8,0:0:0:0:
160,96,291181,1,0,0:0:0:0:
352,96,291258,1,8,0:0:0:0:
160,96,291335,1,0,0:0:0:0:
352,96,291412,1,8,0:0:0:0:
160,96,291489,1,0,0:0:0:0:
352,96,291566,1,8,0:0:0:0:
352,96,291643,1,8,0:0:0:0:
352,96,291720,1,8,0:0:0:0:
352,96,291797,1,8,0:0:0:0:
160,96,291873,1,0,0:0:0:0:
160,96,291950,1,0,0:0:0:0:
160,96,292027,1,0,0:0:0:0:
160,96,292104,1,0,0:0:0:0:
352,96,292181,1,8,0:0:0:0:
352,96,292489,1,8,0:0:0:0:
160,288,292797,1,4,0:0:0:0:
352,96,292950,1,8,0:0:0:0:
160,96,293027,1,0,0:0:0:0:
160,96,293104,1,0,0:0:0:0:
160,96,293181,1,0,0:0:0:0:
352,96,293258,1,8,0:0:0:0:
160,96,293335,1,0,0:0:0:0:
352,96,293412,1,8,0:0:0:0:
160,96,293489,1,0,0:0:0:0:
160,96,293566,1,0,0:0:0:0:
352,96,293643,1,8,0:0:0:0:
352,96,293720,1,8,0:0:0:0:
160,96,293797,1,0,0:0:0:0:
352,96,293873,1,8,0:0:0:0:
160,96,293950,1,0,0:0:0:0:
352,96,294027,1,8,0:0:0:0:
352,96,294181,1,8,0:0:0:0:
352,96,294258,1,8,0:0:0:0:
160,96,294335,1,0,0:0:0:0:
160,96,294412,1,0,0:0:0:0:
352,96,294489,1,8,0:0:0:0:
160,96,294566,1,0,0:0:0:0:
352,96,294643,1,8,0:0:0:0:
352,96,294720,1,8,0:0:0:0:
160,96,294797,1,0,0:0:0:0:
352,96,294873,1,8,0:0:0:0:
160,96,294950,1,0,0:0:0:0:
160,96,295027,1,0,0:0:0:0:
352,96,295104,1,8,0:0:0:0:
160,96,295181,1,0,0:0:0:0:
352,96,295258,1,8,0:0:0:0:
160,96,295412,1,0,0:0:0:0:
160,96,295489,1,0,0:0:0:0:
352,96,295566,1,8,0:0:0:0:
160,96,295643,1,0,0:0:0:0:
352,96,295720,1,8,0:0:0:0:
160,96,295797,1,0,0:0:0:0:
352,96,295873,1,8,0:0:0:0:
352,96,295950,1,8,0:0:0:0:
160,96,296027,1,0,0:0:0:0:
352,96,296104,1,8,0:0:0:0:
160,96,296181,1,0,0:0:0:0:
160,96,296258,1,0,0:0:0:0:
352,96,296335,1,8,0:0:0:0:
160,96,296412,1,0,0:0:0:0:
352,96,296489,1,8,0:0:0:0:
352,96,296643,1,8,0:0:0:0:
352,96,296720,1,8,0:0:0:0:
160,96,296797,1,0,0:0:0:0:
160,96,296873,1,0,0:0:0:0:
352,96,296950,1,8,0:0:0:0:
160,96,297104,1,0,0:0:0:0:
160,96,297181,1,0,0:0:0:0:
352,96,297258,1,8,0:0:0:0:
160,96,297335,1,0,0:0:0:0:
160,96,297489,1,0,0:0:0:0:
352,96,297566,1,8,0:0:0:0:
160,96,297720,1,0,0:0:0:0:
352,96,297873,1,8,0:0:0:0:
160,96,297950,1,0,0:0:0:0:
160,96,298027,1,0,0:0:0:0:
160,96,298104,1,0,0:0:0:0:
352,96,298181,1,8,0:0:0:0:
160,96,298258,1,0,0:0:0:0:
352,96,298335,1,8,0:0:0:0:
160,96,298412,1,0,0:0:0:0:
160,96,298489,1,0,0:0:0:0:
352,96,298566,1,8,0:0:0:0:
160,96,298643,1,0,0:0:0:0:
160,96,298720,1,0,0:0:0:0:
352,96,298797,1,8,0:0:0:0:
160,96,298873,1,0,0:0:0:0:
352,96,298950,1,8,0:0:0:0:
352,96,299104,1,8,0:0:0:0:
352,96,299181,1,8,0:0:0:0:
160,96,299258,1,0,0:0:0:0:
160,96,299335,1,0,0:0:0:0:
352,96,299412,1,8,0:0:0:0:
160,96,299489,1,0,0:0:0:0:
352,96,299566,1,8,0:0:0:0:
352,96,299643,1,8,0:0:0:0:
160,96,299720,1,0,0:0:0:0:
352,96,299797,1,8,0:0:0:0:
160,96,299873,1,0,0:0:0:0:
160,96,299950,1,0,0:0:0:0:
352,96,300027,1,8,0:0:0:0:
352,96,300104,1,8,0:0:0:0:
352,96,300181,1,8,0:0:0:0:
160,96,300335,1,0,0:0:0:0:
160,96,300412,1,0,0:0:0:0:
352,96,300489,1,8,0:0:0:0:
352,96,300566,1,8,0:0:0:0:
352,96,300643,1,8,0:0:0:0:
160,96,300720,1,0,0:0:0:0:
352,96,300797,1,8,0:0:0:0:
352,96,300873,1,8,0:0:0:0:
160,96,300950,1,0,0:0:0:0:
352,96,301027,1,8,0:0:0:0:
160,96,301104,1,0,0:0:0:0:
160,96,301181,1,0,0:0:0:0:
352,96,301258,1,8,0:0:0:0:
160,96,301335,1,0,0:0:0:0:
352,96,301412,1,8,0:0:0:0:
352,96,301566,1,8,0:0:0:0:
352,96,301643,1,8,0:0:0:0:
160,96,301720,1,0,0:0:0:0:
160,96,301797,1,0,0:0:0:0:
352,96,301873,1,8,0:0:0:0:
352,96,302027,1,8,0:0:0:0:
352,96,302104,1,8,0:0:0:0:
352,96,302181,1,8,0:0:0:0:
352,96,302258,1,8,0:0:0:0:
352,96,302335,1,8,0:0:0:0:
352,96,302412,1,8,0:0:0:0:
352,96,302489,1,8,0:0:0:0:
352,96,302566,1,8,0:0:0:0:
160,96,302643,1,0,0:0:0:0:
352,96,302797,1,8,0:0:0:0:
160,96,302873,1,0,0:0:0:0:
160,96,302950,1,0,0:0:0:0:
160,96,303027,1,0,0:0:0:0:
352,96,303104,1,8,0:0:0:0:
160,96,303181,1,0,0:0:0:0:
352,96,303258,1,8,0:0:0:0:
160,96,303335,1,0,0:0:0:0:
160,96,303412,1,0,0:0:0:0:
352,96,303489,1,8,0:0:0:0:
352,96,303566,1,8,0:0:0:0:
160,96,303643,1,0,0:0:0:0:
352,96,303720,1,8,0:0:0:0:
160,96,303797,1,0,0:0:0:0:
352,96,303873,1,8,0:0:0:0:
352,96,304027,1,8,0:0:0:0:
352,96,304104,1,8,0:0:0:0:
160,96,304181,1,0,0:0:0:0:
160,96,304258,1,0,0:0:0:0:
352,96,304335,1,8,0:0:0:0:
160,96,304412,1,0,0:0:0:0:
352,96,304489,1,8,0:0:0:0:
352,96,304566,1,8,0:0:0:0:
160,96,304643,1,0,0:0:0:0:
352,96,304720,1,8,0:0:0:0:
160,96,304797,1,0,0:0:0:0:
160,96,304873,1,0,0:0:0:0:
352,96,304950,1,8,0:0:0:0:
160,96,305027,1,0,0:0:0:0:
352,96,305104,1,8,0:0:0:0:
160,96,305258,1,0,0:0:0:0:
160,96,305335,1,0,0:0:0:0:
352,96,305412,1,8,0:0:0:0:
160,96,305489,1,0,0:0:0:0:
352,96,305566,1,8,0:0:0:0:
160,96,305643,1,0,0:0:0:0:
352,96,305720,1,8,0:0:0:0:
352,96,305797,1,8,0:0:0:0:
160,96,305873,1,0,0:0:0:0:
352,96,305950,1,8,0:0:0:0:
160,96,306027,1,0,0:0:0:0:
160,96,306104,1,0,0:0:0:0:
352,96,306181,1,8,0:0:0:0:
160,96,306258,1,0,0:0:0:0:
352,96,306335,1,8,0:0:0:0:
352,96,306489,1,8,0:0:0:0:
352,96,306566,1,8,0:0:0:0:
160,96,306643,1,0,0:0:0:0:
160,96,306720,1,0,0:0:0:0:
352,96,306797,1,8,0:0:0:0:
160,96,306873,1,0,0:0:0:0:
160,96,306950,1,0,0:0:0:0:
352,96,307104,1,8,0:0:0:0:
160,96,307181,1,0,0:0:0:0:
160,96,307335,1,0,0:0:0:0:
352,96,307412,1,8,0:0:0:0:
160,96,307566,1,0,0:0:0:0:
352,96,307720,1,8,0:0:0:0:
160,96,307797,1,0,0:0:0:0:
160,96,307873,1,0,0:0:0:0:
160,96,307950,1,0,0:0:0:0:
352,96,308027,1,8,0:0:0:0:
160,96,308104,1,0,0:0:0:0:
352,96,308181,1,8,0:0:0:0:
160,96,308258,1,0,0:0:0:0:
160,96,308335,1,0,0:0:0:0:
352,96,308412,1,8,0:0:0:0:
160,96,308489,1,0,0:0:0:0:
160,96,308566,1,0,0:0:0:0:
352,96,308643,1,8,0:0:0:0:
160,96,308720,1,0,0:0:0:0:
352,96,308797,1,8,0:0:0:0:
352,96,308950,1,8,0:0:0:0:
352,96,309027,1,8,0:0:0:0:
160,96,309104,1,0,0:0:0:0:
160,96,309181,1,0,0:0:0:0:
352,96,309258,1,8,0:0:0:0:
160,96,309335,1,0,0:0:0:0:
352,96,309412,1,8,0:0:0:0:
352,96,309489,1,8,0:0:0:0:
160,96,309566,1,0,0:0:0:0:
352,96,309643,1,8,0:0:0:0:
160,96,309720,1,0,0:0:0:0:
160,96,309797,1,0,0:0:0:0:
352,96,309873,1,8,0:0:0:0:
352,96,309950,1,8,0:0:0:0:
352,96,310027,1,8,0:0:0:0:
160,96,310181,1,0,0:0:0:0:
160,96,310258,1,0,0:0:0:0:
352,96,310335,1,8,0:0:0:0:
352,96,310412,1,8,0:0:0:0:
352,96,310489,1,8,0:0:0:0:
160,96,310566,1,0,0:0:0:0:
352,96,310643,1,8,0:0:0:0:
352,96,310720,1,8,0:0:0:0:
160,96,310797,1,0,0:0:0:0:
352,96,310873,1,8,0:0:0:0:
160,96,310950,1,0,0:0:0:0:
160,96,311027,1,0,0:0:0:0:
352,96,311104,1,8,0:0:0:0:
352,96,311181,1,8,0:0:0:0:
160,96,311258,1,0,0:0:0:0:
160,96,311335,1,0,0:0:0:0:
352,96,311412,1,8,0:0:0:0:
160,96,311489,1,0,0:0:0:0:
352,96,311566,1,8,0:0:0:0:
352,96,311643,1,8,0:0:0:0:
160,96,311720,1,0,0:0:0:0:
160,96,311797,1,0,0:0:0:0:
352,96,311873,1,8,0:0:0:0:
160,96,311950,1,0,0:0:0:0:
160,96,312027,1,0,0:0:0:0:
160,96,312104,1,0,0:0:0:0:
352,96,312181,1,8,0:0:0:0:
352,96,312258,1,8,0:0:0:0:
160,96,312335,1,0,0:0:0:0:
160,96,312489,1,0,0:0:0:0:
160,96,312566,1,0,0:0:0:0:
352,96,312643,1,8,0:0:0:0:
352,96,312720,1,8,0:0:0:0:
352,96,312797,1,8,0:0:0:0:
352,96,312873,1,8,0:0:0:0:
160,96,312950,1,0,0:0:0:0:
160,96,313027,1,0,0:0:0:0:
352,96,313104,1,8,0:0:0:0:
352,96,313181,1,8,0:0:0:0:
352,96,313258,1,8,0:0:0:0:
352,96,313335,1,8,0:0:0:0:
160,96,313412,1,0,0:0:0:0:
160,96,313489,1,0,0:0:0:0:
160,96,313566,1,0,0:0:0:0:
352,96,313710,5,8,0:0:0:0:
352,96,313748,1,8,0:0:0:0:
352,288,313915,1,12,0:0:0:0:
352,288,314120,1,12,0:0:0:0:
352,96,314325,5,8,0:0:0:0:
352,96,314363,1,8,0:0:0:0:
352,288,314530,1,12,0:0:0:0:
352,288,314735,1,12,0:0:0:0:
160,288,314940,1,4,0:0:0:0:
160,96,315351,5,0,0:0:0:0:
160,96,315402,1,0,0:0:0:0:
160,96,315453,1,0,0:0:0:0:
160,96,315504,1,0,0:0:0:0:
352,96,315556,1,8,0:0:0:0:
