osu file format v14

[General]
AudioFilename: Valley of the Damned.mp3
AudioLeadIn: 0
PreviewTime: 111196
Countdown: 0
SampleSet: Normal
StackLeniency: 1
Mode: 1
LetterboxInBreaks: 1
WidescreenStoryboard: 0

[Editor]
Bookmarks: 14584,37471,54184,66946,92584,130984,178984,217384,255784,284584,313384,342184,371566,399392
DistanceSpacing: 1
BeatDivisor: 4
GridSize: 32
TimelineZoom: 3.199998

[Metadata]
Title:Valley of the Damned
TitleUnicode:Valley of the Damned
Artist:DragonForce
ArtistUnicode:DragonForce
Creator:Mayuzumi Sayaka
Version:Armageddon
Source:
Tags:Symphonic Speed Power Metal Herman Li Insane Stream Deathstream DF Roxas
BeatmapID:1516011
BeatmapSetID:717651

[Difficulty]
HPDrainRate:5
CircleSize:2
OverallDifficulty:7
ApproachRate:10
SliderMultiplier:1.3999999666214
SliderTickRate:1

[Events]
//Background and Video events
0,0,"bg.jpg",0,0
//Break Periods
2,332796,340958
//Storyboard Layer 0 (Background)
//Storyboard Layer 1 (Fail)
//Storyboard Layer 2 (Pass)
//Storyboard Layer 3 (Foreground)
//Storyboard Sound Samples

[TimingPoints]
14596,300,4,1,0,50,1,0
14596,-125,4,1,0,50,0,0
33796,-100,4,1,0,50,0,0
54196,-100,4,1,0,40,0,0
54496,-100,4,1,0,60,0,0
62596,-100,4,1,0,50,0,0
81796,-100,4,1,0,60,0,0
82996,-100,4,1,0,50,0,0
92596,-100,4,1,0,50,0,1
100996,-100,4,1,0,50,0,0
102196,-100,4,1,0,50,0,1
110596,-100,4,1,0,50,0,0
111796,-100,4,1,1,50,0,1
120196,-100,4,1,0,50,0,0
121396,-100,4,1,0,50,0,1
130996,-100,4,1,0,50,0,0
139396,-99.009900990099,4,1,0,50,0,0
139696,-98.0392156862745,4,1,0,50,0,0
139996,-97.0873786407767,4,1,0,50,0,0
140296,-96.1538461538461,4,1,0,50,0,0
140596,-100,4,1,0,50,0,0
150196,-100,4,1,0,50,0,0
178996,-100,4,1,0,50,0,1
187396,-100,4,1,0,50,0,0
188596,-100,4,1,0,50,0,1
196996,-100,4,1,0,50,0,0
198196,-100,4,1,0,50,0,1
206596,-100,4,1,0,50,0,0
207796,-100,4,1,0,50,0,1
217396,-100,4,1,0,40,0,1
217397,-133.333333333333,4,1,0,40,0,0
236596,-80,4,1,0,50,0,1
246196,-80,4,1,0,30,0,1
246496,-80,4,1,0,50,0,1
246796,-80,4,1,0,30,0,1
247096,-80,4,1,0,50,0,1
247396,-80,4,1,0,30,0,1
247696,-80,4,1,0,50,0,1
255796,-80,4,1,0,50,0,1
255797,-90.9090909090909,4,1,0,50,0,0
262546,-87.719298245614,4,1,0,50,0,0
262621,-86.9565217391304,4,1,0,50,0,0
262696,-86.2068965517241,4,1,0,50,0,0
262771,-85.4700854700855,4,1,0,50,0,0
262846,-84.7457627118644,4,1,0,50,0,0
262921,-84.0336134453781,4,1,0,50,0,0
262996,-83.3333333333333,4,1,0,50,0,0
265396,-80,4,1,0,50,0,1
265471,-80,4,1,0,50,0,1
267496,-100,4,1,0,50,0,0
267721,-80,4,1,0,30,0,0
267796,-80,4,1,0,50,0,1
269896,-100,4,1,0,50,0,0
270121,-80,4,1,0,30,0,0
270196,-80,4,1,0,50,0,1
272296,-100,4,1,0,50,0,0
272521,-80,4,1,0,30,0,0
272596,-80,4,1,0,50,0,1
274396,-100,4,1,0,50,0,0
274696,-86.9565217391304,4,1,0,50,0,0
274921,-80,4,1,0,50,0,0
274996,-80,4,1,0,50,0,1
277096,-100,4,1,0,50,0,0
277321,-80,4,1,0,30,0,0
277396,-80,4,1,0,50,0,1
279496,-100,4,1,0,50,0,0
279721,-80,4,1,0,30,0,0
279796,-80,4,1,0,50,0,1
281896,-100,4,1,0,50,0,0
282121,-80,4,1,0,30,0,0
282196,-80,4,1,0,50,0,1
283996,-80,4,1,0,50,0,1
284221,-80,4,1,0,30,0,1
284296,-80,4,1,0,50,0,1
284521,-80,4,1,0,30,0,1
284596,-86.9565217391304,4,1,0,50,0,0
293896,-133.333333333333,4,1,0,50,0,0
294196,-83.3333333333333,4,1,0,50,0,1
296296,-133.333333333333,4,1,0,50,0,0
296596,-83.3333333333333,4,1,0,50,0,1
298396,-133.333333333333,4,1,0,50,0,0
298996,-83.3333333333333,4,1,0,50,0,1
302596,-100,4,1,0,50,0,1
303196,-133.333333333333,4,1,0,50,0,1
303796,-83.3333333333333,4,1,0,50,0,1
305596,-133.333333333333,4,1,0,50,0,0
305896,-100,4,1,0,50,0,0
306196,-83.3333333333333,4,1,0,50,0,1
307996,-133.333333333333,4,1,0,50,0,0
308596,-83.3333333333333,4,1,0,50,0,1
310396,-133.333333333333,4,1,0,50,0,0
310996,-80,4,1,0,50,0,1
312196,-100,4,1,0,50,0,0
312496,-98.0392156862745,4,1,0,50,0,0
312796,-96.1538461538461,4,1,0,50,0,0
313096,-94.3396226415094,4,1,0,50,0,0
313396,-90.9090909090909,4,1,0,50,0,0
322696,-90.9090909090909,4,1,0,50,0,0
322996,-80,4,1,0,50,0,1
325396,-90.9090909090909,4,1,0,50,0,1
327646,-80,4,1,0,50,0,1
327796,-80,4,1,0,50,0,1
330196,-100,4,1,0,50,0,1
332296,-100,4,1,0,30,0,1
332596,-133.333333333333,4,1,0,50,0,0
341408,377.358490566038,4,1,0,100,1,0
341596,300,4,1,0,100,1,8
342196,-100,4,1,0,50,0,1
360196,-100,4,1,0,40,0,1
360796,-100,4,1,0,40,0,0
361396,-100,4,1,0,50,0,1
368596,325.20325203252,4,1,0,50,1,1
369895,413.793103448276,4,1,0,50,1,0
371546,434.719605854224,4,1,0,50,1,0
420234,437.956204379562,4,1,0,50,1,0
423737,454.545454545455,4,1,0,50,1,0
423737,-111.111111111111,4,1,0,50,0,0
425555,461.538461538462,4,1,0,50,1,0
425555,-133.333333333333,4,1,0,50,0,0
426016,512.820512820513,4,1,0,50,1,0
426016,-133.333333333333,4,1,0,50,0,0
426272,-133.333333333333,4,1,0,50,0,0
426528,674.157303370787,4,1,0,50,1,0
426528,-133.333333333333,4,1,0,50,0,0
427539,842.696629213483,4,1,0,50,1,0
427539,-200,4,1,0,50,0,0
428171,-200,4,1,0,30,0,0
428381,456.273764258555,4,1,0,50,1,0
428381,-270.27027027027,4,1,0,50,0,0
430206,-270.27027027027,4,1,0,40,0,0
432031,-270.27027027027,4,1,0,35,0,0
433856,-270.27027027027,4,1,0,30,0,0
435681,-270.27027027027,4,1,0,25,0,0
437506,-270.27027027027,4,1,0,20,0,0
438875,-270.27027027027,4,1,0,20,0,0

[Colours]
Combo1 : 17,254,176
Combo2 : 173,255,95
Combo3 : 255,88,100
Combo4 : 255,94,55

[HitObjects]
256,192,14596,5,8,0:0:0:0:
256,192,14746,1,0,0:0:0:0:
256,192,14896,1,8,0:0:0:0:
256,192,15196,1,8,0:0:0:0:
256,192,15346,1,0,0:0:0:0:
256,192,15496,1,8,0:0:0:0:
256,192,15796,1,8,0:0:0:0:
256,192,15946,1,0,0:0:0:0:
256,192,16096,1,8,0:0:0:0:
256,192,16396,1,8,0:0:0:0:
256,192,16546,1,0,0:0:0:0:
256,192,16696,1,12,0:0:0:0:
256,192,16996,1,12,0:0:0:0:
256,192,17146,1,0,0:0:0:0:
256,192,17296,1,8,0:0:0:0:
256,192,17596,1,8,0:0:0:0:
256,192,17746,1,0,0:0:0:0:
256,192,17896,1,8,0:0:0:0:
256,192,18196,1,8,0:0:0:0:
256,192,18346,1,0,0:0:0:0:
256,192,18496,1,8,0:0:0:0:
256,192,18796,1,8,0:0:0:0:
256,192,18946,1,0,0:0:0:0:
256,192,19096,1,12,0:0:0:0:
256,192,19246,1,0,0:0:0:0:
256,192,19396,1,12,0:0:0:0:
256,192,19546,1,0,0:0:0:0:
256,192,19696,1,8,0:0:0:0:
256,192,19996,1,8,0:0:0:0:
256,192,20146,1,0,0:0:0:0:
256,192,20296,1,8,0:0:0:0:
256,192,20596,1,8,0:0:0:0:
256,192,20746,1,0,0:0:0:0:
256,192,20896,1,8,0:0:0:0:
256,192,21196,1,8,0:0:0:0:
256,192,21271,1,8,0:0:0:0:
256,192,21346,1,0,0:0:0:0:
256,192,21421,1,0,0:0:0:0:
256,192,21496,1,0,0:0:0:0:
256,192,21571,1,0,0:0:0:0:
256,192,21646,1,8,0:0:0:0:
256,192,21721,1,8,0:0:0:0:
256,192,21796,1,8,0:0:0:0:
256,192,21946,1,8,0:0:0:0:
256,192,22096,1,8,0:0:0:0:
256,192,22396,1,0,0:0:0:0:
256,192,22546,1,8,0:0:0:0:
256,192,22846,1,8,0:0:0:0:
256,192,22996,1,8,0:0:0:0:
256,192,23071,1,0,0:0:0:0:
256,192,23146,1,0,0:0:0:0:
256,192,23221,1,8,0:0:0:0:
256,192,23296,1,8,0:0:0:0:
256,192,23371,1,8,0:0:0:0:
256,192,23446,1,8,0:0:0:0:
256,192,23521,1,0,0:0:0:0:
256,192,23596,1,8,0:0:0:0:
256,192,23671,1,8,0:0:0:0:
256,192,23746,1,8,0:0:0:0:
256,192,23821,1,0,0:0:0:0:
256,192,23896,1,8,0:0:0:0:
256,192,23971,1,8,0:0:0:0:
256,192,24046,1,8,0:0:0:0:
256,192,24121,1,0,0:0:0:0:
256,192,24196,1,8,0:0:0:0:
256,192,24346,1,0,0:0:0:0:
256,192,24496,1,8,0:0:0:0:
256,192,24796,1,8,0:0:0:0:
256,192,24946,1,0,0:0:0:0:
256,192,25096,1,8,0:0:0:0:
256,192,25396,1,8,0:0:0:0:
256,192,25546,1,0,0:0:0:0:
256,192,25696,1,8,0:0:0:0:
256,192,25996,1,8,0:0:0:0:
256,192,26146,1,0,0:0:0:0:
256,192,26296,1,12,0:0:0:0:
256,192,26596,1,12,0:0:0:0:
256,192,26746,1,0,0:0:0:0:
256,192,26896,1,8,0:0:0:0:
256,192,27196,1,8,0:0:0:0:
256,192,27346,1,0,0:0:0:0:
256,192,27496,1,8,0:0:0:0:
256,192,27796,1,8,0:0:0:0:
256,192,27946,1,0,0:0:0:0:
256,192,28096,1,8,0:0:0:0:
256,192,28396,1,8,0:0:0:0:
256,192,28546,1,0,0:0:0:0:
256,192,28696,1,8,0:0:0:0:
256,192,28771,1,0,0:0:0:0:
256,192,28846,1,0,0:0:0:0:
256,192,28921,1,0,0:0:0:0:
256,192,28996,1,12,0:0:0:0:
256,192,29146,1,0,0:0:0:0:
256,192,29296,1,8,0:0:0:0:
256,192,29596,1,8,0:0:0:0:
256,192,29746,1,0,0:0:0:0:
256,192,29896,1,8,0:0:0:0:
256,192,30196,1,8,0:0:0:0:
256,192,30346,1,0,0:0:0:0:
256,192,30496,1,8,0:0:0:0:
256,192,30796,1,8,0:0:0:0:
256,192,30871,1,0,0:0:0:0:
256,192,30946,1,8,0:0:0:0:
256,192,31021,1,8,0:0:0:0:
256,192,31096,1,8,0:0:0:0:
256,192,31171,1,0,0:0:0:0:
256,192,31246,1,0,0:0:0:0:
256,192,31321,1,0,0:0:0:0:
256,192,31396,1,8,0:0:0:0:
256,192,31546,1,0,0:0:0:0:
256,192,31696,1,8,0:0:0:0:
256,192,31846,1,0,0:0:0:0:
256,192,31996,1,8,0:0:0:0:
256,192,32146,1,8,0:0:0:0:
256,192,32296,1,0,0:0:0:0:
256,192,32446,1,0,0:0:0:0:
256,192,32596,1,8,0:0:0:0:
256,192,32671,1,0,0:0:0:0:
256,192,32746,1,8,0:0:0:0:
256,192,32821,1,8,0:0:0:0:
256,192,32896,1,8,0:0:0:0:
256,192,32971,1,0,0:0:0:0:
256,192,33046,1,8,0:0:0:0:
256,192,33121,1,8,0:0:0:0:
256,192,33196,1,8,0:0:0:0:
256,192,33271,1,0,0:0:0:0:
256,192,33346,1,0,0:0:0:0:
256,192,33421,1,0,0:0:0:0:
256,192,33496,1,8,0:0:0:0:
256,192,33571,1,8,0:0:0:0:
256,192,33646,1,8,0:0:0:0:
256,192,33721,1,0,0:0:0:0:
256,192,33796,1,8,0:0:0:0:
256,192,33946,1,0,0:0:0:0:
256,192,34096,1,8,0:0:0:0:
256,192,34246,1,8,0:0:0:0:
256,192,34396,1,8,0:0:0:0:
256,192,34546,1,0,0:0:0:0:
256,192,34696,1,8,0:0:0:0:
256,192,34846,1,0,0:0:0:0:
256,192,34996,1,8,0:0:0:0:
256,192,35146,1,0,0:0:0:0:
256,192,35296,1,8,0:0:0:0:
256,192,35446,1,8,0:0:0:0:
256,192,35596,1,8,0:0:0:0:
256,192,35746,1,0,0:0:0:0:
256,192,35896,1,8,0:0:0:0:
256,192,36196,1,8,0:0:0:0:
256,192,36346,1,0,0:0:0:0:
256,192,36496,1,8,0:0:0:0:
256,192,36796,1,8,0:0:0:0:
256,192,36946,1,0,0:0:0:0:
256,192,37096,1,8,0:0:0:0:
256,192,37396,1,8,0:0:0:0:
256,192,37546,1,0,0:0:0:0:
256,192,37696,1,8,0:0:0:0:
256,192,37846,1,8,0:0:0:0:
256,192,37996,1,8,0:0:0:0:
256,192,38146,1,0,0:0:0:0:
256,192,38296,1,8,0:0:0:0:
256,192,38596,1,8,0:0:0:0:
256,192,38746,1,0,0:0:0:0:
256,192,38896,1,8,0:0:0:0:
256,192,39196,1,8,0:0:0:0:
256,192,39346,1,0,0:0:0:0:
256,192,39496,1,8,0:0:0:0:
256,192,39646,1,8,0:0:0:0:
256,192,39796,1,8,0:0:0:0:
256,192,39946,1,0,0:0:0:0:
256,192,40096,1,8,0:0:0:0:
256,192,40396,1,8,0:0:0:0:
256,192,40546,1,0,0:0:0:0:
256,192,40696,1,8,0:0:0:0:
256,192,40996,1,8,0:0:0:0:
256,192,41146,1,0,0:0:0:0:
256,192,41296,1,8,0:0:0:0:
256,192,41596,1,8,0:0:0:0:
256,192,41671,1,0,0:0:0:0:
256,192,41746,1,0,0:0:0:0:
256,192,41896,1,8,0:0:0:0:
256,192,42046,1,0,0:0:0:0:
256,192,42121,1,0,0:0:0:0:
256,192,42196,1,8,0:0:0:0:
256,192,42271,1,8,0:0:0:0:
256,192,42346,1,8,0:0:0:0:
256,192,42421,1,0,0:0:0:0:
256,192,42496,1,8,0:0:0:0:
256,192,42571,1,0,0:0:0:0:
256,192,42646,1,0,0:0:0:0:
256,192,42721,1,0,0:0:0:0:
256,192,42796,1,8,0:0:0:0:
256,192,42871,1,8,0:0:0:0:
256,192,42946,1,0,0:0:0:0:
256,192,43021,1,0,0:0:0:0:
256,192,43096,1,8,0:0:0:0:
256,192,43171,1,8,0:0:0:0:
256,192,43246,1,8,0:0:0:0:
256,192,43321,1,0,0:0:0:0:
256,192,43396,1,8,0:0:0:0:
256,192,43546,1,8,0:0:0:0:
256,192,43696,1,8,0:0:0:0:
256,192,43996,1,0,0:0:0:0:
256,192,44146,1,0,0:0:0:0:
256,192,44296,1,8,0:0:0:0:
256,192,44596,1,8,0:0:0:0:
256,192,44746,1,0,0:0:0:0:
256,192,44896,1,8,0:0:0:0:
256,192,45196,1,8,0:0:0:0:
256,192,45346,1,8,0:0:0:0:
256,192,45496,1,8,0:0:0:0:
256,192,45796,1,8,0:0:0:0:
256,192,45946,1,8,0:0:0:0:
256,192,46096,1,0,0:0:0:0:
256,192,46396,1,8,0:0:0:0:
256,192,46546,1,0,0:0:0:0:
256,192,46696,1,8,0:0:0:0:
256,192,46996,1,8,0:0:0:0:
256,192,47146,1,8,0:0:0:0:
256,192,47296,1,8,0:0:0:0:
256,192,47596,1,0,0:0:0:0:
256,192,47746,1,0,0:0:0:0:
256,192,47896,1,8,0:0:0:0:
256,192,48196,1,8,0:0:0:0:
256,192,48346,1,0,0:0:0:0:
256,192,48496,1,8,0:0:0:0:
256,192,48796,1,0,0:0:0:0:
256,192,48946,1,0,0:0:0:0:
256,192,49096,1,8,0:0:0:0:
256,192,49396,1,0,0:0:0:0:
256,192,49546,1,8,0:0:0:0:
256,192,49696,1,8,0:0:0:0:
256,192,49996,1,8,0:0:0:0:
256,192,50146,1,0,0:0:0:0:
256,192,50296,1,8,0:0:0:0:
256,192,50596,1,8,0:0:0:0:
256,192,50746,1,8,0:0:0:0:
256,192,50896,1,8,0:0:0:0:
256,192,51196,1,8,0:0:0:0:
256,192,51271,1,0,0:0:0:0:
256,192,51346,1,0,0:0:0:0:
256,192,51421,1,0,0:0:0:0:
256,192,51496,1,8,0:0:0:0:
256,192,51571,1,0,0:0:0:0:
256,192,51646,1,8,0:0:0:0:
256,192,51721,1,0,0:0:0:0:
256,192,51796,1,8,0:0:0:0:
256,192,51871,1,8,0:0:0:0:
256,192,51946,1,0,0:0:0:0:
256,192,52021,1,0,0:0:0:0:
256,192,52096,1,8,0:0:0:0:
256,192,52171,1,8,0:0:0:0:
256,192,52246,1,0,0:0:0:0:
256,192,52321,1,0,0:0:0:0:
256,192,52396,1,8,0:0:0:0:
256,192,52471,1,8,0:0:0:0:
256,192,52546,1,8,0:0:0:0:
256,192,52621,1,0,0:0:0:0:
256,192,52696,1,8,0:0:0:0:
256,192,52771,1,8,0:0:0:0:
256,192,52846,1,8,0:0:0:0:
256,192,52921,1,0,0:0:0:0:
256,192,52996,1,8,0:0:0:0:
256,192,53071,1,8,0:0:0:0:
256,192,53146,1,0,0:0:0:0:
256,192,53221,1,0,0:0:0:0:
256,192,53296,1,8,0:0:0:0:
256,192,53371,1,8,0:0:0:0:
256,192,53446,1,0,0:0:0:0:
256,192,53521,1,0,0:0:0:0:
256,192,53596,1,8,0:0:0:0:
256,192,53671,1,8,0:0:0:0:
256,192,53746,1,8,0:0:0:0:
256,192,53821,1,0,0:0:0:0:
256,192,53896,1,8,0:0:0:0:
256,192,53971,1,0,0:0:0:0:
256,192,54046,1,8,0:0:0:0:
256,192,54121,1,0,0:0:0:0:
256,192,54196,1,12,0:0:0:0:
256,192,54496,1,8,0:0:0:0:
256,192,54646,1,0,0:0:0:0:
256,192,54796,1,8,0:0:0:0:
256,192,54946,1,0,0:0:0:0:
256,192,55096,1,0,0:0:0:0:
256,192,55246,1,8,0:0:0:0:
256,192,55396,1,8,0:0:0:0:
256,192,55546,1,8,0:0:0:0:
256,192,55696,1,0,0:0:0:0:
256,192,55846,1,0,0:0:0:0:
256,192,55996,1,8,0:0:0:0:
256,192,56896,1,8,0:0:0:0:
256,192,57046,1,0,0:0:0:0:
256,192,57196,1,8,0:0:0:0:
256,192,57346,1,0,0:0:0:0:
256,192,57496,1,0,0:0:0:0:
256,192,57646,1,0,0:0:0:0:
256,192,57796,1,8,0:0:0:0:
256,192,57946,1,0,0:0:0:0:
256,192,58096,1,8,0:0:0:0:
256,192,58246,1,0,0:0:0:0:
256,192,58396,1,0,0:0:0:0:
256,192,58696,1,8,0:0:0:0:
256,192,58771,1,0,0:0:0:0:
256,192,58846,1,0,0:0:0:0:
256,192,58921,1,0,0:0:0:0:
256,192,58996,1,8,0:0:0:0:
256,192,59296,1,8,0:0:0:0:
256,192,59446,1,0,0:0:0:0:
256,192,59596,1,0,0:0:0:0:
256,192,59746,1,0,0:0:0:0:
256,192,59896,1,8,0:0:0:0:
256,192,60046,1,0,0:0:0:0:
256,192,60196,1,8,0:0:0:0:
256,192,60346,1,0,0:0:0:0:
256,192,60496,1,0,0:0:0:0:
256,192,60646,1,0,0:0:0:0:
256,192,60796,1,8,0:0:0:0:
256,192,60946,1,0,0:0:0:0:
256,192,61096,1,8,0:0:0:0:
256,192,61246,1,0,0:0:0:0:
256,192,61396,2,8,B|352:160|256:64|192:96|160:160|160:256|256:320|416:128,1,489.99998831749
256,192,62596,1,8,0:0:0:0:
256,192,62671,1,8,0:0:0:0:
256,192,62746,1,0,0:0:0:0:
256,192,62821,1,0,0:0:0:0:
256,192,62896,1,8,0:0:0:0:
256,192,62971,1,0,0:0:0:0:
256,192,63046,1,0,0:0:0:0:
256,192,63121,1,0,0:0:0:0:
256,192,63196,1,8,0:0:0:0:
256,192,63271,1,8,0:0:0:0:
256,192,63346,1,8,0:0:0:0:
256,192,63421,1,0,0:0:0:0:
256,192,63496,1,8,0:0:0:0:
256,192,63571,1,8,0:0:0:0:
256,192,63646,1,8,0:0:0:0:
256,192,63721,1,0,0:0:0:0:
256,192,63796,1,12,0:0:0:0:
256,192,64096,1,8,0:0:0:0:
256,192,64246,1,0,0:0:0:0:
256,192,64396,1,0,0:0:0:0:
256,192,64546,1,8,0:0:0:0:
256,192,64696,1,8,0:0:0:0:
256,192,64846,1,0,0:0:0:0:
256,192,64996,1,8,0:0:0:0:
256,192,65071,1,0,0:0:0:0:
256,192,65146,1,8,0:0:0:0:
256,192,65296,1,8,0:0:0:0:
256,192,65446,1,0,0:0:0:0:
256,192,65521,1,0,0:0:0:0:
256,192,65596,1,8,0:0:0:0:
256,192,65746,1,0,0:0:0:0:
256,192,65896,1,8,0:0:0:0:
256,192,65971,1,8,0:0:0:0:
256,192,66046,1,0,0:0:0:0:
256,192,66121,1,0,0:0:0:0:
256,192,66196,1,8,0:0:0:0:
256,192,66496,1,8,0:0:0:0:
256,192,66646,1,0,0:0:0:0:
256,192,66796,1,8,0:0:0:0:
256,192,66946,1,0,0:0:0:0:
256,192,67096,1,0,0:0:0:0:
256,192,67246,1,8,0:0:0:0:
256,192,67396,1,8,0:0:0:0:
256,192,67471,1,0,0:0:0:0:
256,192,67546,1,0,0:0:0:0:
256,192,67696,1,8,0:0:0:0:
256,192,67846,1,8,0:0:0:0:
256,192,67921,1,0,0:0:0:0:
256,192,67996,1,0,0:0:0:0:
256,192,68146,1,0,0:0:0:0:
256,192,68221,1,0,0:0:0:0:
256,192,68296,1,8,0:0:0:0:
256,192,68371,1,8,0:0:0:0:
256,192,68446,1,0,0:0:0:0:
256,192,68521,1,0,0:0:0:0:
256,192,68596,1,8,0:0:0:0:
256,192,68746,1,0,0:0:0:0:
256,192,68896,1,8,0:0:0:0:
256,192,69046,1,0,0:0:0:0:
256,192,69196,1,8,0:0:0:0:
256,192,69346,1,0,0:0:0:0:
256,192,69496,1,0,0:0:0:0:
256,192,69646,1,0,0:0:0:0:
256,192,69796,1,8,0:0:0:0:
256,192,69871,1,0,0:0:0:0:
256,192,69946,1,0,0:0:0:0:
256,192,70096,1,8,0:0:0:0:
256,192,70246,1,0,0:0:0:0:
256,192,70321,1,0,0:0:0:0:
256,192,70396,1,8,0:0:0:0:
256,192,70546,1,0,0:0:0:0:
256,192,70621,1,0,0:0:0:0:
256,192,70696,1,0,0:0:0:0:
256,192,70771,1,0,0:0:0:0:
256,192,70846,1,8,0:0:0:0:
256,192,70921,1,8,0:0:0:0:
256,192,70996,1,8,0:0:0:0:
256,192,71296,1,8,0:0:0:0:
256,192,71596,1,8,0:0:0:0:
256,192,71896,1,0,0:0:0:0:
256,192,71946,1,8,0:0:0:0:
256,192,72096,1,0,0:0:0:0:
256,192,72146,1,0,0:0:0:0:
256,192,72196,1,8,0:0:0:0:
256,192,72496,1,8,0:0:0:0:
256,192,72796,1,8,0:0:0:0:
256,192,72946,1,8,0:0:0:0:
256,192,73021,1,8,0:0:0:0:
256,192,73096,1,8,0:0:0:0:
256,192,73246,1,8,0:0:0:0:
256,192,73396,1,8,0:0:0:0:
256,192,73471,1,0,0:0:0:0:
256,192,73546,1,0,0:0:0:0:
256,192,73621,1,0,0:0:0:0:
256,192,73696,1,8,0:0:0:0:
256,192,73846,1,0,0:0:0:0:
256,192,73996,1,8,0:0:0:0:
256,192,74071,1,8,0:0:0:0:
256,192,74146,1,0,0:0:0:0:
256,192,74296,1,8,0:0:0:0:
256,192,74446,1,0,0:0:0:0:
256,192,74521,1,0,0:0:0:0:
256,192,74596,1,8,0:0:0:0:
256,192,74746,1,0,0:0:0:0:
256,192,74821,1,0,0:0:0:0:
256,192,74896,1,0,0:0:0:0:
256,192,75046,1,0,0:0:0:0:
256,192,75196,1,8,0:0:0:0:
256,192,75271,1,0,0:0:0:0:
256,192,75346,1,0,0:0:0:0:
256,192,75496,1,8,0:0:0:0:
256,192,75571,1,8,0:0:0:0:
256,192,75646,1,0,0:0:0:0:
256,192,75721,1,0,0:0:0:0:
256,192,75796,1,8,0:0:0:0:
256,192,75946,1,0,0:0:0:0:
256,192,76021,1,0,0:0:0:0:
256,192,76096,1,8,0:0:0:0:
256,192,76246,1,0,0:0:0:0:
256,192,76396,1,8,0:0:0:0:
256,192,76471,1,0,0:0:0:0:
256,192,76546,1,8,0:0:0:0:
256,192,76696,1,8,0:0:0:0:
256,192,76846,1,0,0:0:0:0:
256,192,76996,1,8,0:0:0:0:
256,192,77071,1,0,0:0:0:0:
256,192,77146,1,0,0:0:0:0:
256,192,77296,1,8,0:0:0:0:
256,192,77446,1,0,0:0:0:0:
256,192,77521,1,0,0:0:0:0:
256,192,77596,1,8,0:0:0:0:
256,192,77746,1,0,0:0:0:0:
256,192,77821,1,0,0:0:0:0:
256,192,77896,1,8,0:0:0:0:
256,192,77971,1,8,0:0:0:0:
256,192,78046,1,0,0:0:0:0:
256,192,78121,1,0,0:0:0:0:
256,192,78196,1,8,0:0:0:0:
256,192,78346,1,0,0:0:0:0:
256,192,78496,1,8,0:0:0:0:
256,192,78571,1,0,0:0:0:0:
256,192,78646,1,0,0:0:0:0:
256,192,78796,1,8,0:0:0:0:
256,192,78946,1,8,0:0:0:0:
256,192,79096,1,8,0:0:0:0:
256,192,79171,1,0,0:0:0:0:
256,192,79246,1,0,0:0:0:0:
256,192,79396,1,8,0:0:0:0:
256,192,79471,1,8,0:0:0:0:
256,192,79546,1,0,0:0:0:0:
256,192,79621,1,0,0:0:0:0:
256,192,79696,1,8,0:0:0:0:
256,192,79846,1,0,0:0:0:0:
256,192,79996,1,8,0:0:0:0:
256,192,80071,1,0,0:0:0:0:
256,192,80146,1,0,0:0:0:0:
256,192,80296,1,8,0:0:0:0:
256,192,80446,1,0,0:0:0:0:
256,192,80521,1,0,0:0:0:0:
256,192,80596,1,8,0:0:0:0:
256,192,80746,1,0,0:0:0:0:
256,192,80896,1,8,0:0:0:0:
256,192,80971,1,8,0:0:0:0:
256,192,81046,1,0,0:0:0:0:
256,192,81196,1,8,0:0:0:0:
256,192,81346,1,0,0:0:0:0:
256,192,81421,1,0,0:0:0:0:
256,192,81496,1,8,0:0:0:0:
256,192,81646,1,0,0:0:0:0:
256,192,81796,1,8,0:0:0:0:
256,192,81871,1,8,0:0:0:0:
256,192,81946,1,8,0:0:0:0:
256,192,82021,1,0,0:0:0:0:
256,192,82096,1,8,0:0:0:0:
256,192,82171,1,0,0:0:0:0:
256,192,82246,1,0,0:0:0:0:
256,192,82321,1,0,0:0:0:0:
256,192,82396,1,8,0:0:0:0:
256,192,82471,1,0,0:0:0:0:
256,192,82546,1,8,0:0:0:0:
256,192,82621,1,8,0:0:0:0:
256,192,82696,1,8,0:0:0:0:
256,192,82771,1,8,0:0:0:0:
256,192,82846,1,0,0:0:0:0:
256,192,82921,1,0,0:0:0:0:
256,192,82996,1,8,0:0:0:0:
256,192,83146,1,8,0:0:0:0:
256,192,83296,1,8,0:0:0:0:
256,192,83371,1,0,0:0:0:0:
256,192,83446,1,0,0:0:0:0:
256,192,83596,1,8,0:0:0:0:
256,192,83746,1,0,0:0:0:0:
256,192,83821,1,0,0:0:0:0:
256,192,83896,1,8,0:0:0:0:
256,192,83971,1,0,0:0:0:0:
256,192,84046,1,0,0:0:0:0:
256,192,84196,1,8,0:0:0:0:
256,192,84346,1,0,0:0:0:0:
256,192,84421,1,0,0:0:0:0:
256,192,84496,1,8,0:0:0:0:
256,192,84646,1,0,0:0:0:0:
256,192,84796,1,8,0:0:0:0:
256,192,84946,1,8,0:0:0:0:
256,192,85096,1,8,0:0:0:0:
256,192,85171,1,0,0:0:0:0:
256,192,85246,1,0,0:0:0:0:
256,192,85321,1,0,0:0:0:0:
256,192,85396,1,8,0:0:0:0:
256,192,85471,1,8,0:0:0:0:
256,192,85546,1,0,0:0:0:0:
256,192,85621,1,0,0:0:0:0:
256,192,85696,1,8,0:0:0:0:
256,192,85846,1,0,0:0:0:0:
256,192,85996,1,8,0:0:0:0:
256,192,86071,1,8,0:0:0:0:
256,192,86146,1,8,0:0:0:0:
256,192,86296,1,8,0:0:0:0:
256,192,86371,1,0,0:0:0:0:
256,192,86446,1,0,0:0:0:0:
256,192,86596,1,8,0:0:0:0:
256,192,86671,1,0,0:0:0:0:
256,192,86746,1,8,0:0:0:0:
256,192,86821,1,8,0:0:0:0:
256,192,86896,1,8,0:0:0:0:
256,192,87046,1,0,0:0:0:0:
256,192,87196,1,8,0:0:0:0:
256,192,87271,1,8,0:0:0:0:
256,192,87346,1,8,0:0:0:0:
256,192,87421,1,0,0:0:0:0:
256,192,87496,1,8,0:0:0:0:
256,192,87571,1,0,0:0:0:0:
256,192,87646,1,0,0:0:0:0:
256,192,87721,1,0,0:0:0:0:
256,192,87796,1,8,0:0:0:0:
256,192,87946,1,0,0:0:0:0:
256,192,88096,1,8,0:0:0:0:
256,192,88171,1,0,0:0:0:0:
256,192,88246,1,0,0:0:0:0:
256,192,88396,1,8,0:0:0:0:
256,192,88546,1,8,0:0:0:0:
256,192,88621,1,8,0:0:0:0:
256,192,88696,1,8,0:0:0:0:
256,192,88771,1,0,0:0:0:0:
256,192,88846,1,0,0:0:0:0:
256,192,88996,1,8,0:0:0:0:
256,192,89146,1,8,0:0:0:0:
256,192,89221,1,0,0:0:0:0:
256,192,89296,1,8,0:0:0:0:
256,192,89446,1,0,0:0:0:0:
256,192,89596,1,8,0:0:0:0:
256,192,89746,1,0,0:0:0:0:
256,192,89821,1,0,0:0:0:0:
256,192,89896,1,8,0:0:0:0:
256,192,89971,1,0,0:0:0:0:
256,192,90046,1,0,0:0:0:0:
256,192,90196,1,8,0:0:0:0:
256,192,90271,1,8,0:0:0:0:
256,192,90346,1,8,0:0:0:0:
256,192,90421,1,0,0:0:0:0:
256,192,90496,1,8,0:0:0:0:
256,192,90571,1,0,0:0:0:0:
256,192,90646,1,0,0:0:0:0:
256,192,90721,1,0,0:0:0:0:
256,192,90796,1,8,0:0:0:0:
256,192,90871,1,8,0:0:0:0:
256,192,90946,1,8,0:0:0:0:
256,192,91021,1,0,0:0:0:0:
256,192,91096,1,8,0:0:0:0:
256,192,91171,1,8,0:0:0:0:
256,192,91246,1,0,0:0:0:0:
256,192,91321,1,0,0:0:0:0:
256,192,91396,1,8,0:0:0:0:
256,192,91471,1,0,0:0:0:0:
256,192,91546,1,0,0:0:0:0:
256,192,91621,1,0,0:0:0:0:
256,192,91696,1,8,0:0:0:0:
256,192,91771,1,0,0:0:0:0:
256,192,91846,1,0,0:0:0:0:
256,192,91921,1,0,0:0:0:0:
256,192,91996,1,8,0:0:0:0:
256,192,92071,1,8,0:0:0:0:
256,192,92146,1,0,0:0:0:0:
256,192,92221,1,0,0:0:0:0:
256,192,92296,1,8,0:0:0:0:
256,192,92371,1,8,0:0:0:0:
256,192,92446,1,8,0:0:0:0:
256,192,92521,1,0,0:0:0:0:
256,192,92596,1,8,0:0:0:0:
256,192,92671,1,0,0:0:0:0:
256,192,92746,1,0,0:0:0:0:
256,192,92821,1,0,0:0:0:0:
256,192,92896,1,8,0:0:0:0:
256,192,92971,1,8,0:0:0:0:
256,192,93046,1,0,0:0:0:0:
256,192,93121,1,0,0:0:0:0:
256,192,93196,1,8,0:0:0:0:
256,192,93271,1,8,0:0:0:0:
256,192,93346,1,8,0:0:0:0:
256,192,93421,1,0,0:0:0:0:
256,192,93496,1,8,0:0:0:0:
256,192,93571,1,8,0:0:0:0:
256,192,93646,1,0,0:0:0:0:
256,192,93721,1,0,0:0:0:0:
256,192,93796,1,8,0:0:0:0:
256,192,93871,1,0,0:0:0:0:
256,192,93946,1,0,0:0:0:0:
256,192,94021,1,0,0:0:0:0:
256,192,94096,1,8,0:0:0:0:
256,192,94171,1,8,0:0:0:0:
256,192,94246,1,8,0:0:0:0:
256,192,94321,1,0,0:0:0:0:
256,192,94396,1,8,0:0:0:0:
256,192,94471,1,0,0:0:0:0:
256,192,94546,1,0,0:0:0:0:
256,192,94621,1,0,0:0:0:0:
256,192,94696,1,8,0:0:0:0:
256,192,94771,1,8,0:0:0:0:
256,192,94846,1,0,0:0:0:0:
256,192,94921,1,0,0:0:0:0:
256,192,94996,1,8,0:0:0:0:
256,192,95071,1,8,0:0:0:0:
256,192,95146,1,8,0:0:0:0:
256,192,95221,1,8,0:0:0:0:
256,192,95296,1,8,0:0:0:0:
256,192,95371,1,8,0:0:0:0:
256,192,95446,1,0,0:0:0:0:
256,192,95521,1,0,0:0:0:0:
256,192,95596,1,8,0:0:0:0:
256,192,95671,1,0,0:0:0:0:
256,192,95746,1,0,0:0:0:0:
256,192,95821,1,0,0:0:0:0:
256,192,95896,1,8,0:0:0:0:
256,192,95971,1,8,0:0:0:0:
256,192,96046,1,8,0:0:0:0:
256,192,96121,1,0,0:0:0:0:
256,192,96196,1,8,0:0:0:0:
256,192,96271,1,0,0:0:0:0:
256,192,96346,1,0,0:0:0:0:
256,192,96421,1,0,0:0:0:0:
256,192,96496,1,8,0:0:0:0:
256,192,96571,1,8,0:0:0:0:
256,192,96646,1,0,0:0:0:0:
256,192,96721,1,0,0:0:0:0:
256,192,96796,1,8,0:0:0:0:
256,192,96871,1,8,0:0:0:0:
256,192,96946,1,0,0:0:0:0:
256,192,97021,1,0,0:0:0:0:
256,192,97096,1,8,0:0:0:0:
256,192,97171,1,0,0:0:0:0:
256,192,97246,1,8,0:0:0:0:
256,192,97321,1,8,0:0:0:0:
256,192,97396,1,8,0:0:0:0:
256,192,97471,1,0,0:0:0:0:
256,192,97546,1,0,0:0:0:0:
256,192,97621,1,8,0:0:0:0:
256,192,97696,1,8,0:0:0:0:
256,192,97771,1,0,0:0:0:0:
256,192,97846,1,0,0:0:0:0:
256,192,97921,1,0,0:0:0:0:
256,192,97996,1,8,0:0:0:0:
256,192,98071,1,0,0:0:0:0:
256,192,98146,1,0,0:0:0:0:
256,192,98221,1,0,0:0:0:0:
256,192,98296,1,8,0:0:0:0:
256,192,98371,1,8,0:0:0:0:
256,192,98446,1,0,0:0:0:0:
256,192,98521,1,8,0:0:0:0:
256,192,98596,1,8,0:0:0:0:
256,192,98671,1,8,0:0:0:0:
256,192,98746,1,8,0:0:0:0:
256,192,98821,1,0,0:0:0:0:
256,192,98896,1,8,0:0:0:0:
256,192,98971,1,0,0:0:0:0:
256,192,99046,1,0,0:0:0:0:
256,192,99121,1,8,0:0:0:0:
256,192,99196,1,8,0:0:0:0:
256,192,99271,1,8,0:0:0:0:
256,192,99346,1,8,0:0:0:0:
256,192,99421,1,0,0:0:0:0:
256,192,99496,1,8,0:0:0:0:
256,192,99571,1,8,0:0:0:0:
256,192,99646,1,0,0:0:0:0:
256,192,99721,1,0,0:0:0:0:
256,192,99796,1,8,0:0:0:0:
256,192,99871,1,0,0:0:0:0:
256,192,99946,1,0,0:0:0:0:
256,192,100021,1,0,0:0:0:0:
256,192,100096,1,8,0:0:0:0:
256,192,100171,1,8,0:0:0:0:
256,192,100246,1,0,0:0:0:0:
256,192,100321,1,0,0:0:0:0:
256,192,100396,1,8,0:0:0:0:
256,192,100471,1,8,0:0:0:0:
256,192,100546,1,0,0:0:0:0:
256,192,100621,1,0,0:0:0:0:
256,192,100696,1,8,0:0:0:0:
256,192,100771,1,8,0:0:0:0:
256,192,100846,1,8,0:0:0:0:
256,192,100921,1,0,0:0:0:0:
256,192,100996,1,8,0:0:0:0:
256,192,101071,1,0,0:0:0:0:
256,192,101146,1,0,0:0:0:0:
256,192,101296,1,8,0:0:0:0:
256,192,101446,1,8,0:0:0:0:
256,192,101596,1,0,0:0:0:0:
256,192,101671,1,0,0:0:0:0:
256,192,101746,1,0,0:0:0:0:
256,192,101896,1,8,0:0:0:0:
256,192,102046,1,8,0:0:0:0:
256,192,102196,1,8,0:0:0:0:
256,192,102271,1,8,0:0:0:0:
256,192,102346,1,0,0:0:0:0:
256,192,102421,1,0,0:0:0:0:
256,192,102496,1,8,0:0:0:0:
256,192,102571,1,8,0:0:0:0:
256,192,102646,1,8,0:0:0:0:
256,192,102721,1,0,0:0:0:0:
256,192,102796,1,8,0:0:0:0:
256,192,102871,1,0,0:0:0:0:
256,192,102946,1,0,0:0:0:0:
256,192,103021,1,8,0:0:0:0:
256,192,103096,1,8,0:0:0:0:
256,192,103171,1,8,0:0:0:0:
256,192,103246,1,0,0:0:0:0:
256,192,103321,1,0,0:0:0:0:
256,192,103396,1,8,0:0:0:0:
256,192,103471,1,8,0:0:0:0:
256,192,103546,1,8,0:0:0:0:
256,192,103621,1,0,0:0:0:0:
256,192,103696,1,8,0:0:0:0:
256,192,103771,1,0,0:0:0:0:
256,192,103846,1,0,0:0:0:0:
256,192,103921,1,0,0:0:0:0:
256,192,103996,1,8,0:0:0:0:
256,192,104071,1,8,0:0:0:0:
256,192,104146,1,0,0:0:0:0:
256,192,104221,1,0,0:0:0:0:
256,192,104296,1,8,0:0:0:0:
256,192,104371,1,8,0:0:0:0:
256,192,104446,1,0,0:0:0:0:
256,192,104521,1,8,0:0:0:0:
256,192,104596,1,8,0:0:0:0:
256,192,104671,1,8,0:0:0:0:
256,192,104746,1,8,0:0:0:0:
256,192,104821,1,0,0:0:0:0:
256,192,104896,1,8,0:0:0:0:
256,192,104971,1,0,0:0:0:0:
256,192,105046,1,0,0:0:0:0:
256,192,105121,1,0,0:0:0:0:
256,192,105196,1,8,0:0:0:0:
256,192,105271,1,0,0:0:0:0:
256,192,105346,1,0,0:0:0:0:
256,192,105421,1,8,0:0:0:0:
256,192,105496,1,8,0:0:0:0:
256,192,105571,1,0,0:0:0:0:
256,192,105646,1,0,0:0:0:0:
256,192,105721,1,0,0:0:0:0:
256,192,105796,1,8,0:0:0:0:
256,192,105871,1,8,0:0:0:0:
256,192,105946,1,8,0:0:0:0:
256,192,106021,1,0,0:0:0:0:
256,192,106096,1,8,0:0:0:0:
256,192,106171,1,0,0:0:0:0:
256,192,106246,1,0,0:0:0:0:
256,192,106321,1,0,0:0:0:0:
256,192,106396,1,8,0:0:0:0:
256,192,106471,1,8,0:0:0:0:
256,192,106546,1,8,0:0:0:0:
256,192,106621,1,0,0:0:0:0:
256,192,106696,1,8,0:0:0:0:
256,192,106771,1,8,0:0:0:0:
256,192,106846,1,0,0:0:0:0:
256,192,106921,1,0,0:0:0:0:
256,192,106996,1,8,0:0:0:0:
256,192,107071,1,0,0:0:0:0:
256,192,107146,1,0,0:0:0:0:
256,192,107221,1,0,0:0:0:0:
256,192,107296,1,8,0:0:0:0:
256,192,107371,1,0,0:0:0:0:
256,192,107446,1,0,0:0:0:0:
256,192,107521,1,0,0:0:0:0:
256,192,107596,1,8,0:0:0:0:
256,192,107671,1,8,0:0:0:0:
256,192,107746,1,0,0:0:0:0:
256,192,107821,1,0,0:0:0:0:
256,192,107896,1,8,0:0:0:0:
256,192,107971,1,8,0:0:0:0:
256,192,108046,1,8,0:0:0:0:
256,192,108121,1,0,0:0:0:0:
256,192,108196,1,8,0:0:0:0:
256,192,108271,1,8,0:0:0:0:
256,192,108346,1,8,0:0:0:0:
256,192,108421,1,0,0:0:0:0:
256,192,108496,1,8,0:0:0:0:
256,192,108571,1,0,0:0:0:0:
256,192,108646,1,0,0:0:0:0:
256,192,108721,1,0,0:0:0:0:
256,192,108796,1,8,0:0:0:0:
256,192,108871,1,8,0:0:0:0:
256,192,108946,1,0,0:0:0:0:
256,192,109021,1,0,0:0:0:0:
256,192,109096,1,8,0:0:0:0:
256,192,109171,1,8,0:0:0:0:
256,192,109246,1,0,0:0:0:0:
256,192,109321,1,0,0:0:0:0:
256,192,109396,1,8,0:0:0:0:
256,192,109471,1,0,0:0:0:0:
256,192,109546,1,0,0:0:0:0:
256,192,109621,1,0,0:0:0:0:
256,192,109696,1,8,0:0:0:0:
256,192,109771,1,8,0:0:0:0:
256,192,109846,1,0,0:0:0:0:
256,192,109921,1,0,0:0:0:0:
256,192,109996,1,8,0:0:0:0:
256,192,110071,1,8,0:0:0:0:
256,192,110146,1,0,0:0:0:0:
256,192,110221,1,0,0:0:0:0:
256,192,110296,1,8,0:0:0:0:
256,192,110371,1,0,0:0:0:0:
256,192,110446,1,0,0:0:0:0:
256,192,110521,1,0,0:0:0:0:
256,192,110596,1,8,0:0:0:0:
256,192,110671,1,0,0:0:0:0:
256,192,110746,1,0,0:0:0:0:
256,192,110821,1,0,0:0:0:0:
256,192,110896,1,8,0:0:0:0:
256,192,110971,1,0,0:0:0:0:
256,192,111046,1,8,0:0:0:0:
256,192,111121,1,0,0:0:0:0:
256,192,111196,1,8,0:0:0:0:
256,192,111271,1,0,0:0:0:0:
256,192,111346,1,0,0:0:0:0:
256,192,111421,1,8,0:0:0:0:
256,192,111496,1,8,0:0:0:0:
256,192,111571,1,8,0:0:0:0:
256,192,111646,1,8,0:0:0:0:
256,192,111721,1,0,0:0:0:0:
256,192,111796,1,8,0:0:0:0:
256,192,111946,1,0,0:0:0:0:
256,192,112096,1,8,0:0:0:0:
256,192,112171,1,8,0:0:0:0:
256,192,112246,1,0,0:0:0:0:
256,192,112396,1,8,0:0:0:0:
256,192,112546,1,8,0:0:0:0:
256,192,112621,1,0,0:0:0:0:
256,192,112696,1,0,0:0:0:0:
256,192,112846,1,0,0:0:0:0:
256,192,112996,1,8,0:0:0:0:
256,192,113071,1,0,0:0:0:0:
256,192,113146,1,0,0:0:0:0:
256,192,113296,1,8,0:0:0:0:
256,192,113446,1,0,0:0:0:0:
256,192,113521,1,0,0:0:0:0:
256,192,113596,1,0,0:0:0:0:
256,192,113746,1,8,0:0:0:0:
256,192,113896,1,0,0:0:0:0:
256,192,114046,1,0,0:0:0:0:
256,192,114121,1,0,0:0:0:0:
256,192,114196,1,8,0:0:0:0:
256,192,114346,1,0,0:0:0:0:
256,192,114421,1,0,0:0:0:0:
256,192,114496,1,8,0:0:0:0:
256,192,114571,1,0,0:0:0:0:
256,192,114646,1,0,0:0:0:0:
256,192,114796,1,8,0:0:0:0:
256,192,114871,1,0,0:0:0:0:
256,192,114946,1,0,0:0:0:0:
256,192,115096,1,0,0:0:0:0:
256,192,115171,1,0,0:0:0:0:
256,192,115246,1,8,0:0:0:0:
256,192,115396,1,8,0:0:0:0:
256,192,115546,1,0,0:0:0:0:
256,192,115696,1,8,0:0:0:0:
256,192,115771,1,0,0:0:0:0:
256,192,115846,1,0,0:0:0:0:
256,192,115996,1,8,0:0:0:0:
256,192,116146,1,0,0:0:0:0:
256,192,116296,1,0,0:0:0:0:
256,192,116371,1,0,0:0:0:0:
256,192,116446,1,0,0:0:0:0:
256,192,116521,1,0,0:0:0:0:
256,192,116596,1,8,0:0:0:0:
256,192,116746,1,0,0:0:0:0:
256,192,116896,1,0,0:0:0:0:
256,192,117046,1,8,0:0:0:0:
256,192,117196,1,8,0:0:0:0:
256,192,117346,1,0,0:0:0:0:
256,192,117496,1,0,0:0:0:0:
256,192,117571,1,0,0:0:0:0:
256,192,117646,1,0,0:0:0:0:
256,192,117796,1,8,0:0:0:0:
256,192,117946,1,0,0:0:0:0:
256,192,118096,1,0,0:0:0:0:
256,192,118171,1,0,0:0:0:0:
256,192,118246,1,8,0:0:0:0:
256,192,118396,1,0,0:0:0:0:
256,192,118546,1,0,0:0:0:0:
256,192,118696,1,8,0:0:0:0:
256,192,118846,1,0,0:0:0:0:
256,192,118996,1,8,0:0:0:0:
256,192,119146,1,0,0:0:0:0:
256,192,119296,1,8,0:0:0:0:
256,192,119371,1,0,0:0:0:0:
256,192,119446,1,0,0:0:0:0:
256,192,119596,1,8,0:0:0:0:
256,192,119746,1,8,0:0:0:0:
256,192,119896,1,0,0:0:0:0:
256,192,120046,1,8,0:0:0:0:
256,192,120196,1,8,0:0:0:0:
256,192,120271,1,0,0:0:0:0:
256,192,120346,1,0,0:0:0:0:
256,192,120421,1,0,0:0:0:0:
256,192,120496,1,8,0:0:0:0:
256,192,120571,1,8,0:0:0:0:
256,192,120646,1,8,0:0:0:0:
256,192,120721,1,0,0:0:0:0:
256,192,120796,1,8,0:0:0:0:
256,192,120871,1,8,0:0:0:0:
256,192,120946,1,0,0:0:0:0:
256,192,121021,1,8,0:0:0:0:
256,192,121096,1,8,0:0:0:0:
256,192,121171,1,8,0:0:0:0:
256,192,121246,1,0,0:0:0:0:
256,192,121321,1,0,0:0:0:0:
256,192,121396,1,8,0:0:0:0:
256,192,121471,1,0,0:0:0:0:
256,192,121546,1,8,0:0:0:0:
256,192,121696,1,0,0:0:0:0:
256,192,121846,1,8,0:0:0:0:
256,192,121921,1,0,0:0:0:0:
256,192,121996,1,0,0:0:0:0:
256,192,122146,1,8,0:0:0:0:
256,192,122296,1,0,0:0:0:0:
256,192,122446,1,0,0:0:0:0:
256,192,122596,1,8,0:0:0:0:
256,192,122671,1,0,0:0:0:0:
256,192,122746,1,0,0:0:0:0:
256,192,122821,1,0,0:0:0:0:
256,192,122896,1,8,0:0:0:0:
256,192,123046,1,0,0:0:0:0:
256,192,123196,1,8,0:0:0:0:
256,192,123271,1,0,0:0:0:0:
256,192,123346,1,0,0:0:0:0:
256,192,123496,1,0,0:0:0:0:
256,192,123571,1,0,0:0:0:0:
256,192,123646,1,0,0:0:0:0:
256,192,123721,1,0,0:0:0:0:
256,192,123796,1,8,0:0:0:0:
256,192,123871,1,0,0:0:0:0:
256,192,123946,1,8,0:0:0:0:
256,192,124096,1,0,0:0:0:0:
256,192,124246,1,8,0:0:0:0:
256,192,124321,1,0,0:0:0:0:
256,192,124396,1,0,0:0:0:0:
256,192,124546,1,8,0:0:0:0:
256,192,124696,1,0,0:0:0:0:
256,192,124771,1,0,0:0:0:0:
256,192,124846,1,0,0:0:0:0:
256,192,124996,1,8,0:0:0:0:
256,192,125146,1,8,0:0:0:0:
256,192,125296,1,0,0:0:0:0:
256,192,125371,1,0,0:0:0:0:
256,192,125446,1,8,0:0:0:0:
256,192,125596,1,8,0:0:0:0:
256,192,125671,1,0,0:0:0:0:
256,192,125746,1,0,0:0:0:0:
256,192,125821,1,0,0:0:0:0:
256,192,125896,1,8,0:0:0:0:
256,192,125971,1,8,0:0:0:0:
256,192,126046,1,8,0:0:0:0:
256,192,126121,1,0,0:0:0:0:
256,192,126196,1,8,0:0:0:0:
256,192,126346,1,8,0:0:0:0:
256,192,126496,1,8,0:0:0:0:
256,192,126571,1,0,0:0:0:0:
256,192,126646,1,0,0:0:0:0:
256,192,126796,1,0,0:0:0:0:
256,192,126946,1,8,0:0:0:0:
256,192,127096,1,0,0:0:0:0:
256,192,127171,1,0,0:0:0:0:
256,192,127246,1,0,0:0:0:0:
256,192,127396,1,8,0:0:0:0:
256,192,127546,1,0,0:0:0:0:
256,192,127621,1,0,0:0:0:0:
256,192,127696,1,8,0:0:0:0:
256,192,127846,1,0,0:0:0:0:
256,192,127996,1,8,0:0:0:0:
256,192,128146,1,8,0:0:0:0:
256,192,128296,1,8,0:0:0:0:
256,192,128446,1,0,0:0:0:0:
256,192,128521,1,0,0:0:0:0:
256,192,128596,1,8,0:0:0:0:
256,192,128671,1,8,0:0:0:0:
256,192,128746,1,0,0:0:0:0:
256,192,128821,1,0,0:0:0:0:
256,192,128896,1,8,0:0:0:0:
256,192,128971,1,0,0:0:0:0:
256,192,129046,1,0,0:0:0:0:
256,192,129121,1,0,0:0:0:0:
256,192,129196,1,8,0:0:0:0:
256,192,129271,1,8,0:0:0:0:
256,192,129346,1,8,0:0:0:0:
256,192,129421,1,0,0:0:0:0:
256,192,129496,1,8,0:0:0:0:
256,192,129571,1,8,0:0:0:0:
256,192,129646,1,8,0:0:0:0:
256,192,129721,1,0,0:0:0:0:
256,192,129796,1,8,0:0:0:0:
256,192,129871,1,8,0:0:0:0:
256,192,129946,1,0,0:0:0:0:
256,192,130021,1,0,0:0:0:0:
256,192,130096,1,8,0:0:0:0:
256,192,130171,1,0,0:0:0:0:
256,192,130246,1,8,0:0:0:0:
256,192,130321,1,0,0:0:0:0:
256,192,130396,1,0,0:0:0:0:
256,192,130471,1,0,0:0:0:0:
256,192,130546,1,8,0:0:0:0:
256,192,130621,1,0,0:0:0:0:
256,192,130696,1,8,0:0:0:0:
256,192,130771,1,0,0:0:0:0:
256,192,130846,1,0,0:0:0:0:
256,192,130921,1,0,0:0:0:0:
256,192,130996,1,8,0:0:0:0:
256,192,131146,1,0,0:0:0:0:
256,192,131296,1,8,0:0:0:0:
256,192,131596,1,8,0:0:0:0:
256,192,131746,1,0,0:0:0:0:
256,192,131896,1,8,0:0:0:0:
256,192,132196,1,12,0:0:0:0:
256,192,132346,1,0,0:0:0:0:
256,192,132496,1,8,0:0:0:0:
256,192,132796,1,8,0:0:0:0:
256,192,132946,1,0,0:0:0:0:
256,192,133096,1,8,0:0:0:0:
256,192,133396,1,0,0:0:0:0:
256,192,133546,1,0,0:0:0:0:
256,192,133696,1,8,0:0:0:0:
256,192,133996,1,8,0:0:0:0:
256,192,134146,1,8,0:0:0:0:
256,192,134296,1,8,0:0:0:0:
256,192,134596,1,0,0:0:0:0:
256,192,134746,1,0,0:0:0:0:
256,192,134896,1,8,0:0:0:0:
256,192,135196,1,8,0:0:0:0:
256,192,135346,1,0,0:0:0:0:
256,192,135496,1,8,0:0:0:0:
256,192,135796,1,0,0:0:0:0:
256,192,135946,1,0,0:0:0:0:
256,192,136096,1,8,0:0:0:0:
256,192,136396,1,8,0:0:0:0:
256,192,136546,1,0,0:0:0:0:
256,192,136696,1,8,0:0:0:0:
256,192,136996,1,8,0:0:0:0:
256,192,137146,1,0,0:0:0:0:
256,192,137296,1,12,0:0:0:0:
256,192,137596,1,8,0:0:0:0:
256,192,137746,1,8,0:0:0:0:
256,192,137896,1,8,0:0:0:0:
256,192,138196,1,8,0:0:0:0:
256,192,138271,1,0,0:0:0:0:
256,192,138346,1,0,0:0:0:0:
256,192,138496,1,8,0:0:0:0:
256,192,138796,1,8,0:0:0:0:
256,192,138946,1,0,0:0:0:0:
256,192,139021,1,0,0:0:0:0:
256,192,139096,1,8,0:0:0:0:
256,192,139246,1,0,0:0:0:0:
256,192,139396,1,8,0:0:0:0:
256,192,139471,1,8,0:0:0:0:
256,192,139546,1,0,0:0:0:0:
256,192,139621,1,0,0:0:0:0:
256,192,139696,1,8,0:0:0:0:
256,192,139771,1,0,0:0:0:0:
256,192,139846,1,0,0:0:0:0:
256,192,139921,1,0,0:0:0:0:
256,192,139996,1,8,0:0:0:0:
256,192,140071,1,0,0:0:0:0:
256,192,140146,1,8,0:0:0:0:
256,192,140221,1,0,0:0:0:0:
256,192,140296,1,8,0:0:0:0:
256,192,140371,1,0,0:0:0:0:
256,192,140446,1,8,0:0:0:0:
256,192,140521,1,8,0:0:0:0:
256,192,140596,1,8,0:0:0:0:
256,192,140746,1,0,0:0:0:0:
256,192,140896,1,12,0:0:0:0:
256,192,141196,1,8,0:0:0:0:
256,192,141346,1,8,0:0:0:0:
256,192,141496,1,8,0:0:0:0:
256,192,141796,1,8,0:0:0:0:
256,192,141946,1,0,0:0:0:0:
256,192,142096,1,8,0:0:0:0:
256,192,142396,1,8,0:0:0:0:
256,192,142546,1,8,0:0:0:0:
256,192,142696,1,0,0:0:0:0:
256,192,142996,1,8,0:0:0:0:
256,192,143146,1,0,0:0:0:0:
256,192,143296,1,8,0:0:0:0:
256,192,143596,1,8,0:0:0:0:
256,192,143746,1,0,0:0:0:0:
256,192,143896,1,8,0:0:0:0:
256,192,144196,1,8,0:0:0:0:
256,192,144346,1,0,0:0:0:0:
256,192,144496,1,8,0:0:0:0:
256,192,144796,1,8,0:0:0:0:
256,192,144946,1,8,0:0:0:0:
256,192,145096,1,8,0:0:0:0:
256,192,145396,1,8,0:0:0:0:
256,192,145546,1,0,0:0:0:0:
256,192,145696,1,8,0:0:0:0:
256,192,145996,1,8,0:0:0:0:
256,192,146146,1,0,0:0:0:0:
256,192,146296,1,8,0:0:0:0:
256,192,146596,1,8,0:0:0:0:
256,192,146746,1,0,0:0:0:0:
256,192,146896,1,8,0:0:0:0:
256,192,147196,1,8,0:0:0:0:
256,192,147346,1,0,0:0:0:0:
256,192,147496,1,8,0:0:0:0:
256,192,147646,1,0,0:0:0:0:
256,192,147721,1,0,0:0:0:0:
256,192,147796,1,8,0:0:0:0:
256,192,147871,1,0,0:0:0:0:
256,192,147946,1,0,0:0:0:0:
256,192,148021,1,0,0:0:0:0:
256,192,148096,1,8,0:0:0:0:
256,192,148171,1,0,0:0:0:0:
256,192,148246,1,8,0:0:0:0:
256,192,148321,1,8,0:0:0:0:
256,192,148396,1,8,0:0:0:0:
256,192,148471,1,0,0:0:0:0:
256,192,148546,1,8,0:0:0:0:
256,192,148621,1,0,0:0:0:0:
256,192,148696,1,0,0:0:0:0:
256,192,148771,1,0,0:0:0:0:
256,192,148846,1,8,0:0:0:0:
256,192,148921,1,0,0:0:0:0:
256,192,148996,1,8,0:0:0:0:
256,192,149071,1,0,0:0:0:0:
256,192,149146,1,0,0:0:0:0:
256,192,149296,1,8,0:0:0:0:
256,192,149446,1,8,0:0:0:0:
256,192,149596,1,8,0:0:0:0:
256,192,149671,1,0,0:0:0:0:
256,192,149746,1,0,0:0:0:0:
256,192,149821,1,0,0:0:0:0:
256,192,149896,1,8,0:0:0:0:
256,192,149971,1,8,0:0:0:0:
256,192,150046,1,0,0:0:0:0:
256,192,150121,1,0,0:0:0:0:
256,192,150196,1,12,0:0:0:0:
256,192,150496,1,8,0:0:0:0:
256,192,150646,1,0,0:0:0:0:
256,192,150796,1,0,0:0:0:0:
256,192,150946,1,0,0:0:0:0:
256,192,151096,1,8,0:0:0:0:
256,192,151246,1,0,0:0:0:0:
256,192,151396,1,8,0:0:0:0:
256,192,151471,1,0,0:0:0:0:
256,192,151546,1,0,0:0:0:0:
256,192,151696,1,8,0:0:0:0:
256,192,151846,1,8,0:0:0:0:
256,192,151921,1,0,0:0:0:0:
256,192,151996,1,8,0:0:0:0:
256,192,152071,1,0,0:0:0:0:
256,192,152146,1,0,0:0:0:0:
256,192,152221,1,0,0:0:0:0:
256,192,152296,1,8,0:0:0:0:
256,192,152371,1,8,0:0:0:0:
256,192,152446,1,0,0:0:0:0:
256,192,152521,1,0,0:0:0:0:
256,192,152596,1,8,0:0:0:0:
256,192,152896,1,8,0:0:0:0:
256,192,153046,1,0,0:0:0:0:
256,192,153196,1,0,0:0:0:0:
256,192,153346,1,8,0:0:0:0:
256,192,153496,1,8,0:0:0:0:
256,192,153646,1,0,0:0:0:0:
256,192,153796,1,8,0:0:0:0:
256,192,153871,1,0,0:0:0:0:
256,192,153946,1,0,0:0:0:0:
256,192,154096,1,8,0:0:0:0:
256,192,154246,1,8,0:0:0:0:
256,192,154396,1,0,0:0:0:0:
256,192,154471,1,0,0:0:0:0:
256,192,154546,1,0,0:0:0:0:
256,192,154621,1,0,0:0:0:0:
256,192,154696,1,8,0:0:0:0:
256,192,154771,1,8,0:0:0:0:
256,192,154846,1,0,0:0:0:0:
256,192,154921,1,0,0:0:0:0:
256,192,154996,1,8,0:0:0:0:
256,192,155296,1,8,0:0:0:0:
256,192,155446,1,0,0:0:0:0:
256,192,155596,1,0,0:0:0:0:
256,192,155746,1,0,0:0:0:0:
256,192,155896,1,8,0:0:0:0:
256,192,156046,1,0,0:0:0:0:
256,192,156196,1,8,0:0:0:0:
256,192,156271,1,0,0:0:0:0:
256,192,156346,1,0,0:0:0:0:
256,192,156496,1,8,0:0:0:0:
256,192,156646,1,0,0:0:0:0:
256,192,156721,1,0,0:0:0:0:
256,192,156796,1,8,0:0:0:0:
256,192,156871,1,0,0:0:0:0:
256,192,156946,1,0,0:0:0:0:
256,192,157021,1,0,0:0:0:0:
256,192,157096,1,8,0:0:0:0:
256,192,157171,1,8,0:0:0:0:
256,192,157246,1,8,0:0:0:0:
256,192,157321,1,0,0:0:0:0:
256,192,157396,1,8,0:0:0:0:
256,192,157696,1,8,0:0:0:0:
256,192,157996,1,8,0:0:0:0:
256,192,158296,1,8,0:0:0:0:
256,192,158346,1,0,0:0:0:0:
256,192,158496,1,0,0:0:0:0:
256,192,158546,1,0,0:0:0:0:
256,192,158596,1,8,0:0:0:0:
256,192,158896,1,8,0:0:0:0:
256,192,159196,1,8,0:0:0:0:
256,192,159346,1,0,0:0:0:0:
256,192,159421,1,0,0:0:0:0:
256,192,159496,1,8,0:0:0:0:
256,192,159646,1,8,0:0:0:0:
256,192,159796,1,8,0:0:0:0:
256,192,159871,1,0,0:0:0:0:
256,192,159946,1,0,0:0:0:0:
256,192,160096,1,8,0:0:0:0:
256,192,160246,1,0,0:0:0:0:
256,192,160396,1,8,0:0:0:0:
256,192,160546,1,8,0:0:0:0:
256,192,160696,1,0,0:0:0:0:
256,192,160771,1,0,0:0:0:0:
256,192,160846,1,0,0:0:0:0:
256,192,160996,1,8,0:0:0:0:
256,192,161146,1,8,0:0:0:0:
256,192,161296,1,8,0:0:0:0:
256,192,161446,1,0,0:0:0:0:
256,192,161521,1,0,0:0:0:0:
256,192,161596,1,8,0:0:0:0:
256,192,161671,1,0,0:0:0:0:
256,192,161746,1,0,0:0:0:0:
256,192,161821,1,0,0:0:0:0:
256,192,161896,1,8,0:0:0:0:
256,192,161971,1,8,0:0:0:0:
256,192,162046,1,8,0:0:0:0:
256,192,162121,1,0,0:0:0:0:
256,192,162196,1,8,0:0:0:0:
256,192,162346,1,0,0:0:0:0:
256,192,162496,1,8,0:0:0:0:
256,192,162571,1,0,0:0:0:0:
256,192,162646,1,0,0:0:0:0:
256,192,162796,1,0,0:0:0:0:
256,192,162946,1,8,0:0:0:0:
256,192,163096,1,8,0:0:0:0:
256,192,163171,1,0,0:0:0:0:
256,192,163246,1,8,0:0:0:0:
256,192,163396,1,8,0:0:0:0:
256,192,163546,1,0,0:0:0:0:
256,192,163696,1,0,0:0:0:0:
256,192,163771,1,0,0:0:0:0:
256,192,163846,1,0,0:0:0:0:
256,192,163921,1,0,0:0:0:0:
256,192,163996,1,8,0:0:0:0:
256,192,164146,1,0,0:0:0:0:
256,192,164296,1,8,0:0:0:0:
256,192,164446,1,0,0:0:0:0:
256,192,164521,1,0,0:0:0:0:
256,192,164596,1,8,0:0:0:0:
256,192,164746,1,0,0:0:0:0:
256,192,164896,1,8,0:0:0:0:
256,192,164971,1,0,0:0:0:0:
256,192,165046,1,0,0:0:0:0:
256,192,165196,1,0,0:0:0:0:
256,192,165346,1,0,0:0:0:0:
256,192,165496,1,8,0:0:0:0:
256,192,165646,1,0,0:0:0:0:
256,192,165796,1,8,0:0:0:0:
256,192,165871,1,0,0:0:0:0:
256,192,165946,1,0,0:0:0:0:
256,192,166021,1,0,0:0:0:0:
256,192,166096,1,8,0:0:0:0:
256,192,166246,1,8,0:0:0:0:
256,192,166396,1,8,0:0:0:0:
256,192,166471,1,0,0:0:0:0:
256,192,166546,1,0,0:0:0:0:
256,192,166621,1,0,0:0:0:0:
256,192,166696,1,0,0:0:0:0:
256,192,166771,1,0,0:0:0:0:
256,192,166846,1,8,0:0:0:0:
256,192,166921,1,0,0:0:0:0:
256,192,166996,1,8,0:0:0:0:
256,192,167146,1,0,0:0:0:0:
256,192,167296,1,8,0:0:0:0:
256,192,167371,1,8,0:0:0:0:
256,192,167446,1,8,0:0:0:0:
256,192,167596,1,8,0:0:0:0:
256,192,167746,1,0,0:0:0:0:
256,192,167896,1,0,0:0:0:0:
256,192,168046,1,0,0:0:0:0:
256,192,168196,1,8,0:0:0:0:
256,192,168271,1,8,0:0:0:0:
256,192,168346,1,0,0:0:0:0:
256,192,168421,1,0,0:0:0:0:
256,192,168496,1,8,0:0:0:0:
256,192,168571,1,0,0:0:0:0:
256,192,168646,1,0,0:0:0:0:
256,192,168721,1,0,0:0:0:0:
256,192,168796,1,8,0:0:0:0:
256,192,168871,1,8,0:0:0:0:
256,192,168946,1,8,0:0:0:0:
256,192,169021,1,0,0:0:0:0:
256,192,169096,1,8,0:0:0:0:
256,192,169171,1,0,0:0:0:0:
256,192,169246,1,8,0:0:0:0:
256,192,169321,1,8,0:0:0:0:
256,192,169396,1,8,0:0:0:0:
256,192,169546,1,8,0:0:0:0:
256,192,169696,1,0,0:0:0:0:
256,192,169846,1,8,0:0:0:0:
256,192,169921,1,0,0:0:0:0:
256,192,169996,1,0,0:0:0:0:
256,192,170146,1,0,0:0:0:0:
256,192,170296,1,8,0:0:0:0:
256,192,170446,1,8,0:0:0:0:
256,192,170596,1,8,0:0:0:0:
256,192,170671,1,0,0:0:0:0:
256,192,170746,1,0,0:0:0:0:
256,192,170896,1,0,0:0:0:0:
256,192,171046,1,8,0:0:0:0:
256,192,171121,1,0,0:0:0:0:
256,192,171196,1,0,0:0:0:0:
256,192,171346,1,8,0:0:0:0:
256,192,171496,1,8,0:0:0:0:
256,192,171646,1,0,0:0:0:0:
256,192,171721,1,0,0:0:0:0:
256,192,171796,1,8,0:0:0:0:
256,192,171946,1,0,0:0:0:0:
256,192,172096,1,8,0:0:0:0:
256,192,172171,1,0,0:0:0:0:
256,192,172246,1,0,0:0:0:0:
256,192,172396,1,0,0:0:0:0:
256,192,172546,1,0,0:0:0:0:
256,192,172696,1,8,0:0:0:0:
256,192,172846,1,8,0:0:0:0:
256,192,172996,1,8,0:0:0:0:
256,192,173146,1,0,0:0:0:0:
256,192,173296,1,0,0:0:0:0:
256,192,173371,1,0,0:0:0:0:
256,192,173446,1,0,0:0:0:0:
256,192,173596,1,8,0:0:0:0:
256,192,173746,1,0,0:0:0:0:
256,192,173896,1,8,0:0:0:0:
256,192,173971,1,8,0:0:0:0:
256,192,174046,1,0,0:0:0:0:
256,192,174121,1,0,0:0:0:0:
256,192,174196,1,8,0:0:0:0:
256,192,174346,1,0,0:0:0:0:
256,192,174496,1,0,0:0:0:0:
256,192,174571,1,0,0:0:0:0:
256,192,174646,1,8,0:0:0:0:
256,192,174796,1,8,0:0:0:0:
256,192,174946,1,0,0:0:0:0:
256,192,175096,1,0,0:0:0:0:
256,192,175246,1,0,0:0:0:0:
256,192,175396,1,8,0:0:0:0:
256,192,175471,1,0,0:0:0:0:
256,192,175546,1,0,0:0:0:0:
256,192,175696,1,8,0:0:0:0:
256,192,175846,1,0,0:0:0:0:
256,192,175996,1,8,0:0:0:0:
256,192,176071,1,0,0:0:0:0:
256,192,176146,1,0,0:0:0:0:
256,192,176296,1,0,0:0:0:0:
256,192,176446,1,8,0:0:0:0:
256,192,176596,1,8,0:0:0:0:
256,192,176671,1,0,0:0:0:0:
256,192,176746,1,0,0:0:0:0:
256,192,176896,1,8,0:0:0:0:
256,192,177046,1,8,0:0:0:0:
256,192,177196,1,8,0:0:0:0:
256,192,177346,1,0,0:0:0:0:
256,192,177421,1,0,0:0:0:0:
256,192,177496,1,8,0:0:0:0:
256,192,177646,1,8,0:0:0:0:
256,192,177796,1,8,0:0:0:0:
256,192,177871,1,0,0:0:0:0:
256,192,177946,1,0,0:0:0:0:
256,192,178021,1,0,0:0:0:0:
256,192,178096,1,8,0:0:0:0:
256,192,178171,1,8,0:0:0:0:
256,192,178246,1,8,0:0:0:0:
256,192,178321,1,0,0:0:0:0:
256,192,178396,1,8,0:0:0:0:
256,192,178471,1,8,0:0:0:0:
256,192,178546,1,0,0:0:0:0:
256,192,178621,1,0,0:0:0:0:
256,192,178696,1,8,0:0:0:0:
256,192,178771,1,8,0:0:0:0:
256,192,178846,1,8,0:0:0:0:
256,192,178921,1,0,0:0:0:0:
256,192,178996,1,8,0:0:0:0:
256,192,179071,1,8,0:0:0:0:
256,192,179146,1,0,0:0:0:0:
256,192,179221,1,0,0:0:0:0:
256,192,179296,1,8,0:0:0:0:
256,192,179371,1,0,0:0:0:0:
256,192,179446,1,0,0:0:0:0:
256,192,179521,1,0,0:0:0:0:
256,192,179596,1,8,0:0:0:0:
256,192,179671,1,0,0:0:0:0:
256,192,179746,1,0,0:0:0:0:
256,192,179821,1,0,0:0:0:0:
256,192,179896,1,8,0:0:0:0:
256,192,179971,1,8,0:0:0:0:
256,192,180046,1,8,0:0:0:0:
256,192,180121,1,0,0:0:0:0:
256,192,180196,1,8,0:0:0:0:
256,192,180271,1,8,0:0:0:0:
256,192,180346,1,0,0:0:0:0:
256,192,180421,1,0,0:0:0:0:
256,192,180496,1,8,0:0:0:0:
256,192,180571,1,0,0:0:0:0:
256,192,180646,1,0,0:0:0:0:
256,192,180721,1,0,0:0:0:0:
256,192,180796,1,8,0:0:0:0:
256,192,180871,1,8,0:0:0:0:
256,192,180946,1,0,0:0:0:0:
256,192,181021,1,0,0:0:0:0:
256,192,181096,1,8,0:0:0:0:
256,192,181171,1,8,0:0:0:0:
256,192,181246,1,8,0:0:0:0:
256,192,181321,1,0,0:0:0:0:
256,192,181396,1,8,0:0:0:0:
256,192,181471,1,8,0:0:0:0:
256,192,181546,1,8,0:0:0:0:
256,192,181621,1,0,0:0:0:0:
256,192,181696,1,8,0:0:0:0:
256,192,181771,1,0,0:0:0:0:
256,192,181846,1,0,0:0:0:0:
256,192,181921,1,0,0:0:0:0:
256,192,181996,1,8,0:0:0:0:
256,192,182071,1,8,0:0:0:0:
256,192,182146,1,0,0:0:0:0:
256,192,182221,1,0,0:0:0:0:
256,192,182296,1,8,0:0:0:0:
256,192,182371,1,0,0:0:0:0:
256,192,182446,1,0,0:0:0:0:
256,192,182521,1,8,0:0:0:0:
256,192,182596,1,8,0:0:0:0:
256,192,182671,1,8,0:0:0:0:
256,192,182746,1,0,0:0:0:0:
256,192,182821,1,0,0:0:0:0:
256,192,182896,1,8,0:0:0:0:
256,192,182971,1,0,0:0:0:0:
256,192,183046,1,0,0:0:0:0:
256,192,183121,1,0,0:0:0:0:
256,192,183196,1,8,0:0:0:0:
256,192,183271,1,8,0:0:0:0:
256,192,183346,1,0,0:0:0:0:
256,192,183421,1,8,0:0:0:0:
256,192,183496,1,8,0:0:0:0:
256,192,183571,1,8,0:0:0:0:
256,192,183646,1,0,0:0:0:0:
256,192,183721,1,0,0:0:0:0:
256,192,183796,1,8,0:0:0:0:
256,192,183871,1,8,0:0:0:0:
256,192,183946,1,0,0:0:0:0:
256,192,184021,1,0,0:0:0:0:
256,192,184096,1,8,0:0:0:0:
256,192,184171,1,0,0:0:0:0:
256,192,184246,1,0,0:0:0:0:
256,192,184321,1,0,0:0:0:0:
256,192,184396,1,8,0:0:0:0:
256,192,184471,1,8,0:0:0:0:
256,192,184546,1,0,0:0:0:0:
256,192,184621,1,0,0:0:0:0:
256,192,184696,1,8,0:0:0:0:
256,192,184771,1,8,0:0:0:0:
256,192,184846,1,0,0:0:0:0:
256,192,184921,1,0,0:0:0:0:
256,192,184996,1,8,0:0:0:0:
256,192,185071,1,0,0:0:0:0:
256,192,185146,1,0,0:0:0:0:
256,192,185221,1,0,0:0:0:0:
256,192,185296,1,8,0:0:0:0:
256,192,185371,1,8,0:0:0:0:
256,192,185446,1,8,0:0:0:0:
256,192,185521,1,0,0:0:0:0:
256,192,185596,1,8,0:0:0:0:
256,192,185671,1,0,0:0:0:0:
256,192,185746,1,0,0:0:0:0:
256,192,185821,1,8,0:0:0:0:
256,192,185896,1,8,0:0:0:0:
256,192,185971,1,8,0:0:0:0:
256,192,186046,1,0,0:0:0:0:
256,192,186121,1,0,0:0:0:0:
256,192,186196,1,8,0:0:0:0:
256,192,186271,1,8,0:0:0:0:
256,192,186346,1,8,0:0:0:0:
256,192,186421,1,0,0:0:0:0:
256,192,186496,1,8,0:0:0:0:
256,192,186571,1,0,0:0:0:0:
256,192,186646,1,0,0:0:0:0:
256,192,186721,1,0,0:0:0:0:
256,192,186796,1,8,0:0:0:0:
256,192,186871,1,0,0:0:0:0:
256,192,186946,1,8,0:0:0:0:
256,192,187021,1,0,0:0:0:0:
256,192,187096,1,8,0:0:0:0:
256,192,187171,1,8,0:0:0:0:
256,192,187246,1,0,0:0:0:0:
256,192,187321,1,0,0:0:0:0:
256,192,187396,1,8,0:0:0:0:
256,192,187546,1,8,0:0:0:0:
256,192,187696,1,0,0:0:0:0:
256,192,187771,1,0,0:0:0:0:
256,192,187846,1,8,0:0:0:0:
256,192,187996,1,8,0:0:0:0:
256,192,188071,1,8,0:0:0:0:
256,192,188146,1,0,0:0:0:0:
256,192,188221,1,0,0:0:0:0:
256,192,188296,1,8,0:0:0:0:
256,192,188371,1,0,0:0:0:0:
256,192,188446,1,0,0:0:0:0:
256,192,188521,1,0,0:0:0:0:
256,192,188596,1,8,0:0:0:0:
256,192,188671,1,8,0:0:0:0:
256,192,188746,1,8,0:0:0:0:
256,192,188821,1,0,0:0:0:0:
256,192,188896,1,8,0:0:0:0:
256,192,188971,1,0,0:0:0:0:
256,192,189046,1,0,0:0:0:0:
256,192,189121,1,0,0:0:0:0:
256,192,189196,1,8,0:0:0:0:
256,192,189271,1,0,0:0:0:0:
256,192,189346,1,8,0:0:0:0:
256,192,189421,1,8,0:0:0:0:
256,192,189496,1,8,0:0:0:0:
256,192,189571,1,0,0:0:0:0:
256,192,189646,1,0,0:0:0:0:
256,192,189721,1,0,0:0:0:0:
256,192,189796,1,8,0:0:0:0:
256,192,189871,1,8,0:0:0:0:
256,192,189946,1,0,0:0:0:0:
256,192,190021,1,0,0:0:0:0:
256,192,190096,1,8,0:0:0:0:
256,192,190171,1,0,0:0:0:0:
256,192,190246,1,0,0:0:0:0:
256,192,190321,1,0,0:0:0:0:
256,192,190396,1,8,0:0:0:0:
256,192,190471,1,8,0:0:0:0:
256,192,190546,1,0,0:0:0:0:
256,192,190621,1,0,0:0:0:0:
256,192,190696,1,8,0:0:0:0:
256,192,190771,1,8,0:0:0:0:
256,192,190846,1,8,0:0:0:0:
256,192,190921,1,0,0:0:0:0:
256,192,190996,1,8,0:0:0:0:
256,192,191071,1,8,0:0:0:0:
256,192,191146,1,0,0:0:0:0:
256,192,191221,1,0,0:0:0:0:
256,192,191296,1,8,0:0:0:0:
256,192,191371,1,0,0:0:0:0:
256,192,191446,1,0,0:0:0:0:
256,192,191521,1,0,0:0:0:0:
256,192,191596,1,8,0:0:0:0:
256,192,191671,1,0,0:0:0:0:
256,192,191746,1,0,0:0:0:0:
256,192,191821,1,8,0:0:0:0:
256,192,191896,1,8,0:0:0:0:
256,192,191971,1,0,0:0:0:0:
256,192,192046,1,0,0:0:0:0:
256,192,192121,1,0,0:0:0:0:
256,192,192196,1,8,0:0:0:0:
256,192,192271,1,8,0:0:0:0:
256,192,192346,1,8,0:0:0:0:
256,192,192421,1,0,0:0:0:0:
256,192,192496,1,8,0:0:0:0:
256,192,192571,1,0,0:0:0:0:
256,192,192646,1,0,0:0:0:0:
256,192,192721,1,0,0:0:0:0:
256,192,192796,1,8,0:0:0:0:
256,192,192871,1,8,0:0:0:0:
256,192,192946,1,0,0:0:0:0:
256,192,193021,1,0,0:0:0:0:
256,192,193096,1,8,0:0:0:0:
256,192,193171,1,8,0:0:0:0:
256,192,193246,1,8,0:0:0:0:
256,192,193321,1,0,0:0:0:0:
256,192,193396,1,8,0:0:0:0:
256,192,193471,1,8,0:0:0:0:
256,192,193546,1,0,0:0:0:0:
256,192,193621,1,0,0:0:0:0:
256,192,193696,1,8,0:0:0:0:
256,192,193771,1,0,0:0:0:0:
256,192,193846,1,0,0:0:0:0:
256,192,193921,1,0,0:0:0:0:
256,192,193996,1,8,0:0:0:0:
256,192,194071,1,0,0:0:0:0:
256,192,194146,1,0,0:0:0:0:
256,192,194221,1,0,0:0:0:0:
256,192,194296,1,8,0:0:0:0:
256,192,194371,1,8,0:0:0:0:
256,192,194446,1,0,0:0:0:0:
256,192,194521,1,0,0:0:0:0:
256,192,194596,1,8,0:0:0:0:
256,192,194671,1,0,0:0:0:0:
256,192,194746,1,8,0:0:0:0:
256,192,194821,1,0,0:0:0:0:
256,192,194896,1,8,0:0:0:0:
256,192,194971,1,0,0:0:0:0:
256,192,195046,1,0,0:0:0:0:
256,192,195121,1,0,0:0:0:0:
256,192,195196,1,8,0:0:0:0:
256,192,195271,1,0,0:0:0:0:
256,192,195346,1,0,0:0:0:0:
256,192,195421,1,8,0:0:0:0:
256,192,195496,1,8,0:0:0:0:
256,192,195571,1,8,0:0:0:0:
256,192,195646,1,0,0:0:0:0:
256,192,195721,1,0,0:0:0:0:
256,192,195796,1,8,0:0:0:0:
256,192,195871,1,8,0:0:0:0:
256,192,195946,1,8,0:0:0:0:
256,192,196021,1,0,0:0:0:0:
256,192,196096,1,0,0:0:0:0:
256,192,196171,1,0,0:0:0:0:
256,192,196246,1,0,0:0:0:0:
256,192,196321,1,0,0:0:0:0:
256,192,196396,1,8,0:0:0:0:
256,192,196471,1,0,0:0:0:0:
256,192,196546,1,0,0:0:0:0:
256,192,196621,1,0,0:0:0:0:
256,192,196696,1,8,0:0:0:0:
256,192,196771,1,8,0:0:0:0:
256,192,196846,1,0,0:0:0:0:
256,192,196921,1,8,0:0:0:0:
256,192,196996,1,0,0:0:0:0:
256,192,197071,1,0,0:0:0:0:
256,192,197146,1,0,0:0:0:0:
256,192,197221,1,0,0:0:0:0:
256,192,197296,1,8,0:0:0:0:
256,192,197371,1,8,0:0:0:0:
256,192,197446,1,8,0:0:0:0:
256,192,197521,1,0,0:0:0:0:
256,192,197596,1,8,0:0:0:0:
256,192,197671,1,8,0:0:0:0:
256,192,197746,1,8,0:0:0:0:
256,192,197821,1,8,0:0:0:0:
256,192,197896,1,0,0:0:0:0:
256,192,197971,1,0,0:0:0:0:
256,192,198046,1,0,0:0:0:0:
256,192,198121,1,0,0:0:0:0:
256,192,198196,1,8,0:0:0:0:
256,192,198346,1,0,0:0:0:0:
256,192,198496,1,8,0:0:0:0:
256,192,198571,1,0,0:0:0:0:
256,192,198646,1,0,0:0:0:0:
256,192,198796,1,0,0:0:0:0:
256,192,198946,1,8,0:0:0:0:
256,192,199096,1,8,0:0:0:0:
256,192,199246,1,0,0:0:0:0:
256,192,199321,1,0,0:0:0:0:
256,192,199396,1,8,0:0:0:0:
256,192,199546,1,0,0:0:0:0:
256,192,199696,1,8,0:0:0:0:
256,192,199846,1,8,0:0:0:0:
256,192,199996,1,8,0:0:0:0:
256,192,200071,1,0,0:0:0:0:
256,192,200146,1,0,0:0:0:0:
256,192,200296,1,0,0:0:0:0:
256,192,200446,1,0,0:0:0:0:
256,192,200521,1,0,0:0:0:0:
256,192,200596,1,8,0:0:0:0:
256,192,200746,1,0,0:0:0:0:
256,192,200896,1,0,0:0:0:0:
256,192,200971,1,0,0:0:0:0:
256,192,201046,1,8,0:0:0:0:
256,192,201196,1,0,0:0:0:0:
256,192,201346,1,8,0:0:0:0:
256,192,201496,1,8,0:0:0:0:
256,192,201571,1,0,0:0:0:0:
256,192,201646,1,0,0:0:0:0:
256,192,201796,1,8,0:0:0:0:
256,192,201871,1,8,0:0:0:0:
256,192,201946,1,8,0:0:0:0:
256,192,202021,1,0,0:0:0:0:
256,192,202096,1,8,0:0:0:0:
256,192,202246,1,0,0:0:0:0:
256,192,202396,1,8,0:0:0:0:
256,192,202546,1,8,0:0:0:0:
256,192,202696,1,8,0:0:0:0:
256,192,202771,1,0,0:0:0:0:
256,192,202846,1,0,0:0:0:0:
256,192,202921,1,0,0:0:0:0:
256,192,202996,1,8,0:0:0:0:
256,192,203146,1,0,0:0:0:0:
256,192,203296,1,8,0:0:0:0:
256,192,203446,1,8,0:0:0:0:
256,192,203596,1,0,0:0:0:0:
256,192,203671,1,0,0:0:0:0:
256,192,203746,1,8,0:0:0:0:
256,192,203896,1,8,0:0:0:0:
256,192,204046,1,0,0:0:0:0:
256,192,204196,1,8,0:0:0:0:
256,192,204271,1,0,0:0:0:0:
256,192,204346,1,0,0:0:0:0:
256,192,204496,1,8,0:0:0:0:
256,192,204646,1,0,0:0:0:0:
256,192,204796,1,0,0:0:0:0:
256,192,204946,1,8,0:0:0:0:
256,192,205096,1,8,0:0:0:0:
256,192,205171,1,0,0:0:0:0:
256,192,205246,1,0,0:0:0:0:
256,192,205396,1,8,0:0:0:0:
256,192,205546,1,0,0:0:0:0:
256,192,205696,1,8,0:0:0:0:
256,192,205771,1,0,0:0:0:0:
256,192,205846,1,0,0:0:0:0:
256,192,205996,1,0,0:0:0:0:
256,192,206146,1,8,0:0:0:0:
256,192,206296,1,0,0:0:0:0:
256,192,206446,1,0,0:0:0:0:
256,192,206596,1,8,0:0:0:0:
256,192,206671,1,8,0:0:0:0:
256,192,206746,1,0,0:0:0:0:
256,192,206821,1,0,0:0:0:0:
256,192,206896,1,8,0:0:0:0:
256,192,206971,1,8,0:0:0:0:
256,192,207046,1,8,0:0:0:0:
256,192,207121,1,0,0:0:0:0:
256,192,207196,1,0,0:0:0:0:
256,192,207271,1,8,0:0:0:0:
256,192,207346,1,8,0:0:0:0:
256,192,207421,1,8,0:0:0:0:
256,192,207496,1,0,0:0:0:0:
256,192,207571,1,0,0:0:0:0:
256,192,207646,1,0,0:0:0:0:
256,192,207721,1,0,0:0:0:0:
256,192,207796,1,8,0:0:0:0:
256,192,207946,1,0,0:0:0:0:
256,192,208096,1,8,0:0:0:0:
256,192,208171,1,0,0:0:0:0:
256,192,208246,1,0,0:0:0:0:
256,192,208396,1,0,0:0:0:0:
256,192,208546,1,8,0:0:0:0:
256,192,208696,1,0,0:0:0:0:
256,192,208771,1,0,0:0:0:0:
256,192,208846,1,0,0:0:0:0:
256,192,208996,1,8,0:0:0:0:
256,192,209146,1,8,0:0:0:0:
256,192,209296,1,0,0:0:0:0:
256,192,209371,1,0,0:0:0:0:
256,192,209446,1,0,0:0:0:0:
256,192,209596,1,0,0:0:0:0:
256,192,209746,1,0,0:0:0:0:
256,192,209896,1,8,0:0:0:0:
256,192,209971,1,0,0:0:0:0:
256,192,210046,1,0,0:0:0:0:
256,192,210121,1,0,0:0:0:0:
256,192,210196,1,8,0:0:0:0:
256,192,210346,1,0,0:0:0:0:
256,192,210496,1,0,0:0:0:0:
256,192,210571,1,0,0:0:0:0:
256,192,210646,1,8,0:0:0:0:
256,192,210796,1,0,0:0:0:0:
256,192,210946,1,8,0:0:0:0:
256,192,211096,1,8,0:0:0:0:
256,192,211246,1,8,0:0:0:0:
256,192,211321,1,0,0:0:0:0:
256,192,211396,1,0,0:0:0:0:
256,192,211546,1,8,0:0:0:0:
256,192,211696,1,8,0:0:0:0:
256,192,211771,1,0,0:0:0:0:
256,192,211846,1,0,0:0:0:0:
256,192,211996,1,0,0:0:0:0:
256,192,212071,1,0,0:0:0:0:
256,192,212146,1,0,0:0:0:0:
256,192,212221,1,0,0:0:0:0:
256,192,212296,1,8,0:0:0:0:
256,192,212371,1,8,0:0:0:0:
256,192,212446,1,0,0:0:0:0:
256,192,212521,1,0,0:0:0:0:
256,192,212596,1,8,0:0:0:0:
256,192,212746,1,8,0:0:0:0:
256,192,212896,1,8,0:0:0:0:
256,192,212971,1,0,0:0:0:0:
256,192,213046,1,0,0:0:0:0:
256,192,213196,1,8,0:0:0:0:
256,192,213346,1,0,0:0:0:0:
256,192,213496,1,0,0:0:0:0:
256,192,213571,1,0,0:0:0:0:
256,192,213646,1,8,0:0:0:0:
256,192,213796,1,8,0:0:0:0:
256,192,213946,1,0,0:0:0:0:
256,192,214021,1,0,0:0:0:0:
256,192,214096,1,8,0:0:0:0:
256,192,214171,1,0,0:0:0:0:
256,192,214246,1,0,0:0:0:0:
256,192,214321,1,0,0:0:0:0:
256,192,214396,1,8,0:0:0:0:
256,192,214471,1,0,0:0:0:0:
256,192,214546,1,0,0:0:0:0:
256,192,214621,1,0,0:0:0:0:
256,192,214696,1,8,0:0:0:0:
256,192,214771,1,8,0:0:0:0:
256,192,214846,1,0,0:0:0:0:
256,192,214921,1,0,0:0:0:0:
256,192,214996,1,8,0:0:0:0:
256,192,215071,1,8,0:0:0:0:
256,192,215146,1,0,0:0:0:0:
256,192,215221,1,0,0:0:0:0:
256,192,215296,1,8,0:0:0:0:
256,192,215371,1,0,0:0:0:0:
256,192,215446,1,0,0:0:0:0:
256,192,215521,1,8,0:0:0:0:
256,192,215596,1,8,0:0:0:0:
256,192,215671,1,8,0:0:0:0:
256,192,215746,1,0,0:0:0:0:
256,192,215821,1,8,0:0:0:0:
256,192,215896,1,8,0:0:0:0:
256,192,215971,1,8,0:0:0:0:
256,192,216046,1,0,0:0:0:0:
256,192,216121,1,0,0:0:0:0:
256,192,216196,1,0,0:0:0:0:
256,192,216271,1,0,0:0:0:0:
256,192,216346,1,0,0:0:0:0:
256,192,216421,1,0,0:0:0:0:
256,192,216496,1,8,0:0:0:0:
256,192,216571,1,8,0:0:0:0:
256,192,216646,1,8,0:0:0:0:
256,192,216721,1,8,0:0:0:0:
256,192,216796,1,0,0:0:0:0:
256,192,216871,1,0,0:0:0:0:
256,192,216946,1,0,0:0:0:0:
256,192,217021,1,0,0:0:0:0:
256,192,217096,1,8,0:0:0:0:
256,192,217171,1,0,0:0:0:0:
256,192,217246,1,0,0:0:0:0:
256,192,217321,1,0,0:0:0:0:
256,192,217396,1,12,0:0:0:0:
256,192,219796,1,12,0:0:0:0:
256,192,221396,1,8,0:0:0:0:
256,192,221446,1,0,0:0:0:0:
256,192,221496,1,0,0:0:0:0:
256,192,221596,1,12,0:0:0:0:
256,192,221746,1,4,0:0:0:0:
256,192,222046,1,0,0:0:0:0:
256,192,222196,1,12,0:0:0:0:
256,192,224096,1,0,0:0:0:0:
256,192,224146,1,0,0:0:0:0:
256,192,224196,1,0,0:0:0:0:
256,192,224296,1,8,0:0:0:0:
256,192,224446,1,0,0:0:0:0:
256,192,224596,1,12,0:0:0:0:
256,192,225646,1,0,0:0:0:0:
256,192,225721,1,0,0:0:0:0:
256,192,225796,1,8,0:0:0:0:
256,192,226096,1,8,0:0:0:0:
256,192,226246,1,8,0:0:0:0:
256,192,226396,1,0,0:0:0:0:
256,192,226546,1,8,0:0:0:0:
256,192,226696,1,8,0:0:0:0:
256,192,226771,1,8,0:0:0:0:
256,192,226846,1,8,0:0:0:0:
256,192,226921,1,0,0:0:0:0:
256,192,226996,1,12,0:0:0:0:
256,192,228946,1,0,0:0:0:0:
256,192,229021,1,0,0:0:0:0:
256,192,229096,1,8,0:0:0:0:
256,192,229396,1,12,0:0:0:0:
256,192,230996,1,0,0:0:0:0:
256,192,231046,1,0,0:0:0:0:
256,192,231096,1,0,0:0:0:0:
256,192,231146,1,8,0:0:0:0:
256,192,231346,1,8,0:0:0:0:
256,192,231796,1,12,0:0:0:0:
256,192,233696,1,0,0:0:0:0:
256,192,233746,1,0,0:0:0:0:
256,192,233796,1,0,0:0:0:0:
256,192,233846,1,0,0:0:0:0:
256,192,233896,1,8,0:0:0:0:
256,192,234046,1,0,0:0:0:0:
256,192,234196,1,12,0:0:0:0:
256,192,235246,1,8,0:0:0:0:
256,192,235296,1,0,0:0:0:0:
256,192,235396,1,12,0:0:0:0:
256,192,235696,1,8,0:0:0:0:
256,192,235996,1,4,0:0:0:0:
256,192,236296,1,12,0:0:0:0:
256,192,236596,1,8,0:0:0:0:
256,192,236671,1,8,0:0:0:0:
256,192,236746,1,8,0:0:0:0:
256,192,236821,1,8,0:0:0:0:
256,192,236896,1,0,0:0:0:0:
256,192,236971,1,8,0:0:0:0:
256,192,237046,1,8,0:0:0:0:
256,192,237121,1,8,0:0:0:0:
256,192,237196,1,8,0:0:0:0:
256,192,237271,1,0,0:0:0:0:
256,192,237346,1,0,0:0:0:0:
256,192,237421,1,8,0:0:0:0:
256,192,237496,1,8,0:0:0:0:
256,192,237571,1,8,0:0:0:0:
256,192,237646,1,0,0:0:0:0:
256,192,237721,1,0,0:0:0:0:
256,192,237796,1,8,0:0:0:0:
256,192,237871,1,8,0:0:0:0:
256,192,237946,1,0,0:0:0:0:
256,192,238021,1,8,0:0:0:0:
256,192,238096,1,8,0:0:0:0:
256,192,238171,1,8,0:0:0:0:
256,192,238246,1,0,0:0:0:0:
256,192,238321,1,8,0:0:0:0:
256,192,238396,1,8,0:0:0:0:
256,192,238471,1,8,0:0:0:0:
256,192,238546,1,0,0:0:0:0:
256,192,238621,1,8,0:0:0:0:
256,192,238696,1,8,0:0:0:0:
256,192,238771,1,8,0:0:0:0:
256,192,238846,1,8,0:0:0:0:
256,192,238921,1,0,0:0:0:0:
256,192,238996,1,8,0:0:0:0:
256,192,239071,1,0,0:0:0:0:
256,192,239146,1,8,0:0:0:0:
256,192,239221,1,8,0:0:0:0:
256,192,239296,1,0,0:0:0:0:
256,192,239371,1,0,0:0:0:0:
256,192,239446,1,0,0:0:0:0:
256,192,239521,1,8,0:0:0:0:
256,192,239596,1,0,0:0:0:0:
256,192,239671,1,8,0:0:0:0:
256,192,239746,1,0,0:0:0:0:
256,192,239821,1,0,0:0:0:0:
256,192,239896,1,8,0:0:0:0:
256,192,239971,1,8,0:0:0:0:
256,192,240046,1,0,0:0:0:0:
256,192,240121,1,8,0:0:0:0:
256,192,240196,1,0,0:0:0:0:
256,192,240271,1,8,0:0:0:0:
256,192,240346,1,8,0:0:0:0:
256,192,240421,1,0,0:0:0:0:
256,192,240496,1,0,0:0:0:0:
256,192,240571,1,0,0:0:0:0:
256,192,240646,1,8,0:0:0:0:
256,192,240721,1,8,0:0:0:0:
256,192,240796,1,8,0:0:0:0:
256,192,240871,1,0,0:0:0:0:
256,192,240946,1,0,0:0:0:0:
256,192,241021,1,8,0:0:0:0:
256,192,241096,1,8,0:0:0:0:
256,192,241171,1,8,0:0:0:0:
256,192,241246,1,0,0:0:0:0:
256,192,241321,1,0,0:0:0:0:
256,192,241396,1,8,0:0:0:0:
256,192,241471,1,8,0:0:0:0:
256,192,241546,1,0,0:0:0:0:
256,192,241621,1,8,0:0:0:0:
256,192,241696,1,0,0:0:0:0:
256,192,241771,1,0,0:0:0:0:
256,192,241846,1,8,0:0:0:0:
256,192,241921,1,8,0:0:0:0:
256,192,241996,1,8,0:0:0:0:
256,192,242071,1,8,0:0:0:0:
256,192,242146,1,0,0:0:0:0:
256,192,242221,1,0,0:0:0:0:
256,192,242296,1,8,0:0:0:0:
256,192,242371,1,0,0:0:0:0:
256,192,242446,1,8,0:0:0:0:
256,192,242521,1,0,0:0:0:0:
256,192,242596,1,8,0:0:0:0:
256,192,242671,1,8,0:0:0:0:
256,192,242746,1,8,0:0:0:0:
256,192,242821,1,0,0:0:0:0:
256,192,242896,1,0,0:0:0:0:
256,192,242971,1,0,0:0:0:0:
256,192,243046,1,8,0:0:0:0:
256,192,243121,1,0,0:0:0:0:
256,192,243196,1,8,0:0:0:0:
256,192,243271,1,8,0:0:0:0:
256,192,243346,1,8,0:0:0:0:
256,192,243421,1,0,0:0:0:0:
256,192,243496,1,8,0:0:0:0:
256,192,243571,1,8,0:0:0:0:
256,192,243646,1,0,0:0:0:0:
256,192,243721,1,8,0:0:0:0:
256,192,243796,1,8,0:0:0:0:
256,192,243871,1,0,0:0:0:0:
256,192,243946,1,0,0:0:0:0:
256,192,244021,1,0,0:0:0:0:
256,192,244096,1,8,0:0:0:0:
256,192,244171,1,8,0:0:0:0:
256,192,244246,1,0,0:0:0:0:
256,192,244321,1,0,0:0:0:0:
256,192,244396,1,8,0:0:0:0:
256,192,244471,1,8,0:0:0:0:
256,192,244546,1,0,0:0:0:0:
256,192,244621,1,8,0:0:0:0:
256,192,244696,1,8,0:0:0:0:
256,192,244771,1,8,0:0:0:0:
256,192,244846,1,0,0:0:0:0:
256,192,244921,1,0,0:0:0:0:
256,192,244996,1,8,0:0:0:0:
256,192,245071,1,0,0:0:0:0:
256,192,245146,1,0,0:0:0:0:
256,192,245221,1,0,0:0:0:0:
256,192,245296,1,8,0:0:0:0:
256,192,245371,1,8,0:0:0:0:
256,192,245446,1,8,0:0:0:0:
256,192,245521,1,0,0:0:0:0:
256,192,245596,1,8,0:0:0:0:
256,192,245671,1,0,0:0:0:0:
256,192,245746,1,0,0:0:0:0:
256,192,245821,1,0,0:0:0:0:
256,192,245896,1,8,0:0:0:0:
256,192,245971,1,8,0:0:0:0:
256,192,246046,1,8,0:0:0:0:
256,192,246121,1,0,0:0:0:0:
256,192,246196,1,8,0:0:0:0:
256,192,246271,1,8,0:0:0:0:
256,192,246346,1,8,0:0:0:0:
256,192,246421,1,0,0:0:0:0:
256,192,246496,1,8,0:0:0:0:
256,192,246571,1,8,0:0:0:0:
256,192,246646,1,0,0:0:0:0:
256,192,246721,1,0,0:0:0:0:
256,192,246796,1,8,0:0:0:0:
256,192,246871,1,8,0:0:0:0:
256,192,246946,1,8,0:0:0:0:
256,192,247021,1,0,0:0:0:0:
256,192,247096,1,0,0:0:0:0:
256,192,247171,1,8,0:0:0:0:
256,192,247246,1,0,0:0:0:0:
256,192,247321,1,0,0:0:0:0:
256,192,247396,1,8,0:0:0:0:
256,192,247471,1,8,0:0:0:0:
256,192,247546,1,8,0:0:0:0:
256,192,247621,1,0,0:0:0:0:
256,192,247696,1,8,0:0:0:0:
256,192,247771,1,0,0:0:0:0:
256,192,247846,1,0,0:0:0:0:
256,192,247921,1,0,0:0:0:0:
256,192,247996,1,8,0:0:0:0:
256,192,248071,1,8,0:0:0:0:
256,192,248146,1,8,0:0:0:0:
256,192,248221,1,0,0:0:0:0:
256,192,248296,1,8,0:0:0:0:
256,192,248371,1,8,0:0:0:0:
256,192,248446,1,0,0:0:0:0:
256,192,248521,1,0,0:0:0:0:
256,192,248596,1,8,0:0:0:0:
256,192,248671,1,8,0:0:0:0:
256,192,248746,1,0,0:0:0:0:
256,192,248821,1,0,0:0:0:0:
256,192,248896,1,8,0:0:0:0:
256,192,248971,1,8,0:0:0:0:
256,192,249046,1,8,0:0:0:0:
256,192,249121,1,0,0:0:0:0:
256,192,249196,1,0,0:0:0:0:
256,192,249271,1,8,0:0:0:0:
256,192,249346,1,8,0:0:0:0:
256,192,249421,1,8,0:0:0:0:
256,192,249496,1,0,0:0:0:0:
256,192,249571,1,8,0:0:0:0:
256,192,249646,1,0,0:0:0:0:
256,192,249721,1,0,0:0:0:0:
256,192,249796,1,8,0:0:0:0:
256,192,249871,1,8,0:0:0:0:
256,192,249946,1,0,0:0:0:0:
256,192,250021,1,0,0:0:0:0:
256,192,250096,1,8,0:0:0:0:
256,192,250171,1,8,0:0:0:0:
256,192,250246,1,8,0:0:0:0:
256,192,250321,1,0,0:0:0:0:
256,192,250396,1,8,0:0:0:0:
256,192,250471,1,8,0:0:0:0:
256,192,250546,1,8,0:0:0:0:
256,192,250621,1,0,0:0:0:0:
256,192,250696,1,8,0:0:0:0:
256,192,250771,1,8,0:0:0:0:
256,192,250846,1,0,0:0:0:0:
256,192,250921,1,0,0:0:0:0:
256,192,250996,1,8,0:0:0:0:
256,192,251071,1,8,0:0:0:0:
256,192,251146,1,8,0:0:0:0:
256,192,251221,1,0,0:0:0:0:
256,192,251296,1,0,0:0:0:0:
256,192,251371,1,8,0:0:0:0:
256,192,251446,1,0,0:0:0:0:
256,192,251521,1,0,0:0:0:0:
256,192,251596,1,8,0:0:0:0:
256,192,251671,1,8,0:0:0:0:
256,192,251746,1,8,0:0:0:0:
256,192,251821,1,0,0:0:0:0:
256,192,251896,1,0,0:0:0:0:
256,192,251971,1,0,0:0:0:0:
256,192,252046,1,0,0:0:0:0:
256,192,252121,1,8,0:0:0:0:
256,192,252196,1,8,0:0:0:0:
256,192,252271,1,8,0:0:0:0:
256,192,252346,1,0,0:0:0:0:
256,192,252421,1,8,0:0:0:0:
256,192,252496,1,8,0:0:0:0:
256,192,252571,1,0,0:0:0:0:
256,192,252646,1,0,0:0:0:0:
256,192,252721,1,0,0:0:0:0:
256,192,252796,1,8,0:0:0:0:
256,192,252871,1,8,0:0:0:0:
256,192,252946,1,0,0:0:0:0:
256,192,253021,1,0,0:0:0:0:
256,192,253096,1,8,0:0:0:0:
256,192,253171,1,8,0:0:0:0:
256,192,253246,1,8,0:0:0:0:
256,192,253321,1,0,0:0:0:0:
256,192,253396,1,8,0:0:0:0:
256,192,253471,1,8,0:0:0:0:
256,192,253546,1,0,0:0:0:0:
256,192,253621,1,8,0:0:0:0:
256,192,253696,1,0,0:0:0:0:
256,192,253771,1,0,0:0:0:0:
256,192,253846,1,8,0:0:0:0:
256,192,253921,1,8,0:0:0:0:
256,192,253996,1,8,0:0:0:0:
256,192,254071,1,0,0:0:0:0:
256,192,254146,1,0,0:0:0:0:
256,192,254221,1,8,0:0:0:0:
256,192,254296,1,8,0:0:0:0:
256,192,254371,1,0,0:0:0:0:
256,192,254446,1,0,0:0:0:0:
256,192,254521,1,0,0:0:0:0:
256,192,254596,1,8,0:0:0:0:
256,192,254671,1,0,0:0:0:0:
256,192,254746,1,0,0:0:0:0:
256,192,254821,1,0,0:0:0:0:
256,192,254896,1,8,0:0:0:0:
256,192,254971,1,8,0:0:0:0:
256,192,255046,1,8,0:0:0:0:
256,192,255121,1,0,0:0:0:0:
256,192,255196,1,0,0:0:0:0:
256,192,255271,1,0,0:0:0:0:
256,192,255346,1,8,0:0:0:0:
256,192,255421,1,8,0:0:0:0:
256,192,255496,1,8,0:0:0:0:
256,192,255571,1,8,0:0:0:0:
256,192,255646,1,0,0:0:0:0:
256,192,255721,1,0,0:0:0:0:
256,192,255796,1,8,0:0:0:0:
256,192,255946,1,0,0:0:0:0:
256,192,256021,1,0,0:0:0:0:
256,192,256096,1,8,0:0:0:0:
256,192,256246,1,8,0:0:0:0:
256,192,256396,1,8,0:0:0:0:
256,192,256471,1,8,0:0:0:0:
256,192,256546,1,0,0:0:0:0:
256,192,256621,1,0,0:0:0:0:
256,192,256696,1,8,0:0:0:0:
256,192,256771,1,0,0:0:0:0:
256,192,256846,1,0,0:0:0:0:
256,192,256996,1,8,0:0:0:0:
256,192,257071,1,0,0:0:0:0:
256,192,257146,1,0,0:0:0:0:
256,192,257296,1,8,0:0:0:0:
256,192,257371,1,0,0:0:0:0:
256,192,257446,1,8,0:0:0:0:
256,192,257521,1,8,0:0:0:0:
256,192,257596,1,8,0:0:0:0:
256,192,257671,1,0,0:0:0:0:
256,192,257746,1,0,0:0:0:0:
256,192,257821,1,0,0:0:0:0:
256,192,257896,1,8,0:0:0:0:
256,192,257971,1,0,0:0:0:0:
256,192,258046,1,0,0:0:0:0:
256,192,258196,1,8,0:0:0:0:
256,192,258346,1,8,0:0:0:0:
256,192,258496,1,8,0:0:0:0:
256,192,258571,1,0,0:0:0:0:
256,192,258646,1,0,0:0:0:0:
256,192,258721,1,0,0:0:0:0:
256,192,258796,1,8,0:0:0:0:
256,192,258871,1,0,0:0:0:0:
256,192,258946,1,0,0:0:0:0:
256,192,259096,1,8,0:0:0:0:
256,192,259246,1,8,0:0:0:0:
256,192,259396,1,8,0:0:0:0:
256,192,259471,1,0,0:0:0:0:
256,192,259546,1,0,0:0:0:0:
256,192,259621,1,0,0:0:0:0:
256,192,259696,1,8,0:0:0:0:
256,192,259846,1,0,0:0:0:0:
256,192,259996,1,8,0:0:0:0:
256,192,260071,1,0,0:0:0:0:
256,192,260146,1,0,0:0:0:0:
256,192,260221,1,0,0:0:0:0:
256,192,260296,1,8,0:0:0:0:
256,192,260371,1,8,0:0:0:0:
256,192,260446,1,8,0:0:0:0:
256,192,260521,1,0,0:0:0:0:
256,192,260596,1,8,0:0:0:0:
256,192,260746,1,0,0:0:0:0:
256,192,260896,1,8,0:0:0:0:
256,192,260971,1,8,0:0:0:0:
256,192,261046,1,8,0:0:0:0:
256,192,261196,1,8,0:0:0:0:
256,192,261346,1,0,0:0:0:0:
256,192,261496,1,8,0:0:0:0:
256,192,261571,1,0,0:0:0:0:
256,192,261646,1,0,0:0:0:0:
256,192,261721,1,0,0:0:0:0:
256,192,261796,1,8,0:0:0:0:
256,192,261946,1,8,0:0:0:0:
256,192,262096,1,8,0:0:0:0:
256,192,262171,1,0,0:0:0:0:
256,192,262246,1,0,0:0:0:0:
256,192,262396,1,0,0:0:0:0:
256,192,262546,1,8,0:0:0:0:
256,192,262621,1,0,0:0:0:0:
256,192,262696,1,8,0:0:0:0:
256,192,262771,1,0,0:0:0:0:
256,192,262846,1,0,0:0:0:0:
256,192,262921,1,0,0:0:0:0:
256,192,262996,1,8,0:0:0:0:
256,192,263071,1,0,0:0:0:0:
256,192,263146,1,8,0:0:0:0:
256,192,263221,1,0,0:0:0:0:
256,192,263296,1,8,0:0:0:0:
256,192,263371,1,0,0:0:0:0:
256,192,263446,1,8,0:0:0:0:
256,192,263521,1,0,0:0:0:0:
256,192,263596,1,8,0:0:0:0:
256,192,263671,1,0,0:0:0:0:
256,192,263746,1,8,0:0:0:0:
256,192,263821,1,8,0:0:0:0:
256,192,263896,1,8,0:0:0:0:
256,192,263971,1,0,0:0:0:0:
256,192,264046,1,8,0:0:0:0:
256,192,264121,1,8,0:0:0:0:
256,192,264196,1,0,0:0:0:0:
256,192,264271,1,8,0:0:0:0:
256,192,264346,1,8,0:0:0:0:
256,192,264421,1,0,0:0:0:0:
256,192,264496,1,8,0:0:0:0:
256,192,264571,1,0,0:0:0:0:
256,192,264646,1,0,0:0:0:0:
256,192,264721,1,0,0:0:0:0:
256,192,264796,1,8,0:0:0:0:
256,192,264871,1,8,0:0:0:0:
256,192,264946,1,0,0:0:0:0:
256,192,265021,1,0,0:0:0:0:
256,192,265096,1,8,0:0:0:0:
256,192,265171,1,0,0:0:0:0:
256,192,265246,1,0,0:0:0:0:
256,192,265321,1,0,0:0:0:0:
256,192,265396,1,8,0:0:0:0:
256,192,265471,1,8,0:0:0:0:
256,192,265546,1,8,0:0:0:0:
256,192,265621,1,0,0:0:0:0:
256,192,265696,1,8,0:0:0:0:
256,192,265771,1,8,0:0:0:0:
256,192,265846,1,0,0:0:0:0:
256,192,265921,1,0,0:0:0:0:
256,192,265996,1,8,0:0:0:0:
256,192,266071,1,8,0:0:0:0:
256,192,266146,1,8,0:0:0:0:
256,192,266221,1,0,0:0:0:0:
256,192,266296,1,8,0:0:0:0:
256,192,266371,1,8,0:0:0:0:
256,192,266446,1,0,0:0:0:0:
256,192,266521,1,0,0:0:0:0:
256,192,266596,1,8,0:0:0:0:
256,192,266671,1,8,0:0:0:0:
256,192,266746,1,0,0:0:0:0:
256,192,266821,1,8,0:0:0:0:
256,192,266896,1,8,0:0:0:0:
256,192,266971,1,0,0:0:0:0:
256,192,267046,1,8,0:0:0:0:
256,192,267121,1,8,0:0:0:0:
256,192,267196,1,8,0:0:0:0:
256,192,267271,1,0,0:0:0:0:
256,192,267346,1,0,0:0:0:0:
256,192,267421,1,0,0:0:0:0:
256,192,267496,2,0,L|384:192,1,104.999997496605
256,192,267796,1,8,0:0:0:0:
256,192,267871,1,8,0:0:0:0:
256,192,267946,1,0,0:0:0:0:
256,192,268021,1,8,0:0:0:0:
256,192,268096,1,8,0:0:0:0:
256,192,268171,1,8,0:0:0:0:
256,192,268246,1,0,0:0:0:0:
256,192,268321,1,8,0:0:0:0:
256,192,268396,1,8,0:0:0:0:
256,192,268471,1,8,0:0:0:0:
256,192,268546,1,0,0:0:0:0:
256,192,268621,1,8,0:0:0:0:
256,192,268696,1,8,0:0:0:0:
256,192,268771,1,0,0:0:0:0:
256,192,268846,1,0,0:0:0:0:
256,192,268921,1,0,0:0:0:0:
256,192,268996,1,8,0:0:0:0:
256,192,269071,1,8,0:0:0:0:
256,192,269146,1,8,0:0:0:0:
256,192,269221,1,0,0:0:0:0:
256,192,269296,1,8,0:0:0:0:
256,192,269371,1,8,0:0:0:0:
256,192,269446,1,0,0:0:0:0:
256,192,269521,1,0,0:0:0:0:
256,192,269596,1,8,0:0:0:0:
256,192,269671,1,8,0:0:0:0:
256,192,269746,1,0,0:0:0:0:
256,192,269821,1,0,0:0:0:0:
256,192,269896,2,0,L|128:192,1,104.999997496605
256,192,270196,1,8,0:0:0:0:
256,192,270271,1,8,0:0:0:0:
256,192,270346,1,8,0:0:0:0:
256,192,270421,1,0,0:0:0:0:
256,192,270496,1,8,0:0:0:0:
256,192,270571,1,0,0:0:0:0:
256,192,270646,1,0,0:0:0:0:
256,192,270721,1,0,0:0:0:0:
256,192,270796,1,8,0:0:0:0:
256,192,270871,1,8,0:0:0:0:
256,192,270946,1,0,0:0:0:0:
256,192,271021,1,0,0:0:0:0:
256,192,271096,1,8,0:0:0:0:
256,192,271171,1,0,0:0:0:0:
256,192,271246,1,8,0:0:0:0:
256,192,271321,1,8,0:0:0:0:
256,192,271396,1,8,0:0:0:0:
256,192,271471,1,8,0:0:0:0:
256,192,271546,1,0,0:0:0:0:
256,192,271621,1,0,0:0:0:0:
256,192,271696,1,8,0:0:0:0:
256,192,271771,1,8,0:0:0:0:
256,192,271846,1,0,0:0:0:0:
256,192,271921,1,0,0:0:0:0:
256,192,271996,1,8,0:0:0:0:
256,192,272071,1,0,0:0:0:0:
256,192,272146,1,8,0:0:0:0:
256,192,272221,1,0,0:0:0:0:
256,192,272296,2,0,L|256:64,1,104.999997496605
256,192,272596,1,8,0:0:0:0:
256,192,272671,1,8,0:0:0:0:
256,192,272746,1,8,0:0:0:0:
256,192,272821,1,0,0:0:0:0:
256,192,272896,1,0,0:0:0:0:
256,192,272971,1,0,0:0:0:0:
256,192,273046,1,8,0:0:0:0:
256,192,273121,1,8,0:0:0:0:
256,192,273196,1,8,0:0:0:0:
256,192,273271,1,0,0:0:0:0:
256,192,273346,1,8,0:0:0:0:
256,192,273421,1,8,0:0:0:0:
256,192,273496,1,0,0:0:0:0:
256,192,273571,1,0,0:0:0:0:
256,192,273646,1,0,0:0:0:0:
256,192,273721,1,8,0:0:0:0:
256,192,273796,1,8,0:0:0:0:
256,192,273871,1,0,0:0:0:0:
256,192,273946,1,8,0:0:0:0:
256,192,274021,1,8,0:0:0:0:
256,192,274096,1,0,0:0:0:0:
256,192,274171,1,0,0:0:0:0:
256,192,274246,1,0,0:0:0:0:
256,192,274321,1,8,0:0:0:0:
256,192,274396,2,0,L|256:320,1,104.999997496605
256,192,274696,2,0,L|352:96,1,120.749999424219
256,192,274996,1,8,0:0:0:0:
256,192,275071,1,8,0:0:0:0:
256,192,275146,1,8,0:0:0:0:
256,192,275221,1,0,0:0:0:0:
256,192,275296,1,0,0:0:0:0:
256,192,275371,1,8,0:0:0:0:
256,192,275446,1,0,0:0:0:0:
256,192,275521,1,8,0:0:0:0:
256,192,275596,1,8,0:0:0:0:
256,192,275671,1,8,0:0:0:0:
256,192,275746,1,0,0:0:0:0:
256,192,275821,1,0,0:0:0:0:
256,192,275896,1,8,0:0:0:0:
256,192,275971,1,8,0:0:0:0:
256,192,276046,1,0,0:0:0:0:
256,192,276121,1,8,0:0:0:0:
256,192,276196,1,8,0:0:0:0:
256,192,276271,1,0,0:0:0:0:
256,192,276346,1,8,0:0:0:0:
256,192,276421,1,8,0:0:0:0:
256,192,276496,1,0,0:0:0:0:
256,192,276571,1,0,0:0:0:0:
256,192,276646,1,0,0:0:0:0:
256,192,276721,1,8,0:0:0:0:
256,192,276796,1,8,0:0:0:0:
256,192,276871,1,0,0:0:0:0:
256,192,276946,1,0,0:0:0:0:
256,192,277021,1,0,0:0:0:0:
256,192,277096,2,0,L|160:96,1,104.999997496605
256,192,277396,1,8,0:0:0:0:
256,192,277471,1,8,0:0:0:0:
256,192,277546,1,8,0:0:0:0:
256,192,277621,1,0,0:0:0:0:
256,192,277696,1,8,0:0:0:0:
256,192,277771,1,8,0:0:0:0:
256,192,277846,1,0,0:0:0:0:
256,192,277921,1,0,0:0:0:0:
256,192,277996,1,8,0:0:0:0:
256,192,278071,1,8,0:0:0:0:
256,192,278146,1,0,0:0:0:0:
256,192,278221,1,0,0:0:0:0:
256,192,278296,1,8,0:0:0:0:
256,192,278371,1,0,0:0:0:0:
256,192,278446,1,0,0:0:0:0:
256,192,278521,1,0,0:0:0:0:
256,192,278596,1,8,0:0:0:0:
256,192,278671,1,8,0:0:0:0:
256,192,278746,1,0,0:0:0:0:
256,192,278821,1,8,0:0:0:0:
256,192,278896,1,8,0:0:0:0:
256,192,278971,1,0,0:0:0:0:
256,192,279046,1,8,0:0:0:0:
256,192,279121,1,0,0:0:0:0:
256,192,279196,1,0,0:0:0:0:
256,192,279271,1,8,0:0:0:0:
256,192,279346,1,8,0:0:0:0:
256,192,279421,1,8,0:0:0:0:
256,192,279496,2,0,L|160:288,1,104.999997496605
256,192,279796,1,8,0:0:0:0:
256,192,279871,1,8,0:0:0:0:
256,192,279946,1,8,0:0:0:0:
256,192,280021,1,0,0:0:0:0:
256,192,280096,1,8,0:0:0:0:
256,192,280171,1,0,0:0:0:0:
256,192,280246,1,0,0:0:0:0:
256,192,280321,1,8,0:0:0:0:
256,192,280396,1,8,0:0:0:0:
256,192,280471,1,0,0:0:0:0:
256,192,280546,1,0,0:0:0:0:
256,192,280621,1,8,0:0:0:0:
256,192,280696,1,8,0:0:0:0:
256,192,280771,1,0,0:0:0:0:
256,192,280846,1,0,0:0:0:0:
256,192,280921,1,8,0:0:0:0:
256,192,280996,1,8,0:0:0:0:
256,192,281071,1,8,0:0:0:0:
256,192,281146,1,0,0:0:0:0:
256,192,281221,1,8,0:0:0:0:
256,192,281296,1,8,0:0:0:0:
256,192,281371,1,8,0:0:0:0:
256,192,281446,1,0,0:0:0:0:
256,192,281521,1,0,0:0:0:0:
256,192,281596,1,8,0:0:0:0:
256,192,281671,1,8,0:0:0:0:
256,192,281746,1,8,0:0:0:0:
256,192,281821,1,0,0:0:0:0:
256,192,281896,2,0,L|352:288,1,104.999997496605
256,192,282196,1,8,0:0:0:0:
256,192,282271,1,8,0:0:0:0:
256,192,282346,1,0,0:0:0:0:
256,192,282421,1,8,0:0:0:0:
256,192,282496,1,8,0:0:0:0:
256,192,282571,1,0,0:0:0:0:
256,192,282646,1,8,0:0:0:0:
256,192,282721,1,8,0:0:0:0:
256,192,282796,1,8,0:0:0:0:
256,192,282871,1,0,0:0:0:0:
256,192,282946,1,0,0:0:0:0:
256,192,283021,1,0,0:0:0:0:
256,192,283096,1,8,0:0:0:0:
256,192,283171,1,8,0:0:0:0:
256,192,283246,1,0,0:0:0:0:
256,192,283321,1,8,0:0:0:0:
256,192,283396,1,8,0:0:0:0:
256,192,283471,1,0,0:0:0:0:
256,192,283546,1,0,0:0:0:0:
256,192,283621,1,0,0:0:0:0:
256,192,283696,1,8,0:0:0:0:
256,192,283771,1,8,0:0:0:0:
256,192,283846,1,8,0:0:0:0:
256,192,283921,1,0,0:0:0:0:
256,192,283996,2,0,P|288:256|352:256,1,131.249996870756
256,192,284296,2,0,P|288:128|352:128,1,131.249996870756
256,192,284596,1,8,0:0:0:0:
256,192,284671,1,8,0:0:0:0:
256,192,284746,1,0,0:0:0:0:
256,192,284821,1,0,0:0:0:0:
256,192,284896,1,8,0:0:0:0:
256,192,285046,1,8,0:0:0:0:
256,192,285121,1,8,0:0:0:0:
256,192,285196,1,0,0:0:0:0:
256,192,285271,1,0,0:0:0:0:
256,192,285346,1,8,0:0:0:0:
256,192,285496,1,8,0:0:0:0:
256,192,285646,1,8,0:0:0:0:
256,192,285796,1,8,0:0:0:0:
256,192,285871,1,0,0:0:0:0:
256,192,285946,1,0,0:0:0:0:
256,192,286021,1,8,0:0:0:0:
256,192,286096,1,8,0:0:0:0:
256,192,286246,1,8,0:0:0:0:
256,192,286321,1,0,0:0:0:0:
256,192,286396,1,8,0:0:0:0:
256,192,286471,1,8,0:0:0:0:
256,192,286546,1,0,0:0:0:0:
256,192,286621,1,0,0:0:0:0:
256,192,286696,1,8,0:0:0:0:
256,192,286846,1,0,0:0:0:0:
256,192,286996,1,8,0:0:0:0:
256,192,287071,1,0,0:0:0:0:
256,192,287146,1,0,0:0:0:0:
256,192,287221,1,8,0:0:0:0:
256,192,287296,1,8,0:0:0:0:
256,192,287446,1,0,0:0:0:0:
256,192,287596,1,8,0:0:0:0:
256,192,287671,1,8,0:0:0:0:
256,192,287746,1,0,0:0:0:0:
256,192,287821,1,8,0:0:0:0:
256,192,287896,1,8,0:0:0:0:
256,192,288046,1,0,0:0:0:0:
256,192,288196,1,8,0:0:0:0:
256,192,288271,1,0,0:0:0:0:
256,192,288346,1,8,0:0:0:0:
256,192,288421,1,0,0:0:0:0:
256,192,288496,1,8,0:0:0:0:
256,192,288571,1,0,0:0:0:0:
256,192,288646,1,8,0:0:0:0:
256,192,288721,1,0,0:0:0:0:
256,192,288796,1,8,0:0:0:0:
256,192,288871,1,0,0:0:0:0:
256,192,288946,1,8,0:0:0:0:
256,192,289021,1,0,0:0:0:0:
256,192,289096,1,8,0:0:0:0:
256,192,289171,1,0,0:0:0:0:
256,192,289246,1,8,0:0:0:0:
256,192,289321,1,8,0:0:0:0:
256,192,289396,1,8,0:0:0:0:
256,192,289471,1,0,0:0:0:0:
256,192,289546,1,8,0:0:0:0:
256,192,289621,1,0,0:0:0:0:
256,192,289696,1,8,0:0:0:0:
256,192,289771,1,0,0:0:0:0:
256,192,289846,1,8,0:0:0:0:
256,192,289921,1,0,0:0:0:0:
256,192,289996,1,8,0:0:0:0:
256,192,290071,1,0,0:0:0:0:
256,192,290146,1,8,0:0:0:0:
256,192,290221,1,0,0:0:0:0:
256,192,290296,1,8,0:0:0:0:
256,192,290371,1,0,0:0:0:0:
256,192,290446,1,8,0:0:0:0:
256,192,290521,1,8,0:0:0:0:
256,192,290596,1,8,0:0:0:0:
256,192,290671,1,0,0:0:0:0:
256,192,290746,1,0,0:0:0:0:
256,192,290821,1,0,0:0:0:0:
256,192,290896,1,8,0:0:0:0:
256,192,290971,1,0,0:0:0:0:
256,192,291046,1,8,0:0:0:0:
256,192,291121,1,0,0:0:0:0:
256,192,291196,1,8,0:0:0:0:
256,192,291271,1,0,0:0:0:0:
256,192,291346,1,8,0:0:0:0:
256,192,291421,1,0,0:0:0:0:
256,192,291496,1,8,0:0:0:0:
256,192,291571,1,0,0:0:0:0:
256,192,291646,1,0,0:0:0:0:
256,192,291721,1,0,0:0:0:0:
256,192,291796,1,8,0:0:0:0:
256,192,291871,1,0,0:0:0:0:
256,192,291946,1,0,0:0:0:0:
256,192,292021,1,8,0:0:0:0:
256,192,292096,1,8,0:0:0:0:
256,192,292171,1,0,0:0:0:0:
256,192,292246,1,0,0:0:0:0:
256,192,292321,1,0,0:0:0:0:
256,192,292396,1,8,0:0:0:0:
256,192,292471,1,8,0:0:0:0:
256,192,292546,1,0,0:0:0:0:
256,192,292621,1,0,0:0:0:0:
256,192,292696,1,8,0:0:0:0:
256,192,292771,1,8,0:0:0:0:
256,192,292846,1,0,0:0:0:0:
256,192,292921,1,8,0:0:0:0:
256,192,292996,1,0,0:0:0:0:
256,192,293071,1,0,0:0:0:0:
256,192,293146,1,0,0:0:0:0:
256,192,293221,1,0,0:0:0:0:
256,192,293296,1,8,0:0:0:0:
256,192,293371,1,8,0:0:0:0:
256,192,293446,1,0,0:0:0:0:
256,192,293521,1,0,0:0:0:0:
256,192,293596,1,8,0:0:0:0:
256,192,293671,1,8,0:0:0:0:
256,192,293746,1,8,0:0:0:0:
256,192,293821,1,0,0:0:0:0:
256,192,293896,2,0,P|256:160|256:224,1,78.7500011265279
256,192,294196,1,8,0:0:0:0:
256,192,294271,1,8,0:0:0:0:
256,192,294346,1,0,0:0:0:0:
256,192,294421,1,0,0:0:0:0:
256,192,294496,1,8,0:0:0:0:
256,192,294571,1,8,0:0:0:0:
256,192,294646,1,8,0:0:0:0:
256,192,294721,1,0,0:0:0:0:
256,192,294796,1,8,0:0:0:0:
256,192,294871,1,0,0:0:0:0:
256,192,294946,1,8,0:0:0:0:
256,192,295021,1,8,0:0:0:0:
256,192,295096,1,0,0:0:0:0:
256,192,295171,1,0,0:0:0:0:
256,192,295246,1,0,0:0:0:0:
256,192,295321,1,8,0:0:0:0:
256,192,295396,1,8,0:0:0:0:
256,192,295471,1,8,0:0:0:0:
256,192,295546,1,0,0:0:0:0:
256,192,295621,1,8,0:0:0:0:
256,192,295696,1,8,0:0:0:0:
256,192,295771,1,0,0:0:0:0:
256,192,295846,1,0,0:0:0:0:
256,192,295921,1,0,0:0:0:0:
256,192,295996,1,8,0:0:0:0:
256,192,296071,1,8,0:0:0:0:
256,192,296146,1,0,0:0:0:0:
256,192,296221,1,0,0:0:0:0:
256,192,296296,2,0,P|256:224|256:160,1,78.7500011265279
256,192,296596,1,8,0:0:0:0:
256,192,296671,1,8,0:0:0:0:
256,192,296746,1,0,0:0:0:0:
256,192,296821,1,8,0:0:0:0:
256,192,296896,1,0,0:0:0:0:
256,192,296971,1,0,0:0:0:0:
256,192,297046,1,8,0:0:0:0:
256,192,297121,1,8,0:0:0:0:
256,192,297196,1,8,0:0:0:0:
256,192,297271,1,0,0:0:0:0:
256,192,297346,1,0,0:0:0:0:
256,192,297421,1,8,0:0:0:0:
256,192,297496,1,8,0:0:0:0:
256,192,297571,1,8,0:0:0:0:
256,192,297646,1,0,0:0:0:0:
256,192,297721,1,0,0:0:0:0:
256,192,297796,1,8,0:0:0:0:
256,192,297871,1,8,0:0:0:0:
256,192,297946,1,0,0:0:0:0:
256,192,298021,1,8,0:0:0:0:
256,192,298096,1,8,0:0:0:0:
256,192,298171,1,8,0:0:0:0:
256,192,298246,1,0,0:0:0:0:
256,192,298321,1,8,0:0:0:0:
256,192,298396,2,0,P|256:256|288:192,1,183.750002628565
256,192,298996,1,8,0:0:0:0:
256,192,299071,1,8,0:0:0:0:
256,192,299146,1,0,0:0:0:0:
256,192,299221,1,8,0:0:0:0:
256,192,299296,1,8,0:0:0:0:
256,192,299371,1,8,0:0:0:0:
256,192,299446,1,0,0:0:0:0:
256,192,299521,1,8,0:0:0:0:
256,192,299596,1,8,0:0:0:0:
256,192,299671,1,8,0:0:0:0:
256,192,299746,1,0,0:0:0:0:
256,192,299821,1,0,0:0:0:0:
256,192,299896,1,8,0:0:0:0:
256,192,299971,1,8,0:0:0:0:
256,192,300046,1,0,0:0:0:0:
256,192,300121,1,0,0:0:0:0:
256,192,300196,1,8,0:0:0:0:
256,192,300271,1,8,0:0:0:0:
256,192,300346,1,8,0:0:0:0:
256,192,300421,1,0,0:0:0:0:
256,192,300496,1,0,0:0:0:0:
256,192,300571,1,8,0:0:0:0:
256,192,300646,1,8,0:0:0:0:
256,192,300721,1,0,0:0:0:0:
256,192,300796,1,8,0:0:0:0:
256,192,300871,1,8,0:0:0:0:
256,192,300946,1,8,0:0:0:0:
256,192,301021,1,0,0:0:0:0:
256,192,301096,1,8,0:0:0:0:
256,192,301171,1,0,0:0:0:0:
256,192,301246,1,8,0:0:0:0:
256,192,301321,1,0,0:0:0:0:
256,192,301396,1,8,0:0:0:0:
256,192,301471,1,0,0:0:0:0:
256,192,301546,1,0,0:0:0:0:
256,192,301621,1,0,0:0:0:0:
256,192,301696,1,0,0:0:0:0:
256,192,301771,1,0,0:0:0:0:
256,192,301846,1,0,0:0:0:0:
256,192,301921,1,8,0:0:0:0:
256,192,301996,1,0,0:0:0:0:
256,192,302071,1,0,0:0:0:0:
256,192,302146,1,0,0:0:0:0:
256,192,302221,1,8,0:0:0:0:
256,192,302296,1,8,0:0:0:0:
256,192,302371,1,8,0:0:0:0:
256,192,302446,1,0,0:0:0:0:
256,192,302521,1,0,0:0:0:0:
256,192,302596,1,12,0:0:0:0:
256,192,302896,1,12,0:0:0:0:
256,192,303196,2,0,P|256:256|224:192,1,183.750002628565
256,192,303796,1,8,0:0:0:0:
256,192,303871,1,8,0:0:0:0:
256,192,303946,1,0,0:0:0:0:
256,192,304021,1,8,0:0:0:0:
256,192,304096,1,8,0:0:0:0:
256,192,304171,1,0,0:0:0:0:
256,192,304246,1,0,0:0:0:0:
256,192,304321,1,8,0:0:0:0:
256,192,304396,1,8,0:0:0:0:
256,192,304471,1,8,0:0:0:0:
256,192,304546,1,0,0:0:0:0:
256,192,304621,1,0,0:0:0:0:
256,192,304696,1,8,0:0:0:0:
256,192,304771,1,8,0:0:0:0:
256,192,304846,1,8,0:0:0:0:
256,192,304921,1,0,0:0:0:0:
256,192,304996,1,8,0:0:0:0:
256,192,305071,1,0,0:0:0:0:
256,192,305146,1,0,0:0:0:0:
256,192,305221,1,8,0:0:0:0:
256,192,305296,1,8,0:0:0:0:
256,192,305371,1,0,0:0:0:0:
256,192,305446,1,0,0:0:0:0:
256,192,305521,1,0,0:0:0:0:
256,192,305596,2,0,L|192:192,1,78.7500011265279
256,192,305896,2,0,P|288:192|320:192,1,52.4999987483025
256,192,306196,1,8,0:0:0:0:
256,192,306271,1,8,0:0:0:0:
256,192,306346,1,8,0:0:0:0:
256,192,306421,1,0,0:0:0:0:
256,192,306496,1,8,0:0:0:0:
256,192,306571,1,8,0:0:0:0:
256,192,306646,1,0,0:0:0:0:
256,192,306721,1,8,0:0:0:0:
256,192,306796,1,8,0:0:0:0:
256,192,306871,1,8,0:0:0:0:
256,192,306946,1,0,0:0:0:0:
256,192,307021,1,8,0:0:0:0:
256,192,307096,1,0,0:0:0:0:
256,192,307171,1,8,0:0:0:0:
256,192,307246,1,8,0:0:0:0:
256,192,307321,1,0,0:0:0:0:
256,192,307396,1,8,0:0:0:0:
256,192,307471,1,0,0:0:0:0:
256,192,307546,1,0,0:0:0:0:
256,192,307621,1,0,0:0:0:0:
256,192,307696,1,8,0:0:0:0:
256,192,307771,1,0,0:0:0:0:
256,192,307846,1,0,0:0:0:0:
256,192,307921,1,0,0:0:0:0:
256,192,307996,2,0,P|256:64|256:128,1,183.750002628565
256,192,308596,1,8,0:0:0:0:
256,192,308671,1,8,0:0:0:0:
256,192,308746,1,0,0:0:0:0:
256,192,308821,1,0,0:0:0:0:
256,192,308896,1,8,0:0:0:0:
256,192,308971,1,8,0:0:0:0:
256,192,309046,1,0,0:0:0:0:
256,192,309121,1,0,0:0:0:0:
256,192,309196,1,8,0:0:0:0:
256,192,309271,1,8,0:0:0:0:
256,192,309346,1,0,0:0:0:0:
256,192,309421,1,8,0:0:0:0:
256,192,309496,1,8,0:0:0:0:
256,192,309571,1,8,0:0:0:0:
256,192,309646,1,0,0:0:0:0:
256,192,309721,1,0,0:0:0:0:
256,192,309796,1,8,0:0:0:0:
256,192,309871,1,8,0:0:0:0:
256,192,309946,1,0,0:0:0:0:
256,192,310021,1,8,0:0:0:0:
256,192,310096,1,8,0:0:0:0:
256,192,310171,1,8,0:0:0:0:
256,192,310246,1,0,0:0:0:0:
256,192,310321,1,0,0:0:0:0:
256,192,310396,2,0,P|256:320|256:256,1,183.750002628565
256,192,310996,1,8,0:0:0:0:
256,192,311071,1,0,0:0:0:0:
256,192,311146,1,8,0:0:0:0:
256,192,311221,1,0,0:0:0:0:
256,192,311296,1,8,0:0:0:0:
256,192,311371,1,0,0:0:0:0:
256,192,311446,1,8,0:0:0:0:
256,192,311521,1,0,0:0:0:0:
256,192,311596,1,8,0:0:0:0:
256,192,311671,1,0,0:0:0:0:
256,192,311746,1,8,0:0:0:0:
256,192,311821,1,0,0:0:0:0:
256,192,311896,1,8,0:0:0:0:
256,192,311971,1,0,0:0:0:0:
256,192,312046,1,0,0:0:0:0:
256,192,312121,1,0,0:0:0:0:
256,192,312196,1,12,0:0:0:0:
256,192,312496,1,12,0:0:0:0:
256,192,312796,1,12,0:0:0:0:
256,192,313096,1,12,0:0:0:0:
256,192,313396,1,12,0:0:0:0:
256,192,313696,1,8,0:0:0:0:
256,192,313771,1,0,0:0:0:0:
256,192,313846,1,0,0:0:0:0:
256,192,313996,1,8,0:0:0:0:
256,192,314146,1,8,0:0:0:0:
256,192,314296,1,0,0:0:0:0:
256,192,314446,1,0,0:0:0:0:
256,192,314521,1,0,0:0:0:0:
256,192,314596,1,8,0:0:0:0:
256,192,314671,1,0,0:0:0:0:
256,192,314746,1,0,0:0:0:0:
256,192,314896,1,8,0:0:0:0:
256,192,315046,1,0,0:0:0:0:
256,192,315121,1,0,0:0:0:0:
256,192,315196,1,8,0:0:0:0:
256,192,315346,1,0,0:0:0:0:
256,192,315496,1,8,0:0:0:0:
256,192,315571,1,8,0:0:0:0:
256,192,315646,1,0,0:0:0:0:
256,192,315721,1,0,0:0:0:0:
256,192,315796,1,8,0:0:0:0:
256,192,315871,1,0,0:0:0:0:
256,192,315946,1,0,0:0:0:0:
256,192,316021,1,0,0:0:0:0:
256,192,316096,1,8,0:0:0:0:
256,192,316246,1,0,0:0:0:0:
256,192,316396,1,8,0:0:0:0:
256,192,316546,1,0,0:0:0:0:
256,192,316621,1,0,0:0:0:0:
256,192,316696,1,8,0:0:0:0:
256,192,316846,1,0,0:0:0:0:
256,192,316921,1,0,0:0:0:0:
256,192,316996,1,8,0:0:0:0:
256,192,317071,1,0,0:0:0:0:
256,192,317146,1,0,0:0:0:0:
256,192,317221,1,0,0:0:0:0:
256,192,317296,1,8,0:0:0:0:
256,192,317371,1,8,0:0:0:0:
256,192,317446,1,8,0:0:0:0:
256,192,317596,1,0,0:0:0:0:
256,192,317746,1,0,0:0:0:0:
256,192,317896,1,8,0:0:0:0:
256,192,318046,1,8,0:0:0:0:
256,192,318196,1,8,0:0:0:0:
256,192,318271,1,0,0:0:0:0:
256,192,318346,1,0,0:0:0:0:
256,192,318496,1,8,0:0:0:0:
256,192,318646,1,0,0:0:0:0:
256,192,318721,1,0,0:0:0:0:
256,192,318796,1,8,0:0:0:0:
256,192,318946,1,8,0:0:0:0:
256,192,319021,1,0,0:0:0:0:
256,192,319096,1,0,0:0:0:0:
256,192,319246,1,8,0:0:0:0:
256,192,319321,1,0,0:0:0:0:
256,192,319396,1,8,0:0:0:0:
256,192,319471,1,0,0:0:0:0:
256,192,319546,1,8,0:0:0:0:
256,192,319621,1,0,0:0:0:0:
256,192,319696,1,8,0:0:0:0:
256,192,319846,1,8,0:0:0:0:
256,192,319996,1,8,0:0:0:0:
256,192,320146,1,0,0:0:0:0:
256,192,320221,1,0,0:0:0:0:
256,192,320296,1,8,0:0:0:0:
256,192,320446,1,8,0:0:0:0:
256,192,320596,1,8,0:0:0:0:
256,192,320671,1,8,0:0:0:0:
256,192,320746,1,0,0:0:0:0:
256,192,320821,1,0,0:0:0:0:
256,192,320896,1,8,0:0:0:0:
256,192,320971,1,8,0:0:0:0:
256,192,321046,1,8,0:0:0:0:
256,192,321121,1,0,0:0:0:0:
256,192,321196,1,8,0:0:0:0:
256,192,321271,1,0,0:0:0:0:
256,192,321346,1,0,0:0:0:0:
256,192,321421,1,8,0:0:0:0:
256,192,321496,1,8,0:0:0:0:
256,192,321571,1,0,0:0:0:0:
256,192,321646,1,8,0:0:0:0:
256,192,321721,1,8,0:0:0:0:
256,192,321796,1,8,0:0:0:0:
256,192,321871,1,0,0:0:0:0:
256,192,321946,1,0,0:0:0:0:
256,192,322021,1,0,0:0:0:0:
256,192,322096,1,8,0:0:0:0:
256,192,322171,1,0,0:0:0:0:
256,192,322246,1,0,0:0:0:0:
256,192,322321,1,0,0:0:0:0:
256,192,322396,1,8,0:0:0:0:
256,192,322471,1,8,0:0:0:0:
256,192,322546,1,0,0:0:0:0:
256,192,322621,1,0,0:0:0:0:
256,192,322696,1,8,0:0:0:0:
256,192,322771,1,8,0:0:0:0:
256,192,322846,1,0,0:0:0:0:
256,192,322921,1,0,0:0:0:0:
256,192,322996,1,8,0:0:0:0:
256,192,323071,1,0,0:0:0:0:
256,192,323146,1,8,0:0:0:0:
256,192,323221,1,0,0:0:0:0:
256,192,323296,1,8,0:0:0:0:
256,192,323371,1,0,0:0:0:0:
256,192,323446,1,8,0:0:0:0:
256,192,323521,1,0,0:0:0:0:
256,192,323596,1,8,0:0:0:0:
256,192,323671,1,0,0:0:0:0:
256,192,323746,1,8,0:0:0:0:
256,192,323821,1,0,0:0:0:0:
256,192,323896,1,8,0:0:0:0:
256,192,323971,1,0,0:0:0:0:
256,192,324046,1,8,0:0:0:0:
256,192,324121,1,0,0:0:0:0:
256,192,324196,1,8,0:0:0:0:
256,192,324271,1,0,0:0:0:0:
256,192,324346,1,0,0:0:0:0:
256,192,324421,1,8,0:0:0:0:
256,192,324496,1,8,0:0:0:0:
256,192,324571,1,0,0:0:0:0:
256,192,324646,1,8,0:0:0:0:
256,192,324721,1,8,0:0:0:0:
256,192,324796,1,8,0:0:0:0:
256,192,324871,1,0,0:0:0:0:
256,192,324946,1,0,0:0:0:0:
256,192,325021,1,0,0:0:0:0:
256,192,325096,1,8,0:0:0:0:
256,192,325171,1,8,0:0:0:0:
256,192,325246,1,0,0:0:0:0:
256,192,325321,1,0,0:0:0:0:
256,192,325396,1,8,0:0:0:0:
256,192,325546,1,0,0:0:0:0:
256,192,325696,1,8,0:0:0:0:
256,192,325771,1,0,0:0:0:0:
256,192,325846,1,0,0:0:0:0:
256,192,325996,1,8,0:0:0:0:
256,192,326146,1,8,0:0:0:0:
256,192,326296,1,8,0:0:0:0:
256,192,326371,1,0,0:0:0:0:
256,192,326446,1,0,0:0:0:0:
256,192,326521,1,0,0:0:0:0:
256,192,326596,1,8,0:0:0:0:
256,192,326671,1,0,0:0:0:0:
256,192,326746,1,8,0:0:0:0:
256,192,326821,1,0,0:0:0:0:
256,192,326896,1,8,0:0:0:0:
256,192,326971,1,0,0:0:0:0:
256,192,327046,1,0,0:0:0:0:
256,192,327121,1,0,0:0:0:0:
256,192,327196,2,0,P|224:256|96:224,1,192.500001285076
256,192,327646,1,8,0:0:0:0:
256,192,327721,1,0,0:0:0:0:
256,192,327796,1,8,0:0:0:0:
256,192,327871,1,8,0:0:0:0:
256,192,327946,1,8,0:0:0:0:
256,192,328021,1,0,0:0:0:0:
256,192,328096,1,8,0:0:0:0:
256,192,328171,1,8,0:0:0:0:
256,192,328246,1,8,0:0:0:0:
256,192,328321,1,0,0:0:0:0:
256,192,328396,1,8,0:0:0:0:
256,192,328471,1,0,0:0:0:0:
256,192,328546,1,0,0:0:0:0:
256,192,328621,1,8,0:0:0:0:
256,192,328696,1,8,0:0:0:0:
256,192,328771,1,0,0:0:0:0:
256,192,328846,1,8,0:0:0:0:
256,192,328921,1,8,0:0:0:0:
256,192,328996,1,8,0:0:0:0:
256,192,329071,1,0,0:0:0:0:
256,192,329146,1,0,0:0:0:0:
256,192,329221,1,8,0:0:0:0:
256,192,329296,1,8,0:0:0:0:
256,192,329371,1,8,0:0:0:0:
256,192,329446,1,0,0:0:0:0:
256,192,329521,1,0,0:0:0:0:
256,192,329596,1,8,0:0:0:0:
256,192,329671,1,8,0:0:0:0:
256,192,329746,1,0,0:0:0:0:
256,192,329821,1,0,0:0:0:0:
256,192,329896,1,0,0:0:0:0:
256,192,329971,1,0,0:0:0:0:
256,192,330046,1,8,0:0:0:0:
256,192,330121,1,0,0:0:0:0:
256,192,330196,1,8,0:0:0:0:
256,192,330346,1,0,0:0:0:0:
256,192,330396,1,0,0:0:0:0:
256,192,330446,1,0,0:0:0:0:
256,192,330496,1,8,0:0:0:0:
256,192,330646,1,0,0:0:0:0:
256,192,330796,1,8,0:0:0:0:
256,192,330946,1,8,0:0:0:0:
256,192,331096,1,8,0:0:0:0:
256,192,331246,1,0,0:0:0:0:
256,192,331396,1,8,0:0:0:0:
256,192,331471,1,0,0:0:0:0:
256,192,331546,1,8,0:0:0:0:
256,192,331621,1,0,0:0:0:0:
256,192,331696,1,8,0:0:0:0:
256,192,331771,1,0,0:0:0:0:
256,192,331846,1,0,0:0:0:0:
256,192,331921,1,0,0:0:0:0:
256,192,331996,1,8,0:0:0:0:
256,192,332071,1,8,0:0:0:0:
256,192,332146,1,0,0:0:0:0:
256,192,332221,1,0,0:0:0:0:
256,192,332296,1,8,0:0:0:0:
256,192,332371,1,0,0:0:0:0:
256,192,332446,1,0,0:0:0:0:
256,192,332521,1,0,0:0:0:0:
256,192,332596,1,12,0:0:0:0:
256,192,341408,5,8,0:0:0:0:
256,192,341470,1,0,0:0:0:0:
256,192,341533,1,0,0:0:0:0:
256,192,341596,1,8,0:0:0:0:
256,192,341896,1,8,0:0:0:0:
256,192,342196,1,8,0:0:0:0:
256,192,342271,1,0,0:0:0:0:
256,192,342346,1,0,0:0:0:0:
256,192,342496,1,8,0:0:0:0:
256,192,342646,1,8,0:0:0:0:
256,192,342796,1,8,0:0:0:0:
256,192,342871,1,0,0:0:0:0:
256,192,342946,1,0,0:0:0:0:
256,192,343096,1,0,0:0:0:0:
256,192,343246,1,0,0:0:0:0:
256,192,343321,1,0,0:0:0:0:
256,192,343396,1,8,0:0:0:0:
256,192,343546,1,0,0:0:0:0:
256,192,343621,1,0,0:0:0:0:
256,192,343696,1,8,0:0:0:0:
256,192,343771,1,0,0:0:0:0:
256,192,343846,1,0,0:0:0:0:
256,192,343921,1,0,0:0:0:0:
256,192,343996,1,8,0:0:0:0:
256,192,344146,1,8,0:0:0:0:
256,192,344296,1,8,0:0:0:0:
256,192,344371,1,0,0:0:0:0:
256,192,344446,1,0,0:0:0:0:
256,192,344521,1,0,0:0:0:0:
256,192,344596,1,8,0:0:0:0:
256,192,344746,1,0,0:0:0:0:
256,192,344896,1,8,0:0:0:0:
256,192,344971,1,0,0:0:0:0:
256,192,345046,1,0,0:0:0:0:
256,192,345196,1,8,0:0:0:0:
256,192,345346,1,8,0:0:0:0:
256,192,345496,1,0,0:0:0:0:
256,192,345646,1,0,0:0:0:0:
256,192,345721,1,0,0:0:0:0:
256,192,345796,1,8,0:0:0:0:
256,192,345946,1,0,0:0:0:0:
256,192,346096,1,8,0:0:0:0:
256,192,346171,1,0,0:0:0:0:
256,192,346246,1,0,0:0:0:0:
256,192,346321,1,0,0:0:0:0:
256,192,346396,1,8,0:0:0:0:
256,192,346546,1,0,0:0:0:0:
256,192,346696,1,8,0:0:0:0:
256,192,346771,1,8,0:0:0:0:
256,192,346846,1,0,0:0:0:0:
256,192,346921,1,8,0:0:0:0:
256,192,346996,1,8,0:0:0:0:
256,192,347071,1,8,0:0:0:0:
256,192,347146,1,0,0:0:0:0:
256,192,347221,1,0,0:0:0:0:
256,192,347296,1,8,0:0:0:0:
256,192,347446,1,0,0:0:0:0:
256,192,347521,1,0,0:0:0:0:
256,192,347596,1,8,0:0:0:0:
256,192,347746,1,8,0:0:0:0:
256,192,347896,1,8,0:0:0:0:
256,192,348046,1,0,0:0:0:0:
256,192,348121,1,0,0:0:0:0:
256,192,348196,1,8,0:0:0:0:
256,192,348346,1,0,0:0:0:0:
256,192,348496,1,0,0:0:0:0:
256,192,348646,1,8,0:0:0:0:
256,192,348796,1,8,0:0:0:0:
256,192,348871,1,0,0:0:0:0:
256,192,348946,1,0,0:0:0:0:
256,192,349021,1,0,0:0:0:0:
256,192,349096,1,8,0:0:0:0:
256,192,349246,1,0,0:0:0:0:
256,192,349396,1,0,0:0:0:0:
256,192,349471,1,0,0:0:0:0:
256,192,349546,1,0,0:0:0:0:
256,192,349696,1,8,0:0:0:0:
256,192,349846,1,8,0:0:0:0:
256,192,349996,1,8,0:0:0:0:
256,192,350071,1,0,0:0:0:0:
256,192,350146,1,0,0:0:0:0:
256,192,350296,1,8,0:0:0:0:
256,192,350371,1,8,0:0:0:0:
256,192,350446,1,0,0:0:0:0:
256,192,350521,1,0,0:0:0:0:
256,192,350596,1,8,0:0:0:0:
256,192,350671,1,8,0:0:0:0:
256,192,350746,1,8,0:0:0:0:
256,192,350821,1,0,0:0:0:0:
256,192,350896,1,8,0:0:0:0:
256,192,350971,1,8,0:0:0:0:
256,192,351046,1,0,0:0:0:0:
256,192,351121,1,0,0:0:0:0:
256,192,351196,1,8,0:0:0:0:
256,192,351271,1,0,0:0:0:0:
256,192,351346,1,0,0:0:0:0:
256,192,351421,1,8,0:0:0:0:
256,192,351496,1,8,0:0:0:0:
256,192,351571,1,0,0:0:0:0:
256,192,351646,1,0,0:0:0:0:
256,192,351721,1,0,0:0:0:0:
256,192,351796,1,8,0:0:0:0:
256,192,351946,1,0,0:0:0:0:
256,192,352096,1,8,0:0:0:0:
256,192,352171,1,0,0:0:0:0:
256,192,352246,1,0,0:0:0:0:
256,192,352396,1,8,0:0:0:0:
256,192,352546,1,0,0:0:0:0:
256,192,352621,1,0,0:0:0:0:
256,192,352696,1,8,0:0:0:0:
256,192,352846,1,8,0:0:0:0:
256,192,352996,1,8,0:0:0:0:
256,192,353071,1,8,0:0:0:0:
256,192,353146,1,0,0:0:0:0:
256,192,353221,1,0,0:0:0:0:
256,192,353296,1,8,0:0:0:0:
256,192,353371,1,0,0:0:0:0:
256,192,353446,1,0,0:0:0:0:
256,192,353521,1,0,0:0:0:0:
256,192,353596,1,8,0:0:0:0:
256,192,353746,1,0,0:0:0:0:
256,192,353896,1,8,0:0:0:0:
256,192,353971,1,0,0:0:0:0:
256,192,354046,1,0,0:0:0:0:
256,192,354121,1,0,0:0:0:0:
256,192,354196,1,8,0:0:0:0:
256,192,354346,1,8,0:0:0:0:
256,192,354496,1,8,0:0:0:0:
256,192,354571,1,0,0:0:0:0:
256,192,354646,1,0,0:0:0:0:
256,192,354796,1,8,0:0:0:0:
256,192,354946,1,0,0:0:0:0:
256,192,355096,1,8,0:0:0:0:
256,192,355171,1,0,0:0:0:0:
256,192,355246,1,0,0:0:0:0:
256,192,355396,1,8,0:0:0:0:
256,192,355471,1,0,0:0:0:0:
256,192,355546,1,0,0:0:0:0:
256,192,355621,1,0,0:0:0:0:
256,192,355696,1,8,0:0:0:0:
256,192,355771,1,8,0:0:0:0:
256,192,355846,1,0,0:0:0:0:
256,192,355921,1,0,0:0:0:0:
256,192,355996,1,8,0:0:0:0:
256,192,356071,1,0,0:0:0:0:
256,192,356146,1,0,0:0:0:0:
256,192,356296,1,8,0:0:0:0:
256,192,356371,1,0,0:0:0:0:
256,192,356446,1,0,0:0:0:0:
256,192,356521,1,0,0:0:0:0:
256,192,356596,1,8,0:0:0:0:
256,192,356746,1,0,0:0:0:0:
256,192,356896,1,8,0:0:0:0:
256,192,356971,1,0,0:0:0:0:
256,192,357046,1,0,0:0:0:0:
256,192,357196,1,0,0:0:0:0:
256,192,357346,1,0,0:0:0:0:
256,192,357496,1,8,0:0:0:0:
256,192,357646,1,0,0:0:0:0:
256,192,357796,1,8,0:0:0:0:
256,192,357871,1,0,0:0:0:0:
256,192,357946,1,0,0:0:0:0:
256,192,358096,1,0,0:0:0:0:
256,192,358246,1,8,0:0:0:0:
256,192,358321,1,0,0:0:0:0:
256,192,358396,1,8,0:0:0:0:
256,192,358546,1,0,0:0:0:0:
256,192,358696,1,8,0:0:0:0:
256,192,358771,1,0,0:0:0:0:
256,192,358846,1,0,0:0:0:0:
256,192,358921,1,0,0:0:0:0:
256,192,358996,1,8,0:0:0:0:
256,192,359146,1,0,0:0:0:0:
256,192,359296,1,8,0:0:0:0:
256,192,359446,1,8,0:0:0:0:
256,192,359596,1,8,0:0:0:0:
256,192,359671,1,0,0:0:0:0:
256,192,359746,1,0,0:0:0:0:
256,192,359896,1,0,0:0:0:0:
256,192,360046,1,8,0:0:0:0:
256,192,360121,1,0,0:0:0:0:
256,192,360196,1,8,0:0:0:0:
256,192,360271,1,8,0:0:0:0:
256,192,360346,1,0,0:0:0:0:
256,192,360421,1,0,0:0:0:0:
256,192,360496,1,8,0:0:0:0:
256,192,360571,1,0,0:0:0:0:
256,192,360646,1,0,0:0:0:0:
256,192,360721,1,0,0:0:0:0:
256,192,360796,1,8,0:0:0:0:
256,192,360871,1,8,0:0:0:0:
256,192,360946,1,0,0:0:0:0:
256,192,361021,1,8,0:0:0:0:
256,192,361096,1,8,0:0:0:0:
256,192,361171,1,8,0:0:0:0:
256,192,361246,1,0,0:0:0:0:
256,192,361321,1,0,0:0:0:0:
256,192,361396,1,8,0:0:0:0:
256,192,361471,1,8,0:0:0:0:
256,192,361546,1,8,0:0:0:0:
256,192,361621,1,0,0:0:0:0:
256,192,361696,1,0,0:0:0:0:
256,192,361771,1,0,0:0:0:0:
256,192,361846,1,8,0:0:0:0:
256,192,361921,1,8,0:0:0:0:
256,192,361996,1,8,0:0:0:0:
256,192,362071,1,0,0:0:0:0:
256,192,362146,1,0,0:0:0:0:
256,192,362221,1,8,0:0:0:0:
256,192,362296,1,8,0:0:0:0:
256,192,362371,1,0,0:0:0:0:
256,192,362446,1,0,0:0:0:0:
256,192,362521,1,8,0:0:0:0:
256,192,362596,1,8,0:0:0:0:
256,192,362671,1,8,0:0:0:0:
256,192,362746,1,0,0:0:0:0:
256,192,362821,1,0,0:0:0:0:
256,192,362896,1,0,0:0:0:0:
256,192,362971,1,0,0:0:0:0:
256,192,363046,1,8,0:0:0:0:
256,192,363121,1,8,0:0:0:0:
256,192,363196,1,8,0:0:0:0:
256,192,363271,1,0,0:0:0:0:
256,192,363346,1,0,0:0:0:0:
256,192,363421,1,0,0:0:0:0:
256,192,363496,1,8,0:0:0:0:
256,192,363571,1,8,0:0:0:0:
256,192,363646,1,0,0:0:0:0:
256,192,363721,1,0,0:0:0:0:
256,192,363796,1,8,0:0:0:0:
256,192,363871,1,8,0:0:0:0:
256,192,363946,1,8,0:0:0:0:
256,192,364021,1,0,0:0:0:0:
256,192,364096,1,0,0:0:0:0:
256,192,364171,1,8,0:0:0:0:
256,192,364246,1,8,0:0:0:0:
256,192,364321,1,0,0:0:0:0:
256,192,364396,1,0,0:0:0:0:
256,192,364471,1,0,0:0:0:0:
256,192,364546,1,8,0:0:0:0:
256,192,364621,1,8,0:0:0:0:
256,192,364696,1,0,0:0:0:0:
256,192,364771,1,0,0:0:0:0:
256,192,364846,1,8,0:0:0:0:
256,192,364921,1,8,0:0:0:0:
256,192,364996,1,8,0:0:0:0:
256,192,365071,1,0,0:0:0:0:
256,192,365146,1,0,0:0:0:0:
256,192,365221,1,0,0:0:0:0:
256,192,365296,1,8,0:0:0:0:
256,192,365371,1,8,0:0:0:0:
256,192,365446,1,0,0:0:0:0:
256,192,365521,1,8,0:0:0:0:
256,192,365596,1,8,0:0:0:0:
256,192,365671,1,0,0:0:0:0:
256,192,365746,1,0,0:0:0:0:
256,192,365821,1,8,0:0:0:0:
256,192,365896,1,8,0:0:0:0:
256,192,365971,1,0,0:0:0:0:
256,192,366046,1,0,0:0:0:0:
256,192,366121,1,8,0:0:0:0:
256,192,366196,1,8,0:0:0:0:
256,192,366271,1,8,0:0:0:0:
256,192,366346,1,0,0:0:0:0:
256,192,366421,1,0,0:0:0:0:
256,192,366496,1,8,0:0:0:0:
256,192,366571,1,8,0:0:0:0:
256,192,366646,1,0,0:0:0:0:
256,192,366721,1,0,0:0:0:0:
256,192,366796,1,8,0:0:0:0:
256,192,366871,1,0,0:0:0:0:
256,192,366946,1,8,0:0:0:0:
256,192,367021,1,8,0:0:0:0:
256,192,367096,1,8,0:0:0:0:
256,192,367171,1,0,0:0:0:0:
256,192,367246,1,0,0:0:0:0:
256,192,367321,1,8,0:0:0:0:
256,192,367396,1,8,0:0:0:0:
256,192,367471,1,8,0:0:0:0:
256,192,367546,1,0,0:0:0:0:
256,192,367621,1,0,0:0:0:0:
256,192,367696,1,8,0:0:0:0:
256,192,367771,1,8,0:0:0:0:
256,192,367846,1,0,0:0:0:0:
256,192,367921,1,8,0:0:0:0:
256,192,367996,1,8,0:0:0:0:
256,192,368071,1,0,0:0:0:0:
256,192,368146,1,0,0:0:0:0:
256,192,368221,1,8,0:0:0:0:
256,192,368296,1,8,0:0:0:0:
256,192,368371,1,0,0:0:0:0:
256,192,368446,1,8,0:0:0:0:
256,192,368521,1,8,0:0:0:0:
256,192,368596,1,8,0:0:0:0:
256,192,368677,1,0,0:0:0:0:
256,192,368758,1,0,0:0:0:0:
256,192,368839,1,0,0:0:0:0:
256,192,368921,1,0,0:0:0:0:
256,192,369002,1,0,0:0:0:0:
256,192,369083,1,8,0:0:0:0:
256,192,369165,1,8,0:0:0:0:
256,192,369246,1,8,0:0:0:0:
256,192,369327,1,0,0:0:0:0:
256,192,369409,1,0,0:0:0:0:
256,192,369490,1,8,0:0:0:0:
256,192,369571,1,8,0:0:0:0:
256,192,369652,1,8,0:0:0:0:
256,192,369734,1,0,0:0:0:0:
256,192,369815,1,0,0:0:0:0:
256,192,369895,1,8,0:0:0:0:
256,192,370101,1,8,0:0:0:0:
256,192,370308,1,0,0:0:0:0:
256,192,370515,1,8,0:0:0:0:
256,192,370722,1,8,0:0:0:0:
256,192,370929,1,8,0:0:0:0:
256,192,371136,1,0,0:0:0:0:
256,192,371343,1,0,0:0:0:0:
256,192,371546,1,8,0:0:0:0:
256,192,371980,1,8,0:0:0:0:
256,192,372415,1,0,0:0:0:0:
256,192,372850,1,8,0:0:0:0:
256,192,373067,1,8,0:0:0:0:
256,192,373139,1,0,0:0:0:0:
256,192,373212,1,0,0:0:0:0:
256,192,373284,1,8,0:0:0:0:
256,192,373719,1,8,0:0:0:0:
256,192,374154,1,8,0:0:0:0:
256,192,374589,1,8,0:0:0:0:
256,192,374878,1,0,0:0:0:0:
256,192,374951,1,0,0:0:0:0:
256,192,375023,1,8,0:0:0:0:
256,192,375458,1,8,0:0:0:0:
256,192,375893,1,8,0:0:0:0:
256,192,376327,1,8,0:0:0:0:
256,192,376617,1,0,0:0:0:0:
256,192,376690,1,0,0:0:0:0:
256,192,376762,1,8,0:0:0:0:
256,192,377197,1,8,0:0:0:0:
256,192,377414,1,0,0:0:0:0:
256,192,377632,1,8,0:0:0:0:
256,192,377849,1,0,0:0:0:0:
256,192,378066,1,8,0:0:0:0:
256,192,378284,1,0,0:0:0:0:
256,192,378501,1,12,0:0:0:0:
256,192,378718,1,0,0:0:0:0:
256,192,378936,1,8,0:0:0:0:
256,192,379153,1,8,0:0:0:0:
256,192,379370,1,8,0:0:0:0:
256,192,379588,1,0,0:0:0:0:
256,192,379805,1,8,0:0:0:0:
256,192,380023,1,0,0:0:0:0:
256,192,380095,1,0,0:0:0:0:
256,192,380167,1,0,0:0:0:0:
256,192,380240,1,8,0:0:0:0:
256,192,380675,1,8,0:0:0:0:
256,192,380892,1,0,0:0:0:0:
256,192,381001,1,0,0:0:0:0:
256,192,381109,1,8,0:0:0:0:
256,192,381544,1,8,0:0:0:0:
256,192,381761,1,4,0:0:0:0:
256,192,381979,1,12,0:0:0:0:
256,192,382087,1,0,0:0:0:0:
256,192,382196,1,0,0:0:0:0:
256,192,382305,1,0,0:0:0:0:
256,192,382413,1,8,0:0:0:0:
256,192,382522,1,0,0:0:0:0:
256,192,382631,1,0,0:0:0:0:
256,192,382740,1,0,0:0:0:0:
256,192,382848,1,8,0:0:0:0:
256,192,383283,1,8,0:0:0:0:
256,192,383392,1,0,0:0:0:0:
256,192,383500,1,0,0:0:0:0:
256,192,383573,1,0,0:0:0:0:
256,192,383645,1,0,0:0:0:0:
256,192,383718,1,8,0:0:0:0:
256,192,384152,1,0,0:0:0:0:
256,192,384370,1,0,0:0:0:0:
256,192,384587,1,8,0:0:0:0:
256,192,384804,1,0,0:0:0:0:
256,192,385022,1,8,0:0:0:0:
256,192,385239,1,8,0:0:0:0:
256,192,385457,1,12,0:0:0:0:
256,192,385891,1,8,0:0:0:0:
256,192,386326,1,8,0:0:0:0:
256,192,386543,1,8,0:0:0:0:
256,192,386761,1,8,0:0:0:0:
256,192,386978,1,8,0:0:0:0:
256,192,387087,1,0,0:0:0:0:
256,192,387195,1,8,0:0:0:0:
256,192,387630,1,8,0:0:0:0:
256,192,387847,1,0,0:0:0:0:
256,192,388065,1,8,0:0:0:0:
256,192,388282,1,0,0:0:0:0:
256,192,388500,1,8,0:0:0:0:
256,192,388717,1,8,0:0:0:0:
256,192,388934,1,12,0:0:0:0:
256,192,389369,1,8,0:0:0:0:
256,192,389804,1,8,0:0:0:0:
256,192,389912,1,0,0:0:0:0:
256,192,390021,1,8,0:0:0:0:
256,192,390130,1,0,0:0:0:0:
256,192,390238,1,8,0:0:0:0:
256,192,390383,1,0,0:0:0:0:
256,192,390528,1,0,0:0:0:0:
256,192,390673,1,8,0:0:0:0:
256,192,390891,1,8,0:0:0:0:
256,192,391108,1,8,0:0:0:0:
256,192,391325,1,4,0:0:0:0:
256,192,391543,1,12,0:0:0:0:
256,192,391760,1,0,0:0:0:0:
256,192,391977,1,8,0:0:0:0:
256,192,392195,1,4,0:0:0:0:
256,192,392412,1,12,0:0:0:0:
256,192,392521,1,0,0:0:0:0:
256,192,392629,1,0,0:0:0:0:
256,192,392738,1,0,0:0:0:0:
256,192,392847,1,8,0:0:0:0:
256,192,392955,1,8,0:0:0:0:
256,192,393064,1,8,0:0:0:0:
256,192,393173,1,0,0:0:0:0:
256,192,393281,1,8,0:0:0:0:
256,192,393390,1,8,0:0:0:0:
256,192,393499,1,8,0:0:0:0:
256,192,393608,1,8,0:0:0:0:
256,192,393716,1,8,0:0:0:0:
256,192,393825,1,8,0:0:0:0:
256,192,393934,1,8,0:0:0:0:
256,192,394042,1,0,0:0:0:0:
256,192,394151,1,8,0:0:0:0:
256,192,394368,1,0,0:0:0:0:
256,192,394586,1,8,0:0:0:0:
256,192,394803,1,0,0:0:0:0:
256,192,395020,1,8,0:0:0:0:
256,192,395238,1,4,0:0:0:0:
256,192,395455,1,12,0:0:0:0:
256,192,395672,1,4,0:0:0:0:
256,192,395890,1,12,0:0:0:0:
256,192,395998,1,0,0:0:0:0:
256,192,396107,1,0,0:0:0:0:
256,192,396216,1,0,0:0:0:0:
256,192,396325,1,8,0:0:0:0:
256,192,396433,1,0,0:0:0:0:
256,192,396542,1,8,0:0:0:0:
256,192,396651,1,8,0:0:0:0:
256,192,396759,1,8,0:0:0:0:
256,192,396868,1,8,0:0:0:0:
256,192,396977,1,8,0:0:0:0:
256,192,397085,1,8,0:0:0:0:
256,192,397194,1,8,0:0:0:0:
256,192,397411,1,0,0:0:0:0:
256,192,397484,1,0,0:0:0:0:
256,192,397556,1,0,0:0:0:0:
256,192,397629,1,12,0:0:0:0:
256,192,398063,1,8,0:0:0:0:
256,192,398172,1,8,0:0:0:0:
256,192,398281,1,8,0:0:0:0:
256,192,398389,1,8,0:0:0:0:
256,192,398498,1,8,0:0:0:0:
256,192,398607,1,0,0:0:0:0:
256,192,398715,1,0,0:0:0:0:
256,192,398824,1,0,0:0:0:0:
256,192,398933,1,8,0:0:0:0:
256,192,399042,1,0,0:0:0:0:
256,192,399150,1,8,0:0:0:0:
256,192,399259,1,0,0:0:0:0:
256,192,399368,1,12,0:0:0:0:
256,192,399802,1,8,0:0:0:0:
256,192,400020,1,0,0:0:0:0:
256,192,400237,1,8,0:0:0:0:
256,192,400672,1,8,0:0:0:0:
256,192,400889,1,0,0:0:0:0:
256,192,401106,1,8,0:0:0:0:
256,192,401541,1,8,0:0:0:0:
256,192,401759,1,0,0:0:0:0:
256,192,401976,1,8,0:0:0:0:
256,192,402193,1,0,0:0:0:0:
256,192,402411,2,0,L|384:192,1,104.999997496605
256,192,402845,1,12,0:0:0:0:
256,192,403280,1,8,0:0:0:0:
256,192,403497,1,0,0:0:0:0:
256,192,403715,1,8,0:0:0:0:
256,192,404149,1,8,0:0:0:0:
256,192,404367,1,0,0:0:0:0:
256,192,404584,1,8,0:0:0:0:
256,192,405019,1,8,0:0:0:0:
256,192,405236,1,0,0:0:0:0:
256,192,405309,1,0,0:0:0:0:
256,192,405381,1,0,0:0:0:0:
256,192,405454,1,8,0:0:0:0:
256,192,405671,1,0,0:0:0:0:
256,192,405888,1,8,0:0:0:0:
256,192,406106,1,4,0:0:0:0:
256,192,406323,1,12,0:0:0:0:
256,192,406758,1,8,0:0:0:0:
256,192,406975,1,0,0:0:0:0:
256,192,407193,1,8,0:0:0:0:
256,192,407627,1,8,0:0:0:0:
256,192,407845,1,0,0:0:0:0:
256,192,408062,1,8,0:0:0:0:
256,192,408279,1,8,0:0:0:0:
256,192,408497,1,8,0:0:0:0:
256,192,408605,1,0,0:0:0:0:
256,192,408714,1,8,0:0:0:0:
256,192,408823,1,0,0:0:0:0:
256,192,408931,2,8,L|384:192,1,104.999997496605
256,192,409366,1,8,0:0:0:0:
256,192,409475,1,0,0:0:0:0:
256,192,409583,1,0,0:0:0:0:
256,192,409692,1,0,0:0:0:0:
256,192,409801,1,12,0:0:0:0:
256,192,410236,1,8,0:0:0:0:
256,192,410453,1,8,0:0:0:0:
256,192,410670,1,8,0:0:0:0:
256,192,411105,1,8,0:0:0:0:
256,192,411322,1,8,0:0:0:0:
256,192,411395,1,0,0:0:0:0:
256,192,411467,1,0,0:0:0:0:
256,192,411540,1,8,0:0:0:0:
256,192,411757,1,8,0:0:0:0:
256,192,411974,1,8,0:0:0:0:
256,192,412192,1,0,0:0:0:0:
256,192,412264,1,0,0:0:0:0:
256,192,412337,1,0,0:0:0:0:
256,192,412409,1,8,0:0:0:0:
256,192,412627,1,8,0:0:0:0:
256,192,412844,1,0,0:0:0:0:
256,192,413061,1,0,0:0:0:0:
256,192,413279,1,12,0:0:0:0:
256,192,413496,1,0,0:0:0:0:
256,192,413713,1,8,0:0:0:0:
256,192,413931,1,0,0:0:0:0:
256,192,414148,2,0,L|128:192,1,104.999997496605
256,192,414583,1,8,0:0:0:0:
256,192,414800,1,0,0:0:0:0:
256,192,415017,1,8,0:0:0:0:
256,192,415235,1,8,0:0:0:0:
256,192,415452,1,8,0:0:0:0:
256,192,415670,1,8,0:0:0:0:
256,192,415742,1,0,0:0:0:0:
256,192,415814,1,0,0:0:0:0:
256,192,415887,1,8,0:0:0:0:
256,192,416104,1,0,0:0:0:0:
256,192,416322,1,8,0:0:0:0:
256,192,416539,1,0,0:0:0:0:
256,192,416756,1,12,0:0:0:0:
256,192,416974,1,0,0:0:0:0:
256,192,417191,1,8,0:0:0:0:
256,192,417408,1,0,0:0:0:0:
256,192,417517,1,0,0:0:0:0:
256,192,417626,1,8,0:0:0:0:
256,192,418060,1,8,0:0:0:0:
256,192,418278,1,8,0:0:0:0:
256,192,418350,1,0,0:0:0:0:
256,192,418423,1,0,0:0:0:0:
256,192,418495,1,8,0:0:0:0:
256,192,418713,1,8,0:0:0:0:
256,192,418930,1,8,0:0:0:0:
256,192,419147,1,0,0:0:0:0:
256,192,419365,1,8,0:0:0:0:
256,192,419799,1,8,0:0:0:0:
256,192,419908,1,0,0:0:0:0:
256,192,420017,1,0,0:0:0:0:
256,192,420125,1,0,0:0:0:0:
256,192,420234,1,12,0:0:0:0:
256,192,420671,1,8,0:0:0:0:
256,192,420890,1,8,0:0:0:0:
256,192,421109,1,8,0:0:0:0:
256,192,421328,1,0,0:0:0:0:
256,192,421547,1,8,0:0:0:0:
256,192,421766,1,4,0:0:0:0:
256,192,421985,1,12,0:0:0:0:
256,192,422423,1,8,0:0:0:0:
256,192,422642,1,0,0:0:0:0:
256,192,422715,1,0,0:0:0:0:
256,192,422788,1,0,0:0:0:0:
256,192,422861,1,8,0:0:0:0:
256,192,423080,1,8,0:0:0:0:
256,192,423299,1,8,0:0:0:0:
256,192,423518,1,8,0:0:0:0:
256,192,423737,1,12,0:0:0:0:
256,192,424191,1,8,0:0:0:0:
256,192,424418,1,0,0:0:0:0:
256,192,424494,1,0,0:0:0:0:
256,192,424570,1,0,0:0:0:0:
256,192,424646,1,8,0:0:0:0:
256,192,424873,1,4,0:0:0:0:
256,192,425100,1,4,0:0:0:0:
256,192,425327,1,0,0:0:0:0:
256,192,425555,1,12,0:0:0:0:
256,192,426016,1,8,0:0:0:0:
256,192,426272,1,0,0:0:0:0:
256,192,426528,1,12,0:0:0:0:
256,192,426865,1,0,0:0:0:0:
256,192,427202,1,8,0:0:0:0:
256,192,427539,1,8,0:0:0:0:
256,192,428381,1,12,0:0:0:0:
256,192,429977,1,8,0:0:0:0:
256,192,430206,1,8,0:0:0:0:
256,192,430434,1,8,0:0:0:0:
256,192,430662,1,8,0:0:0:0:
256,192,431803,1,0,0:0:0:0:
256,192,432031,1,8,0:0:0:0:
256,192,432259,1,8,0:0:0:0:
256,192,432487,1,8,0:0:0:0:
256,192,432715,1,8,0:0:0:0:
256,192,433400,1,8,0:0:0:0:
256,192,433628,1,8,0:0:0:0:
256,192,433856,1,8,0:0:0:0:
256,192,434008,1,8,0:0:0:0:
256,192,434160,1,8,0:0:0:0:
256,192,434312,1,8,0:0:0:0:
256,192,434540,1,8,0:0:0:0:
256,192,434768,1,8,0:0:0:0:
256,192,435111,1,8,0:0:0:0:
256,192,435225,1,8,0:0:0:0:
256,192,435453,1,8,0:0:0:0:
256,192,436137,1,8,0:0:0:0:
256,192,436251,1,0,0:0:0:0:
256,192,436365,1,8,0:0:0:0:
256,192,436479,1,0,0:0:0:0:
256,192,436593,1,8,0:0:0:0:
256,192,436822,1,0,0:0:0:0:
256,192,437050,1,8,0:0:0:0:
256,192,437278,1,0,0:0:0:0:
256,192,437506,1,8,0:0:0:0:
256,192,438304,1,8,0:0:0:0:
256,192,438419,1,8,0:0:0:0:
256,192,438647,1,8,0:0:0:0:
256,192,438761,1,0,0:0:0:0:
256,192,438875,1,8,0:0:0:0:
