osu file format v14

[General]
AudioFilename: audio.mp3
AudioLeadIn: 0
PreviewTime: 122827
Countdown: 1
SampleSet: None
StackLeniency: 0.8
Mode: 0
LetterboxInBreaks: 0
WidescreenStoryboard: 1

[Editor]
Bookmarks: 15815,66409,69004,71598,92355,102733,118301,120896,123490,144247,154625,165004,183166,185760,196139,206517,227274,240247,251923
DistanceSpacing: 2.4
BeatDivisor: 4
GridSize: 4
TimelineZoom: 1

[Metadata]
Title:Tomorrow's Kings
TitleUnicode:Tomorrow's Kings
Artist:DragonForce
ArtistUnicode:DragonForce
Creator:sdolnicek
Version:ruru's Advanced
Source:
Tags:DragonForce Tomorrows Kings Metal English Legend
BeatmapID:1789113
BeatmapSetID:845291

[Difficulty]
HPDrainRate:3.6
CircleSize:3.1
OverallDifficulty:4.3
ApproachRate:5.8
SliderMultiplier:1.3
SliderTickRate:1

[Events]
//Background and Video events
0,0,"DFbackground.png",0,0
//Break Periods
//Storyboard Layer 0 (Background)
//Storyboard Layer 1 (Fail)
//Storyboard Layer 2 (Pass)
//Storyboard Layer 3 (Foreground)
//Storyboard Sound Samples

[TimingPoints]
15800,324.324324324324,4,1,1,50,1,0
71583,-90.9090909090909,4,1,1,70,0,1
92340,-100,4,1,1,50,0,0
123475,-90.9090909090909,4,1,1,70,0,1
144232,-100,4,1,1,55,0,0
154610,-83.3333333333333,4,1,1,55,0,1
164989,-76.9230769230769,4,1,1,65,0,1
196124,-100,4,1,1,80,0,0
206502,-90.9090909090909,4,1,1,70,0,1
227259,-100,4,1,1,60,0,0
240232,-200,4,1,1,60,0,0

[Colours]
Combo1 : 1,116,129
Combo2 : 9,97,193
Combo3 : 86,11,187
Combo4 : 0,12,159

[HitObjects]
12,144,15800,6,0,P|74:128|139:121,1,130
199,205,16448,1,0,0:0:0:0:
301,224,16772,1,0,0:0:0:0:
423,180,17097,2,0,P|408:115|362:75,1,130
261,101,17745,1,0,0:0:0:0:
216,195,18070,1,0,0:0:0:0:
343,259,18394,2,0,P|303:309|241:318,1,130
146,273,19043,2,0,P|125:297|114:327,2,65
240,149,19691,2,0,B|299:175|350:142|394:66|479:153,1,260
463,256,20664,1,0,0:0:0:0:
479,153,20989,6,0,L|459:281,1,130
334,319,21637,2,0,P|360:337|392:335,2,65
204,305,22286,2,0,P|258:270|285:211,1,130
392,139,22935,2,0,P|396:171|386:201,2,65
254,66,23583,6,0,P|224:123|164:136,1,130
67,241,24232,2,0,P|125:270|180:244,1,130
321,310,24881,2,0,B|376:276|381:216|349:134|465:119,1,260
323,134,25854,1,0,0:0:0:0:
224,197,26178,6,0,P|246:258|212:307,1,130
99,273,26827,1,0,0:0:0:0:
152,168,27151,1,0,0:0:0:0:
291,137,27475,2,0,P|339:94|401:92,1,130
447,200,28124,1,0,0:0:0:0:
367,285,28448,1,0,0:0:0:0:
506,354,28772,2,0,P|447:326|386:337,1,130
269,322,29421,1,0,0:0:0:0:
213,340,29583,1,0,0:0:0:0:
225,282,29746,1,0,0:0:0:0:
355,175,30070,2,0,B|300:139|231:222|131:79,1,260
246,58,31043,1,0,0:0:0:0:
356,95,31367,6,0,L|248:168,1,130
176,291,32016,2,0,P|203:308|235:311,2,65
276,189,32664,2,0,P|310:244|301:307,1,130
158,290,33313,1,0,0:0:0:0:
173,233,33475,1,0,0:0:0:0:
224,206,33637,1,0,0:0:0:0:
382,266,33962,6,0,P|385:201|349:150,1,130
212,225,34610,2,0,P|234:164|201:114,1,130
56,202,35259,2,0,P|108:159|164:174,1,130
313,130,35908,2,0,L|267:175,1,65
297,254,36232,2,0,L|343:209,2,65
256,192,36637,12,0,39151,0:0:0:0:
297,254,40448,6,0,P|350:217|370:158,1,130
298,80,41097,1,0,0:0:0:0:
195,97,41421,1,0,0:0:0:0:
92,176,41745,2,0,P|63:118|68:55,1,130
169,80,42394,1,0,0:0:0:0:
240,154,42718,1,0,0:0:0:0:
189,273,43043,2,0,L|200:337,2,65
292,286,43691,2,0,L|303:350,2,65
395,299,44340,2,0,P|420:240|386:191,1,130
291,235,44989,2,0,L|285:171,2,65
163,207,45637,5,0,0:0:0:0:
71,156,45962,1,0,0:0:0:0:
161,102,46286,2,0,P|243:147|276:144,1,130
385,73,46935,1,0,0:0:0:0:
423,169,47259,1,0,0:0:0:0:
327,207,47583,2,0,P|272:164|215:152,1,130
127,54,48232,2,0,L|68:80,2,65
109,169,48881,2,0,L|50:195,2,65
213,91,49529,2,0,P|234:152|214:212,1,130
288,320,50178,2,0,L|306:258,1,65
362,242,50502,2,0,L|380:180,1,65
436,164,50827,6,0,P|412:104|354:98,1,130
289,196,51475,2,0,P|315:216|345:214,2,65
185,97,52124,2,0,P|244:70|292:105,1,130
221,197,52772,2,0,P|242:172|250:142,2,65
103,279,53421,1,0,0:0:0:0:
74,227,53583,1,0,0:0:0:0:
76,168,53745,1,0,0:0:0:0:
217,187,54070,1,0,0:0:0:0:
265,217,54232,1,0,0:0:0:0:
268,262,54394,1,0,0:0:0:0:
370,279,54718,2,0,P|414:232|410:171,1,130
325,107,55367,2,0,L|316:171,1,65
266,187,55691,2,0,L|257:251,1,65
206,265,56016,6,0,P|161:311|99:311,1,130
99,207,56664,1,0,0:0:0:0:
197,174,56989,1,0,0:0:0:0:
324,197,57313,2,0,P|359:251|334:305,1,130
236,345,57962,1,0,0:0:0:0:
339,357,58286,1,0,0:0:0:0:
462,315,58610,1,0,0:0:0:0:
482,186,58935,1,0,0:0:0:0:
353,166,59259,1,0,0:0:0:0:
333,295,59583,1,0,0:0:0:0:
191,317,59908,1,0,0:0:0:0:
49,294,60232,1,0,0:0:0:0:
72,152,60556,1,0,0:0:0:0:
214,175,60881,1,0,0:0:0:0:
272,58,61205,5,0,0:0:0:0:
130,35,61529,2,0,P|71:60|35:112,2,130
138,138,62502,2,0,B|185:225|236:183|293:246,2,195
242,131,63799,1,0,0:0:0:0:
344,151,64124,1,0,0:0:0:0:
324,253,64448,1,0,0:0:0:0:
222,233,64772,1,0,0:0:0:0:
201,335,65097,2,0,B|265:331|264:278|386:283,2,195
177,167,66394,6,0,L|165:230,1,65
381,142,67043,2,0,L|393:79,1,65
252,239,67691,2,0,L|240:302,1,65
415,217,68340,2,0,L|427:154,1,65
314,312,68989,5,0,0:0:0:0:
146,178,69475,1,0,0:0:0:0:
372,64,69962,1,0,0:0:0:0:
291,197,70286,2,0,P|163:215|97:118,1,260
234,76,71259,1,0,0:0:0:0:
364,134,71583,6,0,P|297:160|253:213,1,143.000004364014
301,317,72232,1,0,0:0:0:0:
187,333,72556,1,0,0:0:0:0:
102,216,72881,2,0,P|172:229|214:180,1,143.000004364014
214,64,73529,1,0,0:0:0:0:
321,102,73854,1,0,0:0:0:0:
245,239,74178,2,0,P|321:254|353:306,1,143.000004364014
370,193,74827,2,0,P|403:180|427:154,2,71.5000021820069
233,90,75475,2,0,B|282:39|296:175|395:-2|502:30,1,286.000008728028
389,140,76448,1,0,0:0:0:0:
249,109,76772,5,0,0:0:0:0:
218,249,77097,1,0,0:0:0:0:
78,218,77421,2,0,P|40:158|42:125,2,107.25000327301
78,218,78070,1,0,0:0:0:0:
218,249,78394,1,0,0:0:0:0:
295,370,78718,2,0,P|223:362|198:342,2,107.25000327301
374,337,79367,2,0,P|343:273|280:276,1,143.000004364014
122,296,80016,2,0,P|146:229|203:191,1,143.000004364014
313,98,80664,2,0,B|266:152|382:218|194:332,1,286.000008728028
223,192,81637,1,0,0:0:0:0:
69,229,81962,6,0,P|94:163|152:122,1,143.000004364014
250,203,82610,1,0,0:0:0:0:
277,77,82935,1,0,0:0:0:0:
411,157,83259,2,0,P|415:86|368:38,1,143.000004364014
238,43,83908,1,0,0:0:0:0:
289,160,84232,1,0,0:0:0:0:
453,209,84556,2,0,P|410:265|341:278,1,143.000004364014
272,169,85205,2,0,P|302:187|336:182,2,71.5000021820069
144,33,85854,2,0,B|203:166|277:42|387:142,1,286.000008728028
483,0,86827,1,0,0:0:0:0:
502,155,87151,5,0,0:0:0:0:
358,94,87475,1,0,0:0:0:0:
385,248,87799,2,0,P|424:189|417:158,2,107.25000327301
385,248,88448,1,0,0:0:0:0:
234,293,88772,1,0,0:0:0:0:
166,150,89097,2,0,P|127:91|98:71,2,107.25000327301
256,123,89745,2,0,P|250:195|197:235,1,143.000004364014
106,88,90394,2,0,P|170:57|240:46,1,143.000004364014
396,66,91043,2,0,B|500:40|507:143|499:233|383:197|383:197|381:302|269:302,1,429.000013092041
279,197,92340,6,0,B|243:142|243:142|304:118|304:170|363:117,2,195
227,316,93637,1,0,0:0:0:0:
124,329,93962,1,0,0:3:0:0:
61,246,94286,1,0,0:0:0:0:
101,149,94611,1,0,0:3:0:0:
231,131,94935,2,0,P|258:148|270:177,2,65
205,190,95421,2,0,B|253:275|341:186|413:209,1,195
406,346,96232,1,0,0:0:0:0:
378,179,96556,1,0,0:0:0:0:
223,155,96881,1,0,0:3:0:0:
68,131,97205,1,0,0:3:0:0:
89,259,97529,6,0,B|144:292|144:292|177:235|251:264|272:206,2,195
174,161,98827,5,0,0:0:0:0:
277,162,99151,1,0,0:0:0:0:
369,206,99475,1,0,0:0:0:0:
433,284,99799,1,0,0:0:0:0:
303,293,100124,2,0,P|328:313|348:339,2,65
255,346,100610,2,0,B|221:337|194:345|194:345|203:277|141:229,1,195
186,66,101421,5,0,0:0:0:0:
221,142,101583,1,0,0:0:0:0:
256,218,101745,1,0,0:0:0:0:
468,120,102232,5,0,0:0:0:0:
397,152,102394,1,0,0:0:0:0:
279,206,102718,6,0,P|248:149|267:90,1,130
359,137,103367,1,0,0:0:0:0:
462,148,103691,1,0,0:0:0:0:
447,290,104016,2,0,P|387:316|345:365,1,130
243,384,104664,1,0,0:0:0:0:
154,328,104989,1,0,0:0:0:0:
203,180,105313,2,0,P|269:187|289:206,2,97.5
159,209,105962,2,0,P|119:262|93:270,2,97.5
155,157,106610,2,0,P|179:97|228:57,1,130
329,83,107259,2,0,L|345:146,2,65
255,206,107908,6,0,P|305:246|365:233,1,130
479,208,108556,1,0,0:0:0:0:
504,322,108881,1,0,0:0:0:0:
348,322,109205,2,0,P|266:336|226:318,1,130
114,355,109854,1,0,0:0:0:0:
29,274,110178,1,0,0:0:0:0:
98,120,110502,2,0,P|126:56|143:36,2,97.5
156,120,111151,2,0,P|225:112|251:116,2,97.5
126,169,111799,2,0,B|151:228|151:228|193:277,1,130
351,217,112448,2,0,P|349:250|335:279,1,65
408,306,112772,2,0,P|389:333|363:351,1,65
298,353,113097,5,0,0:0:0:0:
261,214,113421,2,0,P|203:242|172:297,2,130
323,130,114394,2,0,B|385:148|385:148|377:212|426:225|464:228,2,195
219,75,115691,1,0,0:0:0:0:
161,177,116016,1,0,0:0:0:0:
161,177,116178,2,0,B|196:149|276:131|340:190,1,195
496,190,116989,2,0,B|453:140|453:140|392:117|392:117|396:53,2,195
431,346,118286,5,0,0:0:0:0:
381,361,118448,1,0,0:0:0:0:
303,139,118935,5,0,0:0:0:0:
253,154,119097,1,0,0:0:0:0:
132,331,119583,5,0,0:0:0:0:
181,316,119745,1,0,0:0:0:0:
358,235,120232,5,0,0:0:0:0:
407,220,120394,1,0,0:0:0:0:
192,205,120881,5,0,0:0:0:0:
384,175,121367,1,0,0:0:0:0:
130,190,121854,1,0,0:0:0:0:
139,346,122178,2,0,B|163:286|163:286|212:329|212:329|272:312|272:312|339:327,1,260
478,296,123151,1,0,0:0:0:0:
381,191,123475,6,0,P|320:230|184:211,1,214.500006546021
184,211,124124,1,0,0:0:0:0:
82,159,124448,1,0,0:0:0:0:
215,106,124772,2,0,P|277:140|384:66,1,214.500006546021
383,66,125421,1,0,0:0:0:0:
438,166,125745,1,0,0:0:0:0:
457,322,126070,2,0,P|391:349|249:335,1,214.500006546021
251,335,126718,1,0,0:0:0:0:
175,313,126881,1,0,0:0:0:0:
107,351,127043,1,0,0:0:0:0:
139,182,127367,2,0,B|185:128|185:128|275:239|275:239|331:195,1,286.000008728028
300,27,128340,1,0,0:0:0:0:
432,79,128664,5,0,0:0:0:0:
390,216,128989,1,0,0:0:0:0:
466,336,129313,2,0,B|434:351|399:350|399:350|376:380,2,107.25000327301
466,336,129962,1,0,0:0:0:0:
332,285,130286,1,0,0:0:0:0:
191,308,130610,2,0,B|165:283|164:248|164:248|128:232,2,107.25000327301
253,248,131259,1,0,0:0:0:0:
466,148,131745,1,0,0:0:0:0:
466,148,131908,1,0,0:0:0:0:
257,99,132394,1,0,0:0:0:0:
262,170,132556,2,0,B|288:280|406:235|492:254|504:341,1,286.000008728028
352,332,133529,1,0,0:0:0:0:
196,304,133854,6,0,P|144:256|174:129,1,214.500006546021
235,109,134502,2,0,P|247:75|237:43,2,71.5000021820069
381,169,135151,2,0,P|320:132|182:143,1,214.500006546021
118,133,135799,2,0,L|109:203,1,71.5000021820069
48,226,136124,1,0,0:0:0:0:
217,254,136448,2,0,P|279:220|326:91,1,214.500006546021
388,72,137097,2,0,L|399:142,1,71.5000021820069
414,240,137421,2,0,L|425:310,1,71.5000021820069
334,291,137745,2,0,B|282:212|201:377|75:258,1,286.000008728028
209,151,138718,1,0,0:0:0:0:
334,247,139043,5,0,0:0:0:0:
188,306,139367,1,0,0:0:0:0:
209,151,139691,2,0,B|174:142|150:114|150:114|113:130,2,107.25000327301
209,151,140340,1,0,0:0:0:0:
270,6,140664,1,0,0:0:0:0:
389,109,140989,2,0,B|368:139|390:177|390:177|348:205,2,107.25000327301
473,147,141637,2,0,B|463:218|421:274|336:291,1,214.500006546021
325,205,142286,2,0,B|271:144|220:291|137:253,1,214.500006546021
97,321,142935,2,0,B|10:247|15:158|185:157|185:157|171:60|279:158|306:75,1,429.000013092041
293,232,144232,5,0,0:0:0:0:
404,299,144556,2,0,P|443:247|425:190,2,130
404,299,145367,1,0,0:0:0:0:
250,272,145691,1,0,0:0:0:0:
230,130,146016,1,0,0:0:0:0:
359,153,146340,1,0,0:0:0:0:
230,130,146664,2,0,L|188:179,1,65
317,202,147151,2,0,L|359:153,1,65
341,10,147637,1,0,0:0:0:0:
211,96,147962,2,0,B|237:184|237:184|200:194|200:194|136:169|136:169|74:160|74:160|79:96,1,325
207,6,149097,1,0,0:0:0:0:
150,122,149421,6,0,B|185:62|234:152|306:29,2,195
215,234,150718,2,0,B|187:292|187:292|249:313,1,130
319,324,151205,2,0,B|348:266|348:266|254:175,1,195
410,158,152016,2,0,P|460:118|452:57,1,130
379,85,152502,2,0,P|304:145|316:236,1,195
465,312,153313,2,0,B|419:357|358:375|284:358,1,195
229,301,153962,2,0,B|275:256|336:238|410:255,1,195
468,172,154610,6,0,P|416:114|347:82,1,155.999995239258
268,67,155097,1,0,0:0:0:0:
131,256,155583,2,0,P|208:249|281:274,1,155.999995239258
281,274,156070,1,0,0:0:0:0:
147,192,156394,1,0,0:0:0:0:
195,121,156556,1,0,0:0:0:0:
190,308,156881,1,0,0:0:0:0:
60,152,157205,6,0,P|101:86|164:43,1,155.999995239258
177,143,157691,2,0,P|251:164|328:153,1,155.999995239258
399,226,158178,2,0,P|351:287|278:301,1,155.999995239258
304,203,158664,2,0,P|226:200|168:247,1,155.999995239258
133,335,159151,2,0,L|91:269,1,77.999997619629
100,184,159475,2,0,L|91:106,1,77.999997619629
155,63,159799,5,0,0:0:0:0:
376,143,160286,1,0,0:1:0:0:
155,63,160772,1,0,0:0:0:0:
376,143,161259,1,0,0:0:0:0:
155,63,161745,1,0,0:0:0:0:
149,219,162070,1,0,0:0:0:0:
269,184,162394,5,0,0:0:0:0:
389,150,162719,1,0,0:0:0:0:
269,184,163043,1,0,0:0:0:0:
303,235,163205,1,0,0:0:0:0:
182,201,163529,1,0,0:0:0:0:
165,269,163691,2,0,P|152:306|121:331,1,77.999997619629
69,272,164016,2,0,P|68:233|81:197,1,77.999997619629
166,186,164340,2,0,P|205:189|241:178,1,77.999997619629
334,188,164664,1,0,0:0:0:0:
420,224,164827,1,0,0:0:0:0:
363,318,164989,6,0,B|279:306|215:249|243:135,1,253.499988395691
319,201,165637,2,0,B|240:230|166:198|79:268,1,253.499988395691
158,316,166286,2,0,P|172:277|171:235,1,84.4999961318971
259,260,166610,2,0,P|285:228|298:188,1,84.4999961318971
214,185,166935,1,0,0:0:0:0:
267,108,167097,2,0,B|228:89|228:89|261:54|308:116|371:54,1,168.999992263794
454,99,167583,6,0,L|467:182,1,84.4999961318971
372,153,167908,2,0,L|368:238,1,84.4999961318971
277,250,168232,2,0,P|239:270|199:278,3,84.4999961318971
124,258,168881,2,0,P|122:216|146:184,1,84.4999961318971
230,165,169205,2,0,P|270:172|306:155,1,84.4999961318971
360,230,169529,2,0,P|393:255|435:260,1,84.4999961318971
478,168,169854,1,0,0:0:0:0:
459,69,170016,1,0,0:0:0:0:
383,135,170178,5,0,0:0:0:0:
180,135,170502,1,0,0:0:0:0:
342,256,170827,1,0,0:0:0:0:
440,207,170989,1,0,0:0:0:0:
446,97,171151,1,0,0:0:0:0:
276,207,171475,1,0,0:0:0:0:
105,97,171799,1,0,0:0:0:0:
161,309,172124,1,0,0:0:0:0:
251,370,172286,1,0,0:0:0:0:
259,260,172448,1,0,0:0:0:0:
390,129,172772,6,0,P|380:169|352:201,2,84.4999961318971
191,225,173421,2,0,P|149:215|118:188,2,84.4999961318971,0|0|0,3:0|0:0|3:0,0:0:0:0:
347,327,174070,2,0,P|414:277|439:198,1,168.999992263794
254,217,174718,2,0,P|173:200|97:233,1,168.999992263794
256,192,175367,12,0,177313,0:0:0:0:
370,228,177962,6,0,P|292:258|208:248,1,168.999992263794
148,189,178448,1,0,0:0:0:0:
83,255,178610,2,0,P|62:292|26:309,3,84.4999961318971
97,368,179259,2,0,P|137:357|163:324,1,84.4999961318971
243,371,179583,2,0,P|274:341|277:301,1,84.4999961318971
367,277,179908,2,0,L|374:362,2,84.4999961318971
384,185,180394,1,0,0:0:0:0:
317,98,180556,6,0,P|239:65|157:76,1,168.999992263794
157,296,181205,2,0,P|239:306|316:273,1,168.999992263794
149,192,181854,2,0,L|65:192,2,84.4999961318971
233,231,182340,1,0,0:0:0:0:
317,192,182502,2,0,L|410:193,3,84.4999961318971
486,192,183151,6,0,P|511:272|465:337,1,168.999992263794
381,347,183637,1,0,0:0:0:0:
327,270,183799,2,0,P|298:299|293:341,1,84.4999961318971
194,314,184124,2,0,P|167:347|128:352,1,84.4999961318971
114,242,184448,2,0,P|95:160|111:78,2,168.999992263794
213,193,185259,1,0,0:0:0:0:
114,242,185421,1,0,0:0:0:0:
332,218,185745,6,0,P|459:197|507:293,2,253.499988395691
253,252,186881,1,0,0:0:0:0:
170,235,187043,6,0,P|163:276|148:316,2,84.4999961318971
253,252,187529,2,0,P|232:167|98:195,1,253.499988395691
97,195,188178,1,0,0:0:0:0:
37,114,188340,5,0,0:0:0:0:
330,34,188827,1,0,0:0:0:0:
497,288,189313,1,0,0:0:0:0:
281,242,189637,2,0,P|185:324|65:312,2,253.499988395691
95,121,190935,5,0,0:0:0:0:
107,255,191259,1,0,0:0:0:0:
242,243,191584,1,0,0:0:0:0:
230,109,191908,1,0,0:0:0:0:
354,21,192232,1,0,0:0:0:0:
470,119,192556,1,0,0:0:0:0:
373,235,192881,1,0,0:0:0:0:
256,138,193205,1,0,0:0:0:0:
420,173,193529,6,0,P|427:132|452:99,2,84.4999961318971
256,138,194178,2,0,P|298:133|329:107,2,84.4999961318971
100,240,194827,1,0,0:0:0:0:
264,325,195151,1,0,0:0:0:0:
100,240,195475,1,0,0:0:0:0:
201,246,195637,1,0,0:0:0:0:
264,325,195799,1,0,0:0:0:0:
364,313,195961,1,0,0:0:0:0:
380,230,196124,5,0,0:0:0:0:
237,238,196448,2,0,P|293:206|313:147,2,130
154,174,197421,2,0,B|215:152|215:152|198:78|281:48,2,195
86,269,198718,2,0,L|148:288,1,65
191,247,199043,1,0,0:0:0:0:
234,206,199205,2,0,B|353:178|397:293,1,195
437,132,200016,2,0,B|440:198|440:198|491:238|491:238|499:302,2,195
271,92,201313,6,0,L|266:165,1,65
133,104,201799,2,0,L|137:30,1,65
187,173,202286,1,0,0:0:0:0:
312,240,202610,2,0,L|307:313,1,65
186,255,203097,2,0,L|190:181,1,65
158,63,203583,1,0,0:0:0:0:
314,72,203908,5,0,0:0:0:0:
146,206,204394,1,0,0:0:0:0:
372,320,204881,1,0,0:0:0:0:
233,250,205205,2,0,P|357:212|339:106,1,260
209,166,206178,1,0,0:0:0:0:
169,303,206502,6,0,B|135:202|83:244|66:120,1,214.500006546021
110,83,207151,2,0,P|111:118|96:151,3,71.5000021820069
153,149,207799,2,0,P|256:177|331:111,1,214.500006546021
388,112,208448,2,0,P|372:79|344:57,1,71.5000021820069
444,133,208772,2,0,P|440:97|422:67,1,71.5000021820069
499,85,209097,2,0,P|501:192|459:289,1,214.500006546021
398,239,209745,1,0,0:0:0:0:
398,239,209908,1,0,0:0:0:0:
398,239,210070,2,0,L|384:309,1,71.5000021820069
303,338,210394,2,0,P|196:341|131:195,1,286.000008728028
260,81,211367,1,0,0:0:0:0:
272,223,211691,5,0,0:0:0:0:
131,194,212016,1,0,0:0:0:0:
272,223,212340,2,0,B|277:295|277:295|298:322,2,107.25000327301
272,223,212989,1,0,0:0:0:0:
136,269,213313,1,0,0:0:0:0:
164,128,213637,2,0,B|132:142|132:142|127:178|88:194,2,107.25000327301
245,100,214286,1,0,0:0:0:0:
330,98,214448,1,0,0:0:0:0:
470,167,214772,1,0,0:0:0:0:
436,238,214935,1,0,0:0:0:0:
436,238,215097,1,0,0:0:0:0:
296,266,215421,1,0,0:0:0:0:
342,320,215583,2,0,P|311:337|276:342,3,71.5000021820069
296,266,216232,1,0,0:0:0:0:
268,125,216556,1,0,0:0:0:0:
113,156,216881,6,0,B|118:260|233:184|316:198,1,214.500006546021
265,255,217529,2,0,P|301:257|334:247,1,71.5000021820069
289,293,217854,2,0,P|324:288|355:273,1,71.5000021820069
426,283,218178,2,0,B|418:177|328:145|336:84,1,214.500006546021
273,74,218827,1,0,0:0:0:0:
273,74,218989,1,0,0:0:0:0:
273,74,219151,2,0,L|263:144,1,71.5000021820069
184,109,219475,2,0,P|196:217|285:225,1,214.500006546021
349,220,220124,1,0,0:0:0:0:
407,246,220286,1,0,0:0:0:0:
433,308,220448,1,0,0:0:0:0:
433,308,220610,1,0,0:0:0:0:
340,319,220772,2,0,B|262:246|208:309|149:236|123:158,1,286.000008728028
292,188,221745,1,0,0:0:0:0:
401,74,222070,5,0,0:0:0:0:
445,226,222394,1,0,0:0:0:0:
292,188,222718,2,0,B|354:228|354:228|355:262,2,107.25000327301
292,188,223367,1,0,0:0:0:0:
250,339,223691,1,0,0:0:0:0:
98,297,224016,2,0,B|87:367|87:367|52:375,2,107.25000327301
39,224,224664,2,0,B|48:192|110:144|122:109,1,143.000004364014
190,161,225151,1,0,0:0:0:0:
201,76,225313,2,0,B|234:74|299:118|336:119,1,143.000004364014
359,194,225799,1,0,0:0:0:0:
421,134,225962,1,0,0:0:0:0:
383,301,226286,1,0,0:0:0:0:
219,351,226610,1,0,0:0:0:0:
257,183,226935,1,0,0:0:0:0:
93,233,227259,6,0,P|45:149|84:67,2,195
167,208,228394,1,0,0:0:0:0:
235,188,228556,2,0,B|255:278|310:265|331:355,2,195
234,116,229691,1,0,0:0:0:0:
284,145,229854,2,0,B|333:102|333:102|397:106|397:106|443:152,2,195
307,198,230989,1,0,0:0:0:0:
371,196,231151,2,0,P|358:260|338:283,2,97.5
404,132,231799,1,0,0:0:0:0:
421,25,232043,1,0,0:0:0:0:
320,64,232286,1,0,0:0:0:0:
327,141,232448,6,0,P|242:191|230:218,1,130
154,198,232935,1,0,0:0:0:0:
208,51,233259,1,0,0:0:0:0:
131,65,233421,1,0,0:0:0:0:
208,51,233583,1,0,0:0:0:0:
181,117,233745,2,0,B|245:168|215:241|215:241|269:236,1,195
381,326,234556,1,0,0:0:0:0:
394,255,234718,1,0,0:0:0:0:
407,184,234881,1,0,0:0:0:0:
369,139,235043,2,0,B|306:157|306:157|250:125|250:125|219:182,1,195
102,174,235854,1,0,0:0:0:0:
102,174,236016,1,0,0:0:0:0:
102,174,236178,1,0,0:0:0:0:
102,109,236340,1,0,0:0:0:0:
199,116,236583,1,0,0:0:0:0:
296,123,236827,1,0,0:0:0:0:
244,171,236989,1,0,0:0:0:0:
283,270,237232,1,0,0:0:0:0:
350,186,237475,1,0,0:0:0:0:
406,131,237637,5,0,0:0:0:0:
480,109,237799,1,0,0:0:0:0:
458,35,237962,1,0,0:0:0:0:
384,57,238124,1,0,0:0:0:0:
406,131,238286,1,0,0:0:0:0:
450,279,238610,1,0,0:0:0:0:
311,244,238935,5,0,0:0:0:0:
271,106,239259,1,0,0:0:0:0:
105,140,239583,5,0,0:0:0:0:
152,302,239907,1,0,0:0:0:0:
254,184,240232,5,0,0:0:0:0:
256,192,240313,12,0,251908,0:0:0:0:
