osu file format v14

[General]
AudioFilename: audio.mp3
AudioLeadIn: 0
PreviewTime: 383916
Countdown: 1
SampleSet: Normal
StackLeniency: 1
Mode: 1
LetterboxInBreaks: 0
WidescreenStoryboard: 0

[Editor]
Bookmarks: 20590,39790,58990,78190,97390,114190,135790,154990,164590,183790,200590,221890,242590,265178,287766,299766,328566,347766,366966,386166,402966,422166
DistanceSpacing: 0.1
BeatDivisor: 4
GridSize: 32
TimelineZoom: 2.3

[Metadata]
Title:Through the Fire and Flames
TitleUnicode:Through the Fire and Flames
Artist:DragonForce
ArtistUnicode:DragonForce
Creator:Zing
Version:Tatsujin
Source:Guitar Hero III
Tags:Guitar Hero III Legends of Rock DragonForce
BeatmapID:1393406
BeatmapSetID:657869

[Difficulty]
HPDrainRate:3.5
CircleSize:7
OverallDifficulty:7
ApproachRate:10
SliderMultiplier:1.4
SliderTickRate:1

[Events]
//Background and Video events
0,0,"doragon_forusu.png",0,0
//Break Periods
//Storyboard Layer 0 (Background)
//Storyboard Layer 1 (Fail)
//Storyboard Layer 2 (Pass)
//Storyboard Layer 3 (Foreground)
//Storyboard Sound Samples

[TimingPoints]
1390,300,4,1,0,70,1,0
1390,-125,4,1,0,70,0,0
20590,-95.2380952380952,4,1,0,70,0,1
39790,-100,4,1,0,70,0,0
39865,-166.666666666667,4,1,0,30,0,0
42115,-166.666666666667,4,1,0,70,0,0
42265,-166.666666666667,4,1,0,30,0,0
44515,-166.666666666667,4,1,0,70,0,0
44665,-166.666666666667,4,1,0,30,0,0
46915,-100,4,1,0,70,0,0
97390,-86.9565217391304,4,1,0,70,0,1
112990,-86.9565217391304,4,1,0,70,0,0
113065,-111.111111111111,4,1,0,40,0,0
114190,-100,4,1,0,70,0,0
133465,-133.333333333333,4,1,0,50,0,0
142990,-133.333333333333,4,1,0,70,0,0
144115,-111.111111111111,4,1,0,70,0,0
145315,-100,4,1,0,70,0,0
183790,-83.3333333333333,4,1,0,70,0,1
199465,-111.111111111111,4,1,0,40,0,0
200590,-100,4,1,0,70,0,0
222265,-166.666666666667,4,1,0,30,0,0
224215,-111.111111111111,4,1,0,70,0,0
224665,-166.666666666667,4,1,0,30,0,0
226615,-111.111111111111,4,1,0,70,0,0
227065,-166.666666666667,4,1,0,30,0,0
229315,-125,4,1,0,70,0,0
231190,-100,4,1,0,70,0,0
231865,-133.333333333333,4,1,0,40,0,0
233740,-111.111111111111,4,1,0,70,0,0
234265,-133.333333333333,4,1,0,40,0,0
236365,-111.111111111111,4,1,0,70,0,0
236665,-133.333333333333,4,1,0,40,0,0
238915,-117.647058823529,4,1,0,70,0,0
242590,352.941176470588,4,1,0,70,1,0
287766,300,4,1,0,70,1,0
298491,-125,4,1,0,45,0,0
299691,-90.9090909090909,4,1,0,70,0,0
299766,-90.9090909090909,4,1,0,70,0,1
328566,-90.9090909090909,4,1,0,70,0,0
347766,-90.9090909090909,4,1,0,70,0,1
366966,-90.9090909090909,4,1,0,70,0,0
367041,-142.857142857143,4,1,0,70,0,0
370791,-142.857142857143,4,1,0,40,0,0
371541,-142.857142857143,4,1,0,70,0,0
375591,-142.857142857143,4,1,0,40,0,0
376341,-142.857142857143,4,1,0,70,0,0
376941,-142.857142857143,4,1,0,40,0,0
378741,-142.857142857143,4,1,0,70,0,0
379266,-142.857142857143,4,1,0,40,0,0
381141,-142.857142857143,4,1,0,70,0,0
381741,-142.857142857143,4,1,0,40,0,0
383541,-142.857142857143,4,1,0,70,0,0
383766,-100,4,1,0,70,0,0
384966,-86.9565217391304,4,1,0,70,0,0
385566,-83.3333333333333,4,1,0,70,0,0
386166,-80,4,1,0,70,0,1
401841,-111.111111111111,4,1,0,50,0,0
402891,-100,4,1,0,70,0,0
412566,-90.9090909090909,4,1,0,70,0,1
422166,-100,4,1,0,70,0,0

[HitObjects]
256,192,1390,5,12,0:0:0:0:
256,192,3490,1,0,0:0:0:0:
256,192,3540,1,0,0:0:0:0:
256,192,3590,1,0,0:0:0:0:
256,192,3640,1,0,0:0:0:0:
256,192,3690,1,0,0:0:0:0:
256,192,3740,1,0,0:0:0:0:
256,192,3790,1,8,0:0:0:0:
256,192,6190,1,12,0:0:0:0:
256,192,6340,2,0,L|288:192,28,28
256,192,8590,1,4,0:0:0:0:
256,192,9790,1,4,0:0:0:0:
256,192,9940,2,0,L|288:192,12,28
256,192,10990,1,4,0:0:0:0:
256,192,13090,1,8,0:0:0:0:
256,192,13140,1,8,0:0:0:0:
256,192,13190,1,8,0:0:0:0:
256,192,13240,1,8,0:0:0:0:
256,192,13290,1,8,0:0:0:0:
256,192,13340,1,8,0:0:0:0:
256,192,13390,1,0,0:0:0:0:
256,192,15790,1,12,0:0:0:0:
256,192,15940,2,0,L|224:192,28,28
256,192,18190,1,4,0:0:0:0:
256,192,19390,1,12,0:0:0:0:
256,192,19690,1,12,0:0:0:0:
256,192,19990,1,12,0:0:0:0:
256,192,20590,5,8,0:0:0:0:
256,192,20665,1,8,0:0:0:0:
256,192,20740,1,0,0:0:0:0:
256,192,20815,1,8,0:0:0:0:
256,192,20890,1,0,0:0:0:0:
256,192,20965,1,0,0:0:0:0:
256,192,21040,1,8,0:0:0:0:
256,192,21115,1,8,0:0:0:0:
256,192,21190,1,0,0:0:0:0:
256,192,21265,1,8,0:0:0:0:
256,192,21340,1,0,0:0:0:0:
256,192,21415,1,0,0:0:0:0:
256,192,21490,1,8,0:0:0:0:
256,192,21565,1,8,0:0:0:0:
256,192,21640,1,0,0:0:0:0:
256,192,21715,1,0,0:0:0:0:
256,192,21790,1,8,0:0:0:0:
256,192,21865,1,8,0:0:0:0:
256,192,21940,1,0,0:0:0:0:
256,192,22015,1,8,0:0:0:0:
256,192,22090,1,0,0:0:0:0:
256,192,22165,1,0,0:0:0:0:
256,192,22240,1,8,0:0:0:0:
256,192,22315,1,8,0:0:0:0:
256,192,22390,1,0,0:0:0:0:
256,192,22465,1,8,0:0:0:0:
256,192,22540,1,0,0:0:0:0:
256,192,22615,1,0,0:0:0:0:
256,192,22690,1,8,0:0:0:0:
256,192,22765,1,8,0:0:0:0:
256,192,22840,1,0,0:0:0:0:
256,192,22915,1,0,0:0:0:0:
256,192,22990,1,8,0:0:0:0:
256,192,23065,1,8,0:0:0:0:
256,192,23140,1,8,0:0:0:0:
256,192,23215,1,8,0:0:0:0:
256,192,23290,1,0,0:0:0:0:
256,192,23365,1,0,0:0:0:0:
256,192,23440,1,8,0:0:0:0:
256,192,23515,1,8,0:0:0:0:
256,192,23590,1,8,0:0:0:0:
256,192,23665,1,8,0:0:0:0:
256,192,23740,1,0,0:0:0:0:
256,192,23815,1,0,0:0:0:0:
256,192,23890,1,8,0:0:0:0:
256,192,23965,1,8,0:0:0:0:
256,192,24040,1,8,0:0:0:0:
256,192,24115,1,0,0:0:0:0:
256,192,24190,1,8,0:0:0:0:
256,192,24265,1,8,0:0:0:0:
256,192,24340,1,8,0:0:0:0:
256,192,24415,1,8,0:0:0:0:
256,192,24490,1,0,0:0:0:0:
256,192,24565,1,0,0:0:0:0:
256,192,24640,1,8,0:0:0:0:
256,192,24715,1,8,0:0:0:0:
256,192,24790,1,8,0:0:0:0:
256,192,24865,1,8,0:0:0:0:
256,192,24940,1,0,0:0:0:0:
256,192,25015,1,0,0:0:0:0:
256,192,25090,1,8,0:0:0:0:
256,192,25165,1,8,0:0:0:0:
256,192,25240,1,8,0:0:0:0:
256,192,25315,1,0,0:0:0:0:
256,192,25390,1,8,0:0:0:0:
256,192,25465,1,0,0:0:0:0:
256,192,25540,1,8,0:0:0:0:
256,192,25615,1,8,0:0:0:0:
256,192,25690,1,0,0:0:0:0:
256,192,25765,1,0,0:0:0:0:
256,192,25840,1,8,0:0:0:0:
256,192,25915,1,0,0:0:0:0:
256,192,25990,1,8,0:0:0:0:
256,192,26065,1,8,0:0:0:0:
256,192,26140,1,0,0:0:0:0:
256,192,26215,1,0,0:0:0:0:
256,192,26290,1,8,0:0:0:0:
256,192,26365,1,0,0:0:0:0:
256,192,26440,1,0,0:0:0:0:
256,192,26515,1,0,0:0:0:0:
256,192,26590,1,8,0:0:0:0:
256,192,26665,1,0,0:0:0:0:
256,192,26740,1,8,0:0:0:0:
256,192,26815,1,8,0:0:0:0:
256,192,26890,1,0,0:0:0:0:
256,192,26965,1,0,0:0:0:0:
256,192,27040,1,8,0:0:0:0:
256,192,27115,1,0,0:0:0:0:
256,192,27190,1,8,0:0:0:0:
256,192,27265,1,8,0:0:0:0:
256,192,27340,1,0,0:0:0:0:
256,192,27415,1,0,0:0:0:0:
256,192,27490,1,8,0:0:0:0:
256,192,27565,1,0,0:0:0:0:
256,192,27640,1,0,0:0:0:0:
256,192,27715,1,0,0:0:0:0:
256,192,27790,1,8,0:0:0:0:
256,192,27865,1,8,0:0:0:0:
256,192,27940,1,8,0:0:0:0:
256,192,28015,1,8,0:0:0:0:
256,192,28090,1,0,0:0:0:0:
256,192,28165,1,0,0:0:0:0:
256,192,28240,1,0,0:0:0:0:
256,192,28315,1,0,0:0:0:0:
256,192,28390,1,8,0:0:0:0:
256,192,28465,1,8,0:0:0:0:
256,192,28540,1,0,0:0:0:0:
256,192,28615,1,0,0:0:0:0:
256,192,28690,1,8,0:0:0:0:
256,192,28765,1,8,0:0:0:0:
256,192,28840,1,8,0:0:0:0:
256,192,28990,2,0,L|320:192,14,36.749998878479
256,192,30190,1,8,0:0:0:0:
256,192,30265,1,8,0:0:0:0:
256,192,30340,1,0,0:0:0:0:
256,192,30415,1,8,0:0:0:0:
256,192,30490,1,0,0:0:0:0:
256,192,30565,1,0,0:0:0:0:
256,192,30640,1,8,0:0:0:0:
256,192,30715,1,8,0:0:0:0:
256,192,30790,1,0,0:0:0:0:
256,192,30865,1,8,0:0:0:0:
256,192,30940,1,0,0:0:0:0:
256,192,31015,1,0,0:0:0:0:
256,192,31090,1,8,0:0:0:0:
256,192,31165,1,8,0:0:0:0:
256,192,31240,1,0,0:0:0:0:
256,192,31315,1,0,0:0:0:0:
256,192,31390,1,8,0:0:0:0:
256,192,31465,1,8,0:0:0:0:
256,192,31540,1,0,0:0:0:0:
256,192,31615,1,8,0:0:0:0:
256,192,31690,1,0,0:0:0:0:
256,192,31765,1,0,0:0:0:0:
256,192,31840,1,8,0:0:0:0:
256,192,31915,1,8,0:0:0:0:
256,192,31990,1,0,0:0:0:0:
256,192,32065,1,8,0:0:0:0:
256,192,32140,1,0,0:0:0:0:
256,192,32215,1,0,0:0:0:0:
256,192,32290,1,8,0:0:0:0:
256,192,32365,1,8,0:0:0:0:
256,192,32440,1,0,0:0:0:0:
256,192,32515,1,0,0:0:0:0:
256,192,32590,1,8,0:0:0:0:
256,192,32665,1,8,0:0:0:0:
256,192,32740,1,8,0:0:0:0:
256,192,32815,1,8,0:0:0:0:
256,192,32890,1,0,0:0:0:0:
256,192,32965,1,0,0:0:0:0:
256,192,33040,1,8,0:0:0:0:
256,192,33115,1,8,0:0:0:0:
256,192,33190,1,8,0:0:0:0:
256,192,33265,1,8,0:0:0:0:
256,192,33340,1,0,0:0:0:0:
256,192,33415,1,0,0:0:0:0:
256,192,33490,1,8,0:0:0:0:
256,192,33565,1,8,0:0:0:0:
256,192,33640,1,8,0:0:0:0:
256,192,33715,1,0,0:0:0:0:
256,192,33790,1,8,0:0:0:0:
256,192,33865,1,8,0:0:0:0:
256,192,33940,1,8,0:0:0:0:
256,192,34015,1,8,0:0:0:0:
256,192,34090,1,0,0:0:0:0:
256,192,34165,1,0,0:0:0:0:
256,192,34240,1,8,0:0:0:0:
256,192,34315,1,8,0:0:0:0:
256,192,34390,1,8,0:0:0:0:
256,192,34465,1,8,0:0:0:0:
256,192,34540,1,0,0:0:0:0:
256,192,34615,1,0,0:0:0:0:
256,192,34690,1,8,0:0:0:0:
256,192,34765,1,8,0:0:0:0:
256,192,34840,1,8,0:0:0:0:
256,192,34915,1,0,0:0:0:0:
256,192,34990,1,8,0:0:0:0:
256,192,35065,1,0,0:0:0:0:
256,192,35140,1,8,0:0:0:0:
256,192,35215,1,8,0:0:0:0:
256,192,35290,1,0,0:0:0:0:
256,192,35365,1,0,0:0:0:0:
256,192,35440,1,8,0:0:0:0:
256,192,35515,1,0,0:0:0:0:
256,192,35590,1,8,0:0:0:0:
256,192,35665,1,8,0:0:0:0:
256,192,35740,1,0,0:0:0:0:
256,192,35815,1,0,0:0:0:0:
256,192,35890,1,8,0:0:0:0:
256,192,35965,1,0,0:0:0:0:
256,192,36040,1,0,0:0:0:0:
256,192,36115,1,0,0:0:0:0:
256,192,36190,1,8,0:0:0:0:
256,192,36265,1,0,0:0:0:0:
256,192,36340,1,8,0:0:0:0:
256,192,36415,1,8,0:0:0:0:
256,192,36490,1,0,0:0:0:0:
256,192,36565,1,0,0:0:0:0:
256,192,36640,1,8,0:0:0:0:
256,192,36715,1,0,0:0:0:0:
256,192,36790,1,8,0:0:0:0:
256,192,36865,1,8,0:0:0:0:
256,192,36940,1,0,0:0:0:0:
256,192,37015,1,0,0:0:0:0:
256,192,37090,1,8,0:0:0:0:
256,192,37165,1,0,0:0:0:0:
256,192,37240,1,0,0:0:0:0:
256,192,37315,1,0,0:0:0:0:
256,192,37390,1,8,0:0:0:0:
256,192,37465,1,8,0:0:0:0:
256,192,37540,1,0,0:0:0:0:
256,192,37615,1,0,0:0:0:0:
256,192,37690,1,8,0:0:0:0:
256,192,37765,1,0,0:0:0:0:
256,192,37840,1,8,0:0:0:0:
256,192,37915,1,0,0:0:0:0:
256,192,37990,1,0,0:0:0:0:
256,192,38065,1,0,0:0:0:0:
256,192,38140,1,8,0:0:0:0:
256,192,38215,1,0,0:0:0:0:
256,192,38290,1,8,0:0:0:0:
256,192,38365,1,8,0:0:0:0:
256,192,38440,1,0,0:0:0:0:
256,192,38515,1,0,0:0:0:0:
256,192,38590,1,8,0:0:0:0:
256,192,38665,1,8,0:0:0:0:
256,192,38740,1,8,0:0:0:0:
256,192,38815,1,8,0:0:0:0:
256,192,38890,1,0,0:0:0:0:
256,192,38965,1,0,0:0:0:0:
256,192,39040,1,8,0:0:0:0:
256,192,39115,1,8,0:0:0:0:
256,192,39190,1,8,0:0:0:0:
256,192,39265,1,8,0:0:0:0:
256,192,39340,1,0,0:0:0:0:
256,192,39415,1,0,0:0:0:0:
256,192,39490,1,8,0:0:0:0:
256,192,39565,1,8,0:0:0:0:
256,192,39640,1,0,0:0:0:0:
256,192,39790,5,12,0:0:0:0:
256,192,40090,1,0,0:0:0:0:
256,192,40240,1,8,0:0:0:0:
256,192,40390,1,0,0:0:0:0:
256,192,40690,1,8,0:0:0:0:
256,192,40840,1,0,0:0:0:0:
256,192,40990,1,8,0:0:0:0:
256,192,41290,1,8,0:0:0:0:
256,192,41440,1,0,0:0:0:0:
256,192,41740,1,0,0:0:0:0:
256,192,41890,1,8,0:0:0:0:
256,192,42190,1,4,0:0:0:0:
256,192,42490,1,8,0:0:0:0:
256,192,42640,1,0,0:0:0:0:
256,192,42940,1,0,0:0:0:0:
256,192,43090,1,8,0:0:0:0:
256,192,43240,1,0,0:0:0:0:
256,192,43390,1,8,0:0:0:0:
256,192,43690,1,8,0:0:0:0:
256,192,43840,1,0,0:0:0:0:
256,192,44140,1,0,0:0:0:0:
256,192,44290,1,8,0:0:0:0:
256,192,44590,1,12,0:0:0:0:
256,192,44890,1,0,0:0:0:0:
256,192,45040,1,8,0:0:0:0:
256,192,45340,1,8,0:0:0:0:
256,192,45490,1,0,0:0:0:0:
256,192,45790,1,0,0:0:0:0:
256,192,45940,1,0,0:0:0:0:
256,192,46090,1,0,0:0:0:0:
256,192,46240,1,8,0:0:0:0:
256,192,46540,1,8,0:0:0:0:
256,192,46690,1,0,0:0:0:0:
256,192,46990,1,12,0:0:0:0:
256,192,47140,1,0,0:0:0:0:
256,192,47190,1,0,0:0:0:0:
256,192,47240,1,0,0:0:0:0:
256,192,47290,1,8,0:0:0:0:
256,192,47440,1,0,0:0:0:0:
256,192,47515,1,0,0:0:0:0:
256,192,47590,1,8,0:0:0:0:
256,192,47740,1,8,0:0:0:0:
256,192,48040,1,0,0:0:0:0:
256,192,48190,1,0,0:0:0:0:
256,192,48265,1,0,0:0:0:0:
256,192,48340,1,8,0:0:0:0:
256,192,48415,1,0,0:0:0:0:
256,192,48490,1,8,0:0:0:0:
256,192,48565,1,8,0:0:0:0:
256,192,48640,1,0,0:0:0:0:
256,192,48715,1,0,0:0:0:0:
256,192,48790,1,0,0:0:0:0:
256,192,48865,1,8,0:0:0:0:
256,192,48940,1,0,0:0:0:0:
256,192,48990,1,8,0:0:0:0:
256,192,49040,1,0,0:0:0:0:
256,192,49090,1,0,0:0:0:0:
256,192,49165,1,8,0:0:0:0:
256,192,49240,1,0,0:0:0:0:
256,192,49390,1,12,0:0:0:0:
256,192,49540,1,0,0:0:0:0:
256,192,49615,1,0,0:0:0:0:
256,192,49690,1,8,0:0:0:0:
256,192,49840,1,8,0:0:0:0:
256,192,49915,1,0,0:0:0:0:
256,192,49990,1,8,0:0:0:0:
256,192,50140,1,8,0:0:0:0:
256,192,50215,1,8,0:0:0:0:
256,192,50290,1,0,0:0:0:0:
256,192,50365,1,0,0:0:0:0:
256,192,50440,1,8,0:0:0:0:
256,192,50515,1,0,0:0:0:0:
256,192,50590,1,8,0:0:0:0:
256,192,50740,1,0,0:0:0:0:
256,192,50815,1,0,0:0:0:0:
256,192,50890,1,0,0:0:0:0:
256,192,51040,1,8,0:0:0:0:
256,192,51190,1,0,0:0:0:0:
256,192,51265,1,8,0:0:0:0:
256,192,51340,1,0,0:0:0:0:
256,192,51490,1,8,0:0:0:0:
256,192,51565,1,8,0:0:0:0:
256,192,51640,1,0,0:0:0:0:
256,192,51715,1,8,0:0:0:0:
256,192,51790,1,0,0:0:0:0:
256,192,51940,1,0,0:0:0:0:
256,192,52015,1,0,0:0:0:0:
256,192,52090,1,8,0:0:0:0:
256,192,52165,1,0,0:0:0:0:
256,192,52240,1,8,0:0:0:0:
256,192,52315,1,8,0:0:0:0:
256,192,52390,1,0,0:0:0:0:
256,192,52540,1,0,0:0:0:0:
256,192,52615,1,8,0:0:0:0:
256,192,52690,1,0,0:0:0:0:
256,192,52765,1,0,0:0:0:0:
256,192,52840,1,8,0:0:0:0:
256,192,52915,1,8,0:0:0:0:
256,192,52990,1,0,0:0:0:0:
256,192,53140,1,8,0:0:0:0:
256,192,53215,1,0,0:0:0:0:
256,192,53290,1,0,0:0:0:0:
256,192,53365,1,0,0:0:0:0:
256,192,53440,1,8,0:0:0:0:
256,192,53590,1,0,0:0:0:0:
256,192,53665,1,8,0:0:0:0:
256,192,53740,1,0,0:0:0:0:
256,192,53815,1,0,0:0:0:0:
256,192,53890,1,8,0:0:0:0:
256,192,54040,1,0,0:0:0:0:
256,192,54190,1,8,0:0:0:0:
256,192,54340,1,8,0:0:0:0:
256,192,54415,1,8,0:0:0:0:
256,192,54490,1,0,0:0:0:0:
256,192,54640,1,8,0:0:0:0:
256,192,54940,1,0,0:0:0:0:
256,192,55015,1,0,0:0:0:0:
256,192,55090,1,8,0:0:0:0:
256,192,55165,1,0,0:0:0:0:
256,192,55240,1,0,0:0:0:0:
256,192,55390,1,8,0:0:0:0:
256,192,55540,1,0,0:0:0:0:
256,192,55615,1,8,0:0:0:0:
256,192,55690,1,0,0:0:0:0:
256,192,55840,1,8,0:0:0:0:
256,192,56140,1,8,0:0:0:0:
256,192,56215,1,8,0:0:0:0:
256,192,56290,1,0,0:0:0:0:
256,192,56365,1,0,0:0:0:0:
256,192,56440,1,0,0:0:0:0:
256,192,56590,1,8,0:0:0:0:
256,192,56740,1,8,0:0:0:0:
256,192,56890,1,0,0:0:0:0:
256,192,56965,1,0,0:0:0:0:
256,192,57040,1,0,0:0:0:0:
256,192,57115,1,0,0:0:0:0:
256,192,57190,1,8,0:0:0:0:
256,192,57340,1,8,0:0:0:0:
256,192,57490,1,8,0:0:0:0:
256,192,57565,1,8,0:0:0:0:
256,192,57640,1,0,0:0:0:0:
256,192,57715,1,0,0:0:0:0:
256,192,57790,1,8,0:0:0:0:
256,192,57940,1,0,0:0:0:0:
256,192,58015,1,0,0:0:0:0:
256,192,58090,1,0,0:0:0:0:
256,192,58240,1,0,0:0:0:0:
256,192,58390,1,8,0:0:0:0:
256,192,58465,1,8,0:0:0:0:
256,192,58540,1,0,0:0:0:0:
256,192,58615,1,0,0:0:0:0:
256,192,58690,1,8,0:0:0:0:
256,192,58765,1,0,0:0:0:0:
256,192,58840,1,0,0:0:0:0:
256,192,58915,1,0,0:0:0:0:
256,192,58990,5,0,0:0:0:0:
256,192,59140,1,0,0:0:0:0:
256,192,59215,1,0,0:0:0:0:
256,192,59290,1,8,0:0:0:0:
256,192,59440,1,0,0:0:0:0:
256,192,59590,1,8,0:0:0:0:
256,192,59665,1,8,0:0:0:0:
256,192,59740,1,8,0:0:0:0:
256,192,59815,1,0,0:0:0:0:
256,192,59890,1,0,0:0:0:0:
256,192,60040,1,0,0:0:0:0:
256,192,60190,1,0,0:0:0:0:
256,192,60340,1,8,0:0:0:0:
256,192,60490,1,0,0:0:0:0:
256,192,60565,1,0,0:0:0:0:
256,192,60640,1,8,0:0:0:0:
256,192,60715,1,0,0:0:0:0:
256,192,60790,1,8,0:0:0:0:
256,192,60940,1,8,0:0:0:0:
256,192,61015,1,8,0:0:0:0:
256,192,61090,1,0,0:0:0:0:
256,192,61240,1,0,0:0:0:0:
256,192,61390,1,0,0:0:0:0:
256,192,61540,1,8,0:0:0:0:
256,192,61615,1,0,0:0:0:0:
256,192,61690,1,8,0:0:0:0:
256,192,61765,1,8,0:0:0:0:
256,192,61840,1,0,0:0:0:0:
256,192,61915,1,0,0:0:0:0:
256,192,61990,1,8,0:0:0:0:
256,192,62140,1,0,0:0:0:0:
256,192,62215,1,0,0:0:0:0:
256,192,62290,1,8,0:0:0:0:
256,192,62365,1,0,0:0:0:0:
256,192,62440,1,8,0:0:0:0:
256,192,62515,1,8,0:0:0:0:
256,192,62590,1,0,0:0:0:0:
256,192,62740,1,8,0:0:0:0:
256,192,62815,1,0,0:0:0:0:
256,192,62890,1,0,0:0:0:0:
256,192,62965,1,0,0:0:0:0:
256,192,63040,1,8,0:0:0:0:
256,192,63115,1,0,0:0:0:0:
256,192,63190,1,8,0:0:0:0:
256,192,63265,1,0,0:0:0:0:
256,192,63340,1,8,0:0:0:0:
256,192,63415,1,8,0:0:0:0:
256,192,63490,1,0,0:0:0:0:
256,192,63640,1,0,0:0:0:0:
256,192,63790,1,0,0:0:0:0:
256,192,63865,1,0,0:0:0:0:
256,192,63940,1,8,0:0:0:0:
256,192,64090,1,0,0:0:0:0:
256,192,64240,1,8,0:0:0:0:
256,192,64390,1,8,0:0:0:0:
256,192,64540,1,0,0:0:0:0:
256,192,64690,1,8,0:0:0:0:
256,192,64765,1,0,0:0:0:0:
256,192,64840,1,8,0:0:0:0:
256,192,64990,1,0,0:0:0:0:
256,192,65140,1,8,0:0:0:0:
256,192,65215,1,0,0:0:0:0:
256,192,65290,1,0,0:0:0:0:
256,192,65365,1,0,0:0:0:0:
256,192,65440,1,8,0:0:0:0:
256,192,65590,1,0,0:0:0:0:
256,192,65740,1,8,0:0:0:0:
256,192,65890,1,8,0:0:0:0:
256,192,65965,1,8,0:0:0:0:
256,192,66040,1,0,0:0:0:0:
256,192,66190,1,8,0:0:0:0:
256,192,66265,1,8,0:0:0:0:
256,192,66340,1,8,0:0:0:0:
256,192,66415,1,8,0:0:0:0:
256,192,66490,1,0,0:0:0:0:
256,192,66565,1,0,0:0:0:0:
256,192,66640,1,0,0:0:0:0:
256,192,66715,1,0,0:0:0:0:
256,192,66790,1,8,0:0:0:0:
256,192,66865,1,0,0:0:0:0:
256,192,66940,1,8,0:0:0:0:
256,192,67015,1,8,0:0:0:0:
256,192,67090,1,0,0:0:0:0:
256,192,67165,1,0,0:0:0:0:
256,192,67240,1,8,0:0:0:0:
256,192,67315,1,0,0:0:0:0:
256,192,67390,1,8,0:0:0:0:
256,192,67540,1,12,0:0:0:0:
256,192,67840,1,12,0:0:0:0:
256,192,68140,1,4,0:0:0:0:
256,192,68440,1,4,0:0:0:0:
256,192,68590,1,8,0:0:0:0:
256,192,68665,1,8,0:0:0:0:
256,192,68740,1,0,0:0:0:0:
256,192,68815,1,0,0:0:0:0:
256,192,68890,1,0,0:0:0:0:
256,192,68965,1,0,0:0:0:0:
256,192,69040,1,8,0:0:0:0:
256,192,69115,1,0,0:0:0:0:
256,192,69190,1,8,0:0:0:0:
256,192,69265,1,0,0:0:0:0:
256,192,69340,1,0,0:0:0:0:
256,192,69415,1,0,0:0:0:0:
256,192,69490,1,8,0:0:0:0:
256,192,69565,1,8,0:0:0:0:
256,192,69640,1,8,0:0:0:0:
256,192,69715,1,0,0:0:0:0:
256,192,69790,1,8,0:0:0:0:
256,192,69865,1,8,0:0:0:0:
256,192,69940,1,0,0:0:0:0:
256,192,70015,1,0,0:0:0:0:
256,192,70090,1,0,0:0:0:0:
256,192,70165,1,0,0:0:0:0:
256,192,70240,1,8,0:0:0:0:
256,192,70315,1,0,0:0:0:0:
256,192,70390,1,8,0:0:0:0:
256,192,70465,1,0,0:0:0:0:
256,192,70540,1,0,0:0:0:0:
256,192,70615,1,0,0:0:0:0:
256,192,70690,1,8,0:0:0:0:
256,192,70765,1,8,0:0:0:0:
256,192,70840,1,8,0:0:0:0:
256,192,70915,1,0,0:0:0:0:
256,192,70990,1,8,0:0:0:0:
256,192,71065,1,0,0:0:0:0:
256,192,71140,1,8,0:0:0:0:
256,192,71215,1,0,0:0:0:0:
256,192,71290,1,8,0:0:0:0:
256,192,71365,1,0,0:0:0:0:
256,192,71440,1,8,0:0:0:0:
256,192,71515,1,0,0:0:0:0:
256,192,71590,1,8,0:0:0:0:
256,192,71665,1,8,0:0:0:0:
256,192,71740,1,0,0:0:0:0:
256,192,71815,1,8,0:0:0:0:
256,192,71890,1,8,0:0:0:0:
256,192,71965,1,0,0:0:0:0:
256,192,72040,1,8,0:0:0:0:
256,192,72115,1,0,0:0:0:0:
256,192,72190,1,8,0:0:0:0:
256,192,72265,1,0,0:0:0:0:
256,192,72340,1,0,0:0:0:0:
256,192,72490,1,0,0:0:0:0:
256,192,72640,1,8,0:0:0:0:
256,192,72715,1,8,0:0:0:0:
256,192,72790,1,0,0:0:0:0:
256,192,72865,1,0,0:0:0:0:
256,192,72940,1,8,0:0:0:0:
256,192,73090,1,0,0:0:0:0:
256,192,73165,1,0,0:0:0:0:
256,192,73240,1,0,0:0:0:0:
256,192,73390,1,8,0:0:0:0:
256,192,73465,1,8,0:0:0:0:
256,192,73540,1,8,0:0:0:0:
256,192,73615,1,8,0:0:0:0:
256,192,73690,1,0,0:0:0:0:
256,192,73765,1,0,0:0:0:0:
256,192,73840,1,8,0:0:0:0:
256,192,73915,1,8,0:0:0:0:
256,192,73990,1,0,0:0:0:0:
256,192,74065,1,0,0:0:0:0:
256,192,74140,1,8,0:0:0:0:
256,192,74215,1,0,0:0:0:0:
256,192,74290,1,8,0:0:0:0:
256,192,74365,1,8,0:0:0:0:
256,192,74440,1,0,0:0:0:0:
256,192,74515,1,0,0:0:0:0:
256,192,74590,1,8,0:0:0:0:
256,192,74665,1,8,0:0:0:0:
256,192,74740,1,8,0:0:0:0:
256,192,74815,1,8,0:0:0:0:
256,192,74890,1,0,0:0:0:0:
256,192,74965,1,0,0:0:0:0:
256,192,75040,1,8,0:0:0:0:
256,192,75115,1,8,0:0:0:0:
256,192,75190,1,0,0:0:0:0:
256,192,75265,1,0,0:0:0:0:
256,192,75340,1,8,0:0:0:0:
256,192,75415,1,0,0:0:0:0:
256,192,75490,1,8,0:0:0:0:
256,192,75565,1,8,0:0:0:0:
256,192,75640,1,0,0:0:0:0:
256,192,75715,1,0,0:0:0:0:
256,192,75790,1,8,0:0:0:0:
256,192,76090,1,4,0:0:0:0:
256,192,76240,1,4,0:0:0:0:
256,192,76390,1,4,0:0:0:0:
256,192,76540,1,4,0:0:0:0:
256,192,76690,1,4,0:0:0:0:
256,192,76840,1,4,0:0:0:0:
256,192,76990,1,4,0:0:0:0:
256,192,77290,1,12,0:0:0:0:
256,192,77590,1,4,0:0:0:0:
256,192,77890,1,12,0:0:0:0:
256,192,78190,5,8,0:0:0:0:
256,192,78340,1,8,0:0:0:0:
256,192,78415,1,8,0:0:0:0:
256,192,78490,1,0,0:0:0:0:
256,192,78640,1,0,0:0:0:0:
256,192,78790,1,0,0:0:0:0:
256,192,78865,1,0,0:0:0:0:
256,192,78940,1,8,0:0:0:0:
256,192,79090,1,8,0:0:0:0:
256,192,79165,1,8,0:0:0:0:
256,192,79240,1,0,0:0:0:0:
256,192,79315,1,0,0:0:0:0:
256,192,79390,1,8,0:0:0:0:
256,192,79540,1,0,0:0:0:0:
256,192,79615,1,0,0:0:0:0:
256,192,79690,1,0,0:0:0:0:
256,192,79840,1,8,0:0:0:0:
256,192,79915,1,8,0:0:0:0:
256,192,79990,1,0,0:0:0:0:
256,192,80140,1,8,0:0:0:0:
256,192,80215,1,0,0:0:0:0:
256,192,80290,1,0,0:0:0:0:
256,192,80365,1,8,0:0:0:0:
256,192,80440,1,0,0:0:0:0:
256,192,80590,1,8,0:0:0:0:
256,192,80665,1,0,0:0:0:0:
256,192,80740,1,0,0:0:0:0:
256,192,80890,1,0,0:0:0:0:
256,192,81040,1,8,0:0:0:0:
256,192,81190,1,0,0:0:0:0:
256,192,81265,1,0,0:0:0:0:
256,192,81340,1,8,0:0:0:0:
256,192,81415,1,0,0:0:0:0:
256,192,81490,1,0,0:0:0:0:
256,192,81565,1,0,0:0:0:0:
256,192,81640,1,8,0:0:0:0:
256,192,81790,1,0,0:0:0:0:
256,192,81940,1,8,0:0:0:0:
256,192,82015,1,0,0:0:0:0:
256,192,82090,1,0,0:0:0:0:
256,192,82240,1,0,0:0:0:0:
256,192,82390,1,8,0:0:0:0:
256,192,82465,1,8,0:0:0:0:
256,192,82540,1,0,0:0:0:0:
256,192,82690,1,8,0:0:0:0:
256,192,82765,1,0,0:0:0:0:
256,192,82990,1,0,0:0:0:0:
256,192,83065,1,0,0:0:0:0:
256,192,83140,1,0,0:0:0:0:
256,192,83215,1,0,0:0:0:0:
256,192,83290,1,8,0:0:0:0:
256,192,83365,1,0,0:0:0:0:
256,192,83440,1,8,0:0:0:0:
256,192,83590,1,8,0:0:0:0:
256,192,83665,1,0,0:0:0:0:
256,192,83740,1,0,0:0:0:0:
256,192,83890,1,8,0:0:0:0:
256,192,84040,1,0,0:0:0:0:
256,192,84190,1,0,0:0:0:0:
256,192,84265,1,0,0:0:0:0:
256,192,84340,1,0,0:0:0:0:
256,192,84415,1,8,0:0:0:0:
256,192,84490,1,8,0:0:0:0:
256,192,84565,1,0,0:0:0:0:
256,192,84640,1,8,0:0:0:0:
256,192,84790,1,0,0:0:0:0:
256,192,84865,1,0,0:0:0:0:
256,192,84940,1,0,0:0:0:0:
256,192,85090,1,8,0:0:0:0:
256,192,85165,1,8,0:0:0:0:
256,192,85240,1,0,0:0:0:0:
256,192,85390,1,8,0:0:0:0:
256,192,85465,1,0,0:0:0:0:
256,192,85540,1,0,0:0:0:0:
256,192,85615,1,0,0:0:0:0:
256,192,85690,1,0,0:0:0:0:
256,192,85840,1,8,0:0:0:0:
256,192,85915,1,0,0:0:0:0:
256,192,85990,1,8,0:0:0:0:
256,192,86065,1,8,0:0:0:0:
256,192,86140,1,0,0:0:0:0:
256,192,86290,1,0,0:0:0:0:
256,192,86365,1,8,0:0:0:0:
256,192,86440,1,0,0:0:0:0:
256,192,86590,1,8,0:0:0:0:
256,192,86665,1,8,0:0:0:0:
256,192,86740,1,8,0:0:0:0:
256,192,86815,1,8,0:0:0:0:
256,192,86890,1,0,0:0:0:0:
256,192,86965,1,0,0:0:0:0:
256,192,87040,1,0,0:0:0:0:
256,192,87115,1,0,0:0:0:0:
256,192,87190,1,8,0:0:0:0:
256,192,87265,1,8,0:0:0:0:
256,192,87340,1,0,0:0:0:0:
256,192,87415,1,0,0:0:0:0:
256,192,87490,1,8,0:0:0:0:
256,192,87565,1,0,0:0:0:0:
256,192,87640,1,0,0:0:0:0:
256,192,87715,1,0,0:0:0:0:
256,192,87790,1,8,0:0:0:0:
256,192,87940,1,0,0:0:0:0:
256,192,88015,1,0,0:0:0:0:
256,192,88090,1,0,0:0:0:0:
256,192,88240,1,8,0:0:0:0:
256,192,88390,1,0,0:0:0:0:
256,192,88540,1,8,0:0:0:0:
256,192,88690,1,8,0:0:0:0:
256,192,88765,1,8,0:0:0:0:
256,192,88840,1,0,0:0:0:0:
256,192,88990,1,0,0:0:0:0:
256,192,89140,1,8,0:0:0:0:
256,192,89215,1,8,0:0:0:0:
256,192,89290,1,8,0:0:0:0:
256,192,89440,1,0,0:0:0:0:
256,192,89590,1,0,0:0:0:0:
256,192,89740,1,8,0:0:0:0:
256,192,89890,1,0,0:0:0:0:
256,192,89965,1,0,0:0:0:0:
256,192,90040,1,0,0:0:0:0:
256,192,90190,1,8,0:0:0:0:
256,192,90265,1,8,0:0:0:0:
256,192,90340,1,8,0:0:0:0:
256,192,90415,1,8,0:0:0:0:
256,192,90490,1,0,0:0:0:0:
256,192,90640,1,8,0:0:0:0:
256,192,90790,1,0,0:0:0:0:
256,192,90865,1,0,0:0:0:0:
256,192,90940,1,8,0:0:0:0:
256,192,91090,1,8,0:0:0:0:
256,192,91240,1,0,0:0:0:0:
256,192,91390,1,8,0:0:0:0:
256,192,91465,1,8,0:0:0:0:
256,192,91540,1,0,0:0:0:0:
256,192,91615,1,0,0:0:0:0:
256,192,91690,1,0,0:0:0:0:
256,192,91840,1,0,0:0:0:0:
256,192,91915,1,0,0:0:0:0:
256,192,91990,1,8,0:0:0:0:
256,192,92140,1,0,0:0:0:0:
256,192,92290,1,8,0:0:0:0:
256,192,92365,1,0,0:0:0:0:
256,192,92440,1,0,0:0:0:0:
256,192,92590,1,8,0:0:0:0:
256,192,92665,1,0,0:0:0:0:
256,192,92740,1,8,0:0:0:0:
256,192,92815,1,8,0:0:0:0:
256,192,92890,1,0,0:0:0:0:
256,192,92965,1,0,0:0:0:0:
256,192,93040,1,8,0:0:0:0:
256,192,93115,1,0,0:0:0:0:
256,192,93190,1,8,0:0:0:0:
256,192,93265,1,0,0:0:0:0:
256,192,93340,1,0,0:0:0:0:
256,192,93415,1,0,0:0:0:0:
256,192,93490,1,8,0:0:0:0:
256,192,93565,1,0,0:0:0:0:
256,192,93640,1,0,0:0:0:0:
256,192,93715,1,0,0:0:0:0:
256,192,93790,1,8,0:0:0:0:
256,192,93865,1,8,0:0:0:0:
256,192,93940,1,0,0:0:0:0:
256,192,94015,1,0,0:0:0:0:
256,192,94090,1,8,0:0:0:0:
256,192,94165,1,0,0:0:0:0:
256,192,94240,1,8,0:0:0:0:
256,192,94315,1,0,0:0:0:0:
256,192,94390,1,0,0:0:0:0:
256,192,94465,1,0,0:0:0:0:
256,192,94540,1,8,0:0:0:0:
256,192,94615,1,0,0:0:0:0:
256,192,94690,1,8,0:0:0:0:
256,192,94765,1,8,0:0:0:0:
256,192,94840,1,0,0:0:0:0:
256,192,94915,1,0,0:0:0:0:
256,192,94990,1,8,0:0:0:0:
256,192,95065,1,8,0:0:0:0:
256,192,95140,1,8,0:0:0:0:
256,192,95215,1,8,0:0:0:0:
256,192,95290,1,0,0:0:0:0:
256,192,95365,1,0,0:0:0:0:
256,192,95440,1,0,0:0:0:0:
256,192,95515,1,0,0:0:0:0:
256,192,95590,1,8,0:0:0:0:
256,192,95665,1,8,0:0:0:0:
256,192,95740,1,0,0:0:0:0:
256,192,95815,1,0,0:0:0:0:
256,192,95890,1,8,0:0:0:0:
256,192,95965,1,0,0:0:0:0:
256,192,96040,1,8,0:0:0:0:
256,192,96115,1,8,0:0:0:0:
256,192,96190,1,0,0:0:0:0:
256,192,96340,12,0,97240,0:0:0:0:
256,192,97390,5,8,0:0:0:0:
256,192,97540,1,8,0:0:0:0:
256,192,97690,1,0,0:0:0:0:
256,192,97765,1,0,0:0:0:0:
256,192,97840,1,8,0:0:0:0:
256,192,97915,1,0,0:0:0:0:
256,192,97990,1,8,0:0:0:0:
256,192,98140,1,8,0:0:0:0:
256,192,98215,1,8,0:0:0:0:
256,192,98290,1,0,0:0:0:0:
256,192,98365,1,0,0:0:0:0:
256,192,98440,1,0,0:0:0:0:
256,192,98590,1,8,0:0:0:0:
256,192,98740,1,0,0:0:0:0:
256,192,98815,1,0,0:0:0:0:
256,192,98890,1,0,0:0:0:0:
256,192,99040,1,8,0:0:0:0:
256,192,99115,1,8,0:0:0:0:
256,192,99190,1,0,0:0:0:0:
256,192,99265,1,8,0:0:0:0:
256,192,99340,1,0,0:0:0:0:
256,192,99490,1,0,0:0:0:0:
256,192,99565,1,0,0:0:0:0:
256,192,99640,1,8,0:0:0:0:
256,192,99790,1,8,0:0:0:0:
256,192,99940,1,8,0:0:0:0:
256,192,100090,1,0,0:0:0:0:
256,192,100165,1,0,0:0:0:0:
256,192,100240,1,8,0:0:0:0:
256,192,100315,1,0,0:0:0:0:
256,192,100390,1,8,0:0:0:0:
256,192,100540,1,8,0:0:0:0:
256,192,100690,1,0,0:0:0:0:
256,192,100765,1,8,0:0:0:0:
256,192,100840,1,8,0:0:0:0:
256,192,100915,1,0,0:0:0:0:
256,192,100990,1,8,0:0:0:0:
256,192,101140,1,0,0:0:0:0:
256,192,101215,1,0,0:0:0:0:
256,192,101290,1,0,0:0:0:0:
256,192,101365,1,0,0:0:0:0:
256,192,101440,1,0,0:0:0:0:
256,192,101590,1,8,0:0:0:0:
256,192,101665,1,8,0:0:0:0:
256,192,101740,1,0,0:0:0:0:
256,192,101815,1,0,0:0:0:0:
256,192,101890,1,8,0:0:0:0:
256,192,102040,1,0,0:0:0:0:
256,192,102190,1,8,0:0:0:0:
256,192,102265,1,8,0:0:0:0:
256,192,102340,1,8,0:0:0:0:
256,192,102415,1,8,0:0:0:0:
256,192,102490,1,8,0:0:0:0:
256,192,102565,1,8,0:0:0:0:
256,192,102640,1,0,0:0:0:0:
256,192,102715,1,0,0:0:0:0:
256,192,102790,1,0,0:0:0:0:
256,192,102865,1,0,0:0:0:0:
256,192,102940,1,0,0:0:0:0:
256,192,103015,1,0,0:0:0:0:
256,192,103090,1,8,0:0:0:0:
256,192,103165,1,8,0:0:0:0:
256,192,103240,1,0,0:0:0:0:
256,192,103315,1,0,0:0:0:0:
256,192,103390,1,8,0:0:0:0:
256,192,103465,1,8,0:0:0:0:
256,192,103540,1,8,0:0:0:0:
256,192,103615,1,0,0:0:0:0:
256,192,103690,1,0,0:0:0:0:
256,192,103765,1,0,0:0:0:0:
256,192,103840,1,8,0:0:0:0:
256,192,103915,1,8,0:0:0:0:
256,192,103990,1,8,0:0:0:0:
256,192,104065,1,0,0:0:0:0:
256,192,104140,1,0,0:0:0:0:
256,192,104215,1,0,0:0:0:0:
256,192,104290,1,8,0:0:0:0:
256,192,104440,1,0,0:0:0:0:
256,192,104590,1,8,0:0:0:0:
256,192,104740,1,0,0:0:0:0:
256,192,104815,1,0,0:0:0:0:
256,192,104890,1,8,0:0:0:0:
256,192,105040,1,0,0:0:0:0:
256,192,105190,1,8,0:0:0:0:
256,192,105340,1,8,0:0:0:0:
256,192,105490,1,0,0:0:0:0:
256,192,105565,1,0,0:0:0:0:
256,192,105640,1,0,0:0:0:0:
256,192,105790,1,8,0:0:0:0:
256,192,105865,1,0,0:0:0:0:
256,192,105940,1,8,0:0:0:0:
256,192,106015,1,0,0:0:0:0:
256,192,106090,1,8,0:0:0:0:
256,192,106165,1,0,0:0:0:0:
256,192,106240,1,8,0:0:0:0:
256,192,106315,1,0,0:0:0:0:
256,192,106390,1,8,0:0:0:0:
256,192,106465,1,8,0:0:0:0:
256,192,106540,1,8,0:0:0:0:
256,192,106615,1,8,0:0:0:0:
256,192,106690,1,0,0:0:0:0:
256,192,106765,1,0,0:0:0:0:
256,192,106840,1,0,0:0:0:0:
256,192,106915,1,0,0:0:0:0:
256,192,106990,1,8,0:0:0:0:
256,192,107140,1,8,0:0:0:0:
256,192,107290,1,0,0:0:0:0:
256,192,107365,1,0,0:0:0:0:
256,192,107440,1,8,0:0:0:0:
256,192,107515,1,0,0:0:0:0:
256,192,107590,1,8,0:0:0:0:
256,192,107740,1,0,0:0:0:0:
256,192,107890,1,8,0:0:0:0:
256,192,107965,1,8,0:0:0:0:
256,192,108040,1,0,0:0:0:0:
256,192,108190,1,8,0:0:0:0:
256,192,108340,1,0,0:0:0:0:
256,192,108415,1,0,0:0:0:0:
256,192,108490,1,0,0:0:0:0:
256,192,108565,1,0,0:0:0:0:
256,192,108640,1,8,0:0:0:0:
256,192,108790,1,8,0:0:0:0:
256,192,108865,1,8,0:0:0:0:
256,192,108940,1,8,0:0:0:0:
256,192,109015,1,8,0:0:0:0:
256,192,109090,1,0,0:0:0:0:
256,192,109240,1,0,0:0:0:0:
256,192,109390,1,8,0:0:0:0:
256,192,109540,1,0,0:0:0:0:
256,192,109615,1,0,0:0:0:0:
256,192,109690,1,8,0:0:0:0:
256,192,109840,1,8,0:0:0:0:
256,192,109990,1,0,0:0:0:0:
256,192,110140,1,0,0:0:0:0:
256,192,110215,1,0,0:0:0:0:
256,192,110290,1,8,0:0:0:0:
256,192,110440,1,0,0:0:0:0:
256,192,110590,1,8,0:0:0:0:
256,192,110740,1,8,0:0:0:0:
256,192,110815,1,0,0:0:0:0:
256,192,110890,1,0,0:0:0:0:
256,192,110965,1,0,0:0:0:0:
256,192,111040,1,0,0:0:0:0:
256,192,111190,1,8,0:0:0:0:
256,192,111265,1,8,0:0:0:0:
256,192,111340,1,8,0:0:0:0:
256,192,111490,1,0,0:0:0:0:
256,192,111565,1,0,0:0:0:0:
256,192,111640,1,8,0:0:0:0:
256,192,111790,1,8,0:0:0:0:
256,192,111865,1,8,0:0:0:0:
256,192,111940,1,0,0:0:0:0:
256,192,112015,1,8,0:0:0:0:
256,192,112090,1,0,0:0:0:0:
256,192,112165,1,0,0:0:0:0:
256,192,112240,1,8,0:0:0:0:
256,192,112315,1,8,0:0:0:0:
256,192,112390,1,0,0:0:0:0:
256,192,112465,1,8,0:0:0:0:
256,192,112540,1,0,0:0:0:0:
256,192,112615,1,0,0:0:0:0:
256,192,112690,1,8,0:0:0:0:
256,192,112765,1,8,0:0:0:0:
256,192,112840,1,0,0:0:0:0:
256,192,112915,1,0,0:0:0:0:
256,192,112990,1,8,0:0:0:0:
256,192,113290,1,0,0:0:0:0:
256,192,113590,1,0,0:0:0:0:
256,192,113890,1,8,0:0:0:0:
256,192,114190,5,12,0:0:0:0:
256,192,114340,1,8,0:0:0:0:
256,192,114415,1,8,0:0:0:0:
256,192,114490,1,0,0:0:0:0:
256,192,114640,1,0,0:0:0:0:
256,192,114790,1,8,0:0:0:0:
256,192,114865,1,0,0:0:0:0:
256,192,114940,1,8,0:0:0:0:
256,192,115090,1,0,0:0:0:0:
256,192,115165,1,8,0:0:0:0:
256,192,115240,1,0,0:0:0:0:
256,192,115390,1,8,0:0:0:0:
256,192,115540,1,8,0:0:0:0:
256,192,115615,1,8,0:0:0:0:
256,192,115690,1,0,0:0:0:0:
256,192,115840,1,8,0:0:0:0:
256,192,115990,1,0,0:0:0:0:
256,192,116065,1,8,0:0:0:0:
256,192,116140,1,0,0:0:0:0:
256,192,116215,1,0,0:0:0:0:
256,192,116290,1,8,0:0:0:0:
256,192,116440,1,0,0:0:0:0:
256,192,116590,1,8,0:0:0:0:
256,192,116740,1,8,0:0:0:0:
256,192,116815,1,0,0:0:0:0:
256,192,116890,1,0,0:0:0:0:
256,192,117040,1,0,0:0:0:0:
256,192,117115,1,0,0:0:0:0:
256,192,117190,1,8,0:0:0:0:
256,192,117265,1,8,0:0:0:0:
256,192,117340,1,0,0:0:0:0:
256,192,117415,1,8,0:0:0:0:
256,192,117490,1,8,0:0:0:0:
256,192,117565,1,8,0:0:0:0:
256,192,117640,1,0,0:0:0:0:
256,192,117715,1,0,0:0:0:0:
256,192,117790,1,0,0:0:0:0:
256,192,117940,1,0,0:0:0:0:
256,192,118015,1,0,0:0:0:0:
256,192,118090,1,8,0:0:0:0:
256,192,118240,1,8,0:0:0:0:
256,192,118390,1,0,0:0:0:0:
256,192,118540,1,8,0:0:0:0:
256,192,118690,1,0,0:0:0:0:
256,192,118765,1,0,0:0:0:0:
256,192,118840,1,8,0:0:0:0:
256,192,118990,1,8,0:0:0:0:
256,192,119140,1,0,0:0:0:0:
256,192,119215,1,8,0:0:0:0:
256,192,119290,1,0,0:0:0:0:
256,192,119440,1,0,0:0:0:0:
256,192,119590,1,0,0:0:0:0:
256,192,119740,1,8,0:0:0:0:
256,192,119815,1,8,0:0:0:0:
256,192,119890,1,0,0:0:0:0:
256,192,119965,1,0,0:0:0:0:
256,192,120040,1,8,0:0:0:0:
256,192,120190,1,8,0:0:0:0:
256,192,120340,1,0,0:0:0:0:
256,192,120415,1,0,0:0:0:0:
256,192,120490,1,8,0:0:0:0:
256,192,120640,1,8,0:0:0:0:
256,192,120790,1,0,0:0:0:0:
256,192,120940,1,8,0:0:0:0:
256,192,121090,1,8,0:0:0:0:
256,192,121165,1,8,0:0:0:0:
256,192,121240,1,0,0:0:0:0:
256,192,121390,1,8,0:0:0:0:
256,192,121465,1,8,0:0:0:0:
256,192,121540,1,8,0:0:0:0:
256,192,121615,1,8,0:0:0:0:
256,192,121690,1,0,0:0:0:0:
256,192,121765,1,0,0:0:0:0:
256,192,121840,1,8,0:0:0:0:
256,192,121915,1,8,0:0:0:0:
256,192,121990,1,0,0:0:0:0:
256,192,122065,1,0,0:0:0:0:
256,192,122140,1,8,0:0:0:0:
256,192,122215,1,0,0:0:0:0:
256,192,122290,1,8,0:0:0:0:
256,192,122365,1,8,0:0:0:0:
256,192,122440,1,0,0:0:0:0:
256,192,122590,1,8,0:0:0:0:
256,192,122640,1,8,0:0:0:0:
256,192,122690,1,8,0:0:0:0:
256,192,122740,1,0,0:0:0:0:
256,192,122790,1,0,0:0:0:0:
256,192,122840,1,0,0:0:0:0:
256,192,122890,1,8,0:0:0:0:
256,192,122965,1,0,0:0:0:0:
256,192,123040,1,0,0:0:0:0:
256,192,123115,1,0,0:0:0:0:
256,192,123190,1,8,0:0:0:0:
256,192,123265,1,0,0:0:0:0:
256,192,123340,1,0,0:0:0:0:
256,192,123415,1,0,0:0:0:0:
256,192,123490,1,8,0:0:0:0:
256,192,123565,1,8,0:0:0:0:
256,192,123640,1,0,0:0:0:0:
256,192,123715,1,0,0:0:0:0:
256,192,123790,1,0,0:0:0:0:
256,192,123940,1,8,0:0:0:0:
256,192,124015,1,8,0:0:0:0:
256,192,124090,1,8,0:0:0:0:
256,192,124240,1,0,0:0:0:0:
256,192,124390,1,8,0:0:0:0:
256,192,124465,1,0,0:0:0:0:
256,192,124540,1,8,0:0:0:0:
256,192,124615,1,0,0:0:0:0:
256,192,124690,1,0,0:0:0:0:
256,192,124765,1,8,0:0:0:0:
256,192,124840,1,0,0:0:0:0:
256,192,124990,1,0,0:0:0:0:
256,192,125140,1,8,0:0:0:0:
256,192,125215,1,8,0:0:0:0:
256,192,125290,1,8,0:0:0:0:
256,192,125440,1,0,0:0:0:0:
256,192,125590,1,8,0:0:0:0:
256,192,125665,1,8,0:0:0:0:
256,192,125740,1,0,0:0:0:0:
256,192,125815,1,8,0:0:0:0:
256,192,125890,1,8,0:0:0:0:
256,192,126040,1,0,0:0:0:0:
256,192,126190,1,8,0:0:0:0:
256,192,126265,1,0,0:0:0:0:
256,192,126340,1,8,0:0:0:0:
256,192,126415,1,0,0:0:0:0:
256,192,126490,1,8,0:0:0:0:
256,192,126565,1,0,0:0:0:0:
256,192,126640,1,8,0:0:0:0:
256,192,126790,1,0,0:0:0:0:
256,192,126865,1,8,0:0:0:0:
256,192,126940,1,0,0:0:0:0:
256,192,127015,1,8,0:0:0:0:
256,192,127090,1,0,0:0:0:0:
256,192,127165,1,8,0:0:0:0:
256,192,127240,1,0,0:0:0:0:
256,192,127390,1,0,0:0:0:0:
256,192,127540,1,8,0:0:0:0:
256,192,127615,1,0,0:0:0:0:
256,192,127690,1,0,0:0:0:0:
256,192,127840,1,8,0:0:0:0:
256,192,127990,1,0,0:0:0:0:
256,192,128140,1,8,0:0:0:0:
256,192,128290,1,0,0:0:0:0:
256,192,128365,1,0,0:0:0:0:
256,192,128440,1,8,0:0:0:0:
256,192,128515,1,0,0:0:0:0:
256,192,128590,1,8,0:0:0:0:
256,192,128740,1,8,0:0:0:0:
256,192,128815,1,8,0:0:0:0:
256,192,128890,1,8,0:0:0:0:
256,192,128965,1,0,0:0:0:0:
256,192,129040,1,0,0:0:0:0:
256,192,129115,1,0,0:0:0:0:
256,192,129190,1,8,0:0:0:0:
256,192,129340,1,0,0:0:0:0:
256,192,129490,1,8,0:0:0:0:
256,192,129640,1,0,0:0:0:0:
256,192,129790,1,8,0:0:0:0:
256,192,129940,1,0,0:0:0:0:
256,192,130015,1,0,0:0:0:0:
256,192,130090,1,8,0:0:0:0:
256,192,130165,1,8,0:0:0:0:
256,192,130240,1,0,0:0:0:0:
256,192,130315,1,8,0:0:0:0:
256,192,130390,1,8,0:0:0:0:
256,192,130540,1,0,0:0:0:0:
256,192,130690,1,8,0:0:0:0:
256,192,130840,1,0,0:0:0:0:
256,192,130990,1,8,0:0:0:0:
256,192,131040,1,8,0:0:0:0:
256,192,131090,1,0,0:0:0:0:
256,192,131140,1,0,0:0:0:0:
256,192,131190,1,8,0:0:0:0:
256,192,131240,1,8,0:0:0:0:
256,192,131290,1,0,0:0:0:0:
256,192,131340,1,0,0:0:0:0:
256,192,131390,1,8,0:0:0:0:
256,192,131440,1,8,0:0:0:0:
256,192,131490,1,0,0:0:0:0:
256,192,131540,1,0,0:0:0:0:
256,192,131590,1,8,0:0:0:0:
256,192,131665,1,0,0:0:0:0:
256,192,131740,1,0,0:0:0:0:
256,192,131815,1,8,0:0:0:0:
256,192,131890,1,0,0:0:0:0:
256,192,131965,1,0,0:0:0:0:
256,192,132040,1,8,0:0:0:0:
256,192,132115,1,8,0:0:0:0:
256,192,132190,1,0,0:0:0:0:
256,192,132290,1,0,0:0:0:0:
256,192,132390,1,0,0:0:0:0:
256,192,132490,1,8,0:0:0:0:
256,192,132790,1,12,0:0:0:0:
256,192,133015,1,12,0:0:0:0:
256,192,133240,1,4,0:0:0:0:
256,192,133390,1,12,0:0:0:0:
256,192,135790,5,12,0:0:0:0:
256,192,136090,1,8,0:0:0:0:
256,192,136240,1,0,0:0:0:0:
256,192,136390,1,0,0:0:0:0:
256,192,136540,1,0,0:0:0:0:
256,192,136690,1,8,0:0:0:0:
256,192,136840,1,0,0:0:0:0:
256,192,136990,1,8,0:0:0:0:
256,192,137140,1,8,0:0:0:0:
256,192,137290,1,8,0:0:0:0:
256,192,137440,1,0,0:0:0:0:
256,192,137590,1,0,0:0:0:0:
256,192,137740,1,0,0:0:0:0:
256,192,137890,1,8,0:0:0:0:
256,192,138040,1,0,0:0:0:0:
256,192,138190,1,8,0:0:0:0:
256,192,138340,1,8,0:0:0:0:
256,192,138490,1,8,0:0:0:0:
256,192,138640,1,0,0:0:0:0:
256,192,138790,1,8,0:0:0:0:
256,192,138940,1,8,0:0:0:0:
256,192,139090,1,0,0:0:0:0:
256,192,139240,1,8,0:0:0:0:
256,192,139390,1,0,0:0:0:0:
256,192,139540,1,0,0:0:0:0:
256,192,139690,1,8,0:0:0:0:
256,192,139840,1,0,0:0:0:0:
256,192,139990,1,8,0:0:0:0:
256,192,140140,1,8,0:0:0:0:
256,192,140290,1,0,0:0:0:0:
256,192,140440,1,0,0:0:0:0:
256,192,140590,1,8,0:0:0:0:
256,192,140740,1,0,0:0:0:0:
256,192,140890,1,8,0:0:0:0:
256,192,141040,1,0,0:0:0:0:
256,192,141190,1,8,0:0:0:0:
256,192,141340,1,0,0:0:0:0:
256,192,141490,1,0,0:0:0:0:
256,192,141565,1,0,0:0:0:0:
256,192,141640,1,0,0:0:0:0:
256,192,141790,1,8,0:0:0:0:
256,192,141865,1,8,0:0:0:0:
256,192,141940,1,0,0:0:0:0:
256,192,142015,1,0,0:0:0:0:
256,192,142090,1,0,0:0:0:0:
256,192,142165,1,0,0:0:0:0:
256,192,142240,1,8,0:0:0:0:
256,192,142315,1,0,0:0:0:0:
256,192,142390,1,8,0:0:0:0:
256,192,142465,1,0,0:0:0:0:
256,192,142540,1,0,0:0:0:0:
256,192,142615,1,0,0:0:0:0:
256,192,142690,1,8,0:0:0:0:
256,192,142765,1,8,0:0:0:0:
256,192,142840,1,0,0:0:0:0:
256,192,142990,1,12,0:0:0:0:
256,192,143140,12,0,144040,0:0:0:0:
256,192,144190,5,12,0:0:0:0:
256,192,144340,2,0,L|288:192,12,31.4999990386963
256,192,145390,1,4,0:0:0:0:
256,192,145540,1,8,0:0:0:0:
256,192,145690,1,0,0:0:0:0:
256,192,145765,1,0,0:0:0:0:
256,192,145840,1,8,0:0:0:0:
256,192,145915,1,0,0:0:0:0:
256,192,145990,1,8,0:0:0:0:
256,192,146140,1,0,0:0:0:0:
256,192,146215,1,0,0:0:0:0:
256,192,146290,1,8,0:0:0:0:
256,192,146365,1,0,0:0:0:0:
256,192,146440,1,0,0:0:0:0:
256,192,146590,1,8,0:0:0:0:
256,192,146665,1,0,0:0:0:0:
256,192,146740,1,8,0:0:0:0:
256,192,146815,1,0,0:0:0:0:
256,192,146890,1,0,0:0:0:0:
256,192,146965,1,8,0:0:0:0:
256,192,147040,1,0,0:0:0:0:
256,192,147190,1,8,0:0:0:0:
256,192,147340,1,0,0:0:0:0:
256,192,147415,1,0,0:0:0:0:
256,192,147490,1,8,0:0:0:0:
256,192,147640,1,0,0:0:0:0:
256,192,147790,1,8,0:0:0:0:
256,192,147940,1,8,0:0:0:0:
256,192,148015,1,8,0:0:0:0:
256,192,148090,1,0,0:0:0:0:
256,192,148240,1,8,0:0:0:0:
256,192,148390,1,0,0:0:0:0:
256,192,148465,1,0,0:0:0:0:
256,192,148540,1,8,0:0:0:0:
256,192,148690,1,0,0:0:0:0:
256,192,148765,1,0,0:0:0:0:
256,192,148840,1,0,0:0:0:0:
256,192,148915,1,0,0:0:0:0:
256,192,148990,1,8,0:0:0:0:
256,192,149140,1,8,0:0:0:0:
256,192,149290,1,0,0:0:0:0:
256,192,149365,1,0,0:0:0:0:
256,192,149440,1,8,0:0:0:0:
256,192,149590,1,8,0:0:0:0:
256,192,149665,1,0,0:0:0:0:
256,192,149740,1,8,0:0:0:0:
256,192,149815,1,8,0:0:0:0:
256,192,149890,1,0,0:0:0:0:
256,192,149965,1,0,0:0:0:0:
256,192,150040,1,0,0:0:0:0:
256,192,150190,1,8,0:0:0:0:
256,192,150340,1,0,0:0:0:0:
256,192,150415,1,0,0:0:0:0:
256,192,150490,1,8,0:0:0:0:
256,192,150640,1,8,0:0:0:0:
256,192,150715,1,8,0:0:0:0:
256,192,150790,1,0,0:0:0:0:
256,192,150940,1,0,0:0:0:0:
256,192,151015,1,8,0:0:0:0:
256,192,151090,1,0,0:0:0:0:
256,192,151165,1,0,0:0:0:0:
256,192,151240,1,0,0:0:0:0:
256,192,151390,1,8,0:0:0:0:
256,192,151540,1,8,0:0:0:0:
256,192,151615,1,8,0:0:0:0:
256,192,151690,1,0,0:0:0:0:
256,192,151840,1,0,0:0:0:0:
256,192,151990,1,8,0:0:0:0:
256,192,152065,1,0,0:0:0:0:
256,192,152140,1,8,0:0:0:0:
256,192,152215,1,8,0:0:0:0:
256,192,152290,1,0,0:0:0:0:
256,192,152365,1,0,0:0:0:0:
256,192,152440,1,0,0:0:0:0:
256,192,152590,1,8,0:0:0:0:
256,192,152740,1,8,0:0:0:0:
256,192,152890,1,0,0:0:0:0:
256,192,152965,1,0,0:0:0:0:
256,192,153040,1,0,0:0:0:0:
256,192,153115,1,0,0:0:0:0:
256,192,153190,1,8,0:0:0:0:
256,192,153340,1,0,0:0:0:0:
256,192,153415,1,0,0:0:0:0:
256,192,153490,1,8,0:0:0:0:
256,192,153565,1,8,0:0:0:0:
256,192,153640,1,8,0:0:0:0:
256,192,153790,1,8,0:0:0:0:
256,192,153865,1,0,0:0:0:0:
256,192,153940,1,0,0:0:0:0:
256,192,154015,1,0,0:0:0:0:
256,192,154090,1,8,0:0:0:0:
256,192,154165,1,8,0:0:0:0:
256,192,154240,1,0,0:0:0:0:
256,192,154315,1,8,0:0:0:0:
256,192,154390,1,8,0:0:0:0:
256,192,154465,1,8,0:0:0:0:
256,192,154540,1,0,0:0:0:0:
256,192,154615,1,0,0:0:0:0:
256,192,154690,1,8,0:0:0:0:
256,192,154765,1,0,0:0:0:0:
256,192,154840,1,0,0:0:0:0:
256,192,154990,5,8,0:0:0:0:
256,192,155065,1,0,0:0:0:0:
256,192,155140,1,8,0:0:0:0:
256,192,155215,1,8,0:0:0:0:
256,192,155290,1,0,0:0:0:0:
256,192,155365,1,0,0:0:0:0:
256,192,155440,1,8,0:0:0:0:
256,192,155515,1,0,0:0:0:0:
256,192,155590,1,0,0:0:0:0:
256,192,155665,1,0,0:0:0:0:
256,192,155740,1,8,0:0:0:0:
256,192,155815,1,0,0:0:0:0:
256,192,155890,1,8,0:0:0:0:
256,192,155965,1,8,0:0:0:0:
256,192,156040,1,8,0:0:0:0:
256,192,156115,1,0,0:0:0:0:
256,192,156190,1,8,0:0:0:0:
256,192,156265,1,8,0:0:0:0:
256,192,156340,1,0,0:0:0:0:
256,192,156415,1,0,0:0:0:0:
256,192,156490,1,8,0:0:0:0:
256,192,156565,1,0,0:0:0:0:
256,192,156640,1,8,0:0:0:0:
256,192,156715,1,8,0:0:0:0:
256,192,156790,1,0,0:0:0:0:
256,192,156865,1,0,0:0:0:0:
256,192,156940,1,8,0:0:0:0:
256,192,157015,1,0,0:0:0:0:
256,192,157090,1,8,0:0:0:0:
256,192,157165,1,8,0:0:0:0:
256,192,157240,1,8,0:0:0:0:
256,192,157315,1,0,0:0:0:0:
256,192,157390,1,8,0:0:0:0:
256,192,157465,1,0,0:0:0:0:
256,192,157540,1,8,0:0:0:0:
256,192,157615,1,0,0:0:0:0:
256,192,157690,1,8,0:0:0:0:
256,192,157765,1,0,0:0:0:0:
256,192,157840,1,8,0:0:0:0:
256,192,157915,1,0,0:0:0:0:
256,192,157990,1,8,0:0:0:0:
256,192,158065,1,8,0:0:0:0:
256,192,158140,1,0,0:0:0:0:
256,192,158215,1,8,0:0:0:0:
256,192,158290,1,8,0:0:0:0:
256,192,158365,1,0,0:0:0:0:
256,192,158440,1,8,0:0:0:0:
256,192,158515,1,0,0:0:0:0:
256,192,158590,1,0,0:0:0:0:
256,192,158790,1,12,0:0:0:0:
256,192,158990,1,4,0:0:0:0:
256,192,159190,1,4,0:0:0:0:
256,192,159390,1,12,0:0:0:0:
256,192,159590,1,4,0:0:0:0:
256,192,159790,1,8,0:0:0:0:
256,192,159865,1,8,0:0:0:0:
256,192,159940,1,0,0:0:0:0:
256,192,160015,1,0,0:0:0:0:
256,192,160090,1,8,0:0:0:0:
256,192,160165,1,0,0:0:0:0:
256,192,160240,1,8,0:0:0:0:
256,192,160315,1,8,0:0:0:0:
256,192,160390,1,0,0:0:0:0:
256,192,160465,1,0,0:0:0:0:
256,192,160540,1,8,0:0:0:0:
256,192,160615,1,0,0:0:0:0:
256,192,160690,1,8,0:0:0:0:
256,192,160765,1,8,0:0:0:0:
256,192,160840,1,0,0:0:0:0:
256,192,160915,1,0,0:0:0:0:
256,192,160990,1,8,0:0:0:0:
256,192,161065,1,8,0:0:0:0:
256,192,161140,1,0,0:0:0:0:
256,192,161215,1,0,0:0:0:0:
256,192,161290,1,8,0:0:0:0:
256,192,161365,1,0,0:0:0:0:
256,192,161440,1,8,0:0:0:0:
256,192,161515,1,8,0:0:0:0:
256,192,161590,1,0,0:0:0:0:
256,192,161665,1,0,0:0:0:0:
256,192,161740,1,8,0:0:0:0:
256,192,161815,1,0,0:0:0:0:
256,192,161890,1,8,0:0:0:0:
256,192,161965,1,8,0:0:0:0:
256,192,162040,1,0,0:0:0:0:
256,192,162115,1,0,0:0:0:0:
256,192,162190,1,8,0:0:0:0:
256,192,162490,1,4,0:0:0:0:
256,192,162640,1,4,0:0:0:0:
256,192,162790,1,4,0:0:0:0:
256,192,162940,1,4,0:0:0:0:
256,192,163090,1,4,0:0:0:0:
256,192,163240,1,4,0:0:0:0:
256,192,163390,1,4,0:0:0:0:
256,192,163690,1,12,0:0:0:0:
256,192,163990,1,4,0:0:0:0:
256,192,164290,1,12,0:0:0:0:
256,192,164590,5,8,0:0:0:0:
256,192,164740,1,8,0:0:0:0:
256,192,164815,1,8,0:0:0:0:
256,192,164890,1,0,0:0:0:0:
256,192,165040,1,0,0:0:0:0:
256,192,165190,1,0,0:0:0:0:
256,192,165265,1,0,0:0:0:0:
256,192,165340,1,8,0:0:0:0:
256,192,165490,1,8,0:0:0:0:
256,192,165565,1,8,0:0:0:0:
256,192,165640,1,0,0:0:0:0:
256,192,165715,1,0,0:0:0:0:
256,192,165790,1,8,0:0:0:0:
256,192,165940,1,0,0:0:0:0:
256,192,166015,1,0,0:0:0:0:
256,192,166090,1,0,0:0:0:0:
256,192,166240,1,8,0:0:0:0:
256,192,166315,1,8,0:0:0:0:
256,192,166390,1,0,0:0:0:0:
256,192,166540,1,8,0:0:0:0:
256,192,166615,1,0,0:0:0:0:
256,192,166690,1,0,0:0:0:0:
256,192,166765,1,8,0:0:0:0:
256,192,166840,1,0,0:0:0:0:
256,192,166990,1,8,0:0:0:0:
256,192,167065,1,8,0:0:0:0:
256,192,167140,1,0,0:0:0:0:
256,192,167290,1,8,0:0:0:0:
256,192,167365,1,0,0:0:0:0:
256,192,167440,1,8,0:0:0:0:
256,192,167515,1,8,0:0:0:0:
256,192,167590,1,0,0:0:0:0:
256,192,167740,1,8,0:0:0:0:
256,192,167890,1,0,0:0:0:0:
256,192,167965,1,0,0:0:0:0:
256,192,168040,1,8,0:0:0:0:
256,192,168190,1,0,0:0:0:0:
256,192,168340,1,8,0:0:0:0:
256,192,168415,1,8,0:0:0:0:
256,192,168490,1,0,0:0:0:0:
256,192,168640,1,0,0:0:0:0:
256,192,168790,1,8,0:0:0:0:
256,192,168865,1,8,0:0:0:0:
256,192,168940,1,0,0:0:0:0:
256,192,169090,1,8,0:0:0:0:
256,192,169240,1,0,0:0:0:0:
256,192,169390,1,0,0:0:0:0:
256,192,169465,1,0,0:0:0:0:
256,192,169540,1,0,0:0:0:0:
256,192,169615,1,8,0:0:0:0:
256,192,169690,1,8,0:0:0:0:
256,192,169840,1,8,0:0:0:0:
256,192,169915,1,0,0:0:0:0:
256,192,169990,1,8,0:0:0:0:
256,192,170065,1,0,0:0:0:0:
256,192,170140,1,0,0:0:0:0:
256,192,170290,1,8,0:0:0:0:
256,192,170440,1,0,0:0:0:0:
256,192,170590,1,0,0:0:0:0:
256,192,170665,1,8,0:0:0:0:
256,192,170740,1,0,0:0:0:0:
256,192,170815,1,0,0:0:0:0:
256,192,170890,1,8,0:0:0:0:
256,192,171040,1,8,0:0:0:0:
256,192,171115,1,8,0:0:0:0:
256,192,171190,1,0,0:0:0:0:
256,192,171265,1,0,0:0:0:0:
256,192,171340,1,0,0:0:0:0:
256,192,171490,1,8,0:0:0:0:
256,192,171640,1,0,0:0:0:0:
256,192,171790,1,8,0:0:0:0:
256,192,171865,1,8,0:0:0:0:
256,192,171940,1,8,0:0:0:0:
256,192,172015,1,0,0:0:0:0:
256,192,172090,1,0,0:0:0:0:
256,192,172240,1,8,0:0:0:0:
256,192,172315,1,0,0:0:0:0:
256,192,172390,1,0,0:0:0:0:
256,192,172465,1,8,0:0:0:0:
256,192,172540,1,0,0:0:0:0:
256,192,172690,1,0,0:0:0:0:
256,192,172765,1,8,0:0:0:0:
256,192,172840,1,0,0:0:0:0:
256,192,172990,1,8,0:0:0:0:
256,192,173065,1,8,0:0:0:0:
256,192,173140,1,8,0:0:0:0:
256,192,173215,1,8,0:0:0:0:
256,192,173290,1,0,0:0:0:0:
256,192,173365,1,0,0:0:0:0:
256,192,173440,1,0,0:0:0:0:
256,192,173515,1,0,0:0:0:0:
256,192,173590,1,8,0:0:0:0:
256,192,173665,1,0,0:0:0:0:
256,192,173740,1,0,0:0:0:0:
256,192,173815,1,0,0:0:0:0:
256,192,173890,1,8,0:0:0:0:
256,192,173965,1,8,0:0:0:0:
256,192,174040,1,0,0:0:0:0:
256,192,174115,1,0,0:0:0:0:
256,192,174190,1,8,0:0:0:0:
256,192,174340,1,0,0:0:0:0:
256,192,174415,1,0,0:0:0:0:
256,192,174490,1,0,0:0:0:0:
256,192,174640,1,8,0:0:0:0:
256,192,174790,1,0,0:0:0:0:
256,192,174940,1,8,0:0:0:0:
256,192,175015,1,0,0:0:0:0:
256,192,175090,1,8,0:0:0:0:
256,192,175165,1,8,0:0:0:0:
256,192,175240,1,0,0:0:0:0:
256,192,175390,1,0,0:0:0:0:
256,192,175540,1,8,0:0:0:0:
256,192,175615,1,0,0:0:0:0:
256,192,175690,1,0,0:0:0:0:
256,192,175840,1,8,0:0:0:0:
256,192,175990,1,0,0:0:0:0:
256,192,176140,1,8,0:0:0:0:
256,192,176290,1,0,0:0:0:0:
256,192,176365,1,0,0:0:0:0:
256,192,176440,1,0,0:0:0:0:
256,192,176590,1,8,0:0:0:0:
256,192,176665,1,8,0:0:0:0:
256,192,176740,1,0,0:0:0:0:
256,192,176815,1,0,0:0:0:0:
256,192,176890,1,8,0:0:0:0:
256,192,176965,1,0,0:0:0:0:
256,192,177040,1,0,0:0:0:0:
256,192,177190,1,0,0:0:0:0:
256,192,177340,1,8,0:0:0:0:
256,192,177415,1,0,0:0:0:0:
256,192,177490,1,8,0:0:0:0:
256,192,177640,1,0,0:0:0:0:
256,192,177790,1,8,0:0:0:0:
256,192,177865,1,8,0:0:0:0:
256,192,177940,1,0,0:0:0:0:
256,192,178015,1,0,0:0:0:0:
256,192,178090,1,8,0:0:0:0:
256,192,178240,1,8,0:0:0:0:
256,192,178315,1,8,0:0:0:0:
256,192,178390,1,0,0:0:0:0:
256,192,178540,1,0,0:0:0:0:
256,192,178690,1,8,0:0:0:0:
256,192,178765,1,0,0:0:0:0:
256,192,178840,1,0,0:0:0:0:
256,192,178990,1,8,0:0:0:0:
256,192,179065,1,0,0:0:0:0:
256,192,179140,1,8,0:0:0:0:
256,192,179215,1,8,0:0:0:0:
256,192,179290,1,0,0:0:0:0:
256,192,179365,1,0,0:0:0:0:
256,192,179440,1,8,0:0:0:0:
256,192,179515,1,0,0:0:0:0:
256,192,179590,1,8,0:0:0:0:
256,192,179665,1,0,0:0:0:0:
256,192,179740,1,0,0:0:0:0:
256,192,179815,1,0,0:0:0:0:
256,192,179890,1,8,0:0:0:0:
256,192,179965,1,0,0:0:0:0:
256,192,180040,1,0,0:0:0:0:
256,192,180115,1,0,0:0:0:0:
256,192,180190,1,8,0:0:0:0:
256,192,180265,1,0,0:0:0:0:
256,192,180340,1,8,0:0:0:0:
256,192,180415,1,0,0:0:0:0:
256,192,180490,1,8,0:0:0:0:
256,192,180565,1,0,0:0:0:0:
256,192,180640,1,0,0:0:0:0:
256,192,180715,1,0,0:0:0:0:
256,192,180790,1,8,0:0:0:0:
256,192,180865,1,8,0:0:0:0:
256,192,180940,1,0,0:0:0:0:
256,192,181015,1,8,0:0:0:0:
256,192,181090,1,8,0:0:0:0:
256,192,181165,1,0,0:0:0:0:
256,192,181240,1,8,0:0:0:0:
256,192,181315,1,0,0:0:0:0:
256,192,181390,1,8,0:0:0:0:
256,192,181465,1,8,0:0:0:0:
256,192,181540,1,8,0:0:0:0:
256,192,181615,1,8,0:0:0:0:
256,192,181690,1,0,0:0:0:0:
256,192,181765,1,0,0:0:0:0:
256,192,181840,1,8,0:0:0:0:
256,192,181915,1,0,0:0:0:0:
256,192,181990,1,8,0:0:0:0:
256,192,182065,1,8,0:0:0:0:
256,192,182140,1,0,0:0:0:0:
256,192,182215,1,0,0:0:0:0:
256,192,182290,1,8,0:0:0:0:
256,192,182365,1,8,0:0:0:0:
256,192,182440,1,8,0:0:0:0:
256,192,182515,1,0,0:0:0:0:
256,192,182590,1,0,0:0:0:0:
256,192,182740,12,0,183640,0:0:0:0:
256,192,183790,5,8,0:0:0:0:
256,192,183940,1,8,0:0:0:0:
256,192,184090,1,0,0:0:0:0:
256,192,184165,1,0,0:0:0:0:
256,192,184240,1,8,0:0:0:0:
256,192,184315,1,0,0:0:0:0:
256,192,184390,1,8,0:0:0:0:
256,192,184540,1,8,0:0:0:0:
256,192,184615,1,8,0:0:0:0:
256,192,184690,1,0,0:0:0:0:
256,192,184765,1,0,0:0:0:0:
256,192,184840,1,0,0:0:0:0:
256,192,184990,1,8,0:0:0:0:
256,192,185140,1,0,0:0:0:0:
256,192,185215,1,0,0:0:0:0:
256,192,185290,1,0,0:0:0:0:
256,192,185440,1,8,0:0:0:0:
256,192,185515,1,8,0:0:0:0:
256,192,185590,1,0,0:0:0:0:
256,192,185665,1,8,0:0:0:0:
256,192,185740,1,0,0:0:0:0:
256,192,185890,1,0,0:0:0:0:
256,192,185965,1,0,0:0:0:0:
256,192,186040,1,8,0:0:0:0:
256,192,186190,1,8,0:0:0:0:
256,192,186340,1,8,0:0:0:0:
256,192,186490,1,0,0:0:0:0:
256,192,186565,1,0,0:0:0:0:
256,192,186640,1,8,0:0:0:0:
256,192,186715,1,0,0:0:0:0:
256,192,186790,1,8,0:0:0:0:
256,192,186940,1,8,0:0:0:0:
256,192,187090,1,0,0:0:0:0:
256,192,187165,1,8,0:0:0:0:
256,192,187240,1,8,0:0:0:0:
256,192,187315,1,0,0:0:0:0:
256,192,187390,1,8,0:0:0:0:
256,192,187540,1,0,0:0:0:0:
256,192,187615,1,0,0:0:0:0:
256,192,187690,1,0,0:0:0:0:
256,192,187765,1,0,0:0:0:0:
256,192,187840,1,0,0:0:0:0:
256,192,187990,1,8,0:0:0:0:
256,192,188065,1,8,0:0:0:0:
256,192,188140,1,0,0:0:0:0:
256,192,188215,1,0,0:0:0:0:
256,192,188290,1,8,0:0:0:0:
256,192,188440,1,0,0:0:0:0:
256,192,188590,1,8,0:0:0:0:
256,192,188665,1,8,0:0:0:0:
256,192,188740,1,8,0:0:0:0:
256,192,188815,1,8,0:0:0:0:
256,192,188890,1,8,0:0:0:0:
256,192,188965,1,8,0:0:0:0:
256,192,189040,1,0,0:0:0:0:
256,192,189115,1,0,0:0:0:0:
256,192,189190,1,0,0:0:0:0:
256,192,189265,1,0,0:0:0:0:
256,192,189340,1,0,0:0:0:0:
256,192,189415,1,0,0:0:0:0:
256,192,189490,1,8,0:0:0:0:
256,192,189565,1,8,0:0:0:0:
256,192,189640,1,0,0:0:0:0:
256,192,189715,1,0,0:0:0:0:
256,192,189790,1,8,0:0:0:0:
256,192,189865,1,8,0:0:0:0:
256,192,189940,1,8,0:0:0:0:
256,192,190015,1,0,0:0:0:0:
256,192,190090,1,0,0:0:0:0:
256,192,190165,1,0,0:0:0:0:
256,192,190240,1,8,0:0:0:0:
256,192,190315,1,8,0:0:0:0:
256,192,190390,1,8,0:0:0:0:
256,192,190465,1,0,0:0:0:0:
256,192,190540,1,0,0:0:0:0:
256,192,190615,1,0,0:0:0:0:
256,192,190690,1,8,0:0:0:0:
256,192,190840,1,0,0:0:0:0:
256,192,190990,1,8,0:0:0:0:
256,192,191140,1,0,0:0:0:0:
256,192,191215,1,0,0:0:0:0:
256,192,191290,1,8,0:0:0:0:
256,192,191440,1,0,0:0:0:0:
256,192,191590,1,8,0:0:0:0:
256,192,191740,1,8,0:0:0:0:
256,192,191890,1,8,0:0:0:0:
256,192,191965,1,0,0:0:0:0:
256,192,192040,1,0,0:0:0:0:
256,192,192190,1,8,0:0:0:0:
256,192,192265,1,0,0:0:0:0:
256,192,192340,1,0,0:0:0:0:
256,192,192415,1,0,0:0:0:0:
256,192,192490,1,8,0:0:0:0:
256,192,192565,1,0,0:0:0:0:
256,192,192640,1,0,0:0:0:0:
256,192,192715,1,0,0:0:0:0:
256,192,192790,1,8,0:0:0:0:
256,192,192865,1,0,0:0:0:0:
256,192,192940,1,8,0:0:0:0:
256,192,193015,1,0,0:0:0:0:
256,192,193090,1,8,0:0:0:0:
256,192,193165,1,8,0:0:0:0:
256,192,193240,1,0,0:0:0:0:
256,192,193315,1,0,0:0:0:0:
256,192,193390,1,8,0:0:0:0:
256,192,193540,1,8,0:0:0:0:
256,192,193690,1,0,0:0:0:0:
256,192,193765,1,0,0:0:0:0:
256,192,193840,1,8,0:0:0:0:
256,192,193915,1,0,0:0:0:0:
256,192,193990,1,8,0:0:0:0:
256,192,194140,1,0,0:0:0:0:
256,192,194290,1,8,0:0:0:0:
256,192,194365,1,8,0:0:0:0:
256,192,194440,1,0,0:0:0:0:
256,192,194590,1,8,0:0:0:0:
256,192,194740,1,0,0:0:0:0:
256,192,194815,1,0,0:0:0:0:
256,192,194890,1,0,0:0:0:0:
256,192,194965,1,0,0:0:0:0:
256,192,195040,1,8,0:0:0:0:
256,192,195190,1,8,0:0:0:0:
256,192,195265,1,8,0:0:0:0:
256,192,195340,1,8,0:0:0:0:
256,192,195415,1,8,0:0:0:0:
256,192,195490,1,0,0:0:0:0:
256,192,195640,1,0,0:0:0:0:
256,192,195790,1,8,0:0:0:0:
256,192,195940,1,0,0:0:0:0:
256,192,196015,1,0,0:0:0:0:
256,192,196090,1,8,0:0:0:0:
256,192,196240,1,8,0:0:0:0:
256,192,196390,1,0,0:0:0:0:
256,192,196540,1,0,0:0:0:0:
256,192,196615,1,0,0:0:0:0:
256,192,196690,1,8,0:0:0:0:
256,192,196840,1,0,0:0:0:0:
256,192,196990,1,8,0:0:0:0:
256,192,197140,1,8,0:0:0:0:
256,192,197215,1,0,0:0:0:0:
256,192,197290,1,0,0:0:0:0:
256,192,197365,1,0,0:0:0:0:
256,192,197440,1,0,0:0:0:0:
256,192,197590,1,8,0:0:0:0:
256,192,197665,1,8,0:0:0:0:
256,192,197740,1,8,0:0:0:0:
256,192,197890,1,0,0:0:0:0:
256,192,197965,1,0,0:0:0:0:
256,192,198040,1,8,0:0:0:0:
256,192,198190,1,8,0:0:0:0:
256,192,198265,1,8,0:0:0:0:
256,192,198340,1,0,0:0:0:0:
256,192,198415,1,8,0:0:0:0:
256,192,198490,1,0,0:0:0:0:
256,192,198565,1,0,0:0:0:0:
256,192,198640,1,8,0:0:0:0:
256,192,198715,1,8,0:0:0:0:
256,192,198790,1,0,0:0:0:0:
256,192,198865,1,0,0:0:0:0:
256,192,198940,1,8,0:0:0:0:
256,192,199015,1,0,0:0:0:0:
256,192,199090,1,8,0:0:0:0:
256,192,199165,1,0,0:0:0:0:
256,192,199240,1,0,0:0:0:0:
256,192,199315,1,0,0:0:0:0:
256,192,199390,1,8,0:0:0:0:
256,192,199690,1,4,0:0:0:0:
256,192,199990,1,4,0:0:0:0:
256,192,200290,1,12,0:0:0:0:
256,192,200590,5,12,0:0:0:0:
256,192,200740,1,8,0:0:0:0:
256,192,200815,1,8,0:0:0:0:
256,192,200890,1,0,0:0:0:0:
256,192,201040,1,0,0:0:0:0:
256,192,201190,1,8,0:0:0:0:
256,192,201265,1,0,0:0:0:0:
256,192,201340,1,8,0:0:0:0:
256,192,201490,1,8,0:0:0:0:
256,192,201565,1,0,0:0:0:0:
256,192,201640,1,0,0:0:0:0:
256,192,201790,1,8,0:0:0:0:
256,192,201940,1,8,0:0:0:0:
256,192,202015,1,8,0:0:0:0:
256,192,202090,1,0,0:0:0:0:
256,192,202240,1,8,0:0:0:0:
256,192,202390,1,0,0:0:0:0:
256,192,202465,1,8,0:0:0:0:
256,192,202540,1,0,0:0:0:0:
256,192,202690,1,8,0:0:0:0:
256,192,202840,1,0,0:0:0:0:
256,192,202990,1,8,0:0:0:0:
256,192,203140,1,8,0:0:0:0:
256,192,203215,1,0,0:0:0:0:
256,192,203290,1,0,0:0:0:0:
256,192,203440,1,0,0:0:0:0:
256,192,203590,1,8,0:0:0:0:
256,192,203665,1,8,0:0:0:0:
256,192,203740,1,0,0:0:0:0:
256,192,203815,1,0,0:0:0:0:
256,192,203890,1,8,0:0:0:0:
256,192,204040,1,0,0:0:0:0:
256,192,204190,1,8,0:0:0:0:
256,192,204265,1,0,0:0:0:0:
256,192,204340,1,8,0:0:0:0:
256,192,204415,1,8,0:0:0:0:
256,192,204490,1,0,0:0:0:0:
256,192,204565,1,0,0:0:0:0:
256,192,204640,1,8,0:0:0:0:
256,192,204790,1,0,0:0:0:0:
256,192,204940,1,8,0:0:0:0:
256,192,205090,1,0,0:0:0:0:
256,192,205165,1,0,0:0:0:0:
256,192,205240,1,8,0:0:0:0:
256,192,205390,1,8,0:0:0:0:
256,192,205540,1,8,0:0:0:0:
256,192,205615,1,8,0:0:0:0:
256,192,205690,1,0,0:0:0:0:
256,192,205840,1,0,0:0:0:0:
256,192,205990,1,0,0:0:0:0:
256,192,206140,1,8,0:0:0:0:
256,192,206215,1,8,0:0:0:0:
256,192,206290,1,0,0:0:0:0:
256,192,206365,1,0,0:0:0:0:
256,192,206440,1,8,0:0:0:0:
256,192,206590,1,8,0:0:0:0:
256,192,206740,1,0,0:0:0:0:
256,192,206815,1,0,0:0:0:0:
256,192,206890,1,8,0:0:0:0:
256,192,207040,1,8,0:0:0:0:
256,192,207190,1,0,0:0:0:0:
256,192,207340,1,8,0:0:0:0:
256,192,207490,1,8,0:0:0:0:
256,192,207565,1,8,0:0:0:0:
256,192,207640,1,0,0:0:0:0:
256,192,207790,1,8,0:0:0:0:
256,192,207865,1,8,0:0:0:0:
256,192,207940,1,8,0:0:0:0:
256,192,208015,1,0,0:0:0:0:
256,192,208090,1,0,0:0:0:0:
256,192,208165,1,0,0:0:0:0:
256,192,208240,1,8,0:0:0:0:
256,192,208315,1,8,0:0:0:0:
256,192,208390,1,8,0:0:0:0:
256,192,208465,1,0,0:0:0:0:
256,192,208540,1,0,0:0:0:0:
256,192,208615,1,0,0:0:0:0:
256,192,208690,1,8,0:0:0:0:
256,192,208765,1,0,0:0:0:0:
256,192,208840,1,8,0:0:0:0:
256,192,208990,1,0,0:0:0:0:
256,192,209065,1,0,0:0:0:0:
256,192,209140,1,8,0:0:0:0:
256,192,209215,1,0,0:0:0:0:
256,192,209290,1,8,0:0:0:0:
256,192,209365,1,8,0:0:0:0:
256,192,209440,1,0,0:0:0:0:
256,192,209515,1,0,0:0:0:0:
256,192,209590,1,8,0:0:0:0:
256,192,209665,1,8,0:0:0:0:
256,192,209740,1,8,0:0:0:0:
256,192,209815,1,8,0:0:0:0:
256,192,209890,1,0,0:0:0:0:
256,192,209965,1,0,0:0:0:0:
256,192,210040,1,0,0:0:0:0:
256,192,210115,1,0,0:0:0:0:
256,192,210190,1,8,0:0:0:0:
256,192,210340,1,0,0:0:0:0:
256,192,210415,1,8,0:0:0:0:
256,192,210490,1,8,0:0:0:0:
256,192,210640,1,0,0:0:0:0:
256,192,210790,1,8,0:0:0:0:
256,192,210865,1,0,0:0:0:0:
256,192,210940,1,8,0:0:0:0:
256,192,211015,1,0,0:0:0:0:
256,192,211090,1,0,0:0:0:0:
256,192,211165,1,8,0:0:0:0:
256,192,211240,1,0,0:0:0:0:
256,192,211390,1,0,0:0:0:0:
256,192,211540,1,8,0:0:0:0:
256,192,211615,1,8,0:0:0:0:
256,192,211690,1,8,0:0:0:0:
256,192,211840,1,0,0:0:0:0:
256,192,211990,1,8,0:0:0:0:
256,192,212065,1,8,0:0:0:0:
256,192,212140,1,0,0:0:0:0:
256,192,212215,1,0,0:0:0:0:
256,192,212290,1,8,0:0:0:0:
256,192,212440,1,0,0:0:0:0:
256,192,212590,1,8,0:0:0:0:
256,192,212665,1,0,0:0:0:0:
256,192,212740,1,8,0:0:0:0:
256,192,212815,1,0,0:0:0:0:
256,192,212890,1,8,0:0:0:0:
256,192,212965,1,0,0:0:0:0:
256,192,213040,1,8,0:0:0:0:
256,192,213190,1,0,0:0:0:0:
256,192,213265,1,8,0:0:0:0:
256,192,213340,1,0,0:0:0:0:
256,192,213415,1,8,0:0:0:0:
256,192,213490,1,0,0:0:0:0:
256,192,213565,1,8,0:0:0:0:
256,192,213640,1,0,0:0:0:0:
256,192,213790,1,0,0:0:0:0:
256,192,213940,1,8,0:0:0:0:
256,192,214015,1,0,0:0:0:0:
256,192,214090,1,0,0:0:0:0:
256,192,214240,1,8,0:0:0:0:
256,192,214390,1,0,0:0:0:0:
256,192,214540,1,8,0:0:0:0:
256,192,214690,1,0,0:0:0:0:
256,192,214765,1,0,0:0:0:0:
256,192,214840,1,0,0:0:0:0:
256,192,214990,1,8,0:0:0:0:
256,192,215140,1,8,0:0:0:0:
256,192,215215,1,0,0:0:0:0:
256,192,215290,1,8,0:0:0:0:
256,192,215365,1,8,0:0:0:0:
256,192,215440,1,0,0:0:0:0:
256,192,215515,1,0,0:0:0:0:
256,192,215590,1,8,0:0:0:0:
256,192,215740,1,0,0:0:0:0:
256,192,215890,1,8,0:0:0:0:
256,192,215965,1,0,0:0:0:0:
256,192,216040,1,0,0:0:0:0:
256,192,216190,1,8,0:0:0:0:
256,192,216340,1,8,0:0:0:0:
256,192,216415,1,0,0:0:0:0:
256,192,216490,1,0,0:0:0:0:
256,192,216565,1,8,0:0:0:0:
256,192,216640,1,0,0:0:0:0:
256,192,216715,1,8,0:0:0:0:
256,192,216790,1,0,0:0:0:0:
256,192,216940,1,0,0:0:0:0:
256,192,217090,1,8,0:0:0:0:
256,192,217240,1,0,0:0:0:0:
256,192,217390,1,8,0:0:0:0:
256,192,217465,1,8,0:0:0:0:
256,192,217540,1,0,0:0:0:0:
256,192,217615,1,0,0:0:0:0:
256,192,217690,1,8,0:0:0:0:
256,192,217765,1,8,0:0:0:0:
256,192,217840,1,0,0:0:0:0:
256,192,217915,1,0,0:0:0:0:
256,192,217990,1,8,0:0:0:0:
256,192,218065,1,0,0:0:0:0:
256,192,218140,1,8,0:0:0:0:
256,192,218215,1,0,0:0:0:0:
256,192,218290,1,8,0:0:0:0:
256,192,218365,1,8,0:0:0:0:
256,192,218440,1,0,0:0:0:0:
256,192,218590,1,0,0:0:0:0:
256,192,218690,1,0,0:0:0:0:
256,192,218790,1,0,0:0:0:0:
256,192,218890,1,8,0:0:0:0:
256,192,219190,1,12,0:0:0:0:
256,192,219415,1,12,0:0:0:0:
256,192,219640,1,4,0:0:0:0:
256,192,219790,1,12,0:0:0:0:
256,192,219940,12,0,221740,0:0:0:0:
256,192,221890,5,4,0:0:0:0:
256,192,222190,1,12,0:0:0:0:
256,192,222790,1,8,0:0:0:0:
256,192,223390,1,0,0:0:0:0:
256,192,223990,1,0,0:0:0:0:
256,192,224440,1,4,0:0:0:0:
256,192,224590,1,12,0:0:0:0:
256,192,225190,1,8,0:0:0:0:
256,192,225790,1,8,0:0:0:0:
256,192,226390,1,0,0:0:0:0:
256,192,226690,1,4,0:0:0:0:
256,192,226990,1,12,0:0:0:0:
256,192,227590,1,8,0:0:0:0:
256,192,228190,1,0,0:0:0:0:
256,192,228640,1,8,0:0:0:0:
256,192,229090,1,0,0:0:0:0:
256,192,229390,1,12,0:0:0:0:
256,192,229540,12,0,231340,0:0:0:0:
256,192,231490,5,4,0:0:0:0:
256,192,231790,1,12,0:0:0:0:
256,192,232090,1,0,0:0:0:0:
256,192,232190,1,0,0:0:0:0:
256,192,232290,1,0,0:0:0:0:
256,192,232390,1,8,0:0:0:0:
256,192,232490,1,8,0:0:0:0:
256,192,232590,1,0,0:0:0:0:
256,192,232690,1,0,0:0:0:0:
256,192,232990,1,0,0:0:0:0:
256,192,233290,1,0,0:0:0:0:
256,192,233390,1,0,0:0:0:0:
256,192,233490,1,8,0:0:0:0:
256,192,233590,1,8,0:0:0:0:
256,192,233890,1,4,0:0:0:0:
256,192,234190,1,12,0:0:0:0:
256,192,234490,1,0,0:0:0:0:
256,192,234590,1,8,0:0:0:0:
256,192,234690,1,0,0:0:0:0:
256,192,234790,1,8,0:0:0:0:
256,192,234890,1,8,0:0:0:0:
256,192,234990,1,0,0:0:0:0:
256,192,235090,1,0,0:0:0:0:
256,192,235390,1,0,0:0:0:0:
256,192,235690,1,0,0:0:0:0:
256,192,235790,1,8,0:0:0:0:
256,192,235890,1,0,0:0:0:0:
256,192,235990,1,8,0:0:0:0:
256,192,236090,1,8,0:0:0:0:
256,192,236190,1,0,0:0:0:0:
256,192,236290,1,0,0:0:0:0:
256,192,236440,1,4,0:0:0:0:
256,192,236590,1,12,0:0:0:0:
256,192,236890,1,0,0:0:0:0:
256,192,236990,1,0,0:0:0:0:
256,192,237090,1,0,0:0:0:0:
256,192,237190,1,8,0:0:0:0:
256,192,237290,1,0,0:0:0:0:
256,192,237390,1,8,0:0:0:0:
256,192,237490,1,0,0:0:0:0:
256,192,237790,1,0,0:0:0:0:
256,192,237890,1,0,0:0:0:0:
256,192,237990,1,0,0:0:0:0:
256,192,238090,1,8,0:0:0:0:
256,192,238240,1,0,0:0:0:0:
256,192,238390,1,8,0:0:0:0:
256,192,238690,1,8,0:0:0:0:
256,192,238990,1,4,0:0:0:0:
256,192,239140,12,0,240040,0:0:0:0:
256,192,240190,5,8,0:0:0:0:
256,192,240265,1,8,0:0:0:0:
256,192,240340,1,8,0:0:0:0:
256,192,240415,1,0,0:0:0:0:
256,192,240490,1,0,0:0:0:0:
256,192,240565,1,0,0:0:0:0:
256,192,240640,1,8,0:0:0:0:
256,192,240715,1,0,0:0:0:0:
256,192,240790,1,8,0:0:0:0:
256,192,240865,1,8,0:0:0:0:
256,192,240940,1,0,0:0:0:0:
256,192,241015,1,0,0:0:0:0:
256,192,241090,1,8,0:0:0:0:
256,192,241165,1,8,0:0:0:0:
256,192,241240,1,0,0:0:0:0:
256,192,241315,1,0,0:0:0:0:
256,192,241390,1,8,0:0:0:0:
256,192,241465,1,8,0:0:0:0:
256,192,241540,1,8,0:0:0:0:
256,192,241615,1,8,0:0:0:0:
256,192,241690,1,8,0:0:0:0:
256,192,241840,1,0,0:0:0:0:
256,192,241915,1,0,0:0:0:0:
256,192,241990,1,0,0:0:0:0:
256,192,242065,1,0,0:0:0:0:
256,192,242140,1,0,0:0:0:0:
256,192,242290,1,8,0:0:0:0:
256,192,242365,1,0,0:0:0:0:
256,192,242440,1,0,0:0:0:0:
256,192,242590,5,12,0:0:0:0:
256,192,242766,1,8,0:0:0:0:
256,192,242854,1,8,0:0:0:0:
256,192,242942,1,0,0:0:0:0:
256,192,243031,1,0,0:0:0:0:
256,192,243119,1,8,0:0:0:0:
256,192,243207,1,0,0:0:0:0:
256,192,243295,1,8,0:0:0:0:
256,192,243384,1,8,0:0:0:0:
256,192,243472,1,8,0:0:0:0:
256,192,243560,1,0,0:0:0:0:
256,192,243648,1,0,0:0:0:0:
256,192,243737,1,0,0:0:0:0:
256,192,243825,1,8,0:0:0:0:
256,192,243913,1,0,0:0:0:0:
256,192,244001,1,8,0:0:0:0:
256,192,244090,1,0,0:0:0:0:
256,192,244178,1,8,0:0:0:0:
256,192,244266,1,0,0:0:0:0:
256,192,244354,1,0,0:0:0:0:
256,192,244442,1,0,0:0:0:0:
256,192,244531,1,8,0:0:0:0:
256,192,244619,1,0,0:0:0:0:
256,192,244707,1,8,0:0:0:0:
256,192,244795,1,8,0:0:0:0:
256,192,244884,1,8,0:0:0:0:
256,192,244972,1,0,0:0:0:0:
256,192,245060,1,0,0:0:0:0:
256,192,245148,1,0,0:0:0:0:
256,192,245237,1,8,0:0:0:0:
256,192,245325,1,0,0:0:0:0:
256,192,245413,1,0,0:0:0:0:
256,192,245501,1,0,0:0:0:0:
256,192,245590,1,8,0:0:0:0:
256,192,245678,1,0,0:0:0:0:
256,192,245766,1,8,0:0:0:0:
256,192,245854,1,0,0:0:0:0:
256,192,245942,1,0,0:0:0:0:
256,192,246031,1,8,0:0:0:0:
256,192,246119,1,8,0:0:0:0:
256,192,246207,1,8,0:0:0:0:
256,192,246295,1,0,0:0:0:0:
256,192,246384,1,8,0:0:0:0:
256,192,246472,1,0,0:0:0:0:
256,192,246560,1,0,0:0:0:0:
256,192,246648,1,8,0:0:0:0:
256,192,246737,1,0,0:0:0:0:
256,192,246825,1,8,0:0:0:0:
256,192,246913,1,8,0:0:0:0:
256,192,247001,1,8,0:0:0:0:
256,192,247090,1,0,0:0:0:0:
256,192,247178,1,0,0:0:0:0:
256,192,247266,1,0,0:0:0:0:
256,192,247354,1,8,0:0:0:0:
256,192,247442,1,0,0:0:0:0:
256,192,247531,1,8,0:0:0:0:
256,192,247619,1,8,0:0:0:0:
256,192,247707,1,0,0:0:0:0:
256,192,247795,1,0,0:0:0:0:
256,192,247884,1,0,0:0:0:0:
256,192,247972,1,0,0:0:0:0:
256,192,248060,1,8,0:0:0:0:
256,192,248148,1,0,0:0:0:0:
256,192,248237,1,0,0:0:0:0:
256,192,248325,1,0,0:0:0:0:
256,192,248413,1,8,0:0:0:0:
256,192,248501,1,0,0:0:0:0:
256,192,248590,1,0,0:0:0:0:
256,192,248678,1,0,0:0:0:0:
256,192,248766,1,8,0:0:0:0:
256,192,248854,1,0,0:0:0:0:
256,192,248942,1,8,0:0:0:0:
256,192,249031,1,0,0:0:0:0:
256,192,249119,1,8,0:0:0:0:
256,192,249207,1,0,0:0:0:0:
256,192,249295,1,0,0:0:0:0:
256,192,249384,1,0,0:0:0:0:
256,192,249472,1,8,0:0:0:0:
256,192,249560,1,0,0:0:0:0:
256,192,249648,1,8,0:0:0:0:
256,192,249737,1,8,0:0:0:0:
256,192,249825,1,8,0:0:0:0:
256,192,249913,1,0,0:0:0:0:
256,192,250001,1,0,0:0:0:0:
256,192,250090,1,0,0:0:0:0:
256,192,250178,1,8,0:0:0:0:
256,192,250266,1,0,0:0:0:0:
256,192,250354,1,8,0:0:0:0:
256,192,250442,1,8,0:0:0:0:
256,192,250531,1,0,0:0:0:0:
256,192,250619,1,0,0:0:0:0:
256,192,250707,1,0,0:0:0:0:
256,192,250795,1,0,0:0:0:0:
256,192,250884,1,8,0:0:0:0:
256,192,250972,1,0,0:0:0:0:
256,192,251060,1,0,0:0:0:0:
256,192,251148,1,0,0:0:0:0:
256,192,251237,1,8,0:0:0:0:
256,192,251325,1,8,0:0:0:0:
256,192,251413,1,8,0:0:0:0:
256,192,251501,1,8,0:0:0:0:
256,192,251590,1,0,0:0:0:0:
256,192,251678,1,0,0:0:0:0:
256,192,251766,1,8,0:0:0:0:
256,192,251854,1,8,0:0:0:0:
256,192,251942,1,0,0:0:0:0:
256,192,252031,1,0,0:0:0:0:
256,192,252119,1,0,0:0:0:0:
256,192,252207,1,0,0:0:0:0:
256,192,252295,1,8,0:0:0:0:
256,192,252384,1,0,0:0:0:0:
256,192,252472,1,8,0:0:0:0:
256,192,252560,1,8,0:0:0:0:
256,192,252648,1,8,0:0:0:0:
256,192,252737,1,8,0:0:0:0:
256,192,252825,1,0,0:0:0:0:
256,192,252913,1,0,0:0:0:0:
256,192,253001,1,0,0:0:0:0:
256,192,253090,1,0,0:0:0:0:
256,192,253178,1,8,0:0:0:0:
256,192,253266,1,8,0:0:0:0:
256,192,253354,1,8,0:0:0:0:
256,192,253442,1,8,0:0:0:0:
256,192,253531,1,0,0:0:0:0:
256,192,253619,1,0,0:0:0:0:
256,192,253707,1,8,0:0:0:0:
256,192,253795,1,0,0:0:0:0:
256,192,253884,1,8,0:0:0:0:
256,192,254060,1,8,0:0:0:0:
256,192,254148,1,0,0:0:0:0:
256,192,254237,1,0,0:0:0:0:
256,192,254413,1,8,0:0:0:0:
256,192,254590,1,8,0:0:0:0:
256,192,254766,1,0,0:0:0:0:
256,192,254854,1,0,0:0:0:0:
256,192,254942,1,0,0:0:0:0:
256,192,255031,1,0,0:0:0:0:
256,192,255119,1,8,0:0:0:0:
256,192,255295,1,8,0:0:0:0:
256,192,255472,1,0,0:0:0:0:
256,192,255560,1,8,0:0:0:0:
256,192,255737,1,0,0:0:0:0:
256,192,255825,1,8,0:0:0:0:
256,192,256001,1,8,0:0:0:0:
256,192,256060,1,0,0:0:0:0:
256,192,256119,1,0,0:0:0:0:
256,192,256178,1,0,0:0:0:0:
256,192,256266,1,8,0:0:0:0:
256,192,256354,1,0,0:0:0:0:
256,192,256531,1,0,0:0:0:0:
256,192,256707,1,0,0:0:0:0:
256,192,256795,1,0,0:0:0:0:
256,192,256884,1,8,0:0:0:0:
256,192,256972,1,0,0:0:0:0:
256,192,257060,1,8,0:0:0:0:
256,192,257148,1,8,0:0:0:0:
256,192,257237,1,0,0:0:0:0:
256,192,257325,1,8,0:0:0:0:
256,192,257413,1,8,0:0:0:0:
256,192,257501,1,0,0:0:0:0:
256,192,257590,1,8,0:0:0:0:
256,192,257678,1,0,0:0:0:0:
256,192,257766,1,8,0:0:0:0:
256,192,257854,1,8,0:0:0:0:
256,192,257942,1,0,0:0:0:0:
256,192,258031,1,0,0:0:0:0:
256,192,258119,1,8,0:0:0:0:
256,192,258207,1,8,0:0:0:0:
256,192,258295,1,0,0:0:0:0:
256,192,258384,1,8,0:0:0:0:
256,192,258472,1,0,0:0:0:0:
256,192,258560,1,0,0:0:0:0:
256,192,258648,1,8,0:0:0:0:
256,192,258737,1,8,0:0:0:0:
256,192,258825,1,0,0:0:0:0:
256,192,258913,1,0,0:0:0:0:
256,192,259001,1,8,0:0:0:0:
256,192,259090,1,0,0:0:0:0:
256,192,259178,1,8,0:0:0:0:
256,192,259266,1,0,0:0:0:0:
256,192,259354,1,8,0:0:0:0:
256,192,259531,1,12,0:0:0:0:
256,192,259707,1,0,0:0:0:0:
256,192,259795,1,0,0:0:0:0:
256,192,259972,1,0,0:0:0:0:
256,192,260060,1,8,0:0:0:0:
256,192,260148,1,0,0:0:0:0:
256,192,260237,1,8,0:0:0:0:
256,192,260413,1,8,0:0:0:0:
256,192,260501,1,0,0:0:0:0:
256,192,260678,1,0,0:0:0:0:
256,192,260766,1,8,0:0:0:0:
256,192,260854,1,0,0:0:0:0:
256,192,260942,1,0,0:0:0:0:
256,192,261119,1,8,0:0:0:0:
256,192,261207,1,0,0:0:0:0:
256,192,261384,1,0,0:0:0:0:
256,192,261472,1,8,0:0:0:0:
256,192,261648,1,8,0:0:0:0:
256,192,261707,1,0,0:0:0:0:
256,192,261766,1,0,0:0:0:0:
256,192,261825,1,0,0:0:0:0:
256,192,261913,1,8,0:0:0:0:
256,192,262001,1,0,0:0:0:0:
256,192,262090,1,0,0:0:0:0:
256,192,262178,1,8,0:0:0:0:
256,192,262354,1,8,0:0:0:0:
256,192,262442,1,8,0:0:0:0:
256,192,262531,1,0,0:0:0:0:
256,192,262619,1,0,0:0:0:0:
256,192,262707,1,0,0:0:0:0:
256,192,262795,1,8,0:0:0:0:
256,192,262884,1,0,0:0:0:0:
256,192,262972,1,0,0:0:0:0:
256,192,263060,1,8,0:0:0:0:
256,192,263148,1,8,0:0:0:0:
256,192,263237,1,0,0:0:0:0:
256,192,263325,1,0,0:0:0:0:
256,192,263413,1,0,0:0:0:0:
256,192,263501,1,8,0:0:0:0:
256,192,263590,1,0,0:0:0:0:
256,192,263678,1,0,0:0:0:0:
256,192,263766,1,8,0:0:0:0:
256,192,263854,1,0,0:0:0:0:
256,192,263942,1,0,0:0:0:0:
256,192,264031,1,8,0:0:0:0:
256,192,264119,1,8,0:0:0:0:
256,192,264207,1,8,0:0:0:0:
256,192,264295,1,0,0:0:0:0:
256,192,264384,1,0,0:0:0:0:
256,192,264472,1,0,0:0:0:0:
256,192,264604,1,8,0:0:0:0:
256,192,264648,1,0,0:0:0:0:
256,192,264781,1,8,0:0:0:0:
256,192,264825,1,0,0:0:0:0:
256,192,264957,1,8,0:0:0:0:
256,192,265001,1,0,0:0:0:0:
256,192,265178,5,4,0:0:0:0:
256,192,265354,1,8,0:0:0:0:
256,192,265442,1,8,0:0:0:0:
256,192,265530,1,0,0:0:0:0:
256,192,265619,1,0,0:0:0:0:
256,192,265707,1,8,0:0:0:0:
256,192,265795,1,0,0:0:0:0:
256,192,265883,1,8,0:0:0:0:
256,192,265972,1,8,0:0:0:0:
256,192,266060,1,8,0:0:0:0:
256,192,266148,1,0,0:0:0:0:
256,192,266236,1,0,0:0:0:0:
256,192,266325,1,0,0:0:0:0:
256,192,266413,1,8,0:0:0:0:
256,192,266501,1,0,0:0:0:0:
256,192,266589,1,8,0:0:0:0:
256,192,266678,1,8,0:0:0:0:
256,192,266766,1,8,0:0:0:0:
256,192,266854,1,0,0:0:0:0:
256,192,266942,1,0,0:0:0:0:
256,192,267030,1,0,0:0:0:0:
256,192,267119,1,8,0:0:0:0:
256,192,267207,1,0,0:0:0:0:
256,192,267295,1,8,0:0:0:0:
256,192,267383,1,0,0:0:0:0:
256,192,267472,1,8,0:0:0:0:
256,192,267560,1,0,0:0:0:0:
256,192,267648,1,0,0:0:0:0:
256,192,267736,1,0,0:0:0:0:
256,192,267825,1,8,0:0:0:0:
256,192,267913,1,0,0:0:0:0:
256,192,268001,1,0,0:0:0:0:
256,192,268089,1,0,0:0:0:0:
256,192,268178,1,8,0:0:0:0:
256,192,268266,1,8,0:0:0:0:
256,192,268354,1,8,0:0:0:0:
256,192,268442,1,8,0:0:0:0:
256,192,268530,1,0,0:0:0:0:
256,192,268619,1,0,0:0:0:0:
256,192,268707,1,8,0:0:0:0:
256,192,268795,1,8,0:0:0:0:
256,192,268883,1,0,0:0:0:0:
256,192,268972,1,8,0:0:0:0:
256,192,269060,1,0,0:0:0:0:
256,192,269148,1,0,0:0:0:0:
256,192,269236,1,8,0:0:0:0:
256,192,269325,1,0,0:0:0:0:
256,192,269413,1,8,0:0:0:0:
256,192,269501,1,8,0:0:0:0:
256,192,269589,1,8,0:0:0:0:
256,192,269678,1,0,0:0:0:0:
256,192,269766,1,0,0:0:0:0:
256,192,269854,1,0,0:0:0:0:
256,192,269942,1,8,0:0:0:0:
256,192,270030,1,0,0:0:0:0:
256,192,270119,1,8,0:0:0:0:
256,192,270207,1,8,0:0:0:0:
256,192,270295,1,0,0:0:0:0:
256,192,270383,1,0,0:0:0:0:
256,192,270472,1,0,0:0:0:0:
256,192,270560,1,8,0:0:0:0:
256,192,270648,1,8,0:0:0:0:
256,192,270736,1,0,0:0:0:0:
256,192,270825,1,0,0:0:0:0:
256,192,270913,1,0,0:0:0:0:
256,192,271001,1,8,0:0:0:0:
256,192,271089,1,0,0:0:0:0:
256,192,271178,1,0,0:0:0:0:
256,192,271266,1,0,0:0:0:0:
256,192,271354,1,8,0:0:0:0:
256,192,271442,1,0,0:0:0:0:
256,192,271530,1,8,0:0:0:0:
256,192,271619,1,8,0:0:0:0:
256,192,271707,1,8,0:0:0:0:
256,192,271795,1,0,0:0:0:0:
256,192,271883,1,0,0:0:0:0:
256,192,271972,1,0,0:0:0:0:
256,192,272060,1,8,0:0:0:0:
256,192,272148,1,0,0:0:0:0:
256,192,272236,1,8,0:0:0:0:
256,192,272325,1,8,0:0:0:0:
256,192,272413,1,8,0:0:0:0:
256,192,272501,1,0,0:0:0:0:
256,192,272589,1,0,0:0:0:0:
256,192,272678,1,0,0:0:0:0:
256,192,272766,1,8,0:0:0:0:
256,192,272854,1,0,0:0:0:0:
256,192,272942,1,8,0:0:0:0:
256,192,273030,1,0,0:0:0:0:
256,192,273119,1,8,0:0:0:0:
256,192,273207,1,0,0:0:0:0:
256,192,273295,1,0,0:0:0:0:
256,192,273383,1,0,0:0:0:0:
256,192,273472,1,8,0:0:0:0:
256,192,273560,1,0,0:0:0:0:
256,192,273648,1,0,0:0:0:0:
256,192,273736,1,0,0:0:0:0:
256,192,273825,1,8,0:0:0:0:
256,192,273913,1,8,0:0:0:0:
256,192,274001,1,8,0:0:0:0:
256,192,274089,1,0,0:0:0:0:
256,192,274178,1,0,0:0:0:0:
256,192,274266,1,8,0:0:0:0:
256,192,274354,1,8,0:0:0:0:
256,192,274442,1,0,0:0:0:0:
256,192,274530,1,0,0:0:0:0:
256,192,274619,1,0,0:0:0:0:
256,192,274707,1,0,0:0:0:0:
256,192,274795,1,0,0:0:0:0:
256,192,274883,1,8,0:0:0:0:
256,192,274972,1,0,0:0:0:0:
256,192,275060,1,8,0:0:0:0:
256,192,275148,1,8,0:0:0:0:
256,192,275236,1,8,0:0:0:0:
256,192,275325,1,8,0:0:0:0:
256,192,275413,1,0,0:0:0:0:
256,192,275501,1,0,0:0:0:0:
256,192,275589,1,0,0:0:0:0:
256,192,275678,1,0,0:0:0:0:
256,192,275766,1,8,0:0:0:0:
256,192,275854,1,8,0:0:0:0:
256,192,275942,1,8,0:0:0:0:
256,192,276030,1,8,0:0:0:0:
256,192,276119,1,0,0:0:0:0:
256,192,276207,1,0,0:0:0:0:
256,192,276295,1,8,0:0:0:0:
256,192,276383,1,0,0:0:0:0:
256,192,276472,1,8,0:0:0:0:
256,192,276648,1,0,0:0:0:0:
256,192,276737,1,0,0:0:0:0:
256,192,276825,1,8,0:0:0:0:
256,192,276913,1,0,0:0:0:0:
256,192,277001,1,0,0:0:0:0:
256,192,277178,1,8,0:0:0:0:
256,192,277354,1,0,0:0:0:0:
256,192,277442,1,0,0:0:0:0:
256,192,277531,1,0,0:0:0:0:
256,192,277707,1,8,0:0:0:0:
256,192,277884,1,0,0:0:0:0:
256,192,278060,1,8,0:0:0:0:
256,192,278148,1,0,0:0:0:0:
256,192,278413,1,8,0:0:0:0:
256,192,278590,1,8,0:0:0:0:
256,192,278766,1,0,0:0:0:0:
256,192,278942,1,0,0:0:0:0:
256,192,279031,1,0,0:0:0:0:
256,192,279119,1,8,0:0:0:0:
256,192,279295,1,0,0:0:0:0:
256,192,279384,1,0,0:0:0:0:
256,192,279472,1,8,0:0:0:0:
256,192,279560,1,0,0:0:0:0:
256,192,279648,1,8,0:0:0:0:
256,192,279737,1,8,0:0:0:0:
256,192,279825,1,0,0:0:0:0:
256,192,279913,1,8,0:0:0:0:
256,192,280001,1,0,0:0:0:0:
256,192,280090,1,0,0:0:0:0:
256,192,280178,1,8,0:0:0:0:
256,192,280266,1,0,0:0:0:0:
256,192,280354,1,0,0:0:0:0:
256,192,280442,1,0,0:0:0:0:
256,192,280531,1,8,0:0:0:0:
256,192,280619,1,8,0:0:0:0:
256,192,280707,1,0,0:0:0:0:
256,192,280766,1,0,0:0:0:0:
256,192,280825,1,8,0:0:0:0:
256,192,280884,1,0,0:0:0:0:
256,192,280942,1,0,0:0:0:0:
256,192,281001,1,8,0:0:0:0:
256,192,281060,1,8,0:0:0:0:
256,192,281148,1,0,0:0:0:0:
256,192,281237,1,0,0:0:0:0:
256,192,281325,1,8,0:0:0:0:
256,192,281413,1,0,0:0:0:0:
256,192,281501,1,0,0:0:0:0:
256,192,281590,1,8,0:0:0:0:
256,192,281678,1,0,0:0:0:0:
256,192,281766,1,8,0:0:0:0:
256,192,281942,1,0,0:0:0:0:
256,192,282119,1,0,0:0:0:0:
256,192,282295,1,0,0:0:0:0:
256,192,282384,1,8,0:0:0:0:
256,192,282560,1,8,0:0:0:0:
256,192,282648,1,0,0:0:0:0:
256,192,282825,1,0,0:0:0:0:
256,192,283001,1,8,0:0:0:0:
256,192,283090,1,8,0:0:0:0:
256,192,283266,1,8,0:0:0:0:
256,192,283354,1,0,0:0:0:0:
256,192,283531,1,0,0:0:0:0:
256,192,283707,1,0,0:0:0:0:
256,192,283766,1,0,0:0:0:0:
256,192,283825,1,8,0:0:0:0:
256,192,283884,1,8,0:0:0:0:
256,192,284060,1,0,0:0:0:0:
256,192,284237,1,8,0:0:0:0:
256,192,284325,1,8,0:0:0:0:
256,192,284413,1,0,0:0:0:0:
256,192,284501,1,8,0:0:0:0:
256,192,284678,1,0,0:0:0:0:
256,192,284766,1,0,0:0:0:0:
256,192,284942,1,8,0:0:0:0:
256,192,285031,1,0,0:0:0:0:
256,192,285119,1,8,0:0:0:0:
256,192,285207,1,8,0:0:0:0:
256,192,285295,1,0,0:0:0:0:
256,192,285384,1,0,0:0:0:0:
256,192,285472,1,8,0:0:0:0:
256,192,285560,1,8,0:0:0:0:
256,192,285648,1,0,0:0:0:0:
256,192,285707,1,0,0:0:0:0:
256,192,285766,1,0,0:0:0:0:
256,192,285825,1,8,0:0:0:0:
256,192,285884,1,8,0:0:0:0:
256,192,285942,1,8,0:0:0:0:
256,192,286001,1,0,0:0:0:0:
256,192,286090,1,8,0:0:0:0:
256,192,286178,1,0,0:0:0:0:
256,192,286266,1,8,0:0:0:0:
256,192,286354,1,0,0:0:0:0:
256,192,286442,1,0,0:0:0:0:
256,192,286531,1,0,0:0:0:0:
256,192,286619,1,0,0:0:0:0:
256,192,286707,1,8,0:0:0:0:
256,192,286795,1,0,0:0:0:0:
256,192,286884,1,0,0:0:0:0:
256,192,286972,1,8,0:0:0:0:
256,192,287060,1,0,0:0:0:0:
256,192,287148,1,0,0:0:0:0:
256,192,287237,1,8,0:0:0:0:
256,192,287325,1,8,0:0:0:0:
256,192,287413,1,0,0:0:0:0:
256,192,287472,1,8,0:0:0:0:
256,192,287531,1,8,0:0:0:0:
256,192,287590,1,0,0:0:0:0:
256,192,287766,5,12,0:0:0:0:
256,192,288966,1,12,0:0:0:0:
256,192,290166,1,12,0:0:0:0:
256,192,291366,1,4,0:0:0:0:
256,192,291516,2,0,L|320:192,10,35
256,192,292416,1,0,0:0:0:0:
256,192,292466,1,0,0:0:0:0:
256,192,292516,1,0,0:0:0:0:
256,192,292566,1,8,0:0:0:0:
256,192,292716,1,0,0:0:0:0:
256,192,292791,1,0,0:0:0:0:
256,192,292866,1,0,0:0:0:0:
256,192,293016,1,8,0:0:0:0:
256,192,293166,1,8,0:0:0:0:
256,192,293316,1,0,0:0:0:0:
256,192,293466,1,0,0:0:0:0:
256,192,293766,1,12,0:0:0:0:
256,192,293916,1,0,0:0:0:0:
256,192,293991,1,0,0:0:0:0:
256,192,294066,1,8,0:0:0:0:
256,192,294216,1,8,0:0:0:0:
256,192,294366,1,0,0:0:0:0:
256,192,294516,1,8,0:0:0:0:
256,192,294666,1,0,0:0:0:0:
256,192,294966,1,12,0:0:0:0:
256,192,295116,1,0,0:0:0:0:
256,192,295191,1,0,0:0:0:0:
256,192,295266,1,0,0:0:0:0:
256,192,295416,1,8,0:0:0:0:
256,192,295566,1,8,0:0:0:0:
256,192,295716,1,0,0:0:0:0:
256,192,295866,1,8,0:0:0:0:
256,192,296016,1,8,0:0:0:0:
256,192,296166,1,12,0:0:0:0:
256,192,296316,12,0,297216,0:0:0:0:
256,192,297366,5,4,0:0:0:0:
256,192,297516,12,0,298416,0:0:0:0:
256,192,298566,5,0,0:0:0:0:
256,192,298616,1,8,0:0:0:0:
256,192,298666,1,8,0:0:0:0:
256,192,298716,1,8,0:0:0:0:
256,192,298866,1,0,0:0:0:0:
256,192,298916,1,0,0:0:0:0:
256,192,298966,1,8,0:0:0:0:
256,192,299016,1,8,0:0:0:0:
256,192,299166,1,0,0:0:0:0:
256,192,299216,1,8,0:0:0:0:
256,192,299266,1,8,0:0:0:0:
256,192,299316,1,8,0:0:0:0:
256,192,299466,1,0,0:0:0:0:
256,192,299516,1,0,0:0:0:0:
256,192,299566,1,8,0:0:0:0:
256,192,299616,1,8,0:0:0:0:
256,192,299766,5,8,0:0:0:0:
256,192,299841,1,8,0:0:0:0:
256,192,299916,1,0,0:0:0:0:
256,192,299991,1,0,0:0:0:0:
256,192,300066,1,8,0:0:0:0:
256,192,300141,1,8,0:0:0:0:
256,192,300216,1,0,0:0:0:0:
256,192,300291,1,8,0:0:0:0:
256,192,300366,1,0,0:0:0:0:
256,192,300416,1,0,0:0:0:0:
256,192,300466,1,8,0:0:0:0:
256,192,300516,1,8,0:0:0:0:
256,192,300591,1,0,0:0:0:0:
256,192,300666,1,8,0:0:0:0:
256,192,300716,1,8,0:0:0:0:
256,192,300766,1,0,0:0:0:0:
256,192,300816,1,0,0:0:0:0:
256,192,300891,1,8,0:0:0:0:
256,192,300966,1,0,0:0:0:0:
256,192,301041,1,0,0:0:0:0:
256,192,301116,1,8,0:0:0:0:
256,192,301191,1,8,0:0:0:0:
256,192,301266,1,0,0:0:0:0:
256,192,301341,1,0,0:0:0:0:
256,192,301416,1,8,0:0:0:0:
256,192,301491,1,0,0:0:0:0:
256,192,301566,1,0,0:0:0:0:
256,192,301641,1,8,0:0:0:0:
256,192,301791,1,8,0:0:0:0:
256,192,301866,1,0,0:0:0:0:
256,192,302016,1,8,0:0:0:0:
256,192,302166,1,8,0:0:0:0:
256,192,302241,1,8,0:0:0:0:
256,192,302316,1,0,0:0:0:0:
256,192,302391,1,0,0:0:0:0:
256,192,302466,1,8,0:0:0:0:
256,192,302516,1,8,0:0:0:0:
256,192,302566,1,8,0:0:0:0:
256,192,302616,1,0,0:0:0:0:
256,192,302691,1,8,0:0:0:0:
256,192,302766,1,0,0:0:0:0:
256,192,302816,1,0,0:0:0:0:
256,192,302866,1,0,0:0:0:0:
256,192,302916,1,8,0:0:0:0:
256,192,302966,1,8,0:0:0:0:
256,192,303016,1,8,0:0:0:0:
256,192,303066,1,0,0:0:0:0:
256,192,303141,1,8,0:0:0:0:
256,192,303216,1,0,0:0:0:0:
256,192,303291,1,8,0:0:0:0:
256,192,303366,1,0,0:0:0:0:
256,192,303441,1,0,0:0:0:0:
256,192,303516,1,8,0:0:0:0:
256,192,303591,1,8,0:0:0:0:
256,192,303666,1,0,0:0:0:0:
256,192,303741,1,0,0:0:0:0:
256,192,303816,1,8,0:0:0:0:
256,192,303891,1,0,0:0:0:0:
256,192,303966,1,8,0:0:0:0:
256,192,304116,1,8,0:0:0:0:
256,192,304266,1,0,0:0:0:0:
256,192,304341,1,0,0:0:0:0:
256,192,304416,1,8,0:0:0:0:
256,192,304566,1,8,0:0:0:0:
256,192,304616,1,8,0:0:0:0:
256,192,304666,1,8,0:0:0:0:
256,192,304716,1,0,0:0:0:0:
256,192,304766,1,0,0:0:0:0:
256,192,304816,1,0,0:0:0:0:
256,192,304866,1,8,0:0:0:0:
256,192,304916,1,8,0:0:0:0:
256,192,304966,1,0,0:0:0:0:
256,192,305016,1,8,0:0:0:0:
256,192,305066,1,0,0:0:0:0:
256,192,305116,1,0,0:0:0:0:
256,192,305166,1,8,0:0:0:0:
256,192,305241,1,8,0:0:0:0:
256,192,305316,1,0,0:0:0:0:
256,192,305391,1,0,0:0:0:0:
256,192,305466,1,8,0:0:0:0:
256,192,305616,1,8,0:0:0:0:
256,192,305766,1,8,0:0:0:0:
256,192,305816,1,8,0:0:0:0:
256,192,305866,1,0,0:0:0:0:
256,192,305916,1,8,0:0:0:0:
256,192,305966,1,0,0:0:0:0:
256,192,306016,1,0,0:0:0:0:
256,192,306066,1,8,0:0:0:0:
256,192,306116,1,8,0:0:0:0:
256,192,306166,1,8,0:0:0:0:
256,192,306216,1,0,0:0:0:0:
256,192,306266,1,0,0:0:0:0:
256,192,306316,1,0,0:0:0:0:
256,192,306366,1,0,0:0:0:0:
256,192,306441,1,8,0:0:0:0:
256,192,306516,1,0,0:0:0:0:
256,192,306591,1,8,0:0:0:0:
256,192,306666,1,8,0:0:0:0:
256,192,306966,1,0,0:0:0:0:
256,192,307041,1,8,0:0:0:0:
256,192,307116,1,0,0:0:0:0:
256,192,307191,1,0,0:0:0:0:
256,192,307266,1,8,0:0:0:0:
256,192,307341,1,0,0:0:0:0:
256,192,307416,1,8,0:0:0:0:
256,192,307491,1,8,0:0:0:0:
256,192,307566,1,0,0:0:0:0:
256,192,307641,1,0,0:0:0:0:
256,192,307716,1,8,0:0:0:0:
256,192,307791,1,0,0:0:0:0:
256,192,307866,1,8,0:0:0:0:
256,192,307941,1,8,0:0:0:0:
256,192,308016,1,0,0:0:0:0:
256,192,308091,1,0,0:0:0:0:
256,192,308166,1,8,0:0:0:0:
256,192,308241,1,8,0:0:0:0:
256,192,308316,1,0,0:0:0:0:
256,192,308391,1,0,0:0:0:0:
256,192,308466,1,8,0:0:0:0:
256,192,308541,1,8,0:0:0:0:
256,192,308616,1,0,0:0:0:0:
256,192,308691,1,0,0:0:0:0:
256,192,308766,1,0,0:0:0:0:
256,192,308841,1,8,0:0:0:0:
256,192,308916,1,0,0:0:0:0:
256,192,308991,1,0,0:0:0:0:
256,192,309066,1,0,0:0:0:0:
256,192,309141,1,8,0:0:0:0:
256,192,309216,1,8,0:0:0:0:
256,192,309366,1,8,0:0:0:0:
256,192,309516,1,8,0:0:0:0:
256,192,309591,1,0,0:0:0:0:
256,192,309666,1,0,0:0:0:0:
256,192,309816,1,8,0:0:0:0:
256,192,309966,1,0,0:0:0:0:
256,192,310116,1,0,0:0:0:0:
256,192,310191,1,0,0:0:0:0:
256,192,310266,1,8,0:0:0:0:
256,192,310341,1,0,0:0:0:0:
256,192,310416,1,0,0:0:0:0:
256,192,310566,1,0,0:0:0:0:
256,192,310641,1,8,0:0:0:0:
256,192,310716,1,8,0:0:0:0:
256,192,310866,1,0,0:0:0:0:
256,192,310941,1,0,0:0:0:0:
256,192,311016,1,8,0:0:0:0:
256,192,311166,1,8,0:0:0:0:
256,192,311241,1,0,0:0:0:0:
256,192,311316,1,8,0:0:0:0:
256,192,311466,1,0,0:0:0:0:
256,192,311616,1,0,0:0:0:0:
256,192,311766,1,8,0:0:0:0:
256,192,311916,1,8,0:0:0:0:
256,192,311991,1,0,0:0:0:0:
256,192,312066,1,0,0:0:0:0:
256,192,312141,1,0,0:0:0:0:
256,192,312216,1,8,0:0:0:0:
256,192,312366,1,8,0:0:0:0:
256,192,312516,1,0,0:0:0:0:
256,192,312666,1,0,0:0:0:0:
256,192,312741,1,8,0:0:0:0:
256,192,312816,1,0,0:0:0:0:
256,192,312966,1,8,0:0:0:0:
256,192,313116,1,8,0:0:0:0:
256,192,313191,1,8,0:0:0:0:
256,192,313266,1,0,0:0:0:0:
256,192,313341,1,0,0:0:0:0:
256,192,313416,1,8,0:0:0:0:
256,192,313566,1,8,0:0:0:0:
256,192,313716,1,8,0:0:0:0:
256,192,313866,1,0,0:0:0:0:
256,192,313941,1,0,0:0:0:0:
256,192,314016,1,8,0:0:0:0:
256,192,314166,1,0,0:0:0:0:
256,192,314216,1,0,0:0:0:0:
256,192,314266,1,0,0:0:0:0:
256,192,314316,1,8,0:0:0:0:
256,192,314366,1,8,0:0:0:0:
256,192,314416,1,0,0:0:0:0:
256,192,314466,1,8,0:0:0:0:
256,192,314516,1,8,0:0:0:0:
256,192,314566,1,8,0:0:0:0:
256,192,314616,1,0,0:0:0:0:
256,192,314666,1,0,0:0:0:0:
256,192,314716,1,0,0:0:0:0:
256,192,314766,1,0,0:0:0:0:
256,192,314841,1,8,0:0:0:0:
256,192,314916,1,0,0:0:0:0:
256,192,314991,1,0,0:0:0:0:
256,192,315066,1,8,0:0:0:0:
256,192,315141,1,0,0:0:0:0:
256,192,315216,1,8,0:0:0:0:
256,192,315291,1,0,0:0:0:0:
256,192,315366,1,8,0:0:0:0:
256,192,315416,1,8,0:0:0:0:
256,192,315466,1,0,0:0:0:0:
256,192,315516,1,0,0:0:0:0:
256,192,315566,1,8,0:0:0:0:
256,192,315616,1,8,0:0:0:0:
256,192,315666,1,8,0:0:0:0:
256,192,315741,1,0,0:0:0:0:
256,192,315816,1,8,0:0:0:0:
256,192,315891,1,0,0:0:0:0:
256,192,315966,1,8,0:0:0:0:
256,192,316041,1,0,0:0:0:0:
256,192,316116,1,0,0:0:0:0:
256,192,316191,1,8,0:0:0:0:
256,192,316266,1,8,0:0:0:0:
256,192,316416,1,0,0:0:0:0:
256,192,316566,1,8,0:0:0:0:
256,192,316616,1,8,0:0:0:0:
256,192,316666,1,8,0:0:0:0:
256,192,316716,1,0,0:0:0:0:
256,192,316766,1,0,0:0:0:0:
256,192,316816,1,0,0:0:0:0:
256,192,316866,1,8,0:0:0:0:
256,192,316916,1,0,0:0:0:0:
256,192,316966,1,0,0:0:0:0:
256,192,317016,1,8,0:0:0:0:
256,192,317091,1,0,0:0:0:0:
256,192,317166,1,8,0:0:0:0:
256,192,317216,1,8,0:0:0:0:
256,192,317266,1,8,0:0:0:0:
256,192,317316,1,0,0:0:0:0:
256,192,317366,1,0,0:0:0:0:
256,192,317416,1,0,0:0:0:0:
256,192,317466,1,8,0:0:0:0:
256,192,317516,1,8,0:0:0:0:
256,192,317566,1,0,0:0:0:0:
256,192,317616,1,8,0:0:0:0:
256,192,317691,1,0,0:0:0:0:
256,192,317766,1,8,0:0:0:0:
256,192,317816,1,8,0:0:0:0:
256,192,317866,1,0,0:0:0:0:
256,192,317916,1,8,0:0:0:0:
256,192,317966,1,8,0:0:0:0:
256,192,318016,1,0,0:0:0:0:
256,192,318066,1,8,0:0:0:0:
256,192,318116,1,8,0:0:0:0:
256,192,318166,1,8,0:0:0:0:
256,192,318216,1,0,0:0:0:0:
256,192,318366,1,8,0:0:0:0:
256,192,318441,1,8,0:0:0:0:
256,192,318516,1,8,0:0:0:0:
256,192,318666,1,8,0:0:0:0:
256,192,318816,1,0,0:0:0:0:
256,192,318966,1,0,0:0:0:0:
256,192,319041,1,0,0:0:0:0:
256,192,319116,1,8,0:0:0:0:
256,192,319191,1,0,0:0:0:0:
256,192,319266,1,0,0:0:0:0:
256,192,319341,1,8,0:0:0:0:
256,192,319416,1,8,0:0:0:0:
256,192,319491,1,0,0:0:0:0:
256,192,319566,1,8,0:0:0:0:
256,192,319716,1,8,0:0:0:0:
256,192,319791,1,0,0:0:0:0:
256,192,319866,1,0,0:0:0:0:
256,192,319941,1,0,0:0:0:0:
256,192,320016,1,8,0:0:0:0:
256,192,320166,1,8,0:0:0:0:
256,192,320316,1,8,0:0:0:0:
256,192,320466,1,0,0:0:0:0:
256,192,320541,1,0,0:0:0:0:
256,192,320616,1,8,0:0:0:0:
256,192,320766,1,8,0:0:0:0:
256,192,320916,1,0,0:0:0:0:
256,192,321066,1,0,0:0:0:0:
256,192,321141,1,8,0:0:0:0:
256,192,321216,1,0,0:0:0:0:
256,192,321366,1,8,0:0:0:0:
256,192,321441,1,8,0:0:0:0:
256,192,321516,1,8,0:0:0:0:
256,192,321591,1,8,0:0:0:0:
256,192,321666,1,8,0:0:0:0:
256,192,321741,1,8,0:0:0:0:
256,192,321816,1,8,0:0:0:0:
256,192,321891,1,8,0:0:0:0:
256,192,321966,1,0,0:0:0:0:
256,192,322041,1,0,0:0:0:0:
256,192,322116,1,0,0:0:0:0:
256,192,322191,1,0,0:0:0:0:
256,192,322266,1,0,0:0:0:0:
256,192,322341,1,0,0:0:0:0:
256,192,322416,1,0,0:0:0:0:
256,192,322491,1,0,0:0:0:0:
256,192,322566,1,8,0:0:0:0:
256,192,322641,1,8,0:0:0:0:
256,192,322716,1,0,0:0:0:0:
256,192,322791,1,8,0:0:0:0:
256,192,322866,1,0,0:0:0:0:
256,192,322941,1,0,0:0:0:0:
256,192,323016,1,8,0:0:0:0:
256,192,323166,1,8,0:0:0:0:
256,192,323316,1,0,0:0:0:0:
256,192,323391,1,0,0:0:0:0:
256,192,323466,1,0,0:0:0:0:
256,192,323616,1,8,0:0:0:0:
256,192,323766,1,8,0:0:0:0:
256,192,323816,1,8,0:0:0:0:
256,192,323866,1,0,0:0:0:0:
256,192,323916,1,8,0:0:0:0:
256,192,323966,1,0,0:0:0:0:
256,192,324016,1,0,0:0:0:0:
256,192,324066,1,8,0:0:0:0:
256,192,324116,1,8,0:0:0:0:
256,192,324166,1,0,0:0:0:0:
256,192,324216,1,8,0:0:0:0:
256,192,324266,1,0,0:0:0:0:
256,192,324316,1,0,0:0:0:0:
256,192,324366,1,8,0:0:0:0:
256,192,324416,1,8,0:0:0:0:
256,192,324466,1,0,0:0:0:0:
256,192,324516,1,8,0:0:0:0:
256,192,324566,1,0,0:0:0:0:
256,192,324616,1,0,0:0:0:0:
256,192,324666,1,8,0:0:0:0:
256,192,324716,1,8,0:0:0:0:
256,192,324766,1,0,0:0:0:0:
256,192,324816,1,8,0:0:0:0:
256,192,324866,1,0,0:0:0:0:
256,192,324916,1,0,0:0:0:0:
256,192,324966,1,8,0:0:0:0:
256,192,325116,1,0,0:0:0:0:
256,192,325191,1,0,0:0:0:0:
256,192,325266,1,0,0:0:0:0:
256,192,325341,1,0,0:0:0:0:
256,192,325416,1,8,0:0:0:0:
256,192,325566,1,8,0:0:0:0:
256,192,325641,1,0,0:0:0:0:
256,192,325716,1,8,0:0:0:0:
256,192,325791,1,0,0:0:0:0:
256,192,325866,1,0,0:0:0:0:
256,192,326016,1,0,0:0:0:0:
256,192,326166,1,0,0:0:0:0:
256,192,326216,1,0,0:0:0:0:
256,192,326266,1,8,0:0:0:0:
256,192,326316,1,8,0:0:0:0:
256,192,326391,1,0,0:0:0:0:
256,192,326466,1,0,0:0:0:0:
256,192,326541,1,8,0:0:0:0:
256,192,326616,1,8,0:0:0:0:
256,192,326766,1,8,0:0:0:0:
256,192,326916,1,0,0:0:0:0:
256,192,326991,1,0,0:0:0:0:
256,192,327066,1,0,0:0:0:0:
256,192,327141,1,8,0:0:0:0:
256,192,327216,1,0,0:0:0:0:
256,192,327366,1,8,0:0:0:0:
256,192,327441,1,8,0:0:0:0:
256,192,327516,1,8,0:0:0:0:
256,192,327591,1,8,0:0:0:0:
256,192,327666,1,0,0:0:0:0:
256,192,327741,1,0,0:0:0:0:
256,192,327816,1,0,0:0:0:0:
256,192,327891,1,0,0:0:0:0:
256,192,327966,1,8,0:0:0:0:
256,192,328041,1,8,0:0:0:0:
256,192,328116,1,0,0:0:0:0:
256,192,328191,1,0,0:0:0:0:
256,192,328266,1,8,0:0:0:0:
256,192,328341,1,0,0:0:0:0:
256,192,328416,1,0,0:0:0:0:
256,192,328491,1,0,0:0:0:0:
256,192,328566,5,12,0:0:0:0:
256,192,328716,1,8,0:0:0:0:
256,192,328791,1,8,0:0:0:0:
256,192,328866,1,0,0:0:0:0:
256,192,329016,1,8,0:0:0:0:
256,192,329166,1,0,0:0:0:0:
256,192,329316,1,8,0:0:0:0:
256,192,329466,1,0,0:0:0:0:
256,192,329541,1,8,0:0:0:0:
256,192,329616,1,0,0:0:0:0:
256,192,329691,1,0,0:0:0:0:
256,192,329766,1,8,0:0:0:0:
256,192,329916,1,8,0:0:0:0:
256,192,330066,1,0,0:0:0:0:
256,192,330141,1,8,0:0:0:0:
256,192,330216,1,0,0:0:0:0:
256,192,330366,1,8,0:0:0:0:
256,192,330516,1,0,0:0:0:0:
256,192,330666,1,0,0:0:0:0:
256,192,330741,1,0,0:0:0:0:
256,192,330816,1,0,0:0:0:0:
256,192,330966,1,8,0:0:0:0:
256,192,331116,1,8,0:0:0:0:
256,192,331266,1,0,0:0:0:0:
256,192,331416,1,0,0:0:0:0:
256,192,331566,1,0,0:0:0:0:
256,192,331641,1,8,0:0:0:0:
256,192,331716,1,8,0:0:0:0:
256,192,331791,1,0,0:0:0:0:
256,192,331866,1,8,0:0:0:0:
256,192,332016,1,8,0:0:0:0:
256,192,332166,1,0,0:0:0:0:
256,192,332316,1,0,0:0:0:0:
256,192,332466,1,8,0:0:0:0:
256,192,332541,1,0,0:0:0:0:
256,192,332616,1,0,0:0:0:0:
256,192,332766,1,8,0:0:0:0:
256,192,332916,1,0,0:0:0:0:
256,192,333066,1,8,0:0:0:0:
256,192,333216,1,0,0:0:0:0:
256,192,333366,1,0,0:0:0:0:
256,192,333516,1,0,0:0:0:0:
256,192,333591,1,8,0:0:0:0:
256,192,333666,1,8,0:0:0:0:
256,192,333816,1,8,0:0:0:0:
256,192,333966,1,0,0:0:0:0:
256,192,334116,1,0,0:0:0:0:
256,192,334191,1,8,0:0:0:0:
256,192,334266,1,0,0:0:0:0:
256,192,334416,1,0,0:0:0:0:
256,192,334491,1,8,0:0:0:0:
256,192,334566,1,8,0:0:0:0:
256,192,334716,1,8,0:0:0:0:
256,192,334791,1,0,0:0:0:0:
256,192,334866,1,0,0:0:0:0:
256,192,335016,1,8,0:0:0:0:
256,192,335166,1,0,0:0:0:0:
256,192,335316,1,8,0:0:0:0:
256,192,335466,1,0,0:0:0:0:
256,192,335541,1,0,0:0:0:0:
256,192,335616,1,0,0:0:0:0:
256,192,335766,1,8,0:0:0:0:
256,192,335916,1,8,0:0:0:0:
256,192,335966,1,0,0:0:0:0:
256,192,336016,1,0,0:0:0:0:
256,192,336066,1,8,0:0:0:0:
256,192,336216,1,0,0:0:0:0:
256,192,336366,1,0,0:0:0:0:
256,192,336516,1,0,0:0:0:0:
256,192,336591,1,0,0:0:0:0:
256,192,336666,1,8,0:0:0:0:
256,192,336816,1,0,0:0:0:0:
256,192,336966,1,8,0:0:0:0:
256,192,337041,1,8,0:0:0:0:
256,192,337116,1,0,0:0:0:0:
256,192,337191,1,0,0:0:0:0:
256,192,337266,1,8,0:0:0:0:
256,192,337341,1,0,0:0:0:0:
256,192,337416,1,0,0:0:0:0:
256,192,337491,1,0,0:0:0:0:
256,192,337566,1,8,0:0:0:0:
256,192,337641,1,8,0:0:0:0:
256,192,337716,1,0,0:0:0:0:
256,192,337791,1,0,0:0:0:0:
256,192,337866,1,8,0:0:0:0:
256,192,337941,1,0,0:0:0:0:
256,192,338016,1,0,0:0:0:0:
256,192,338166,1,12,0:0:0:0:
256,192,338316,1,8,0:0:0:0:
256,192,338466,1,0,0:0:0:0:
256,192,338541,1,8,0:0:0:0:
256,192,338616,1,0,0:0:0:0:
256,192,338766,1,0,0:0:0:0:
256,192,338916,1,8,0:0:0:0:
256,192,339066,1,8,0:0:0:0:
256,192,339141,1,0,0:0:0:0:
256,192,339216,1,0,0:0:0:0:
256,192,339366,1,0,0:0:0:0:
256,192,339516,1,8,0:0:0:0:
256,192,339591,1,8,0:0:0:0:
256,192,339666,1,0,0:0:0:0:
256,192,339816,1,0,0:0:0:0:
256,192,339966,1,8,0:0:0:0:
256,192,340041,1,8,0:0:0:0:
256,192,340116,1,0,0:0:0:0:
256,192,340191,1,0,0:0:0:0:
256,192,340266,1,8,0:0:0:0:
256,192,340416,1,0,0:0:0:0:
256,192,340566,1,8,0:0:0:0:
256,192,340641,1,8,0:0:0:0:
256,192,340716,1,8,0:0:0:0:
256,192,340866,1,0,0:0:0:0:
256,192,340941,1,0,0:0:0:0:
256,192,341016,1,0,0:0:0:0:
256,192,341166,1,8,0:0:0:0:
256,192,341241,1,8,0:0:0:0:
256,192,341316,1,8,0:0:0:0:
256,192,341466,1,0,0:0:0:0:
256,192,341541,1,0,0:0:0:0:
256,192,341616,1,0,0:0:0:0:
256,192,341766,1,0,0:0:0:0:
256,192,341841,1,0,0:0:0:0:
256,192,341916,1,8,0:0:0:0:
256,192,341991,1,0,0:0:0:0:
256,192,342066,1,0,0:0:0:0:
256,192,342178,1,8,0:0:0:0:
256,192,342216,1,8,0:0:0:0:
256,192,342328,1,8,0:0:0:0:
256,192,342366,1,8,0:0:0:0:
256,192,342478,1,0,0:0:0:0:
256,192,342516,1,0,0:0:0:0:
256,192,342628,1,8,0:0:0:0:
256,192,342666,1,8,0:0:0:0:
256,192,342966,1,8,0:0:0:0:
256,192,343016,1,8,0:0:0:0:
256,192,343066,1,0,0:0:0:0:
256,192,343116,1,8,0:0:0:0:
256,192,343166,1,0,0:0:0:0:
256,192,343216,1,0,0:0:0:0:
256,192,343266,1,0,0:0:0:0:
256,192,343341,1,8,0:0:0:0:
256,192,343416,1,8,0:0:0:0:
256,192,343491,1,0,0:0:0:0:
256,192,343566,1,8,0:0:0:0:
256,192,343616,1,8,0:0:0:0:
256,192,343666,1,0,0:0:0:0:
256,192,343716,1,8,0:0:0:0:
256,192,343766,1,0,0:0:0:0:
256,192,343816,1,0,0:0:0:0:
256,192,343866,1,0,0:0:0:0:
256,192,343941,1,8,0:0:0:0:
256,192,344016,1,8,0:0:0:0:
256,192,344091,1,0,0:0:0:0:
256,192,344166,1,8,0:0:0:0:
256,192,344216,1,8,0:0:0:0:
256,192,344266,1,0,0:0:0:0:
256,192,344316,1,8,0:0:0:0:
256,192,344366,1,8,0:0:0:0:
256,192,344416,1,0,0:0:0:0:
256,192,344466,1,8,0:0:0:0:
256,192,344541,1,0,0:0:0:0:
256,192,344616,1,8,0:0:0:0:
256,192,344691,1,0,0:0:0:0:
256,192,344766,1,8,0:0:0:0:
256,192,344841,1,8,0:0:0:0:
256,192,344916,1,0,0:0:0:0:
256,192,344991,1,8,0:0:0:0:
256,192,345066,1,0,0:0:0:0:
256,192,345216,1,0,0:0:0:0:
256,192,345366,1,0,0:0:0:0:
256,192,345416,1,0,0:0:0:0:
256,192,345466,1,0,0:0:0:0:
256,192,345516,1,0,0:0:0:0:
256,192,345566,1,0,0:0:0:0:
256,192,345616,1,0,0:0:0:0:
256,192,345666,1,8,0:0:0:0:
256,192,345741,1,8,0:0:0:0:
256,192,345816,1,8,0:0:0:0:
256,192,345891,1,0,0:0:0:0:
256,192,345966,1,8,0:0:0:0:
256,192,346041,1,0,0:0:0:0:
256,192,346116,1,0,0:0:0:0:
256,192,346191,1,0,0:0:0:0:
256,192,346266,1,8,0:0:0:0:
256,192,346341,1,8,0:0:0:0:
256,192,346416,1,0,0:0:0:0:
256,192,346491,1,0,0:0:0:0:
256,192,346566,1,8,0:0:0:0:
256,192,346641,1,8,0:0:0:0:
256,192,346716,1,0,0:0:0:0:
256,192,346791,1,0,0:0:0:0:
256,192,346866,1,8,0:0:0:0:
256,192,346941,1,0,0:0:0:0:
256,192,347016,1,0,0:0:0:0:
256,192,347091,1,0,0:0:0:0:
256,192,347166,1,8,0:0:0:0:
256,192,347241,1,8,0:0:0:0:
256,192,347316,1,0,0:0:0:0:
256,192,347391,1,8,0:0:0:0:
256,192,347466,1,0,0:0:0:0:
256,192,347541,1,0,0:0:0:0:
256,192,347616,1,8,0:0:0:0:
256,192,347766,5,12,0:0:0:0:
256,192,347916,1,0,0:0:0:0:
256,192,347991,1,0,0:0:0:0:
256,192,348066,1,0,0:0:0:0:
256,192,348216,1,8,0:0:0:0:
256,192,348366,1,0,0:0:0:0:
256,192,348516,1,8,0:0:0:0:
256,192,348666,1,0,0:0:0:0:
256,192,348741,1,0,0:0:0:0:
256,192,348816,1,8,0:0:0:0:
256,192,348966,1,0,0:0:0:0:
256,192,349116,1,8,0:0:0:0:
256,192,349191,1,8,0:0:0:0:
256,192,349266,1,0,0:0:0:0:
256,192,349416,1,8,0:0:0:0:
256,192,349491,1,8,0:0:0:0:
256,192,349566,1,8,0:0:0:0:
256,192,349716,1,0,0:0:0:0:
256,192,349866,1,8,0:0:0:0:
256,192,350016,1,0,0:0:0:0:
256,192,350166,1,8,0:0:0:0:
256,192,350241,1,8,0:0:0:0:
256,192,350316,1,0,0:0:0:0:
256,192,350391,1,0,0:0:0:0:
256,192,350466,1,8,0:0:0:0:
256,192,350541,1,0,0:0:0:0:
256,192,350616,1,0,0:0:0:0:
256,192,350766,1,8,0:0:0:0:
256,192,350878,1,0,0:0:0:0:
256,192,350916,1,8,0:0:0:0:
256,192,351028,1,0,0:0:0:0:
256,192,351066,1,8,0:0:0:0:
256,192,351178,1,0,0:0:0:0:
256,192,351216,1,8,0:0:0:0:
256,192,351366,1,0,0:0:0:0:
256,192,351516,1,8,0:0:0:0:
256,192,351591,1,0,0:0:0:0:
256,192,351666,1,0,0:0:0:0:
256,192,351816,1,8,0:0:0:0:
256,192,351891,1,8,0:0:0:0:
256,192,351966,1,0,0:0:0:0:
256,192,352116,1,8,0:0:0:0:
256,192,352266,1,0,0:0:0:0:
256,192,352341,1,0,0:0:0:0:
256,192,352416,1,0,0:0:0:0:
256,192,352566,1,8,0:0:0:0:
256,192,352641,1,0,0:0:0:0:
256,192,352716,1,8,0:0:0:0:
256,192,352791,1,8,0:0:0:0:
256,192,352866,1,0,0:0:0:0:
256,192,352941,1,0,0:0:0:0:
256,192,353016,1,8,0:0:0:0:
256,192,353091,1,0,0:0:0:0:
256,192,353166,1,0,0:0:0:0:
256,192,353241,1,0,0:0:0:0:
256,192,353316,1,8,0:0:0:0:
256,192,353391,1,0,0:0:0:0:
256,192,353466,1,8,0:0:0:0:
256,192,353541,1,8,0:0:0:0:
256,192,353616,1,0,0:0:0:0:
256,192,353691,1,0,0:0:0:0:
256,192,353766,1,8,0:0:0:0:
256,192,353841,1,0,0:0:0:0:
256,192,353916,1,8,0:0:0:0:
256,192,353991,1,0,0:0:0:0:
256,192,354066,1,0,0:0:0:0:
256,192,354141,1,0,0:0:0:0:
256,192,354216,1,8,0:0:0:0:
256,192,354291,1,0,0:0:0:0:
256,192,354366,1,0,0:0:0:0:
256,192,354441,1,0,0:0:0:0:
256,192,354516,1,8,0:0:0:0:
256,192,354591,1,0,0:0:0:0:
256,192,354666,1,8,0:0:0:0:
256,192,354741,1,8,0:0:0:0:
256,192,354816,1,0,0:0:0:0:
256,192,354891,1,0,0:0:0:0:
256,192,354966,1,8,0:0:0:0:
256,192,355041,1,8,0:0:0:0:
256,192,355116,1,0,0:0:0:0:
256,192,355191,1,8,0:0:0:0:
256,192,355266,1,0,0:0:0:0:
256,192,355341,1,0,0:0:0:0:
256,192,355416,1,8,0:0:0:0:
256,192,355491,1,8,0:0:0:0:
256,192,355566,1,8,0:0:0:0:
256,192,355641,1,8,0:0:0:0:
256,192,355716,1,0,0:0:0:0:
256,192,355791,1,0,0:0:0:0:
256,192,355866,1,8,0:0:0:0:
256,192,355941,1,8,0:0:0:0:
256,192,356016,1,0,0:0:0:0:
256,192,356091,1,0,0:0:0:0:
256,192,356166,1,8,0:0:0:0:
256,192,356241,1,8,0:0:0:0:
256,192,356316,1,8,0:0:0:0:
256,192,356391,1,8,0:0:0:0:
256,192,356466,1,0,0:0:0:0:
256,192,356541,1,0,0:0:0:0:
256,192,356616,1,0,0:0:0:0:
256,192,356691,1,0,0:0:0:0:
256,192,356766,1,8,0:0:0:0:
256,192,356841,1,8,0:0:0:0:
256,192,356916,1,8,0:0:0:0:
256,192,356991,1,8,0:0:0:0:
256,192,357066,1,0,0:0:0:0:
256,192,357141,1,0,0:0:0:0:
256,192,357216,1,0,0:0:0:0:
256,192,357366,1,8,0:0:0:0:
256,192,357441,1,0,0:0:0:0:
256,192,357516,1,0,0:0:0:0:
256,192,357591,1,0,0:0:0:0:
256,192,357666,1,8,0:0:0:0:
256,192,357741,1,8,0:0:0:0:
256,192,357816,1,0,0:0:0:0:
256,192,357891,1,0,0:0:0:0:
256,192,357966,1,8,0:0:0:0:
256,192,358041,1,8,0:0:0:0:
256,192,358116,1,8,0:0:0:0:
256,192,358191,1,0,0:0:0:0:
256,192,358266,1,8,0:0:0:0:
256,192,358341,1,8,0:0:0:0:
256,192,358416,1,0,0:0:0:0:
256,192,358491,1,0,0:0:0:0:
256,192,358566,1,8,0:0:0:0:
256,192,358616,1,8,0:0:0:0:
256,192,358666,1,0,0:0:0:0:
256,192,358716,1,8,0:0:0:0:
256,192,358766,1,0,0:0:0:0:
256,192,358816,1,0,0:0:0:0:
256,192,358866,1,8,0:0:0:0:
256,192,358916,1,8,0:0:0:0:
256,192,358966,1,0,0:0:0:0:
256,192,359016,1,8,0:0:0:0:
256,192,359066,1,0,0:0:0:0:
256,192,359116,1,0,0:0:0:0:
256,192,359166,1,8,0:0:0:0:
256,192,359216,1,8,0:0:0:0:
256,192,359266,1,0,0:0:0:0:
256,192,359316,1,8,0:0:0:0:
256,192,359366,1,0,0:0:0:0:
256,192,359416,1,0,0:0:0:0:
256,192,359466,1,8,0:0:0:0:
256,192,359516,1,8,0:0:0:0:
256,192,359566,1,0,0:0:0:0:
256,192,359616,1,8,0:0:0:0:
256,192,359666,1,0,0:0:0:0:
256,192,359716,1,0,0:0:0:0:
256,192,359766,1,0,0:0:0:0:
256,192,359916,1,8,0:0:0:0:
256,192,359991,1,0,0:0:0:0:
256,192,360066,1,8,0:0:0:0:
256,192,360116,1,8,0:0:0:0:
256,192,360166,1,8,0:0:0:0:
256,192,360216,1,0,0:0:0:0:
256,192,360266,1,0,0:0:0:0:
256,192,360316,1,0,0:0:0:0:
256,192,360366,1,8,0:0:0:0:
256,192,360441,1,0,0:0:0:0:
256,192,360516,1,8,0:0:0:0:
256,192,360591,1,0,0:0:0:0:
256,192,360666,1,8,0:0:0:0:
256,192,360741,1,8,0:0:0:0:
256,192,360816,1,0,0:0:0:0:
256,192,360891,1,0,0:0:0:0:
256,192,360966,1,8,0:0:0:0:
256,192,361041,1,8,0:0:0:0:
256,192,361116,1,0,0:0:0:0:
256,192,361191,1,0,0:0:0:0:
256,192,361266,1,8,0:0:0:0:
256,192,361341,1,0,0:0:0:0:
256,192,361416,1,8,0:0:0:0:
256,192,361491,1,0,0:0:0:0:
256,192,361566,1,0,0:0:0:0:
256,192,361641,1,0,0:0:0:0:
256,192,361716,1,8,0:0:0:0:
256,192,361791,1,8,0:0:0:0:
256,192,361866,1,8,0:0:0:0:
256,192,361941,1,0,0:0:0:0:
256,192,362016,1,0,0:0:0:0:
256,192,362091,1,8,0:0:0:0:
256,192,362166,1,0,0:0:0:0:
256,192,362316,1,8,0:0:0:0:
256,192,362391,1,8,0:0:0:0:
256,192,362466,1,0,0:0:0:0:
256,192,362616,1,8,0:0:0:0:
256,192,362766,1,0,0:0:0:0:
256,192,362916,1,0,0:0:0:0:
256,192,363066,1,8,0:0:0:0:
256,192,363141,1,8,0:0:0:0:
256,192,363216,1,0,0:0:0:0:
256,192,363366,1,8,0:0:0:0:
256,192,363516,1,8,0:0:0:0:
256,192,363591,1,0,0:0:0:0:
256,192,363666,1,8,0:0:0:0:
256,192,363741,1,0,0:0:0:0:
256,192,363816,1,0,0:0:0:0:
256,192,363891,1,0,0:0:0:0:
256,192,363966,1,0,0:0:0:0:
256,192,364116,1,8,0:0:0:0:
256,192,364191,1,0,0:0:0:0:
256,192,364266,1,8,0:0:0:0:
256,192,364341,1,8,0:0:0:0:
256,192,364416,1,0,0:0:0:0:
256,192,364566,1,0,0:0:0:0:
256,192,364641,1,0,0:0:0:0:
256,192,364716,1,8,0:0:0:0:
256,192,364791,1,0,0:0:0:0:
256,192,364866,1,8,0:0:0:0:
256,192,364941,1,8,0:0:0:0:
256,192,365016,1,0,0:0:0:0:
256,192,365091,1,8,0:0:0:0:
256,192,365166,1,8,0:0:0:0:
256,192,365241,1,0,0:0:0:0:
256,192,365316,1,8,0:0:0:0:
256,192,365391,1,0,0:0:0:0:
256,192,365466,1,8,0:0:0:0:
256,192,365541,1,8,0:0:0:0:
256,192,365616,1,0,0:0:0:0:
256,192,365691,1,0,0:0:0:0:
256,192,365766,1,8,0:0:0:0:
256,192,365816,1,8,0:0:0:0:
256,192,365866,1,0,0:0:0:0:
256,192,365916,1,8,0:0:0:0:
256,192,365966,1,8,0:0:0:0:
256,192,366016,1,0,0:0:0:0:
256,192,366066,1,8,0:0:0:0:
256,192,366116,1,0,0:0:0:0:
256,192,366166,1,0,0:0:0:0:
256,192,366216,1,8,0:0:0:0:
256,192,366266,1,0,0:0:0:0:
256,192,366316,1,0,0:0:0:0:
256,192,366366,1,8,0:0:0:0:
256,192,366416,1,8,0:0:0:0:
256,192,366466,1,0,0:0:0:0:
256,192,366516,1,8,0:0:0:0:
256,192,366566,1,8,0:0:0:0:
256,192,366616,1,0,0:0:0:0:
256,192,366666,1,8,0:0:0:0:
256,192,366716,1,0,0:0:0:0:
256,192,366766,1,0,0:0:0:0:
256,192,366816,1,8,0:0:0:0:
256,192,366866,1,0,0:0:0:0:
256,192,366916,1,0,0:0:0:0:
256,192,366966,5,8,0:0:0:0:
256,192,369366,1,12,0:0:0:0:
256,192,370866,1,0,0:0:0:0:
256,192,371166,1,8,0:0:0:0:
256,192,371466,1,8,0:0:0:0:
256,192,371766,1,12,0:0:0:0:
256,192,374166,1,12,0:0:0:0:
256,192,375666,1,0,0:0:0:0:
256,192,375966,1,0,0:0:0:0:
256,192,376266,1,8,0:0:0:0:
256,192,376566,1,12,0:0:0:0:
256,192,376966,1,8,0:0:0:0:
256,192,377416,1,8,0:0:0:0:
256,192,377766,1,8,0:0:0:0:
256,192,378166,1,0,0:0:0:0:
256,192,378566,1,0,0:0:0:0:
256,192,378966,1,4,0:0:0:0:
256,192,379366,1,8,0:0:0:0:
256,192,379766,1,8,0:0:0:0:
256,192,380116,1,0,0:0:0:0:
256,192,381066,1,0,0:0:0:0:
256,192,381366,1,12,0:0:0:0:
256,192,381816,1,8,0:0:0:0:
256,192,382266,1,0,0:0:0:0:
256,192,382566,1,0,0:0:0:0:
256,192,383016,1,8,0:0:0:0:
256,192,383466,1,0,0:0:0:0:
256,192,383766,1,12,0:0:0:0:
256,192,384966,1,8,0:0:0:0:
256,192,385041,1,8,0:0:0:0:
256,192,385116,1,0,0:0:0:0:
256,192,385191,1,0,0:0:0:0:
256,192,385266,1,8,0:0:0:0:
256,192,385341,1,8,0:0:0:0:
256,192,385416,1,8,0:0:0:0:
256,192,385491,1,8,0:0:0:0:
256,192,385566,1,0,0:0:0:0:
256,192,385641,1,0,0:0:0:0:
256,192,385716,1,8,0:0:0:0:
256,192,385791,1,8,0:0:0:0:
256,192,385866,1,0,0:0:0:0:
256,192,385941,1,0,0:0:0:0:
256,192,386016,1,0,0:0:0:0:
256,192,386091,1,0,0:0:0:0:
256,192,386166,5,8,0:0:0:0:
256,192,386316,1,8,0:0:0:0:
256,192,386466,1,0,0:0:0:0:
256,192,386541,1,0,0:0:0:0:
256,192,386616,1,8,0:0:0:0:
256,192,386691,1,0,0:0:0:0:
256,192,386766,1,8,0:0:0:0:
256,192,386916,1,8,0:0:0:0:
256,192,386991,1,8,0:0:0:0:
256,192,387066,1,0,0:0:0:0:
256,192,387141,1,0,0:0:0:0:
256,192,387216,1,0,0:0:0:0:
256,192,387366,1,8,0:0:0:0:
256,192,387516,1,0,0:0:0:0:
256,192,387591,1,0,0:0:0:0:
256,192,387666,1,0,0:0:0:0:
256,192,387816,1,8,0:0:0:0:
256,192,387891,1,8,0:0:0:0:
256,192,387966,1,0,0:0:0:0:
256,192,388041,1,8,0:0:0:0:
256,192,388116,1,0,0:0:0:0:
256,192,388266,1,0,0:0:0:0:
256,192,388341,1,0,0:0:0:0:
256,192,388416,1,8,0:0:0:0:
256,192,388566,1,8,0:0:0:0:
256,192,388716,1,8,0:0:0:0:
256,192,388866,1,0,0:0:0:0:
256,192,388941,1,0,0:0:0:0:
256,192,389016,1,8,0:0:0:0:
256,192,389091,1,0,0:0:0:0:
256,192,389166,1,8,0:0:0:0:
256,192,389316,1,8,0:0:0:0:
256,192,389466,1,0,0:0:0:0:
256,192,389541,1,8,0:0:0:0:
256,192,389616,1,8,0:0:0:0:
256,192,389691,1,0,0:0:0:0:
256,192,389766,1,8,0:0:0:0:
256,192,389916,1,0,0:0:0:0:
256,192,389991,1,0,0:0:0:0:
256,192,390066,1,0,0:0:0:0:
256,192,390141,1,0,0:0:0:0:
256,192,390216,1,0,0:0:0:0:
256,192,390366,1,8,0:0:0:0:
256,192,390441,1,8,0:0:0:0:
256,192,390516,1,0,0:0:0:0:
256,192,390591,1,0,0:0:0:0:
256,192,390666,1,8,0:0:0:0:
256,192,390816,1,0,0:0:0:0:
256,192,390966,1,8,0:0:0:0:
256,192,391041,1,8,0:0:0:0:
256,192,391116,1,8,0:0:0:0:
256,192,391191,1,8,0:0:0:0:
256,192,391266,1,8,0:0:0:0:
256,192,391341,1,8,0:0:0:0:
256,192,391416,1,0,0:0:0:0:
256,192,391491,1,0,0:0:0:0:
256,192,391566,1,0,0:0:0:0:
256,192,391641,1,0,0:0:0:0:
256,192,391716,1,0,0:0:0:0:
256,192,391791,1,0,0:0:0:0:
256,192,391866,1,8,0:0:0:0:
256,192,391941,1,8,0:0:0:0:
256,192,392016,1,0,0:0:0:0:
256,192,392091,1,0,0:0:0:0:
256,192,392166,1,8,0:0:0:0:
256,192,392241,1,8,0:0:0:0:
256,192,392316,1,8,0:0:0:0:
256,192,392391,1,0,0:0:0:0:
256,192,392466,1,0,0:0:0:0:
256,192,392541,1,0,0:0:0:0:
256,192,392616,1,8,0:0:0:0:
256,192,392691,1,8,0:0:0:0:
256,192,392766,1,8,0:0:0:0:
256,192,392841,1,0,0:0:0:0:
256,192,392916,1,0,0:0:0:0:
256,192,392991,1,0,0:0:0:0:
256,192,393066,1,8,0:0:0:0:
256,192,393216,1,0,0:0:0:0:
256,192,393366,1,8,0:0:0:0:
256,192,393441,1,0,0:0:0:0:
256,192,393516,1,0,0:0:0:0:
256,192,393591,1,0,0:0:0:0:
256,192,393666,1,8,0:0:0:0:
256,192,393741,1,8,0:0:0:0:
256,192,393816,1,0,0:0:0:0:
256,192,393891,1,0,0:0:0:0:
256,192,393966,1,8,0:0:0:0:
256,192,394041,1,0,0:0:0:0:
256,192,394116,1,8,0:0:0:0:
256,192,394191,1,0,0:0:0:0:
256,192,394266,1,8,0:0:0:0:
256,192,394341,1,8,0:0:0:0:
256,192,394416,1,0,0:0:0:0:
256,192,394491,1,0,0:0:0:0:
256,192,394566,1,8,0:0:0:0:
256,192,394641,1,0,0:0:0:0:
256,192,394716,1,0,0:0:0:0:
256,192,394791,1,0,0:0:0:0:
256,192,394866,1,8,0:0:0:0:
256,192,394941,1,0,0:0:0:0:
256,192,395016,1,8,0:0:0:0:
256,192,395091,1,8,0:0:0:0:
256,192,395166,1,0,0:0:0:0:
256,192,395216,1,0,0:0:0:0:
256,192,395266,1,0,0:0:0:0:
256,192,395316,1,8,0:0:0:0:
256,192,395366,1,8,0:0:0:0:
256,192,395416,1,8,0:0:0:0:
256,192,395466,1,0,0:0:0:0:
256,192,395516,1,0,0:0:0:0:
256,192,395566,1,0,0:0:0:0:
256,192,395616,1,8,0:0:0:0:
256,192,395666,1,8,0:0:0:0:
256,192,395716,1,8,0:0:0:0:
256,192,395766,1,8,0:0:0:0:
256,192,395916,1,8,0:0:0:0:
256,192,396066,1,0,0:0:0:0:
256,192,396141,1,0,0:0:0:0:
256,192,396216,1,8,0:0:0:0:
256,192,396291,1,0,0:0:0:0:
256,192,396366,1,8,0:0:0:0:
256,192,396516,1,0,0:0:0:0:
256,192,396666,1,8,0:0:0:0:
256,192,396741,1,8,0:0:0:0:
256,192,396816,1,0,0:0:0:0:
256,192,396966,1,8,0:0:0:0:
256,192,397116,1,0,0:0:0:0:
256,192,397191,1,0,0:0:0:0:
256,192,397266,1,0,0:0:0:0:
256,192,397416,1,8,0:0:0:0:
256,192,397566,1,8,0:0:0:0:
256,192,397641,1,8,0:0:0:0:
256,192,397716,1,8,0:0:0:0:
256,192,397866,1,0,0:0:0:0:
256,192,398016,1,0,0:0:0:0:
256,192,398166,1,8,0:0:0:0:
256,192,398241,1,0,0:0:0:0:
256,192,398316,1,0,0:0:0:0:
256,192,398391,1,0,0:0:0:0:
256,192,398466,1,8,0:0:0:0:
256,192,398541,1,8,0:0:0:0:
256,192,398616,1,8,0:0:0:0:
256,192,398691,1,8,0:0:0:0:
256,192,398766,1,0,0:0:0:0:
256,192,398841,1,0,0:0:0:0:
256,192,398916,1,0,0:0:0:0:
256,192,398991,1,0,0:0:0:0:
256,192,399066,1,8,0:0:0:0:
256,192,399141,1,8,0:0:0:0:
256,192,399216,1,0,0:0:0:0:
256,192,399291,1,0,0:0:0:0:
256,192,399366,1,8,0:0:0:0:
256,192,399441,1,0,0:0:0:0:
256,192,399516,1,8,0:0:0:0:
256,192,399591,1,0,0:0:0:0:
256,192,399666,1,0,0:0:0:0:
256,192,399816,1,0,0:0:0:0:
256,192,399966,1,0,0:0:0:0:
256,192,400041,1,0,0:0:0:0:
256,192,400116,1,0,0:0:0:0:
256,192,400266,1,8,0:0:0:0:
256,192,400341,1,8,0:0:0:0:
256,192,400416,1,8,0:0:0:0:
256,192,400566,1,8,0:0:0:0:
256,192,400641,1,8,0:0:0:0:
256,192,400716,1,0,0:0:0:0:
256,192,400791,1,8,0:0:0:0:
256,192,400866,1,0,0:0:0:0:
256,192,400941,1,0,0:0:0:0:
256,192,401016,1,8,0:0:0:0:
256,192,401091,1,8,0:0:0:0:
256,192,401166,1,0,0:0:0:0:
256,192,401241,1,0,0:0:0:0:
256,192,401316,1,8,0:0:0:0:
256,192,401391,1,0,0:0:0:0:
256,192,401466,1,8,0:0:0:0:
256,192,401541,1,0,0:0:0:0:
256,192,401616,1,0,0:0:0:0:
256,192,401691,1,0,0:0:0:0:
256,192,401766,1,8,0:0:0:0:
256,192,402066,1,4,0:0:0:0:
256,192,402366,1,4,0:0:0:0:
256,192,402666,1,12,0:0:0:0:
256,192,402966,5,8,0:0:0:0:
256,192,403041,1,8,0:0:0:0:
256,192,403116,1,0,0:0:0:0:
256,192,403191,1,8,0:0:0:0:
256,192,403266,1,0,0:0:0:0:
256,192,403416,1,8,0:0:0:0:
256,192,403491,1,8,0:0:0:0:
256,192,403566,1,0,0:0:0:0:
256,192,403641,1,8,0:0:0:0:
256,192,403716,1,0,0:0:0:0:
256,192,403866,1,8,0:0:0:0:
256,192,403941,1,8,0:0:0:0:
256,192,404016,1,0,0:0:0:0:
256,192,404166,1,8,0:0:0:0:
256,192,404241,1,8,0:0:0:0:
256,192,404316,1,0,0:0:0:0:
256,192,404391,1,8,0:0:0:0:
256,192,404466,1,0,0:0:0:0:
256,192,404616,1,8,0:0:0:0:
256,192,404691,1,8,0:0:0:0:
256,192,404766,1,0,0:0:0:0:
256,192,404841,1,8,0:0:0:0:
256,192,404916,1,0,0:0:0:0:
256,192,405066,1,8,0:0:0:0:
256,192,405141,1,8,0:0:0:0:
256,192,405216,1,0,0:0:0:0:
256,192,405366,1,8,0:0:0:0:
256,192,405441,1,8,0:0:0:0:
256,192,405516,1,8,0:0:0:0:
256,192,405591,1,8,0:0:0:0:
256,192,405666,1,0,0:0:0:0:
256,192,405816,1,8,0:0:0:0:
256,192,405891,1,8,0:0:0:0:
256,192,405966,1,8,0:0:0:0:
256,192,406041,1,8,0:0:0:0:
256,192,406116,1,0,0:0:0:0:
256,192,406266,1,8,0:0:0:0:
256,192,406341,1,8,0:0:0:0:
256,192,406416,1,0,0:0:0:0:
256,192,406566,1,8,0:0:0:0:
256,192,406641,1,8,0:0:0:0:
256,192,406716,1,8,0:0:0:0:
256,192,406791,1,8,0:0:0:0:
256,192,406866,1,0,0:0:0:0:
256,192,407016,1,8,0:0:0:0:
256,192,407091,1,8,0:0:0:0:
256,192,407166,1,8,0:0:0:0:
256,192,407241,1,8,0:0:0:0:
256,192,407316,1,0,0:0:0:0:
256,192,407466,1,8,0:0:0:0:
256,192,407541,1,8,0:0:0:0:
256,192,407616,1,0,0:0:0:0:
256,192,407766,1,8,0:0:0:0:
256,192,407841,1,0,0:0:0:0:
256,192,407916,1,8,0:0:0:0:
256,192,407991,1,8,0:0:0:0:
256,192,408066,1,0,0:0:0:0:
256,192,408216,1,8,0:0:0:0:
256,192,408291,1,0,0:0:0:0:
256,192,408366,1,8,0:0:0:0:
256,192,408441,1,8,0:0:0:0:
256,192,408516,1,0,0:0:0:0:
256,192,408666,1,8,0:0:0:0:
256,192,408741,1,0,0:0:0:0:
256,192,408816,1,0,0:0:0:0:
256,192,408966,1,8,0:0:0:0:
256,192,409041,1,0,0:0:0:0:
256,192,409116,1,8,0:0:0:0:
256,192,409191,1,8,0:0:0:0:
256,192,409266,1,0,0:0:0:0:
256,192,409416,1,8,0:0:0:0:
256,192,409491,1,0,0:0:0:0:
256,192,409566,1,8,0:0:0:0:
256,192,409641,1,8,0:0:0:0:
256,192,409716,1,0,0:0:0:0:
256,192,409866,1,8,0:0:0:0:
256,192,409941,1,0,0:0:0:0:
256,192,410016,1,0,0:0:0:0:
256,192,410166,1,8,0:0:0:0:
256,192,410241,1,8,0:0:0:0:
256,192,410316,1,8,0:0:0:0:
256,192,410391,1,0,0:0:0:0:
256,192,410466,1,0,0:0:0:0:
256,192,410616,1,8,0:0:0:0:
256,192,410691,1,8,0:0:0:0:
256,192,410766,1,8,0:0:0:0:
256,192,410841,1,0,0:0:0:0:
256,192,410916,1,0,0:0:0:0:
256,192,411066,1,8,0:0:0:0:
256,192,411141,1,8,0:0:0:0:
256,192,411216,1,0,0:0:0:0:
256,192,411366,1,0,0:0:0:0:
256,192,411441,1,8,0:0:0:0:
256,192,411516,1,8,0:0:0:0:
256,192,411591,1,8,0:0:0:0:
256,192,411666,1,0,0:0:0:0:
256,192,411741,1,8,0:0:0:0:
256,192,411816,1,0,0:0:0:0:
256,192,411891,1,8,0:0:0:0:
256,192,411966,1,8,0:0:0:0:
256,192,412041,1,8,0:0:0:0:
256,192,412116,1,0,0:0:0:0:
256,192,412191,1,0,0:0:0:0:
256,192,412266,1,8,0:0:0:0:
256,192,412341,1,8,0:0:0:0:
256,192,412416,1,0,0:0:0:0:
256,192,412566,1,8,0:0:0:0:
256,192,412641,1,8,0:0:0:0:
256,192,412716,1,0,0:0:0:0:
256,192,412791,1,8,0:0:0:0:
256,192,412866,1,0,0:0:0:0:
256,192,412941,1,0,0:0:0:0:
256,192,413016,1,8,0:0:0:0:
256,192,413091,1,8,0:0:0:0:
256,192,413166,1,0,0:0:0:0:
256,192,413241,1,8,0:0:0:0:
256,192,413316,1,0,0:0:0:0:
256,192,413391,1,0,0:0:0:0:
256,192,413466,1,8,0:0:0:0:
256,192,413541,1,8,0:0:0:0:
256,192,413616,1,0,0:0:0:0:
256,192,413691,1,0,0:0:0:0:
256,192,413766,1,8,0:0:0:0:
256,192,413841,1,8,0:0:0:0:
256,192,413916,1,0,0:0:0:0:
256,192,413991,1,8,0:0:0:0:
256,192,414066,1,0,0:0:0:0:
256,192,414141,1,0,0:0:0:0:
256,192,414216,1,8,0:0:0:0:
256,192,414291,1,8,0:0:0:0:
256,192,414366,1,0,0:0:0:0:
256,192,414441,1,8,0:0:0:0:
256,192,414516,1,0,0:0:0:0:
256,192,414591,1,0,0:0:0:0:
256,192,414666,1,8,0:0:0:0:
256,192,414741,1,8,0:0:0:0:
256,192,414816,1,0,0:0:0:0:
256,192,414891,1,0,0:0:0:0:
256,192,414966,1,8,0:0:0:0:
256,192,415041,1,8,0:0:0:0:
256,192,415116,1,8,0:0:0:0:
256,192,415191,1,8,0:0:0:0:
256,192,415266,1,0,0:0:0:0:
256,192,415341,1,0,0:0:0:0:
256,192,415416,1,8,0:0:0:0:
256,192,415491,1,8,0:0:0:0:
256,192,415566,1,8,0:0:0:0:
256,192,415641,1,8,0:0:0:0:
256,192,415716,1,0,0:0:0:0:
256,192,415791,1,0,0:0:0:0:
256,192,415866,1,8,0:0:0:0:
256,192,415941,1,8,0:0:0:0:
256,192,416016,1,8,0:0:0:0:
256,192,416091,1,0,0:0:0:0:
256,192,416166,1,8,0:0:0:0:
256,192,416241,1,8,0:0:0:0:
256,192,416316,1,8,0:0:0:0:
256,192,416391,1,8,0:0:0:0:
256,192,416466,1,0,0:0:0:0:
256,192,416541,1,0,0:0:0:0:
256,192,416616,1,8,0:0:0:0:
256,192,416691,1,8,0:0:0:0:
256,192,416766,1,8,0:0:0:0:
256,192,416841,1,8,0:0:0:0:
256,192,416916,1,0,0:0:0:0:
256,192,416991,1,0,0:0:0:0:
256,192,417066,1,8,0:0:0:0:
256,192,417141,1,8,0:0:0:0:
256,192,417216,1,8,0:0:0:0:
256,192,417291,1,0,0:0:0:0:
256,192,417366,1,8,0:0:0:0:
256,192,417441,1,0,0:0:0:0:
256,192,417516,1,8,0:0:0:0:
256,192,417591,1,8,0:0:0:0:
256,192,417666,1,0,0:0:0:0:
256,192,417741,1,0,0:0:0:0:
256,192,417816,1,8,0:0:0:0:
256,192,417891,1,0,0:0:0:0:
256,192,417966,1,8,0:0:0:0:
256,192,418041,1,8,0:0:0:0:
256,192,418116,1,0,0:0:0:0:
256,192,418191,1,0,0:0:0:0:
256,192,418266,1,8,0:0:0:0:
256,192,418341,1,0,0:0:0:0:
256,192,418416,1,0,0:0:0:0:
256,192,418491,1,0,0:0:0:0:
256,192,418566,1,8,0:0:0:0:
256,192,418641,1,0,0:0:0:0:
256,192,418716,1,8,0:0:0:0:
256,192,418791,1,8,0:0:0:0:
256,192,418866,1,0,0:0:0:0:
256,192,418941,1,0,0:0:0:0:
256,192,419016,1,8,0:0:0:0:
256,192,419091,1,0,0:0:0:0:
256,192,419166,1,8,0:0:0:0:
256,192,419241,1,8,0:0:0:0:
256,192,419316,1,0,0:0:0:0:
256,192,419391,1,0,0:0:0:0:
256,192,419466,1,8,0:0:0:0:
256,192,419541,1,0,0:0:0:0:
256,192,419616,1,0,0:0:0:0:
256,192,419766,1,0,0:0:0:0:
256,192,419816,1,8,0:0:0:0:
256,192,419866,1,8,0:0:0:0:
256,192,419916,1,0,0:0:0:0:
256,192,419966,1,8,0:0:0:0:
256,192,420016,1,0,0:0:0:0:
256,192,420066,1,8,0:0:0:0:
256,192,420116,1,0,0:0:0:0:
256,192,420166,1,8,0:0:0:0:
256,192,420216,1,0,0:0:0:0:
256,192,420266,1,0,0:0:0:0:
256,192,420316,1,8,0:0:0:0:
256,192,420366,1,8,0:0:0:0:
256,192,420416,1,0,0:0:0:0:
256,192,420466,1,0,0:0:0:0:
256,192,420516,1,0,0:0:0:0:
256,192,420566,1,8,0:0:0:0:
256,192,420616,1,8,0:0:0:0:
256,192,420666,1,0,0:0:0:0:
256,192,420716,1,8,0:0:0:0:
256,192,420766,1,8,0:0:0:0:
256,192,420816,1,0,0:0:0:0:
256,192,420966,1,0,0:0:0:0:
256,192,421016,1,0,0:0:0:0:
256,192,421066,1,0,0:0:0:0:
256,192,421116,1,8,0:0:0:0:
256,192,421166,1,0,0:0:0:0:
256,192,421216,1,8,0:0:0:0:
256,192,421266,1,0,0:0:0:0:
256,192,421341,1,8,0:0:0:0:
256,192,421416,1,0,0:0:0:0:
256,192,421491,1,8,0:0:0:0:
256,192,421566,1,0,0:0:0:0:
256,192,421641,1,8,0:0:0:0:
256,192,421716,1,0,0:0:0:0:
256,192,421791,1,8,0:0:0:0:
256,192,421866,1,0,0:0:0:0:
256,192,421941,1,8,0:0:0:0:
256,192,422016,1,0,0:0:0:0:
256,192,422166,5,12,0:0:0:0:
256,192,422316,1,12,0:0:0:0:
256,192,422466,1,4,0:0:0:0:
256,192,422616,1,12,0:0:0:0:
256,192,422766,1,8,0:0:0:0:
256,192,422916,1,12,0:0:0:0:
256,192,423066,1,0,0:0:0:0:
256,192,423216,1,12,0:0:0:0:
256,192,423366,1,8,0:0:0:0:
256,192,423516,1,12,0:0:0:0:
256,192,423666,1,0,0:0:0:0:
256,192,423816,1,12,0:0:0:0:
256,192,423966,1,12,0:0:0:0:
256,192,424116,1,4,0:0:0:0:
256,192,424266,1,12,0:0:0:0:
256,192,424416,1,0,0:0:0:0:
256,192,424566,1,4,0:0:0:0:
256,192,424716,1,12,0:0:0:0:
256,192,424866,1,12,0:0:0:0:
256,192,425016,1,4,0:0:0:0:
256,192,425166,1,8,0:0:0:0:
256,192,425316,1,12,0:0:0:0:
256,192,425466,1,0,0:0:0:0:
256,192,425616,1,12,0:0:0:0:
256,192,425766,1,8,0:0:0:0:
256,192,425916,1,12,0:0:0:0:
256,192,426066,1,0,0:0:0:0:
256,192,426216,1,12,0:0:0:0:
256,192,426366,1,12,0:0:0:0:
256,192,426516,1,12,0:0:0:0:
256,192,426666,1,4,0:0:0:0:
256,192,426816,1,0,0:0:0:0:
256,192,426966,1,12,0:0:0:0:
256,192,427116,1,12,0:0:0:0:
256,192,427266,1,12,0:0:0:0:
256,192,427416,1,12,0:0:0:0:
256,192,427716,1,12,0:0:0:0:
256,192,428016,1,12,0:0:0:0:
256,192,428316,1,12,0:0:0:0:
256,192,428616,1,12,0:0:0:0:
256,192,428766,1,4,0:0:0:0:
256,192,428916,1,4,0:0:0:0:
256,192,429066,1,12,0:0:0:0:
256,192,429366,1,12,0:0:0:0:
256,192,429441,12,0,436416,0:0:0:0:
256,192,436566,5,12,0:0:0:0:
256,192,436716,1,12,0:0:0:0:
256,192,436866,1,4,0:0:0:0:
256,192,437016,1,4,0:0:0:0:
256,192,437166,1,12,0:0:0:0:
256,192,437316,1,12,0:0:0:0:
256,192,437466,1,4,0:0:0:0:
256,192,437616,1,4,0:0:0:0:
256,192,437766,1,12,0:0:0:0:
256,192,438366,2,0,L|320:192,4,35
256,192,438966,1,8,0:0:0:0:
256,192,439041,1,8,0:0:0:0:
256,192,439116,1,0,0:0:0:0:
256,192,439191,1,0,0:0:0:0:
256,192,439266,1,8,0:0:0:0:
256,192,439341,1,0,0:0:0:0:
256,192,439416,1,0,0:0:0:0:
256,192,439491,1,0,0:0:0:0:
256,192,439566,1,0,0:0:0:0:
256,192,439766,1,4,0:0:0:0:
256,192,439966,1,12,0:0:0:0:
256,192,440166,1,12,0:0:0:0:
