osu file format v14

[General]
AudioFilename: audio.mp3
AudioLeadIn: 0
PreviewTime: 384640
Countdown: 0
SampleSet: Normal
StackLeniency: 0.4
Mode: 0
LetterboxInBreaks: 0
WidescreenStoryboard: 1

[Editor]
Bookmarks: 1064,20264,49064,68264,87464,92264,97064,113864,135464,145064,154664,173864,183464,200264,221564,242264,253558,264852,276146,287440,299440,309040,328240,347440,366640,385840,402640,421840,429040,436240,439840
DistanceSpacing: 1.6
BeatDivisor: 4
GridSize: 4
TimelineZoom: 2.900006

[Metadata]
Title:Through The Fire And Flames
TitleUnicode:Through The Fire And Flames
Artist:DragonForce
ArtistUnicode:DragonForce
Creator:ig188
Version:Legend: Reborn
Source:
Tags:dragon force through the fire and flames ttfaf insane legend stream deathstream speedmetal power speed metal powermetal
BeatmapID:1307367
BeatmapSetID:474273

[Difficulty]
HPDrainRate:6
CircleSize:5
OverallDifficulty:9
ApproachRate:9.5
SliderMultiplier:1.6
SliderTickRate:2

[Events]
//Background and Video events
0,0,"BG.png",0,0
//Break Periods
2,39664,40964
2,42064,43364
2,44464,45764
2,222064,223214
2,224464,225464
2,226864,228164
2,369240,370540
2,371640,372940
2,374040,375340
2,376440,377740
2,378840,380140
2,381240,382540
//Storyboard Layer 0 (Background)
//Storyboard Layer 1 (Fail)
//Storyboard Layer 2 (Pass)
//Storyboard Layer 3 (Foreground)
//Storyboard Sound Samples

[TimingPoints]
1064,300,4,1,1,100,1,0
1064,-100,4,1,1,75,0,0
1514,-133.333333333333,4,1,1,75,0,0
3464,-100,4,1,1,75,0,0
3764,-133.333333333333,4,1,1,75,0,0
5864,-200,4,1,1,75,0,0
8264,-200,4,1,1,75,0,0
8414,-133.333333333333,4,1,1,75,0,0
9464,-200,4,1,1,75,0,0
10589,-200,4,1,1,5,0,0
10664,-100,4,1,1,75,0,0
10964,-133.333333333333,4,1,1,75,0,0
13064,-100,4,1,1,75,0,0
13364,-133.333333333333,4,1,1,75,0,0
15464,-200,4,1,1,75,0,0
17864,-133.333333333333,4,1,1,75,0,0
19064,-100,4,1,1,75,0,0
20264,-111.111111111111,4,1,1,75,0,1
27464,-111.111111111111,4,1,2,75,0,0
29264,-76.9230769230769,4,1,2,75,0,0
29714,-111.111111111111,4,1,2,75,0,0
29864,-111.111111111111,4,1,1,75,0,1
37064,-111.111111111111,4,1,2,75,0,0
37364,-83.3333333333333,4,1,2,75,0,0
39464,-83.3333333333333,4,1,2,75,0,1
39501,-83.3333333333333,4,1,2,100,0,0
46664,-100,4,1,2,100,0,0
46814,-100,4,1,1,100,0,0
46964,-100,4,1,2,100,0,0
47114,-100,4,1,1,100,0,0
47264,-100,4,1,2,100,0,0
47414,-100,4,1,1,100,0,0
48014,-100,4,1,2,75,0,0
49064,-80,4,1,1,75,0,0
57464,-80,4,1,2,75,0,0
58664,-80,4,1,1,75,0,0
67214,-80,4,1,1,100,0,0
67964,-80,4,1,1,75,0,0
68264,-80,4,1,1,75,0,1
68301,-80,4,1,1,75,0,0
70664,-80,4,1,1,100,0,0
74264,-80,4,1,2,75,0,0
75464,-80,4,1,2,75,0,1
76664,-80,4,1,2,75,0,0
76964,-80,4,3,1,75,0,0
77864,-80,4,1,1,75,0,0
86264,-80,4,1,2,75,0,0
87464,-80,4,1,2,75,0,0
89864,-80,4,1,2,75,0,0
90764,-80,4,1,2,75,0,0
91064,-80,4,1,1,75,0,0
91964,-80,4,1,2,75,0,0
92264,-80,4,1,1,75,0,0
94664,-80,4,1,2,75,0,0
96914,-80,4,1,1,5,0,0
97064,-100,4,1,1,75,0,1
105464,-100,4,1,2,75,0,1
105764,-100,4,3,2,75,0,1
106064,-100,4,3,2,55,0,1
106364,-100,4,3,2,35,0,1
106664,-100,4,1,1,75,0,1
111464,-100,4,1,2,75,0,1
112664,-100,4,1,2,75,0,0
113864,-80,4,1,1,75,0,1
125789,-80,4,1,1,45,0,1
125864,-80,4,1,1,75,0,1
130664,-80,4,1,2,75,0,1
131864,-80,4,1,1,75,0,0
135464,-133.333333333333,4,1,1,65,0,0
141464,-80,4,1,2,100,0,0
141614,-80,4,1,2,100,0,0
142739,-80,4,1,1,75,0,0
158264,-80,4,3,2,50,0,0
158414,-80,4,3,2,75,0,0
159314,-80,4,3,2,50,0,0
159464,-80,4,1,1,75,0,0
161864,-80,4,1,2,75,0,1
163064,-80,4,1,1,75,0,0
163364,-80,4,3,1,75,0,0
164264,-80,4,1,1,75,0,0
172664,-80,4,1,2,75,0,0
173864,-80,4,1,2,75,0,0
177464,-80,4,1,1,75,0,0
178364,-80,4,1,2,75,0,0
178664,-80,4,1,1,75,0,0
181064,-80,4,1,2,75,0,0
181664,-80,4,3,2,75,0,0
182264,-80,4,1,2,75,0,0
183314,-80,4,1,1,5,0,0
183464,-100,4,1,1,75,0,1
191864,-100,4,1,2,75,0,1
192164,-100,4,3,2,75,0,1
192464,-100,4,3,2,55,0,1
192764,-100,4,3,2,35,0,1
193064,-100,4,1,1,75,0,1
197864,-66.6666666666667,4,1,2,75,0,1
199064,-66.6666666666667,4,1,2,75,0,0
200264,-80,4,1,1,75,0,1
208664,-80,4,1,2,75,0,0
209864,-80,4,1,1,75,0,1
217064,-80,4,3,2,75,0,1
217364,-100,4,3,2,75,0,1
217664,-133.333333333333,4,3,2,75,0,1
217964,-200,4,3,2,75,0,1
218264,-200,4,3,1,75,0,0
221864,-100,4,1,1,100,0,0
231764,-100,4,1,1,50,0,0
233564,-100,4,1,1,100,0,0
234164,-100,4,1,1,50,0,0
236114,-100,4,1,1,100,0,0
236564,-100,4,1,1,50,0,0
238664,-100,4,1,1,100,0,0
239714,-100,4,1,1,5,0,0
239864,-100,4,1,2,100,0,0
241514,-100,4,3,2,75,0,0
242264,352.941176470588,4,1,1,65,1,1
242308,-100,4,1,1,65,0,0
252146,-100,4,1,2,100,0,0
253558,-80,4,1,1,65,0,0
259205,-66.6666666666667,4,1,1,100,0,0
259293,-66.6666666666667,4,1,1,45,0,0
259381,-80,4,1,1,75,0,0
259911,-66.6666666666667,4,1,1,100,0,0
260175,-66.6666666666667,4,1,1,65,0,0
260264,-80,4,1,1,65,0,0
261940,-80,4,1,1,45,0,0
262028,-80,4,1,1,65,0,0
263440,-80,4,1,2,100,0,0
264852,-80,4,1,1,65,0,1
264896,-80,4,1,1,65,0,0
278264,-66.6666666666667,4,1,1,65,0,0
278969,-80,4,1,1,65,0,0
281440,-80,4,1,1,45,0,0
281793,-100,4,1,1,100,0,0
282058,-57.1428571428571,4,1,1,100,0,0
282499,-133.333333333333,4,1,1,100,0,0
282764,-57.1428571428571,4,1,1,100,0,0
283205,-100,4,1,1,65,0,0
284528,-100,4,1,1,45,0,0
284616,-80,4,1,1,65,0,0
286028,-80,4,1,2,100,0,0
286381,-80,4,3,2,75,0,0
287440,300,4,1,1,100,1,0
287440,-100,4,1,1,75,0,0
296440,-133.333333333333,4,1,1,100,0,0
296515,-133.333333333333,4,1,1,5,0,0
296590,-133.333333333333,4,1,1,100,0,0
296665,-133.333333333333,4,1,1,5,0,0
296740,-133.333333333333,4,1,1,100,0,0
296815,-133.333333333333,4,1,1,5,0,0
296890,-133.333333333333,4,1,1,100,0,0
296965,-133.333333333333,4,1,1,5,0,0
297040,-133.333333333333,4,1,1,100,0,0
297640,-133.333333333333,4,1,1,100,0,0
297715,-133.333333333333,4,1,1,5,0,0
297790,-133.333333333333,4,1,1,100,0,0
297865,-133.333333333333,4,1,1,5,0,0
297940,-133.333333333333,4,1,1,100,0,0
298015,-133.333333333333,4,1,1,5,0,0
298090,-133.333333333333,4,1,1,100,0,0
298165,-133.333333333333,4,1,1,5,0,0
298240,-100,4,1,1,45,0,0
298315,-100,4,1,1,30,0,0
299440,-80,4,1,2,100,0,1
299477,-80,4,1,2,100,0,0
301765,-80,4,1,2,45,0,0
301840,-80,4,1,2,100,0,0
306565,-80,4,1,2,45,0,0
306640,-80,4,3,2,100,0,0
309040,-80,4,1,1,100,0,1
315640,-133.333333333333,4,1,1,100,0,1
315940,-80,4,1,1,100,0,1
316165,-80,4,1,1,45,0,1
316240,-80,4,1,2,100,0,0
316540,-80,4,3,2,100,0,0
317440,-80,4,1,2,100,0,0
319540,-133.333333333333,4,1,2,100,0,0
319915,-133.333333333333,4,1,1,5,0,0
319990,-133.333333333333,4,1,2,100,0,0
320965,-133.333333333333,4,1,1,45,0,0
321040,-80,4,1,1,100,0,0
327040,-80,4,1,2,100,0,0
327340,-80,4,3,2,100,0,0
327640,-57.1428571428571,4,1,2,100,0,0
327865,-57.1428571428571,4,1,2,45,0,0
327940,-80,4,3,2,100,0,0
328240,-80,4,1,1,100,0,1
337840,-80,4,1,1,100,0,0
340240,-66.6666666666667,4,1,1,100,0,0
342640,-66.6666666666667,4,1,1,100,0,0
345040,-66.6666666666667,4,1,2,100,0,0
345640,-66.6666666666667,4,3,2,100,0,0
346240,-66.6666666666667,4,1,2,100,0,0
347440,-80,4,1,2,75,0,1
352240,-80,4,1,2,100,0,1
354640,-80,4,1,1,100,0,1
356140,-80,4,3,2,100,0,1
356440,-80,4,1,2,100,0,1
356740,-80,4,3,2,100,0,1
357040,-80,4,1,1,100,0,1
364240,-80,4,3,2,100,0,1
364540,-80,4,3,1,100,0,1
364690,-80,4,3,2,100,0,1
365440,-80,4,1,2,100,0,1
365740,-80,4,3,2,100,0,1
366640,-80,4,1,2,100,0,0
384490,-80,4,1,1,5,0,0
384640,-80,4,1,2,100,0,0
385840,-100,4,1,1,100,0,1
393040,-100,4,3,2,100,0,1
393640,-100,4,1,2,100,0,1
394690,-100,4,3,2,100,0,1
394990,-100,4,1,2,100,0,1
395140,-100,4,3,2,100,0,1
395440,-100,4,1,1,100,0,1
400240,-100,4,3,2,100,0,1
401440,-100,4,1,2,100,0,0
402640,-111.111111111111,4,1,1,100,0,1
411340,-111.111111111111,4,3,2,100,0,1
411940,-111.111111111111,4,1,2,100,0,0
412240,-80,4,1,1,100,0,1
419440,-80,4,1,2,100,0,0
419740,-80,4,3,2,100,0,0
420040,-80,4,1,2,100,0,0
420340,-80,4,3,2,100,0,0
420640,-80,4,1,2,100,0,0
420940,-80,4,3,2,100,0,0
421540,-80,4,1,2,75,0,0
421840,-100,4,1,2,100,0,0
429040,-100,4,3,1,100,0,1
429077,-100,4,1,1,50,0,0
436240,-100,4,1,2,100,0,0
437440,-133.333333333333,4,1,1,100,0,0
437965,-133.333333333333,4,1,1,45,0,0
438040,-100,4,1,1,100,0,0
438565,-100,4,1,1,5,0,0
438640,-100,4,1,1,100,0,0
439865,-100,4,1,1,100,0,1
439890,-100,4,1,1,100,0,0

[HitObjects]
56,272,1064,6,0,P|120:304|224:280,1,160,14|0,0:0|0:0,0:0:0:0:
288,288,1514,1,0,0:0:0:0:
288,288,1664,1,0,0:0:0:0:
248,208,1814,1,0,0:0:0:0:
320,152,1964,1,0,0:0:0:0:
288,64,2114,1,0,0:0:0:0:
360,8,2264,2,0,P|400:48|408:136,2,120.000004577637,2|2|2,0:0|0:0|0:0,0:0:0:0:
288,64,3014,1,0,0:0:0:0:
200,40,3164,2,0,L|170:54,5,20
144,72,3464,6,0,P|95:129|115:215,1,160,14|0,0:0|0:0,0:0:0:0:
184,256,3914,1,0,0:0:0:0:
184,256,4064,1,0,0:0:0:0:
256,304,4214,1,0,0:0:0:0:
336,264,4364,1,0,0:0:0:0:
408,320,4514,1,0,0:0:0:0:
488,280,4664,2,0,P|496:208|472:144,2,120.000004577637,2|2|2,0:0|0:0|0:0,0:0:0:0:
408,320,5414,1,0,0:0:0:0:
344,256,5564,1,0,0:0:0:0:
384,176,5714,1,0,0:0:0:0:
319,111,5864,6,6,P|111:111|271:359,1,640,14|14,0:0|0:0,0:0:0:0:
266,360,8564,5,0,0:0:0:0:
320,288,8714,1,0,0:0:0:0:
408,312,8864,1,0,0:0:0:0:
464,240,9014,1,0,0:0:0:0:
408,168,9164,1,0,0:0:0:0:
320,200,9314,1,0,0:0:0:0:
240,152,9464,6,0,P|192:83|323:99,1,300,14|0,0:0|0:0,0:0:0:0:
328,128,10664,6,0,B|328:208|328:208|288:280,1,160,14|0,0:0|0:0,0:0:0:0:
200,296,11114,1,0,0:0:0:0:
200,296,11264,1,0,0:0:0:0:
120,248,11414,1,0,0:0:0:0:
160,168,11564,1,0,0:0:0:0:
96,104,11714,1,0,0:0:0:0:
136,24,11864,2,0,L|280:40,2,120.000004577637,2|2|2,0:0|0:0|0:0,0:0:0:0:
96,104,12614,1,0,0:0:0:0:
160,168,12764,2,0,L|189:182,5,20
216,192,13064,6,0,B|296:208|296:208|392:192,1,160,14|0,0:0|0:0,0:0:0:0:
384,104,13514,1,0,0:0:0:0:
384,104,13664,1,0,0:0:0:0:
464,152,13814,1,0,0:0:0:0:
432,232,13964,1,0,0:0:0:0:
480,304,14114,1,0,0:0:0:0:
448,384,14264,2,0,L|312:368,2,120.000004577637,2|2|2,0:0|0:0|0:0,0:0:0:0:
480,304,15014,1,0,0:0:0:0:
432,232,15164,1,0,0:0:0:0:
464,152,15314,1,0,0:0:0:0:
384,104,15464,6,0,P|138:180|362:312,1,640,14|14,0:0|0:0,0:0:0:0:
352,320,18164,5,0,0:0:0:0:
400,248,18314,1,0,0:0:0:0:
352,176,18464,1,0,0:0:0:0:
264,200,18614,1,0,0:0:0:0:
264,288,18764,1,0,0:0:0:0:
352,320,18914,1,0,0:0:0:0:
264,288,19064,6,0,L|242:256,3,40,14|0|0|0,0:0|0:0|0:0|0:0,0:0:0:0:
166,216,19364,2,0,L|188:183,3,40,14|0|0|0,0:0|0:0|0:0|0:0,0:0:0:0:
130,124,19664,2,0,L|107:91,3,40,14|0|0|0,0:0|0:0|0:0|0:0,0:0:0:0:
244,88,19964,2,0,L|221:120,3,40
80,88,20264,5,6,0:0:0:0:
112,88,20339,1,0,0:0:0:0:
144,88,20414,1,8,0:0:0:0:
176,88,20489,1,0,0:0:0:0:
208,88,20564,2,0,L|264:88,1,35.9999989013672,0|0,0:0|0:0,0:0:0:0:
272,152,20714,5,10,0:0:0:0:
288,176,20789,1,0,0:0:0:0:
296,200,20864,1,0,0:0:0:0:
296,232,20939,1,0,0:0:0:0:
291,261,21014,2,0,L|283:301,1,35.9999989013672,8|0,0:0|0:0,0:0:0:0:
400,288,21164,5,2,0:0:0:0:
397,248,21239,1,0,0:0:0:0:
379,217,21314,2,0,P|365:195|335:178,1,35.9999989013672,8|0,0:0|0:0,0:0:0:0:
200,144,21464,1,2,0:0:0:0:
232,160,21539,1,0,0:0:0:0:
268,154,21614,2,0,L|324:146,1,35.9999989013672,8|0,0:0|0:0,0:0:0:0:
352,64,21764,2,0,L|296:56,1,35.9999989013672,0|0,0:0|0:0,0:0:0:0:
200,56,21914,5,10,0:0:0:0:
184,80,21989,1,0,0:0:0:0:
176,112,22064,1,0,0:0:0:0:
176,144,22139,1,0,0:0:0:0:
184,168,22214,1,8,0:0:0:0:
200,192,22289,1,0,0:0:0:0:
224,208,22364,2,0,L|264:200,3,35.9999989013672,2|0|8|0,0:0|0:0|0:0|0:0,0:0:0:0:
368,144,22664,5,6,0:0:0:0:
349,120,22739,1,0,0:0:0:0:
324,107,22814,1,8,0:0:0:0:
291,103,22889,1,0,0:0:0:0:
259,106,22964,2,0,L|220:118,1,35.9999989013672
112,160,23114,1,10,0:0:0:0:
95,176,23189,1,0,0:0:0:0:
83,199,23264,1,0,0:0:0:0:
83,222,23339,1,0,0:0:0:0:
95,244,23414,2,0,L|128:272,1,35.9999989013672,8|0,0:0|0:0,0:0:0:0:
264,280,23564,5,2,0:0:0:0:
248,256,23639,1,0,0:0:0:0:
232,232,23714,2,0,L|200:184,1,35.9999989013672,8|0,0:0|0:0,0:0:0:0:
200,96,23864,5,2,0:0:0:0:
224,112,23939,1,0,0:0:0:0:
240,136,24014,1,8,0:0:0:0:
248,160,24089,1,0,0:0:0:0:
248,184,24164,2,0,L|232:224,1,35.9999989013672,0|0,0:0|0:0,0:0:0:0:
136,144,24314,5,10,0:0:0:0:
132,115,24389,1,0,0:0:0:0:
142,87,24464,1,0,0:0:0:0:
156,66,24539,1,0,0:0:0:0:
175,51,24614,1,8,0:0:0:0:
200,43,24689,1,0,0:0:0:0:
232,44,24764,2,0,L|296:55,3,35.9999989013672,2|0|8|0,0:0|0:0|0:0|0:0,0:0:0:0:
361,101,25064,6,0,L|318:110,3,35.9999989013672,6|0|8|0,0:0|0:0|0:0|0:0,0:0:0:0:
279,178,25364,1,0,0:0:0:0:
268,180,25439,1,0,0:0:0:0:
258,184,25514,1,10,0:0:0:0:
251,192,25589,1,0,0:0:0:0:
233,197,25664,1,0,0:0:0:0:
215,200,25739,1,0,0:0:0:0:
197,198,25814,1,8,0:0:0:0:
179,192,25889,1,0,0:0:0:0:
154,183,25964,5,2,0:0:0:0:
122,183,26039,1,0,0:0:0:0:
98,199,26114,1,8,0:0:0:0:
90,223,26189,1,0,0:0:0:0:
98,255,26264,1,2,0:0:0:0:
122,276,26339,1,0,0:0:0:0:
154,277,26414,1,8,0:0:0:0:
185,267,26489,1,0,0:0:0:0:
213,245,26564,5,0,0:0:0:0:
249,229,26639,1,0,0:0:0:0:
287,236,26714,1,10,0:0:0:0:
319,259,26789,1,0,0:0:0:0:
332,300,26864,1,0,0:0:0:0:
370,319,26939,1,0,0:0:0:0:
413,318,27014,1,8,0:0:0:0:
444,288,27089,1,0,0:0:0:0:
448,245,27164,5,2,0:0:0:0:
422,210,27239,1,0,0:0:0:0:
380,198,27314,2,0,P|348:190|316:190,1,35.9999989013672,8|0,0:0|0:0,0:0:0:0:
136,176,27464,5,14,0:0:0:0:
143,207,27539,1,8,0:0:0:0:
157,240,27614,1,8,0:0:0:0:
183,262,27689,1,8,0:0:0:0:
214,277,27764,6,0,L|281:269,1,35.9999989013672,2|2,0:0|0:0,0:0:0:0:
384,176,27914,2,0,L|348:179,1,35.9999989013672,2|2,0:0|0:0,0:0:0:0:
188,282,28064,5,8,0:0:0:0:
232,304,28139,1,8,0:0:0:0:
280,312,28214,1,8,0:0:0:0:
328,304,28289,1,8,0:0:0:0:
372,281,28364,2,0,L|408:233,1,35.9999989013672,2|2,0:0|0:0,0:0:0:0:
396,140,28514,6,0,L|344:172,1,35.9999989013672,2|2,0:0|0:0,0:0:0:0:
276,140,28664,2,0,L|268:175,3,35.9999989013672,12|8|8|8,0:0|0:0|0:0|0:0,0:0:0:0:
184,204,28964,2,0,L|216:248,3,35.9999989013672,6|2|2|2,0:0|0:0|0:0|0:0,0:0:0:0:
288,304,29264,1,6,0:0:0:0:
312,312,29339,1,2,0:0:0:0:
336,320,29414,2,0,B|360:312|360:312|376:288|376:288|416:272|416:272|440:248|440:248|488:232,1,155.999992858887,2|2,0:0|0:0,0:0:0:0:
432,176,29714,6,0,L|424:136,1,35.9999989013672,2|2,0:0|0:0,0:0:0:0:
368,88,29864,5,6,0:0:0:0:
338,71,29939,1,0,0:0:0:0:
304,61,30014,1,8,0:0:0:0:
268,69,30089,1,0,0:0:0:0:
238,87,30164,2,0,P|215:112|208:136,1,35.9999989013672
288,152,30314,1,10,0:0:0:0:
260,169,30389,1,0,0:0:0:0:
240,200,30464,1,0,0:0:0:0:
232,232,30539,1,0,0:0:0:0:
232,264,30614,2,0,L|256:328,1,35.9999989013672,8|0,0:0|0:0,0:0:0:0:
304,232,30764,5,2,0:0:0:0:
323,206,30839,1,0,0:0:0:0:
343,181,30914,2,0,L|382:130,1,35.9999989013672,8|0,0:0|0:0,0:0:0:0:
320,48,31064,6,0,L|288:88,1,35.9999989013672,2|0,0:0|0:0,0:0:0:0:
328,184,31214,2,0,L|360:144,3,35.9999989013672,8|0|0|0,0:0|0:0|0:0|0:0,0:0:0:0:
456,192,31514,5,10,0:0:0:0:
446,230,31589,1,0,0:0:0:0:
423,258,31664,1,0,0:0:0:0:
396,277,31739,1,0,0:0:0:0:
367,290,31814,2,0,L|301:300,1,35.9999989013672,8|0,0:0|0:0,0:0:0:0:
200,260,31964,5,2,0:0:0:0:
232,256,32039,1,0,0:0:0:0:
256,240,32114,2,0,L|280:204,1,35.9999989013672,8|0,0:0|0:0,0:0:0:0:
208,112,32264,5,6,0:0:0:0:
207,144,32339,1,0,0:0:0:0:
199,175,32414,1,8,0:0:0:0:
183,204,32489,1,0,0:0:0:0:
159,231,32564,2,0,L|110:259,1,35.9999989013672
96,152,32714,1,10,0:0:0:0:
120,120,32789,1,0,0:0:0:0:
160,104,32864,1,0,0:0:0:0:
200,104,32939,1,0,0:0:0:0:
240,120,33014,2,0,L|296:144,1,35.9999989013672,8|0,0:0|0:0,0:0:0:0:
416,216,33164,5,2,0:0:0:0:
384,221,33239,1,0,0:0:0:0:
353,226,33314,2,0,L|289:237,1,35.9999989013672,8|0,0:0|0:0,0:0:0:0:
208,184,33464,5,2,0:0:0:0:
168,176,33539,1,0,0:0:0:0:
136,152,33614,1,8,0:0:0:0:
112,120,33689,1,0,0:0:0:0:
104,80,33764,2,0,L|96:16,1,35.9999989013672,0|0,0:0|0:0,0:0:0:0:
248,112,33914,1,10,0:0:0:0:
264,149,33989,1,0,0:0:0:0:
263,187,34064,1,0,0:0:0:0:
250,227,34139,1,0,0:0:0:0:
223,256,34214,2,0,L|175:299,1,35.9999989013672,8|0,0:0|0:0,0:0:0:0:
344,248,34364,6,0,L|320:208,3,35.9999989013672,2|0|8|0,0:0|0:0|0:0|0:0,0:0:0:0:
408,128,34664,6,0,L|384:168,3,35.9999989013672,6|0|8|0,0:0|0:0|0:0|0:0,0:0:0:0:
309,93,34964,1,0,0:0:0:0:
298,94,35039,1,0,0:0:0:0:
288,98,35114,1,10,0:0:0:0:
279,104,35189,1,0,0:0:0:0:
265,111,35264,1,0,0:0:0:0:
248,119,35339,1,0,0:0:0:0:
230,120,35414,1,8,0:0:0:0:
212,116,35489,1,0,0:0:0:0:
191,106,35564,5,2,0:0:0:0:
162,112,35639,1,0,0:0:0:0:
138,128,35714,1,8,0:0:0:0:
128,160,35789,1,0,0:0:0:0:
137,198,35864,1,2,0:0:0:0:
169,220,35939,1,0,0:0:0:0:
208,220,36014,1,8,0:0:0:0:
247,194,36089,1,0,0:0:0:0:
292,181,36164,5,0,0:0:0:0:
335,197,36239,1,0,0:0:0:0:
364,232,36314,1,10,0:0:0:0:
407,249,36389,1,0,0:0:0:0:
449,230,36464,1,0,0:0:0:0:
468,187,36539,1,0,0:0:0:0:
451,143,36614,1,8,0:0:0:0:
409,121,36689,1,0,0:0:0:0:
364,135,36764,5,2,0:0:0:0:
317,135,36839,1,0,0:0:0:0:
274,116,36914,2,0,L|232:97,1,35.9999989013672,8|0,0:0|0:0,0:0:0:0:
96,48,37064,5,14,0:0:0:0:
88,80,37139,1,8,0:0:0:0:
88,112,37214,1,8,0:0:0:0:
96,144,37289,1,8,0:0:0:0:
112,176,37364,2,0,L|168:224,1,47.9999985351563,2|2,0:0|0:0,0:0:0:0:
296,280,37514,1,8,0:0:0:0:
302,244,37589,1,8,0:0:0:0:
298,210,37664,1,8,0:0:0:0:
283,178,37739,1,8,0:0:0:0:
253,152,37814,2,0,L|184:114,1,47.9999985351563,2|2,0:0|0:0,0:0:0:0:
80,88,37964,5,8,0:0:0:0:
54,132,38039,1,8,0:0:0:0:
56,182,38114,2,0,L|69:262,1,47.9999985351563,8|8,0:0|0:0,0:0:0:0:
160,280,38264,6,0,L|136:344,1,47.9999985351563,2|2,0:0|0:0,0:0:0:0:
264,176,38414,2,0,L|280:248,1,47.9999985351563,8|8,0:0|0:0,0:0:0:0:
216,24,38564,5,2,0:0:0:0:
216,24,38639,1,2,0:0:0:0:
216,24,38714,2,0,L|248:88,1,47.9999985351563,8|8,0:0|0:0,0:0:0:0:
176,160,38864,2,0,L|152:112,1,47.9999985351563,8|8,0:0|0:0,0:0:0:0:
92,210,39014,1,2,0:0:0:0:
92,210,39089,1,2,0:0:0:0:
92,210,39164,2,0,L|114:253,1,47.9999985351563,8|8,0:0|0:0,0:0:0:0:
52,346,39314,2,0,L|30:303,1,47.9999985351563,8|8,0:0|0:0,0:0:0:0:
256,192,39464,5,14,0:0:0:0:
256,192,41864,5,14,0:0:0:0:
256,192,44264,5,14,0:0:0:0:
116,192,46664,5,14,0:0:0:0:
256,88,46814,6,0,L|244:156,1,40,2|0,0:0|0:0,0:0:0:0:
232,196,46964,1,14,0:0:0:0:
320,324,47114,6,0,L|248:332,1,40,2|0,0:0|0:0,0:0:0:0:
208,340,47264,1,14,0:0:0:0:
307,201,47414,2,0,P|275:89|231:93,1,160,2|0,0:0|0:0,0:0:0:0:
96,108,47864,1,8,0:0:0:0:
120,264,48014,6,0,L|180:283,1,40,2|2,0:0|0:0,0:0:0:0:
240,304,48164,5,8,0:0:0:0:
264,320,48239,1,8,0:0:0:0:
288,328,48314,1,8,0:0:0:0:
312,328,48389,1,8,0:0:0:0:
336,320,48464,2,0,P|366:308|381:291,1,40,2|2,0:0|0:0,0:0:0:0:
416,240,48614,5,8,0:0:0:0:
392,224,48689,1,8,0:0:0:0:
376,200,48764,1,8,0:0:0:0:
368,176,48839,1,8,0:0:0:0:
368,152,48914,2,0,P|371:128|400:100,1,40,2|2,0:0|0:0,0:0:0:0:
328,56,49064,6,0,P|242:53|202:83,1,100,6|0,0:0|0:0,0:0:0:0:
112,176,49364,2,0,B|160:168|160:168|224:192,1,100,2|0,0:0|0:0,0:0:0:0:
344,288,49664,1,2,0:0:0:0:
144,336,49814,1,0,0:0:0:0:
208,256,49964,1,2,0:0:0:0:
208,256,50039,1,0,0:0:0:0:
208,256,50114,1,2,0:0:0:0:
136,184,50264,6,0,P|224:160|304:224,1,200,6|0,0:0|0:0,0:0:0:0:
272,288,50714,2,0,B|168:264|168:264|64:272,1,200,2|0,0:0|0:0,0:0:0:0:
128,128,51164,1,2,0:0:0:0:
128,128,51239,1,0,0:0:0:0:
128,128,51314,1,2,0:0:0:0:
264,80,51464,2,0,P|328:104|360:168,1,100,6|0,0:0|0:0,0:0:0:0:
344,192,51764,5,2,0:0:0:0:
240,296,51914,1,0,0:0:0:0:
88,288,52064,2,0,P|56:216|72:184,1,100,2|2,0:0|0:0,0:0:0:0:
104,152,52364,1,0,0:0:0:0:
320,64,52514,6,0,P|413:36|512:64,1,200,6|2,0:0|0:0,0:0:0:0:
496,168,52964,1,2,0:0:0:0:
496,168,53039,1,0,0:0:0:0:
496,168,53114,1,2,0:0:0:0:
416,280,53264,1,0,0:0:0:0:
280,288,53414,1,0,0:0:0:0:
184,184,53564,2,0,B|160:128|200:88,1,100,2|0,0:0|0:0,0:0:0:0:
280,288,53864,5,6,0:0:0:0:
200,296,54014,2,0,P|144:280|96:144,1,200,2|2,0:0|0:0,0:0:0:0:
168,64,54464,1,0,0:0:0:0:
200,184,54614,1,0,0:0:0:0:
392,80,54764,2,0,P|416:128|392:208,1,100,2|2,0:0|0:0,0:0:0:0:
360,232,55064,6,0,P|272:216|160:256,1,200,6|0,0:0|0:0,0:0:0:0:
144,312,55514,1,2,0:0:0:0:
64,224,55664,1,0,0:0:0:0:
112,96,55814,2,0,P|176:64|232:72,1,100,2|2,0:0|0:0,0:0:0:0:
202,64,56039,1,0,0:0:0:0:
202,64,56114,1,0,0:0:0:0:
360,208,56264,6,0,L|232:200,1,100,6|2,0:0|0:0,0:0:0:0:
104,192,56564,1,2,0:0:0:0:
104,192,56639,1,0,0:0:0:0:
104,192,56714,1,2,0:0:0:0:
152,304,56864,2,0,L|280:296,1,100,6|2,0:0|0:0,0:0:0:0:
408,288,57164,1,2,0:0:0:0:
408,288,57239,1,0,0:0:0:0:
408,288,57314,1,2,0:0:0:0:
288,136,57464,5,12,0:0:0:0:
280,120,57539,1,8,0:0:0:0:
272,104,57614,1,8,0:0:0:0:
264,88,57689,1,8,0:0:0:0:
256,72,57764,6,0,L|216:144,1,50,2|2,0:0|0:0,0:0:0:0:
288,200,57914,2,0,L|320:144,1,50,2|2,0:0|0:0,0:0:0:0:
248,56,58064,6,0,L|208:128,1,50,8|8,0:0|0:0,0:0:0:0:
160,200,58214,1,8,0:0:0:0:
184,240,58289,1,8,0:0:0:0:
216,264,58364,1,2,0:0:0:0:
248,272,58439,1,2,0:0:0:0:
264,272,58514,1,2,0:0:0:0:
272,264,58589,1,2,0:0:0:0:
280,256,58664,6,0,P|312:216|304:144,1,100,6|0,0:0|0:0,0:0:0:0:
128,32,58964,2,0,L|144:144,1,100,2|2,0:0|0:0,0:0:0:0:
176,264,59264,2,0,B|240:272|240:272|320:248|320:248|384:256,1,200,2|2,0:0|0:0,0:0:0:0:
432,168,59714,1,2,0:0:0:0:
384,48,59864,1,6,0:0:0:0:
264,88,60014,1,2,0:0:0:0:
312,208,60164,1,2,0:0:0:0:
264,88,60314,1,2,0:0:0:0:
312,208,60464,6,0,B|248:312|120:280,1,200,6|2,0:0|0:0,0:0:0:0:
120,120,60914,2,2,P|168:136|200:216,2,100,0|2|0,0:0|0:0|0:0,0:0:0:0:
119,205,61364,2,0,P|107:252|128:312,1,100,2|0,0:0|0:0,0:0:0:0:
272,320,61664,1,2,0:0:0:0:
400,248,61814,1,2,0:0:0:0:
264,184,61964,1,0,0:0:0:0:
304,40,62114,2,0,P|406:60|480:143,1,200,6|0,0:0|0:0,0:0:0:0:
408,248,62564,5,2,0:0:0:0:
408,248,62639,1,0,0:0:0:0:
408,248,62714,1,0,0:0:0:0:
248,112,62864,1,2,0:0:0:0:
272,224,63014,1,0,0:0:0:0:
208,328,63164,1,2,0:0:0:0:
208,328,63239,1,0,0:0:0:0:
208,328,63314,1,0,0:0:0:0:
88,200,63464,6,0,P|120:152|200:128,1,100,6|2,0:0|0:0,0:0:0:0:
216,160,63764,1,0,0:0:0:0:
424,184,63914,2,0,P|392:232|312:256,1,100,2|2,0:0|0:0,0:0:0:0:
296,224,64214,1,0,0:0:0:0:
272,104,64364,2,0,P|320:136|344:216,1,100,2|2,0:0|0:0,0:0:0:0:
232,288,64664,2,0,B|184:304|184:304|132:294,1,100,6|2,0:0|0:0,0:0:0:0:
56,216,64964,1,2,0:0:0:0:
56,216,65039,1,0,0:0:0:0:
56,216,65114,6,0,L|64:96,1,100,2|2,0:0|0:0,0:0:0:0:
128,72,65414,1,0,0:0:0:0:
200,48,65564,1,2,0:0:0:0:
272,24,65714,1,2,0:0:0:0:
232,200,65864,5,14,0:0:0:0:
232,200,65939,1,8,0:0:0:0:
232,200,66014,1,8,0:0:0:0:
232,200,66089,1,8,0:0:0:0:
232,200,66164,1,8,0:0:0:0:
232,200,66239,1,8,0:0:0:0:
232,200,66314,1,8,0:0:0:0:
232,200,66389,1,8,0:0:0:0:
232,200,66464,1,8,0:0:0:0:
232,200,66539,1,8,0:0:0:0:
232,200,66614,1,8,0:0:0:0:
232,200,66689,1,8,0:0:0:0:
232,200,66764,1,8,0:0:0:0:
232,200,66839,1,8,0:0:0:0:
232,200,66914,6,0,L|232:312,1,100,14|8,0:0|0:0,0:0:0:0:
512,272,67214,5,6,0:0:0:0:
128,72,67514,5,6,0:0:0:0:
232,300,67814,5,6,0:0:0:0:
240,112,67964,2,0,B|232:160|232:160|240:200|240:200|224:248,1,100,2|0,0:0|0:0,0:0:0:0:
64,240,68264,5,14,0:0:0:0:
64,240,68339,1,0,0:0:0:0:
64,240,68414,2,0,L|80:184,3,50,0|0|10|0,0:0|0:0|0:0|0:0,0:0:0:0:
176,80,68714,1,2,0:0:0:0:
162,113,68789,1,0,0:0:0:0:
166,153,68864,1,8,0:0:0:0:
187,188,68939,1,0,0:0:0:0:
220,212,69014,2,0,P|240:232|280:243,1,50,0|0,0:0|0:0,0:0:0:0:
384,200,69164,5,10,0:0:0:0:
360,168,69239,1,0,0:0:0:0:
328,144,69314,2,0,P|304:128|264:112,1,50
112,160,69464,6,0,B|88:168|88:168|64:192,3,50,14|0|0|0,0:0|0:0|0:0|0:0,0:0:0:0:
144,288,69764,1,10,0:0:0:0:
184,280,69839,1,0,0:0:0:0:
224,272,69914,2,0,L|320:248,3,50,2|0|8|0,0:0|0:0|0:0|0:0,0:0:0:0:
400,216,70214,1,0,0:0:0:0:
359,209,70289,1,0,0:0:0:0:
320,201,70364,2,0,L|256:189,3,50,10|0|0|0,0:0|0:0|0:0|0:0,0:0:0:0:
96,224,70664,5,14,0:0:0:0:
56,216,70739,1,0,0:0:0:0:
32,176,70814,1,0,0:0:0:0:
48,136,70889,1,0,0:0:0:0:
88,120,70964,1,10,0:0:0:0:
104,80,71039,1,0,0:0:0:0:
80,40,71114,1,2,0:0:0:0:
32,48,71189,5,0,0:0:0:0:
24,64,71264,1,8,0:0:0:0:
16,80,71339,1,0,0:0:0:0:
8,96,71414,1,0,0:0:0:0:
16,128,71489,5,0,0:0:0:0:
24,160,71564,1,10,0:0:0:0:
32,192,71639,1,0,0:0:0:0:
40,224,71714,2,0,L|56:288,1,50,0|0,0:0|0:0,0:0:0:0:
167,338,71864,5,14,0:0:0:0:
203,313,71939,1,0,0:0:0:0:
246,310,72014,1,0,0:0:0:0:
288,328,72089,1,0,0:0:0:0:
329,314,72164,2,0,P|352:296|368:272,1,50,4|0,0:0|0:0,0:0:0:0:
376,160,72314,1,12,0:0:0:0:
326,137,72389,1,0,0:0:0:0:
271,134,72464,1,0,0:0:0:0:
219,152,72539,1,0,0:0:0:0:
175,185,72614,2,0,P|155:205|146:240,1,50,4|0,0:0|0:0,0:0:0:0:
96,368,72764,6,0,L|160:352,3,50,14|0|0|0,0:0|0:0|0:0|0:0,0:0:0:0:
272,280,73064,2,0,L|208:264,3,50,14|0|0|0,0:0|0:0|0:0|0:0,0:0:0:0:
112,192,73364,1,8,0:0:0:0:
120,184,73439,1,0,0:0:0:0:
128,176,73514,2,0,L|192:160,3,50,2|0|8|0,0:0|0:0|0:0|0:0,0:0:0:0:
320,128,73814,5,0,0:0:0:0:
328,160,73889,1,0,0:0:0:0:
320,192,73964,2,0,P|304:224|280:248,3,50,10|0|0|0,0:0|0:0|0:0|0:0,0:0:0:0:
216,272,74264,1,12,0:0:0:0:
184,280,74339,1,8,0:0:0:0:
152,288,74414,6,0,L|88:264,1,50,8|8,0:0|0:0,0:0:0:0:
80,144,74564,2,0,L|126:161,1,50,2|2,0:0|0:0,0:0:0:0:
160,296,74714,6,0,L|96:272,1,50,8|8,0:0|0:0,0:0:0:0:
88,152,74864,2,0,L|134:169,1,50,2|2,0:0|0:0,0:0:0:0:
264,216,75014,5,8,0:0:0:0:
264,224,75089,1,8,0:0:0:0:
264,232,75164,1,8,0:0:0:0:
264,240,75239,1,8,0:0:0:0:
264,248,75314,2,0,P|240:248|208:232,1,50,2|2,0:0|0:0,0:0:0:0:
104,88,75464,1,14,0:0:0:0:
69,256,75764,5,14,0:0:0:0:
378,69,75914,1,14,0:0:0:0:
313,350,76064,5,14,0:0:0:0:
162,163,76214,1,14,0:0:0:0:
486,156,76364,5,14,0:0:0:0:
277,292,76514,1,14,0:0:0:0:
54,235,76664,1,14,0:0:0:0:
176,8,76964,5,6,0:0:0:0:
512,312,77264,5,12,0:0:0:0:
0,320,77564,5,14,0:0:0:0:
400,40,77864,6,0,P|424:144|368:240,1,200,6|2,0:0|0:0,0:0:0:0:
112,344,78314,2,0,P|88:240|144:144,1,200,2|0,0:0|0:0,0:0:0:0:
248,224,78764,1,2,0:0:0:0:
248,224,78839,1,0,0:0:0:0:
248,224,78914,1,0,0:0:0:0:
392,320,79064,6,0,B|320:368|232:288|176:344,1,200,6|2,0:0|0:0,0:0:0:0:
184,328,79439,1,0,0:0:0:0:
184,328,79514,1,0,0:0:0:0:
232,152,79664,1,2,0:0:0:0:
392,104,79814,1,0,0:0:0:0:
392,104,79964,2,0,P|416:152|432:240,1,100,2|0,0:0|0:0,0:0:0:0:
200,272,80264,6,0,P|256:304|416:272,1,200,6|2,0:0|0:0,0:0:0:0:
472,184,80714,2,0,L|368:160,1,100,2|2,0:0|0:0,0:0:0:0:
272,184,81014,1,0,0:0:0:0:
200,128,81164,1,2,0:0:0:0:
192,32,81314,1,0,0:0:0:0:
120,120,81464,6,0,B|96:160|96:160|96:240,1,100,6|0,0:0|0:0,0:0:0:0:
176,288,81764,1,2,0:0:0:0:
176,288,81839,1,0,0:0:0:0:
176,288,81914,1,0,0:0:0:0:
248,224,82064,1,2,0:0:0:0:
312,296,82214,1,0,0:0:0:0:
384,224,82364,2,0,P|400:168|376:112,1,100,2|0,0:0|0:0,0:0:0:0:
88,64,82664,6,0,P|56:136|72:192,1,100,6|0,0:0|0:0,0:0:0:0:
104,208,82964,1,2,0:0:0:0:
344,280,83114,6,0,P|376:208|360:152,1,100,2|2,0:0|0:0,0:0:0:0:
328,136,83414,1,0,0:0:0:0:
216,184,83564,1,2,0:0:0:0:
216,184,83639,1,0,0:0:0:0:
216,184,83714,1,0,0:0:0:0:
96,56,83864,6,0,P|152:48|224:72,1,100,6|0,0:0|0:0,0:0:0:0:
240,104,84164,1,2,0:0:0:0:
232,296,84314,6,0,P|176:304|104:280,1,100,2|2,0:0|0:0,0:0:0:0:
88,248,84614,1,2,0:0:0:0:
72,344,84764,6,0,P|120:368|184:368,1,100,2|0,0:0|0:0,0:0:0:0:
384,328,85064,2,0,P|339:305|290:300,1,100,6|0,0:0|0:0,0:0:0:0:
200,304,85364,1,2,0:0:0:0:
200,304,85439,1,0,0:0:0:0:
200,304,85514,1,2,0:0:0:0:
152,232,85664,1,2,0:0:0:0:
240,232,85814,1,0,0:0:0:0:
192,152,85964,1,2,0:0:0:0:
280,152,86114,1,0,0:0:0:0:
240,72,86264,6,0,L|256:24,3,50,12|8|8|8,0:0|0:0|0:0|0:0,0:0:0:0:
160,64,86564,2,0,L|176:112,3,50,8|8|8|8,0:0|0:0|0:0|0:0,0:0:0:0:
160,184,86864,5,2,0:0:0:0:
190,191,86939,1,2,0:0:0:0:
221,198,87014,1,2,0:0:0:0:
253,205,87089,1,2,0:0:0:0:
272,192,87164,5,2,0:0:0:0:
283,182,87239,1,2,0:0:0:0:
296,172,87314,1,2,0:0:0:0:
309,163,87389,1,2,0:0:0:0:
296,136,87464,6,0,L|176:120,1,100,6|8,0:0|0:0,0:0:0:0:
128,240,87764,1,2,0:0:0:0:
128,240,87839,1,2,0:0:0:0:
128,240,87914,2,0,P|68:249|5:299,2,100,8|2|8,0:0|0:0|0:0,0:0:0:0:
328,232,88364,1,2,0:0:0:0:
328,232,88439,1,2,0:0:0:0:
328,232,88514,1,8,0:0:0:0:
384,64,88664,6,0,P|440:56|504:96,2,100,6|8|2,0:0|0:0|0:0,0:0:0:0:
384,64,89039,1,0,0:0:0:0:
384,64,89114,1,8,0:0:0:0:
320,160,89264,1,2,0:0:0:0:
200,160,89414,1,8,0:0:0:0:
288,256,89564,1,2,0:0:0:0:
288,256,89639,1,2,0:0:0:0:
288,256,89714,1,8,0:0:0:0:
344,200,89864,6,0,L|464:184,1,100,6|8,0:0|0:0,0:0:0:0:
488,128,90164,1,2,0:0:0:0:
336,32,90314,2,0,L|320:144,1,100,8|2,0:0|0:0,0:0:0:0:
344,200,90614,1,8,0:0:0:0:
416,304,90764,1,2,0:0:0:0:
416,304,90839,1,2,0:0:0:0:
416,304,90914,1,8,0:0:0:0:
416,200,91064,6,0,P|392:112|312:40,1,200,6|2,0:0|0:0,0:0:0:0:
288,160,91514,2,0,P|316:254|390:319,1,200,2|0,0:0|0:0,0:0:0:0:
440,216,91964,1,2,0:0:0:0:
440,216,92039,1,2,0:0:0:0:
440,216,92114,1,8,0:0:0:0:
400,80,92264,6,0,L|328:64,3,50,14|0|0|0,0:0|0:0|0:0|0:0,0:0:0:0:
280,120,92564,2,0,L|231:130,3,50,10|0|0|0,0:0|0:0|0:0|0:0,0:0:0:0:
176,72,92864,2,0,L|127:61,3,50,10|0|0|0,0:0|0:0|0:0|0:0,0:0:0:0:
56,152,93164,5,10,0:0:0:0:
40,184,93239,1,0,0:0:0:0:
45,215,93314,2,0,P|56:237|90:253,1,50
184,320,93464,2,0,P|200:312|248:304,3,50,14|0|0|0,0:0|0:0|0:0|0:0,0:0:0:0:
360,296,93764,2,0,P|344:272|312:248,1,50,10|0,0:0|0:0,0:0:0:0:
256,192,93914,1,2,0:0:0:0:
216,176,93989,1,0,0:0:0:0:
176,184,94064,2,0,P|144:184|112:192,3,50,10|0|0|0,0:0|0:0|0:0|0:0,0:0:0:0:
232,256,94364,2,0,P|256:251|281:252,3,50,10|0|0|0,0:0|0:0|0:0|0:0,0:0:0:0:
424,160,94664,5,12,0:0:0:0:
384,152,94739,1,8,0:0:0:0:
344,144,94814,1,8,0:0:0:0:
304,136,94889,1,8,0:0:0:0:
264,128,94964,2,0,L|176:112,1,50,2|2,0:0|0:0,0:0:0:0:
72,144,95114,5,8,0:0:0:0:
72,144,95189,1,8,0:0:0:0:
72,144,95264,2,0,P|80:168|96:192,1,50,8|8,0:0|0:0,0:0:0:0:
96,272,95414,2,0,P|120:288|152:296,1,50,2|2,0:0|0:0,0:0:0:0:
328,256,95564,6,0,P|304:248|272:248,1,50,2|2,0:0|0:0,0:0:0:0:
96,264,95714,2,0,P|120:272|168:264,1,50,2|2,0:0|0:0,0:0:0:0:
376,208,95864,5,14,0:0:0:0:
256,192,95939,12,0,96914,0:0:0:0:
72,136,97064,6,0,P|144:104|248:112,1,160,6|2,0:0|0:0,0:0:0:0:
256,120,97439,1,0,0:0:0:0:
288,136,97514,1,0,0:0:0:0:
248,244,97664,1,2,0:0:0:0:
192,164,97814,1,0,0:0:0:0:
336,192,97964,2,0,B|304:304,1,80,2|0,0:0|0:0,0:0:0:0:
256,120,98264,2,0,B|277:43,1,80,6|0,0:0|0:0,0:0:0:0:
368,136,98564,1,2,0:0:0:0:
368,136,98639,1,0,0:0:0:0:
368,136,98714,6,0,P|392:184|344:272,1,160,2|0,0:0|0:0,0:0:0:0:
232,272,99164,2,0,L|128:256,1,80,2|0,0:0|0:0,0:0:0:0:
56,224,99464,2,0,P|53:146|115:100,1,160,6|2,0:0|0:0,0:0:0:0:
184,136,99914,2,0,B|256:160|256:160|344:136,1,160,2|0,0:0|0:0,0:0:0:0:
368,64,100364,5,2,0:0:0:0:
368,64,100439,1,0,0:0:0:0:
368,64,100514,1,0,0:0:0:0:
456,160,100664,1,6,0:0:0:0:
376,272,100814,1,0,0:0:0:0:
248,232,100964,1,2,0:0:0:0:
248,232,101039,1,0,0:0:0:0:
248,232,101114,1,0,0:0:0:0:
256,96,101264,6,0,P|192:112|136:200,1,160,2|2,0:0|0:0,0:0:0:0:
232,312,101714,1,0,0:0:0:0:
304,224,101864,2,0,L|352:208,3,40,14|0|0|0,0:0|0:0|0:0|0:0,0:0:0:0:
376,136,102164,1,10,0:0:0:0:
376,136,102239,1,0,0:0:0:0:
376,136,102314,2,0,L|328:120,3,40,2|0|8|0,0:0|0:0|0:0|0:0,0:0:0:0:
256,96,102614,5,2,0:0:0:0:
224,104,102689,1,0,0:0:0:0:
192,112,102764,1,8,0:0:0:0:
160,120,102839,1,0,0:0:0:0:
128,128,102914,2,0,L|88:136,1,40,0|0,0:0|0:0,0:0:0:0:
32,232,103064,2,0,L|69:244,3,40,14|0|0|0,0:0|0:0|0:0|0:0,0:0:0:0:
128,312,103364,1,8,0:0:0:0:
128,312,103439,1,0,0:0:0:0:
128,312,103514,2,0,L|165:299,3,40,2|0|8|0,0:0|0:0|0:0|0:0,0:0:0:0:
264,296,103814,5,2,0:0:0:0:
296,280,103889,1,0,0:0:0:0:
320,256,103964,1,8,0:0:0:0:
336,224,104039,1,0,0:0:0:0:
344,192,104114,2,0,P|344:168|336:152,1,40,0|0,0:0|0:0,0:0:0:0:
248,72,104264,5,14,0:0:0:0:
232,88,104339,1,0,0:0:0:0:
216,112,104414,1,0,0:0:0:0:
208,136,104489,1,0,0:0:0:0:
208,160,104564,1,10,0:0:0:0:
216,184,104639,1,0,0:0:0:0:
232,200,104714,1,0,0:0:0:0:
256,216,104789,1,0,0:0:0:0:
288,216,104864,5,10,0:0:0:0:
320,200,104939,1,0,0:0:0:0:
336,168,105014,1,0,0:0:0:0:
336,136,105089,1,0,0:0:0:0:
320,112,105164,1,10,0:0:0:0:
288,96,105239,1,0,0:0:0:0:
256,96,105314,2,0,P|240:100|220:115,1,40
152,232,105464,6,0,L|224:240,1,40,8|8,0:0|0:0,0:0:0:0:
320,208,105614,2,0,L|248:200,1,40,8|8,0:0|0:0,0:0:0:0:
160,240,105764,6,0,L|232:248,1,40,2|2,1:3|1:3,1:3:0:0:
328,216,105914,2,0,L|256:208,1,40,2|2,1:3|1:3,1:3:0:0:
168,168,106064,5,6,1:3:0:0:
147,148,106139,1,6,1:3:0:0:
138,121,106214,1,6,1:3:0:0:
142,93,106289,1,6,1:3:0:0:
157,69,106364,1,10,1:3:0:0:
182,57,106439,1,10,1:3:0:0:
209,57,106514,1,10,1:3:0:0:
234,69,106589,1,10,1:3:0:0:
256,88,106664,6,0,P|271:141|234:243,1,160,6|2,0:0|0:0,0:0:0:0:
226,250,107039,1,0,0:0:0:0:
207,266,107114,1,0,0:0:0:0:
72,312,107264,1,2,0:0:0:0:
112,168,107414,1,0,0:0:0:0:
256,88,107564,2,0,L|336:96,1,80,2|2,0:0|0:0,0:0:0:0:
416,184,107864,2,0,P|392:240|280:264,1,160,6|2,0:0|0:0,0:0:0:0:
184,256,108314,2,0,L|168:80,1,160,2|0,0:0|0:0,0:0:0:0:
288,128,108764,5,2,0:0:0:0:
288,128,108839,1,0,0:0:0:0:
288,128,108914,1,0,0:0:0:0:
392,80,109064,2,0,P|354:38|240:24,1,160,6|2,0:0|0:0,0:0:0:0:
184,144,109514,2,0,P|232:205|309:225,1,160,2|0,0:0|0:0,0:0:0:0:
288,128,109964,1,2,0:0:0:0:
288,128,110039,1,0,0:0:0:0:
288,128,110114,1,0,0:0:0:0:
144,64,110264,6,0,L|128:248,1,160,6|2,0:0|0:0,0:0:0:0:
131,242,110639,1,0,0:0:0:0:
131,242,110714,1,0,0:0:0:0:
208,200,110864,1,2,0:0:0:0:
64,88,111014,1,0,0:0:0:0:
240,72,111164,2,0,B|288:104|280:168,1,80,2|2,0:0|0:0,0:0:0:0:
280,264,111464,5,8,0:0:0:0:
250,270,111539,1,8,0:0:0:0:
220,271,111614,1,8,0:0:0:0:
191,266,111689,1,8,0:0:0:0:
163,255,111764,2,0,P|137:244|119:227,1,40,2|2,0:0|0:0,0:0:0:0:
40,112,111914,1,8,0:0:0:0:
76,97,111989,1,8,0:0:0:0:
116,90,112064,1,8,0:0:0:0:
156,88,112139,1,8,0:0:0:0:
196,93,112214,2,0,P|218:96|237:105,1,40,2|2,0:0|0:0,0:0:0:0:
360,160,112364,5,8,0:0:0:0:
339,206,112439,1,8,0:0:0:0:
318,252,112514,2,0,L|296:306,1,40,2|2,0:0|0:0,0:0:0:0:
264,383,112664,5,14,0:0:0:0:
128,64,113864,6,0,B|192:48|248:88,1,100,6|0,0:0|0:0,0:0:0:0:
248,168,114164,1,2,0:0:0:0:
248,168,114239,1,0,0:0:0:0:
248,168,114314,1,0,0:0:0:0:
224,264,114464,1,2,0:0:0:0:
136,312,114614,1,0,0:0:0:0:
320,288,114764,2,0,P|368:264|408:208,1,100,2|0,0:0|0:0,0:0:0:0:
344,144,115064,6,0,L|208:128,1,100,6|0,0:0|0:0,0:0:0:0:
168,192,115364,1,2,0:0:0:0:
168,192,115439,1,0,0:0:0:0:
168,192,115514,1,0,0:0:0:0:
288,232,115664,1,2,0:0:0:0:
160,256,115814,1,0,0:0:0:0:
280,312,115964,2,0,L|464:304,1,150,2|0,0:0|0:0,0:0:0:0:
472,256,116264,6,0,B|424:232|424:232|345:236,1,100,6|0,0:0|0:0,0:0:0:0:
312,184,116564,1,2,0:0:0:0:
360,120,116714,1,0,0:0:0:0:
280,112,116864,2,0,L|224:120,3,50,2|0|0|0,0:0|0:0|0:0|0:0,0:0:0:0:
168,80,117164,2,0,L|112:72,3,50,2|0|0|0,0:0|0:0|0:0|0:0,0:0:0:0:
64,104,117464,1,6,0:0:0:0:
52,253,117614,1,0,0:0:0:0:
153,367,117764,1,2,0:0:0:0:
260,248,117914,6,0,B|330:179|330:179|352:72,1,200,2|0,0:0|0:0,0:0:0:0:
240,112,118364,1,2,0:0:0:0:
240,112,118439,1,0,0:0:0:0:
240,112,118514,1,0,0:0:0:0:
80,200,118664,6,0,L|179:207,1,100,6|2,0:0|0:0,0:0:0:0:
344,304,118964,1,2,0:0:0:0:
344,304,119114,2,0,B|295:309|295:309|200:296|200:296|111:307,1,200,2|2,0:0|0:0,0:0:0:0:
96,240,119564,1,2,0:0:0:0:
96,240,119639,1,0,0:0:0:0:
96,240,119714,1,0,0:0:0:0:
200,184,119864,5,6,0:0:0:0:
224,64,120014,1,2,0:0:0:0:
312,144,120164,5,2,0:0:0:0:
304,344,120314,2,0,P|240:336|192:296,1,100,2|2,0:0|0:0,0:0:0:0:
304,240,120614,2,0,P|347:216|397:213,1,100,2|2,0:0|0:0,0:0:0:0:
397,213,120839,1,2,0:0:0:0:
397,213,120914,1,2,0:0:0:0:
344,332,121064,6,0,L|280:324,3,50,6|0|0|0,0:0|0:0|0:0|0:0,0:0:0:0:
252,251,121364,1,2,0:0:0:0:
268,247,121439,1,0,0:0:0:0:
286,244,121514,1,2,0:0:0:0:
304,240,121589,1,0,0:0:0:0:
376,208,121664,2,0,L|425:214,3,50,6|0|0|0,0:0|0:0|0:0|0:0,0:0:0:0:
392,128,121964,1,2,0:0:0:0:
368,104,122039,1,0,0:0:0:0:
336,88,122114,2,0,P|304:80|280:80,1,50,2|0,0:0|0:0,0:0:0:0:
144,162,122264,5,14,0:0:0:0:
192,186,122339,1,8,0:0:0:0:
245,195,122414,1,8,0:0:0:0:
297,180,122489,1,8,0:0:0:0:
348,167,122564,1,10,0:0:0:0:
396,183,122639,1,8,0:0:0:0:
412,231,122714,1,8,0:0:0:0:
380,271,122789,1,8,0:0:0:0:
328,272,122864,1,10,0:0:0:0:
288,240,122939,1,8,0:0:0:0:
240,232,123014,1,8,0:0:0:0:
192,248,123089,1,8,0:0:0:0:
152,280,123164,2,0,P|128:280|96:264,3,50,10|8|8|8,0:0|0:0|0:0|0:0,0:0:0:0:
40,224,123464,6,0,P|96:192|166:223,1,100,6|0,0:0|0:0,0:0:0:0:
224,280,123764,1,2,0:0:0:0:
224,280,123839,1,0,0:0:0:0:
224,280,123914,2,0,L|280:296,1,50,2|0,0:0|0:0,0:0:0:0:
352,264,124064,2,0,L|328:328,1,50,2|0,0:0|0:0,0:0:0:0:
376,200,124214,2,0,L|424:216,1,50,2|0,0:0|0:0,0:0:0:0:
328,128,124364,2,0,L|309:174,3,50,2|0|2|0,0:0|0:0|0:0|0:0,0:0:0:0:
256,224,124664,6,0,P|192:232|128:208,1,100,6|0,0:0|0:0,0:0:0:0:
80,120,124964,1,2,0:0:0:0:
80,120,125039,1,0,0:0:0:0:
80,120,125114,1,0,0:0:0:0:
192,112,125264,1,2,0:0:0:0:
64,240,125414,1,2,0:0:0:0:
224,224,125564,2,0,P|288:224|376:160,1,150,2|6,0:0|0:0,0:0:0:0:
392,120,125864,6,0,L|312:104,1,50
192,136,126014,2,0,L|241:145,1,50
448,96,126164,5,0,0:0:0:0:
440,104,126239,1,0,0:0:0:0:
432,112,126314,2,0,L|352:96,1,50
192,96,126464,6,0,L|272:112,1,50
296,200,126614,2,0,L|312:144,1,50
224,264,126764,2,0,L|296:288,3,50
288,344,127064,5,6,0:0:0:0:
448,232,127214,1,0,0:0:0:0:
352,56,127364,1,2,0:0:0:0:
160,152,127514,6,0,P|256:152|336:216,1,200,2|0,0:0|0:0,0:0:0:0:
208,288,127964,1,2,0:0:0:0:
208,288,128039,1,0,0:0:0:0:
208,288,128114,1,0,0:0:0:0:
104,184,128264,2,0,P|93:152|124:89,2,100,6|0|2,0:0|0:0|0:0,0:0:0:0:
208,288,128714,1,0,0:0:0:0:
208,288,128789,1,0,0:0:0:0:
208,288,128864,1,2,0:0:0:0:
336,216,129014,5,0,0:0:0:0:
280,72,129164,1,2,0:0:0:0:
336,216,129314,1,0,0:0:0:0:
160,96,129464,1,2,0:0:0:0:
336,216,129614,6,0,P|328:288|208:328,1,200,2|2,0:0|0:0,0:0:0:0:
208,328,129989,1,2,0:0:0:0:
208,328,130064,1,2,0:0:0:0:
96,220,130214,1,2,0:0:0:0:
160,96,130364,2,0,L|304:104,1,100,2|0,0:0|0:0,0:0:0:0:
422,217,130664,5,8,0:0:0:0:
398,265,130739,1,8,0:0:0:0:
358,305,130814,1,8,0:0:0:0:
310,329,130889,1,8,0:0:0:0:
257,331,130964,2,0,P|225:331|177:315,1,50,2|2,0:0|0:0,0:0:0:0:
142,101,131114,1,8,0:0:0:0:
174,133,131189,1,8,0:0:0:0:
183,177,131264,2,0,P|191:201|183:241,1,50,2|2,0:0|0:0,0:0:0:0:
76,346,131414,5,8,0:0:0:0:
58,297,131489,1,8,0:0:0:0:
78,242,131564,1,8,0:0:0:0:
118,194,131639,1,8,0:0:0:0:
183,177,131714,2,0,P|209:169|248:175,1,50,2|2,0:0|0:0,0:0:0:0:
324,178,131864,5,12,3:3:0:0:
0,0,132189,1,6,3:3:0:0:
32,256,132464,5,4,3:3:0:0:
352,88,132689,5,2,3:3:0:0:
152,352,132914,5,8,3:3:0:0:
424,288,133064,5,14,3:3:0:0:
464,304,135464,6,0,L|344:312,1,120.000004577637,6|2,0:0|0:0,0:0:0:0:
296,256,135914,1,2,0:0:0:0:
368,240,136064,2,0,P|357:181|315:139,1,120.000004577637,2|2,0:0|0:0,0:0:0:0:
248,168,136514,1,2,0:0:0:0:
296,256,136664,1,6,0:0:0:0:
408,64,136964,2,0,L|264:80,1,120.000004577637,2|2,0:0|0:0,0:0:0:0:
88,160,137414,1,0,0:0:0:0:
88,160,137564,2,0,L|168:176,1,60.0000022888184,2|2,0:0|0:0,0:0:0:0:
376,208,137864,6,0,P|360:272|304:296,1,120.000004577637,6|2,0:0|0:0,0:0:0:0:
146,171,138464,2,0,P|154:211|186:235,1,60.0000022888184,2|0,0:0|0:0,0:0:0:0:
320,152,138764,1,2,0:0:0:0:
320,152,138914,1,2,0:0:0:0:
288,80,139064,2,0,L|160:96,1,120.000004577637,6|0,0:0|0:0,0:0:0:0:
184,296,139664,2,0,L|264:312,1,60.0000022888184,2|0,0:0|0:0,0:0:0:0:
160,224,139964,2,0,L|80:240,1,60.0000022888184,2|0,0:0|0:0,0:0:0:0:
192,304,140264,6,0,P|256:312|320:280,1,120.000004577637,6|2,0:0|0:0,0:0:0:0:
440,96,140864,2,0,B|400:120|376:80|312:112,1,120.000004577637,2|2,0:0|0:0,0:0:0:0:
264,72,141314,1,2,0:0:0:0:
272,248,141464,1,8,0:0:0:0:
272,248,141539,1,8,0:0:0:0:
272,248,141614,2,0,L|192:240,1,50,2|2,0:0|0:0,0:0:0:0:
64,168,141764,2,0,L|144:176,1,50,8|8,0:0|0:0,0:0:0:0:
264,240,141914,6,0,L|214:234,1,50,2|2,0:0|0:0,0:0:0:0:
56,160,142064,2,0,L|105:165,1,50,2|2,0:0|0:0,0:0:0:0:
224,160,142214,5,8,0:0:0:0:
252,165,142289,1,8,0:0:0:0:
272,184,142364,1,8,0:0:0:0:
280,216,142439,1,8,0:0:0:0:
272,248,142514,2,0,P|267:272|244:296,1,50,2|2,0:0|0:0,0:0:0:0:
168,352,142664,5,14,0:0:0:0:
256,192,142739,12,14,143864,0:0:0:0:
72,304,145064,6,0,L|192:288,1,100,6|0,0:0|0:0,0:0:0:0:
432,272,145364,2,0,B|384:232|304:264,1,100,2|2,0:0|0:0,0:0:0:0:
312,152,145664,2,0,B|412:126|512:192,1,200,2|2,0:0|0:0,0:0:0:0:
503,186,146039,1,0,0:0:0:0:
503,186,146114,1,2,0:0:0:0:
432,288,146264,2,0,L|288:272,1,100,6|2,0:0|0:0,0:0:0:0:
228,244,146564,1,2,0:0:0:0:
308,180,146714,1,2,0:0:0:0:
332,276,146864,6,0,B|236:324|140:276,1,200,2|2,0:0|0:0,0:0:0:0:
136,272,147239,1,0,0:0:0:0:
136,272,147314,1,2,0:0:0:0:
140,108,147464,2,0,B|240:80|240:80|332:108,1,200,6|2,0:0|0:0,0:0:0:0:
376,224,147914,2,0,P|360:264|312:296,1,100,2|2,0:0|0:0,0:0:0:0:
240,184,148214,1,0,0:0:0:0:
240,184,148364,1,2,0:0:0:0:
141,274,148514,1,0,0:0:0:0:
141,274,148664,6,0,P|222:326|314:295,1,200,6|2,0:0|0:0,0:0:0:0:
314,295,149039,1,0,0:0:0:0:
314,295,149114,1,0,0:0:0:0:
432,192,149264,1,2,0:0:0:0:
336,80,149414,1,0,0:0:0:0:
216,176,149564,1,2,0:0:0:0:
320,296,149714,1,0,0:0:0:0:
401,118,149864,6,0,B|303:124|303:124|188:191,1,200,6|2,0:0|0:0,0:0:0:0:
176,264,150314,1,2,0:0:0:0:
96,192,150464,2,0,B|104:80|104:80|144:0,1,200,2|2,0:0|0:0,0:0:0:0:
143,2,150839,1,0,0:0:0:0:
143,2,150914,1,2,0:0:0:0:
240,136,151064,1,2,0:0:0:0:
240,136,151214,2,0,B|232:248|232:248|192:326,1,200,6|2,0:0|0:0,0:0:0:0:
160,168,151664,1,2,0:0:0:0:
180,71,151814,1,0,0:0:0:0:
290,73,151964,1,2,0:0:0:0:
313,173,152114,1,0,0:0:0:0:
235,239,152264,6,0,P|184:245|110:206,1,100,6|0,0:0|0:0,0:0:0:0:
75,143,152564,1,2,0:0:0:0:
75,143,152639,1,0,0:0:0:0:
75,143,152714,1,2,0:0:0:0:
184,136,152864,2,0,P|231:120|280:127,1,100,2|0,0:0|0:0,0:0:0:0:
336,208,153164,1,2,0:0:0:0:
336,208,153239,1,0,0:0:0:0:
336,208,153314,1,0,0:0:0:0:
280,280,153464,6,0,B|248:288|248:288|200:280,2,66.6666666666667,14|8|8,0:0|0:0|0:0,0:0:0:0:
336,208,153764,2,0,B|368:216|368:216|416:208,2,66.6666666666667,10|8|8,0:0|0:0|0:0,0:0:0:0:
264,136,154064,2,0,L|208:136,7,50,10|8|8|8|10|8|8|8,0:0|0:0|0:0|0:0|0:0|0:0|0:0|0:0,0:0:0:0:
104,184,154664,5,14,0:0:0:0:
104,200,154739,1,0,0:0:0:0:
104,216,154814,2,0,P|128:240|144:248,3,50,2|0|8|0,0:0|0:0|0:0|0:0,0:0:0:0:
312,272,155114,1,2,0:0:0:0:
296,240,155189,1,0,0:0:0:0:
272,216,155264,1,8,0:0:0:0:
240,200,155339,1,0,0:0:0:0:
208,192,155414,2,0,P|184:184|152:184,1,50
72,272,155564,5,10,0:0:0:0:
112,280,155639,1,0,0:0:0:0:
152,288,155714,2,0,L|224:304,1,50
336,288,155864,6,2,B|328:264|305:238,3,50,8|0|0|0,0:0|0:0|0:0|0:0,0:0:0:0:
192,144,156164,1,10,0:0:0:0:
232,136,156239,1,0,0:0:0:0:
272,152,156314,2,0,P|303:159|352:195,3,50,2|0|8|0,0:0|0:0|0:0|0:0,0:0:0:0:
424,264,156614,1,0,0:0:0:0:
424,264,156689,1,0,0:0:0:0:
424,264,156764,2,0,B|432:240|432:240|424:200,3,50,10|0|0|0,0:0|0:0|0:0|0:0,0:0:0:0:
384,80,157064,5,14,0:0:0:0:
369,124,157139,1,0,0:0:0:0:
334,155,157214,1,0,0:0:0:0:
288,165,157289,1,0,0:0:0:0:
247,151,157364,2,0,P|223:135|210:117,1,50,4|0,0:0|0:0,0:0:0:0:
120,48,157514,5,14,0:0:0:0:
88,88,157589,1,0,0:0:0:0:
72,136,157664,1,0,0:0:0:0:
72,184,157739,1,0,0:0:0:0:
88,232,157814,2,0,P|102:256|133:274,1,50,4|0,0:0|0:0,0:0:0:0:
288,280,157964,2,0,L|360:264,3,50,14|0|0|0,0:0|0:0|0:0|0:0,0:0:0:0:
400,256,158264,5,0,0:0:0:0:
288,24,158414,5,2,0:0:0:0:
104,240,158639,5,8,0:0:0:0:
448,256,158864,5,4,0:0:0:0:
224,32,159089,5,2,0:0:0:0:
136,304,159314,5,0,0:0:0:0:
256,136,159464,6,0,B|256:160|256:160|232:192,3,50,14|0|0|0,0:0|0:0|0:0|0:0,0:0:0:0:
144,248,159764,5,10,0:0:0:0:
144,248,159839,1,0,0:0:0:0:
144,248,159914,2,0,B|144:272|144:272|168:304,3,50,2|0|8|0,0:0|0:0|0:0|0:0,0:0:0:0:
312,256,160214,1,0,0:0:0:0:
293,227,160289,1,0,0:0:0:0:
275,199,160364,2,0,L|252:153,3,50,10|0|0|0,0:0|0:0|0:0|0:0,0:0:0:0:
168,216,160664,5,14,0:0:0:0:
152,248,160739,1,0,0:0:0:0:
152,280,160814,1,0,0:0:0:0:
168,312,160889,1,0,0:0:0:0:
192,336,160964,1,10,0:0:0:0:
224,344,161039,1,0,0:0:0:0:
256,336,161114,2,0,B|283:325|283:325|301:313,3,50,2|0|8|0,0:0|0:0|0:0|0:0,0:0:0:0:
328,208,161414,5,2,0:0:0:0:
312,216,161489,1,0,0:0:0:0:
296,224,161564,1,8,0:0:0:0:
280,232,161639,1,0,0:0:0:0:
264,244,161714,2,0,P|242:232|222:203,1,50,0|0,0:0|0:0,0:0:0:0:
136,72,161864,1,14,0:0:0:0:
217,359,162164,5,14,0:0:0:0:
293,23,162314,1,14,0:0:0:0:
87,153,162464,1,14,0:0:0:0:
423,229,162614,1,14,0:0:0:0:
119,285,162764,5,14,0:0:0:0:
414,98,162914,1,14,0:0:0:0:
90,91,163064,1,14,0:0:0:0:
440,96,163364,5,6,0:0:0:0:
96,304,163664,5,12,0:0:0:0:
448,304,163964,5,14,0:0:0:0:
160,80,164264,6,0,P|128:128|176:280,1,200,6|2,0:0|0:0,0:0:0:0:
352,304,164714,2,0,P|384:256|336:104,1,200,2|0,0:0|0:0,0:0:0:0:
256,200,165164,1,2,0:0:0:0:
256,200,165239,1,0,0:0:0:0:
256,200,165314,1,2,0:0:0:0:
158,301,165464,6,0,B|201:266|289:346|361:298,1,200,6|2,0:0|0:0,0:0:0:0:
408,144,165914,1,0,0:0:0:0:
240,176,166064,1,2,0:0:0:0:
351,303,166214,1,0,0:0:0:0:
408,144,166364,2,0,B|360:128|360:128|272:136,1,100,2|0,0:0|0:0,0:0:0:0:
56,216,166664,6,0,B|160:200|160:200|264:224,1,200,6|2,0:0|0:0,0:0:0:0:
392,272,167114,2,0,P|416:176|360:88,1,200,2|0,0:0|0:0,0:0:0:0:
216,104,167564,1,2,0:0:0:0:
216,104,167639,1,0,0:0:0:0:
216,104,167714,1,0,0:0:0:0:
128,224,167864,2,0,B|168:264|240:264,1,100,6|2,0:0|0:0,0:0:0:0:
328,216,168164,1,2,0:0:0:0:
216,168,168314,1,0,0:0:0:0:
328,136,168464,1,2,0:0:0:0:
216,88,168614,1,0,0:0:0:0:
336,64,168764,2,0,P|384:120|376:232,1,150,2|0,0:0|0:0,0:0:0:0:
360,256,169064,6,0,B|304:272|304:272|216:264,1,100,6|0,0:0|0:0,0:0:0:0:
208,224,169364,1,2,0:0:0:0:
184,32,169514,6,0,B|240:16|240:16|328:24,1,100,2|2,0:0|0:0,0:0:0:0:
336,64,169814,1,0,0:0:0:0:
208,224,169964,6,0,B|152:208|152:208|113:160,2,100,2|2|6,0:0|0:0|0:0,0:0:0:0:
328,200,170414,1,0,0:0:0:0:
272,64,170564,1,2,0:0:0:0:
128,104,170714,2,0,P|96:168|144:296,1,200,2|0,0:0|0:0,0:0:0:0:
248,192,171164,1,2,0:0:0:0:
248,192,171239,1,0,0:0:0:0:
248,192,171314,1,0,0:0:0:0:
384,280,171464,6,0,P|416:216|368:88,1,200,6|2,0:0|0:0,0:0:0:0:
264,24,171914,2,0,P|232:72|312:208,1,200,2|0,0:0|0:0,0:0:0:0:
384,104,172364,1,2,0:0:0:0:
384,104,172439,1,0,0:0:0:0:
384,104,172514,1,0,0:0:0:0:
264,24,172664,6,0,L|200:32,3,50,8|8|8|8,0:0|0:0|0:0|0:0,0:0:0:0:
184,96,172964,2,0,L|134:89,3,50,8|8|8|8,0:0|0:0|0:0|0:0,0:0:0:0:
80,152,173264,1,2,0:0:0:0:
75,162,173339,1,2,0:0:0:0:
71,172,173414,1,2,0:0:0:0:
67,183,173489,1,2,0:0:0:0:
112,240,173564,1,2,0:0:0:0:
117,250,173639,1,2,0:0:0:0:
121,260,173714,1,2,0:0:0:0:
125,271,173789,1,2,0:0:0:0:
160,288,173864,6,0,B|200:320|200:320|264:320,1,100,6|8,0:0|0:0,0:0:0:0:
384,248,174164,1,2,0:0:0:0:
384,248,174239,1,2,0:0:0:0:
384,248,174314,2,0,L|400:136,2,100,8|2|8,0:0|0:0|0:0,0:0:0:0:
216,224,174764,1,2,0:0:0:0:
216,224,174839,1,2,0:0:0:0:
216,224,174914,1,8,0:0:0:0:
168,320,175064,6,0,P|216:336|264:320,2,100,6|8|2,0:0|0:0|0:0,0:0:0:0:
168,320,175439,1,2,0:0:0:0:
168,320,175514,1,10,0:0:0:0:
216,248,175664,1,2,0:0:0:0:
336,208,175814,1,8,0:0:0:0:
256,128,175964,1,2,0:0:0:0:
256,128,176039,1,2,0:0:0:0:
256,128,176114,1,8,0:0:0:0:
408,184,176264,6,0,P|400:256|360:288,1,100,6|8,0:0|0:0,0:0:0:0:
320,288,176564,1,2,0:0:0:0:
104,200,176714,6,0,P|112:128|152:96,1,100,8|2,0:0|0:0,0:0:0:0:
192,96,177014,1,8,0:0:0:0:
256,192,177164,1,2,0:0:0:0:
256,192,177239,1,2,0:0:0:0:
256,192,177314,1,8,0:0:0:0:
160,304,177464,6,0,B|228:350|316:270|351:311,1,200,6|2,0:0|0:0,0:0:0:0:
424,216,177914,2,0,P|398:139|290:99,1,200,2|2,0:0|0:0,0:0:0:0:
216,192,178364,1,2,0:0:0:0:
216,192,178439,1,2,0:0:0:0:
216,192,178514,1,8,0:0:0:0:
424,216,178664,6,0,B|399:200|399:200|343:201,3,50,14|0|0|0,0:0|0:0|0:0|0:0,0:0:0:0:
344,265,178964,2,0,B|320:281|320:281|299:281,3,50,10|0|0|0,0:0|0:0|0:0|0:0,0:0:0:0:
279,210,179264,2,0,B|254:194|254:194|198:195,3,50,10|0|0|0,0:0|0:0|0:0|0:0,0:0:0:0:
216,267,179564,2,0,B|192:283|192:283|171:283,3,50,10|0|0|0,0:0|0:0|0:0|0:0,0:0:0:0:
176,136,179864,5,14,0:0:0:0:
176,136,179939,1,0,0:0:0:0:
176,136,180014,2,0,L|248:185,1,50,2|0,0:0|0:0,0:0:0:0:
328,248,180164,1,10,0:0:0:0:
328,248,180239,1,0,0:0:0:0:
328,248,180314,2,0,L|273:208,1,50
232,64,180464,5,10,0:0:0:0:
232,64,180539,1,0,0:0:0:0:
232,64,180614,2,0,L|259:131,1,50
272,320,180764,1,10,0:0:0:0:
272,320,180839,1,0,0:0:0:0:
272,320,180914,2,0,L|246:246,1,50,2|0,0:0|0:0,0:0:0:0:
232,64,181064,5,12,0:0:0:0:
200,80,181139,1,8,0:0:0:0:
184,112,181214,2,0,P|170:136|168:160,1,50,2|2,0:0|0:0,0:0:0:0:
248,240,181364,1,8,0:0:0:0:
272,248,181439,1,8,0:0:0:0:
296,248,181514,1,8,0:0:0:0:
320,240,181589,1,8,0:0:0:0:
344,224,181664,6,0,L|376:176,1,50,8|8,1:3|1:3,1:3:0:0:
328,80,181814,2,0,L|300:121,1,50,8|4,1:3|1:3,1:3:0:0:
280,248,181964,6,0,L|312:200,1,50,4|4,1:3|1:3,1:3:0:0:
264,104,182114,2,0,L|236:145,1,50,2|2,1:3|1:3,1:3:0:0:
152,256,182264,5,14,0:0:0:0:
256,192,182339,12,0,183314,0:0:0:0:
72,192,183464,6,0,P|88:272|184:320,1,160,6|2,0:0|0:0,0:0:0:0:
176,320,183839,1,0,0:0:0:0:
200,312,183914,1,0,0:0:0:0:
264,208,184064,1,2,0:0:0:0:
352,288,184214,1,0,0:0:0:0:
400,136,184364,2,0,P|360:104|312:96,1,80,2|0,0:0|0:0,0:0:0:0:
144,216,184664,2,0,P|184:248|232:256,1,80,6|0,0:0|0:0,0:0:0:0:
408,144,184964,1,2,0:0:0:0:
408,144,185039,1,0,0:0:0:0:
408,144,185114,6,0,B|336:112|336:112|224:112,1,160,2|0,0:0|0:0,0:0:0:0:
152,176,185564,2,0,L|231:188,1,80,2|0,0:0|0:0,0:0:0:0:
344,240,185864,2,0,P|296:304|192:304,1,160,6|2,0:0|0:0,0:0:0:0:
112,264,186314,2,0,B|104:176|104:176|160:96,1,160,2|0,0:0|0:0,0:0:0:0:
256,160,186764,5,2,0:0:0:0:
256,160,186839,1,0,0:0:0:0:
256,160,186914,1,0,0:0:0:0:
360,104,187064,1,6,0:0:0:0:
256,40,187214,1,0,0:0:0:0:
144,72,187364,1,2,0:0:0:0:
144,72,187439,1,0,0:0:0:0:
144,72,187514,1,0,0:0:0:0:
96,152,187664,6,0,P|104:240|192:272,1,160,2|2,0:0|0:0,0:0:0:0:
280,256,188114,1,0,0:0:0:0:
288,112,188264,2,0,L|327:117,3,40,6|0|8|0,0:0|0:0|0:0|0:0,0:0:0:0:
392,184,188564,1,0,0:0:0:0:
392,184,188639,1,0,0:0:0:0:
392,184,188714,2,0,L|400:224,3,40,10|0|0|0,0:0|0:0|0:0|0:0,0:0:0:0:
336,296,189014,5,10,0:0:0:0:
304,312,189089,1,0,0:0:0:0:
272,312,189164,1,0,0:0:0:0:
240,304,189239,1,0,0:0:0:0:
208,288,189314,2,0,P|185:260|180:231,1,40,8|0,0:0|0:0,0:0:0:0:
216,128,189464,2,0,L|253:140,3,40,6|0|8|0,0:0|0:0|0:0|0:0,0:0:0:0:
328,208,189764,1,0,0:0:0:0:
328,208,189839,1,0,0:0:0:0:
328,208,189914,2,0,L|291:221,3,40,10|0|0|0,0:0|0:0|0:0|0:0,0:0:0:0:
120,240,190214,5,8,0:0:0:0:
144,224,190289,1,0,0:0:0:0:
168,208,190364,1,0,0:0:0:0:
192,192,190439,1,0,0:0:0:0:
216,176,190514,2,0,L|272:142,1,40,8|0,0:0|0:0,0:0:0:0:
376,96,190664,5,6,0:0:0:0:
395,106,190739,1,0,0:0:0:0:
417,125,190814,1,8,0:0:0:0:
430,146,190889,1,0,0:0:0:0:
437,169,190964,1,2,0:0:0:0:
435,194,191039,1,0,0:0:0:0:
424,215,191114,1,8,0:0:0:0:
405,236,191189,1,0,0:0:0:0:
374,245,191264,1,2,0:0:0:0:
338,237,191339,1,0,0:0:0:0:
315,211,191414,1,8,0:0:0:0:
307,179,191489,1,0,0:0:0:0:
316,152,191564,1,2,0:0:0:0:
343,128,191639,1,0,0:0:0:0:
373,120,191714,2,0,P|389:118|412:128,1,40,8|0,0:0|0:0,0:0:0:0:
448,264,191864,6,0,L|376:272,1,40,14|8,0:0|0:0,0:0:0:0:
256,232,192014,2,0,L|320:224,1,40,8|8,0:0|0:0,0:0:0:0:
456,272,192164,6,0,L|384:280,1,40,2|2,1:3|1:3,1:3:0:0:
264,240,192314,2,0,L|328:232,1,40,2|2,1:3|1:3,1:3:0:0:
466,282,192464,5,6,1:3:0:0:
489,288,192539,1,6,1:3:0:0:
505,308,192614,1,6,1:3:0:0:
512,331,192689,1,6,1:3:0:0:
507,356,192764,1,10,1:3:0:0:
492,374,192839,1,10,1:3:0:0:
469,384,192914,1,10,1:3:0:0:
445,383,192989,1,10,1:3:0:0:
422,375,193064,6,0,P|359:340|248:355,1,160,6|2,0:0|0:0,0:0:0:0:
273,344,193439,1,0,0:0:0:0:
273,344,193514,1,0,0:0:0:0:
224,240,193664,1,2,0:0:0:0:
344,136,193814,1,0,0:0:0:0:
208,80,193964,2,0,L|96:96,1,80,2|2,0:0|0:0,0:0:0:0:
80,200,194264,2,0,P|104:272|184:288,1,160,6|2,0:0|0:0,0:0:0:0:
295,172,194714,2,0,P|217:167|154:213,1,160,2|0,0:0|0:0,0:0:0:0:
256,280,195164,5,2,0:0:0:0:
256,280,195239,1,0,0:0:0:0:
256,280,195314,1,2,0:0:0:0:
376,280,195464,2,0,L|360:96,1,160,6|2,0:0|0:0,0:0:0:0:
272,40,195914,2,0,L|258:199,1,160,2|0,0:0|0:0,0:0:0:0:
256,280,196364,1,2,0:0:0:0:
256,280,196439,1,0,0:0:0:0:
256,280,196514,1,0,0:0:0:0:
136,264,196664,6,0,P|104:216|152:120,1,160,6|2,0:0|0:0,0:0:0:0:
138,127,197039,1,0,0:0:0:0:
138,127,197114,1,0,0:0:0:0:
264,48,197264,1,2,0:0:0:0:
368,144,197414,1,0,0:0:0:0:
312,280,197564,2,0,P|264:280|208:256,1,80,2|0,0:0|0:0,0:0:0:0:
376,152,197864,5,12,0:0:0:0:
376,152,197939,1,2,0:0:0:0:
376,152,198014,2,0,P|408:144|472:176,1,60.0000022888184,2|2,0:0|0:0,0:0:0:0:
224,224,198164,1,8,0:0:0:0:
224,224,198239,1,2,0:0:0:0:
224,224,198314,2,0,P|272:232|320:224,1,60.0000022888184,2|2,0:0|0:0,0:0:0:0:
152,96,198464,1,8,0:0:0:0:
152,96,198539,1,2,0:0:0:0:
152,96,198614,2,0,P|184:96|240:120,1,60.0000022888184,2|2,0:0|0:0,0:0:0:0:
24,208,198764,1,8,0:0:0:0:
24,208,198839,1,2,0:0:0:0:
24,208,198914,2,0,P|64:216|112:208,1,60.0000022888184,2|2,0:0|0:0,0:0:0:0:
312,280,199064,5,14,0:0:0:0:
432,160,200264,6,0,L|424:280,1,100,6|2,0:0|0:0,0:0:0:0:
312,312,200564,1,2,0:0:0:0:
312,312,200639,1,0,0:0:0:0:
312,312,200714,1,0,0:0:0:0:
200,272,200864,1,2,0:0:0:0:
96,328,201014,1,0,0:0:0:0:
24,232,201164,2,0,B|72:208|72:208|112:152,1,100,2|0,0:0|0:0,0:0:0:0:
24,40,201464,6,0,B|50:77|50:77|98:101,1,100,6|0,0:0|0:0,0:0:0:0:
216,128,201764,1,2,0:0:0:0:
216,128,201839,1,0,0:0:0:0:
216,128,201914,1,0,0:0:0:0:
320,184,202064,1,2,0:0:0:0:
168,208,202214,1,0,0:0:0:0:
272,320,202364,2,0,B|352:296|352:296|456:312,1,150,2|0,0:0|0:0,0:0:0:0:
480,272,202664,6,0,L|464:160,1,100,6|0,0:0|0:0,0:0:0:0:
400,144,202964,1,2,0:0:0:0:
400,144,203114,1,0,0:0:0:0:
264,80,203264,2,0,P|216:120|216:192,1,100,2|0,0:0|0:0,0:0:0:0:
248,304,203564,2,0,P|296:264|296:192,1,100,2|2,0:0|0:0,0:0:0:0:
264,80,203864,1,2,0:0:0:0:
120,48,204014,1,0,0:0:0:0:
64,184,204164,1,2,0:0:0:0:
176,280,204314,6,0,B|288:336|376:232,1,200,2|0,0:0|0:0,0:0:0:0:
248,152,204764,1,2,0:0:0:0:
248,152,204839,1,0,0:0:0:0:
248,152,204914,1,0,0:0:0:0:
376,72,205064,6,0,L|384:184,1,100,6|2,0:0|0:0,0:0:0:0:
304,264,205364,1,2,0:0:0:0:
304,264,205514,2,0,B|240:264|240:264|168:240|168:240|104:240,1,200,2|2,0:0|0:0,0:0:0:0:
80,120,205964,1,2,0:0:0:0:
80,120,206039,1,0,0:0:0:0:
80,120,206114,1,0,0:0:0:0:
216,56,206264,5,6,0:0:0:0:
376,168,206414,1,0,0:0:0:0:
224,32,206564,5,2,0:0:0:0:
384,192,206714,2,0,P|427:215|477:218,1,100,2|2,0:0|0:0,0:0:0:0:
336,272,207014,2,0,P|292:248|242:245,1,100,2|2,0:0|0:0,0:0:0:0:
224,248,207239,1,2,0:0:0:0:
224,248,207314,1,2,0:0:0:0:
80,208,207464,6,0,P|120:120|240:136,1,200,6|2,0:0|0:0,0:0:0:0:
321,245,207914,2,0,P|228:265|168:192,1,200,2|0,0:0|0:0,0:0:0:0:
280,88,208364,2,0,L|408:104,1,100,2|2,0:0|0:0,0:0:0:0:
400,216,208664,5,12,0:0:0:0:
360,208,208739,1,8,0:0:0:0:
320,208,208814,1,8,0:0:0:0:
280,216,208889,1,8,0:0:0:0:
240,232,208964,2,0,P|216:242|195:268,1,50,2|2,0:0|0:0,0:0:0:0:
112,336,209114,6,0,L|192:352,1,50,2|2,0:0|0:0,0:0:0:0:
264,336,209264,1,12,0:0:0:0:
304,336,209339,1,8,0:0:0:0:
344,320,209414,1,8,0:0:0:0:
376,296,209489,1,8,0:0:0:0:
400,272,209564,2,0,P|422:246|429:214,1,50,2|2,0:0|0:0,0:0:0:0:
368,184,209714,2,0,P|363:150|342:124,1,50,2|2,0:0|0:0,0:0:0:0:
280,152,209864,6,0,P|216:128|120:152,1,150,6|2,0:0|0:0,0:0:0:0:
96,152,210164,2,0,B|128:216|128:216|120:264,1,100,2|2,0:0|0:0,0:0:0:0:
184,352,210464,2,0,B|216:288|216:288|208:240,1,100,2|2,0:0|0:0,0:0:0:0:
200,112,210764,1,2,0:0:0:0:
200,112,210839,1,0,0:0:0:0:
200,112,210914,1,2,0:0:0:0:
320,136,211064,5,6,0:0:0:0:
240,224,211214,1,2,0:0:0:0:
360,256,211364,1,2,0:0:0:0:
360,256,211439,1,0,0:0:0:0:
360,256,211514,1,0,0:0:0:0:
344,104,211664,1,2,0:0:0:0:
216,32,211814,1,0,0:0:0:0:
80,96,211964,6,0,P|152:160|272:120,1,200,2|6,0:0|0:0,0:0:0:0:
296,88,212339,1,0,0:0:0:0:
296,88,212414,2,0,P|320:96|344:128,3,50,0|0|2|0,0:0|0:0|0:0|0:0,0:0:0:0:
368,264,212714,5,0,0:0:0:0:
328,284,212789,1,0,0:0:0:0:
283,291,212864,1,2,0:0:0:0:
239,284,212939,1,0,0:0:0:0:
199,263,213014,1,0,0:0:0:0:
167,231,213089,1,0,0:0:0:0:
144,192,213164,2,0,P|131:166|133:130,3,50,2|0|0|0,0:0|0:0|0:0|0:0,0:0:0:0:
176,96,213464,5,6,0:0:0:0:
337,234,213614,1,2,0:0:0:0:
288,72,213764,1,2,0:0:0:0:
168,168,213914,6,0,P|256:240|344:232,1,200,2|0,0:0|0:0,0:0:0:0:
288,120,214364,1,2,0:0:0:0:
288,120,214439,1,0,0:0:0:0:
288,120,214514,1,0,0:0:0:0:
432,108,214664,5,6,0:0:0:0:
432,108,214814,2,0,P|424:204|304:220,1,200,2|2,0:0|0:0,0:0:0:0:
256,270,215264,1,2,0:0:0:0:
192,128,215414,1,2,0:0:0:0:
352,144,215564,1,2,0:0:0:0:
352,144,215639,1,0,0:0:0:0:
352,144,215714,1,2,0:0:0:0:
256,270,215864,5,6,0:0:0:0:
352,144,216014,2,0,P|344:240|224:256,1,200,2|2,0:0|0:0,0:0:0:0:
176,304,216464,1,2,0:0:0:0:
272,184,216614,1,2,0:0:0:0:
168,120,216764,2,0,P|139:177|161:239,1,100,2|0,0:0|0:0,0:0:0:0:
290,310,217064,6,0,L|306:246,3,50,4|2|2|2,1:1|1:3|1:3|1:3,1:3:0:0:
282,222,217364,2,0,L|266:166,3,40,4|8|8|8,1:1|1:3|1:3|1:3,1:3:0:0:
288,144,217664,2,0,L|304:88,3,30.0000011444092,4|4|4|4,1:1|1:3|1:3|1:3,1:3:0:0:
288,72,217964,2,0,L|280:40,3,20,4|12|12|12,1:1|1:3|1:3|1:3,1:3:0:0:
232,8,218264,5,6,0:0:0:0:
320,384,218564,1,12,0:0:0:0:
440,88,218864,5,14,0:0:0:0:
136,120,219064,5,12,0:0:0:0:
8,368,219264,5,6,0:0:0:0:
312,280,219464,5,14,0:0:0:0:
256,192,219539,12,14,221564,1:1:0:0:
256,192,221864,5,14,0:0:0:0:
182,118,224114,5,14,0:0:0:0:
329,265,224264,1,14,0:0:0:0:
182,118,226364,5,14,1:0:0:0:
329,265,226664,1,14,1:0:0:0:
256,192,229064,5,14,0:0:0:0:
256,192,229139,12,14,231164,0:0:0:0:
256,192,231464,5,14,0:0:0:0:
440,80,231764,6,0,P|432:64|392:32,8,40
144,8,233114,6,0,P|128:16|96:56,5,40
160,72,233564,5,14,0:0:0:0:
360,304,233864,1,14,0:0:0:0:
72,304,234164,6,0,P|80:320|120:352,8,40
368,376,235664,6,0,P|384:368|416:328,5,40
352,312,236114,5,14,0:0:0:0:
136,96,236264,1,14,0:0:0:0:
440,80,236564,6,0,P|432:64|392:32,6,40
94,47,237914,6,0,P|81:62|72:80,6,40
256,192,238664,5,14,0:0:0:0:
256,192,238739,12,0,239714,0:0:0:0:
400,256,239864,5,8,0:0:0:0:
360,272,239939,1,8,0:0:0:0:
318,269,240014,1,8,0:0:0:0:
278,253,240089,1,8,0:0:0:0:
247,225,240164,2,0,P|232:199|222:167,1,40,2|2,0:0|0:0,0:0:0:0:
279,73,240314,5,8,0:0:0:0:
295,113,240389,1,8,0:0:0:0:
295,153,240464,1,8,0:0:0:0:
279,193,240539,1,8,0:0:0:0:
247,225,240614,2,0,P|221:239|189:249,1,40,2|2,0:0|0:0,0:0:0:0:
40,320,240764,1,8,0:0:0:0:
60,334,240839,1,8,0:0:0:0:
83,340,240914,2,0,P|107:345|138:333,1,40,2|2,0:0|0:0,0:0:0:0:
249,301,241064,5,8,0:0:0:0:
209,292,241139,1,8,0:0:0:0:
175,270,241214,1,8,0:0:0:0:
152,237,241289,1,8,0:0:0:0:
136,201,241364,2,0,P|129:180|129:150,1,40,2|2,0:0|0:0,0:0:0:0:
264,48,241514,6,0,L|304:40,1,40,2|0,0:0|0:0,0:0:0:0:
216,144,241664,2,0,L|256:136,1,40,4|0,0:0|0:0,0:0:0:0:
312,200,241814,2,0,L|352:192,1,40,8|0,0:0|0:0,0:0:0:0:
264,296,241964,2,0,L|304:288,3,40
368,256,242264,5,6,0:0:0:0:
384,240,242352,1,0,0:0:0:0:
392,216,242440,1,8,0:0:0:0:
392,192,242528,1,0,0:0:0:0:
384,168,242616,1,0,0:0:0:0:
368,144,242705,1,0,0:0:0:0:
344,128,242793,2,0,P|318:113|275:117,1,40,10|0,0:0|0:0,0:0:0:0:
152,144,242969,5,2,0:0:0:0:
177,144,243058,1,0,0:0:0:0:
197,150,243146,1,8,0:0:0:0:
216,156,243234,1,0,0:0:0:0:
235,169,243322,1,0,0:0:0:0:
248,189,243411,1,0,0:0:0:0:
261,208,243499,1,8,0:0:0:0:
268,227,243587,1,0,0:0:0:0:
216,336,243675,5,6,0:0:0:0:
208,332,243764,1,0,0:0:0:0:
201,328,243852,1,8,0:0:0:0:
192,264,243940,5,2,0:0:0:0:
185,261,244028,1,0,0:0:0:0:
178,257,244116,1,0,0:0:0:0:
128,296,244205,5,10,0:0:0:0:
121,293,244293,1,0,0:0:0:0:
104,232,244381,5,2,0:0:0:0:
96,229,244469,1,0,0:0:0:0:
89,225,244557,1,8,0:0:0:0:
88,160,244646,1,2,0:0:0:0:
80,157,244734,1,0,0:0:0:0:
73,153,244822,1,0,0:0:0:0:
43,132,244911,2,0,P|43:108|59:84,1,40,10|0,0:0|0:0,0:0:0:0:
184,48,245087,5,6,0:0:0:0:
176,72,245175,1,0,0:0:0:0:
168,96,245264,1,8,0:0:0:0:
160,120,245352,1,0,0:0:0:0:
168,144,245440,1,0,0:0:0:0:
184,168,245528,1,0,0:0:0:0:
200,192,245616,2,0,L|232:240,1,40,10|0,0:0|0:0,0:0:0:0:
352,264,245793,5,2,0:0:0:0:
333,257,245881,1,0,0:0:0:0:
317,245,245969,1,8,0:0:0:0:
304,230,246057,1,0,0:0:0:0:
296,212,246145,1,0,0:0:0:0:
293,192,246234,1,0,0:0:0:0:
296,172,246322,1,8,0:0:0:0:
303,154,246410,1,0,0:0:0:0:
280,64,246498,5,2,0:0:0:0:
264,64,246587,1,0,0:0:0:0:
248,64,246675,1,8,0:0:0:0:
176,96,246764,1,2,0:0:0:0:
160,96,246852,1,0,0:0:0:0:
144,96,246940,1,0,0:0:0:0:
92,144,247028,5,10,0:0:0:0:
80,144,247116,1,0,0:0:0:0:
103,210,247204,1,2,0:0:0:0:
127,210,247293,1,0,0:0:0:0:
151,210,247381,1,8,0:0:0:0:
223,170,247469,5,2,0:0:0:0:
247,170,247558,1,0,0:0:0:0:
271,170,247646,1,0,0:0:0:0:
303,154,247734,2,0,B|327:154|327:154|359:170,1,40,10|0,0:0|0:0,0:0:0:0:
440,272,247911,5,6,0:0:0:0:
416,264,247999,1,0,0:0:0:0:
392,272,248087,1,8,0:0:0:0:
368,264,248175,1,0,0:0:0:0:
344,272,248264,1,0,0:0:0:0:
320,264,248352,1,0,0:0:0:0:
296,272,248440,2,0,L|232:272,1,40,10|0,0:0|0:0,0:0:0:0:
80,216,248616,5,2,0:0:0:0:
104,216,248705,1,0,0:0:0:0:
128,208,248793,1,8,0:0:0:0:
152,208,248881,1,0,0:0:0:0:
176,200,248969,1,0,0:0:0:0:
200,200,249058,1,0,0:0:0:0:
224,192,249146,1,8,0:0:0:0:
248,192,249234,1,0,0:0:0:0:
320,240,249322,5,6,0:0:0:0:
320,248,249411,1,0,0:0:0:0:
320,256,249499,1,8,0:0:0:0:
376,288,249587,1,2,0:0:0:0:
376,296,249676,1,0,0:0:0:0:
376,304,249764,1,0,0:0:0:0:
320,336,249852,5,10,0:0:0:0:
320,344,249940,1,0,0:0:0:0:
264,304,250028,1,2,0:0:0:0:
258,310,250116,1,0,0:0:0:0:
253,316,250205,1,8,0:0:0:0:
192,280,250293,5,2,0:0:0:0:
184,281,250381,1,0,0:0:0:0:
176,284,250469,1,0,0:0:0:0:
136,296,250558,2,0,L|80:280,1,40,10|0,0:0|0:0,0:0:0:0:
72,200,250734,5,6,0:0:0:0:
86,179,250822,1,0,0:0:0:0:
109,162,250911,1,8,0:0:0:0:
137,154,250999,1,0,0:0:0:0:
163,154,251087,1,0,0:0:0:0:
185,162,251175,1,0,0:0:0:0:
205,178,251264,2,0,P|221:189|223:238,1,40,10|0,0:0|0:0,0:0:0:0:
264,332,251440,5,2,0:0:0:0:
287,325,251528,1,0,0:0:0:0:
310,314,251616,1,8,0:0:0:0:
329,296,251704,1,0,0:0:0:0:
345,275,251792,1,0,0:0:0:0:
354,252,251881,1,0,0:0:0:0:
358,226,251969,1,8,0:0:0:0:
356,201,252057,1,0,0:0:0:0:
304,120,252146,5,12,0:0:0:0:
299,130,252234,1,8,0:0:0:0:
294,140,252322,1,8,0:0:0:0:
290,151,252411,1,8,0:0:0:0:
280,176,252499,6,0,L|232:208,1,40,2|2,0:0|0:0,0:0:0:0:
144,152,252675,2,0,L|184:128,1,40,2|2,0:0|0:0,0:0:0:0:
304,120,252851,5,8,0:0:0:0:
300,151,252940,1,8,0:0:0:0:
298,175,253028,1,8,0:0:0:0:
295,199,253116,1,8,0:0:0:0:
280,224,253205,6,0,L|248:256,1,40,2|2,0:0|0:0,0:0:0:0:
120,256,253381,2,0,L|168:208,1,40,2|2,0:0|0:0,0:0:0:0:
304,120,253558,6,0,P|328:160|312:248,1,100,6|10,0:0|0:0,0:0:0:0:
208,264,253911,1,2,0:0:0:0:
208,264,253999,1,0,0:0:0:0:
208,264,254087,2,0,P|184:224|200:136,1,100,10|2,0:0|0:0,0:0:0:0:
368,96,254440,1,10,0:0:0:0:
368,96,254528,1,0,0:0:0:0:
368,96,254616,2,0,L|352:232,1,100,2|8,0:0|0:0,0:0:0:0:
240,296,254969,6,0,P|168:288|128:232,1,100,6|10,0:0|0:0,0:0:0:0:
80,136,255322,1,2,0:0:0:0:
80,136,255411,1,0,0:0:0:0:
80,136,255499,2,0,L|200:128,1,100,10|2,0:0|0:0,0:0:0:0:
272,208,255852,2,2,L|344:216,2,50,8|2|2,0:0|0:0|0:0,0:0:0:0:
148,271,256205,1,8,0:0:0:0:
112,152,256381,6,0,L|168:144,3,50,6|0|8|0,0:0|0:0|0:0|0:0,0:0:0:0:
248,80,256734,2,0,L|297:87,3,50,2|0|8|0,0:0|0:0|0:0|0:0,0:0:0:0:
424,168,257087,2,0,L|374:175,1,50,2|0,0:0|0:0,0:0:0:0:
232,232,257264,2,0,L|281:239,1,50,8|0,0:0|0:0,0:0:0:0:
408,320,257440,2,0,L|358:327,1,50,2|0,0:0|0:0,0:0:0:0:
264,304,257616,2,0,L|214:296,1,50,8|0,0:0|0:0,0:0:0:0:
96,248,257793,5,6,0:0:0:0:
80,216,257881,1,0,0:0:0:0:
72,184,257969,1,8,0:0:0:0:
80,152,258058,1,0,0:0:0:0:
96,120,258146,1,2,0:0:0:0:
128,104,258234,1,0,0:0:0:0:
160,104,258322,1,8,0:0:0:0:
192,120,258411,1,0,0:0:0:0:
208,152,258499,1,2,0:0:0:0:
224,184,258587,1,0,0:0:0:0:
256,200,258675,6,0,P|280:208|312:200,3,50,8|0|2|0,0:0|0:0|0:0|0:0,0:0:0:0:
352,96,259028,2,0,P|326:97|273:136,1,50,10|0,0:0|0:0,0:0:0:0:
120,184,259205,6,0,P|104:216|144:280,1,60.0000022888184,6|0,0:0|0:0,0:0:0:0:
120,288,259381,2,0,P|216:312|344:288,1,200,2|2,0:0|0:0,0:0:0:0:
392,96,259911,2,0,P|296:72|168:96,1,180.000006866455,2|2,0:0|0:0,0:0:0:0:
176,96,260264,2,0,B|192:152|192:152|176:208,1,100,2|0,0:0|0:0,0:0:0:0:
96,312,260616,2,0,B|72:232|72:232|104:136,1,150,6|2,0:0|0:0,0:0:0:0:
112,136,260969,2,0,P|168:112|240:144,1,100,2|0,0:0|0:0,0:0:0:0:
288,240,261322,2,0,L|360:224,3,50,2|0|0|0,0:0|0:0|0:0|0:0,0:0:0:0:
376,176,261675,2,0,P|400:136|336:48,1,150,2|0,0:0|0:0,0:0:0:0:
240,56,262028,5,6,0:0:0:0:
208,72,262116,1,0,0:0:0:0:
176,72,262205,1,8,0:0:0:0:
144,56,262293,1,0,0:0:0:0:
112,48,262381,1,2,0:0:0:0:
80,64,262469,1,0,0:0:0:0:
72,96,262558,1,8,0:0:0:0:
88,128,262646,1,0,0:0:0:0:
104,160,262734,5,2,0:0:0:0:
112,192,262822,1,0,0:0:0:0:
112,224,262911,1,8,0:0:0:0:
104,256,262999,1,0,0:0:0:0:
88,288,263087,1,2,0:0:0:0:
120,320,263175,1,0,0:0:0:0:
168,320,263264,1,8,0:0:0:0:
208,296,263352,1,0,0:0:0:0:
224,256,263440,6,0,L|240:192,1,50,12|8,0:0|0:0,0:0:0:0:
184,96,263616,2,0,L|171:144,1,50,8|8,0:0|0:0,0:0:0:0:
232,264,263793,5,2,0:0:0:0:
255,272,263881,1,2,0:0:0:0:
280,272,263969,1,2,0:0:0:0:
304,264,264057,1,2,0:0:0:0:
325,250,264145,1,2,0:0:0:0:
340,231,264234,1,2,0:0:0:0:
424,160,264322,5,8,0:0:0:0:
406,196,264411,1,8,0:0:0:0:
407,236,264499,1,8,0:0:0:0:
420,273,264587,1,8,0:0:0:0:
453,296,264675,2,0,P|484:306|510:304,1,50,2|2,0:0|0:0,0:0:0:0:
384,328,264852,5,6,0:0:0:0:
368,344,264940,1,0,0:0:0:0:
344,360,265028,1,8,0:0:0:0:
320,368,265116,1,0,0:0:0:0:
296,368,265205,1,0,0:0:0:0:
272,360,265293,1,0,0:0:0:0:
248,344,265381,2,0,P|212:320|201:293,1,50,10|0,0:0|0:0,0:0:0:0:
168,192,265558,5,2,0:0:0:0:
191,199,265646,1,0,0:0:0:0:
215,207,265734,1,8,0:0:0:0:
239,215,265822,1,0,0:0:0:0:
255,199,265911,1,0,0:0:0:0:
271,183,265999,1,0,0:0:0:0:
287,167,266087,1,8,0:0:0:0:
303,151,266175,1,0,0:0:0:0:
368,120,266263,5,6,0:0:0:0:
368,128,266352,1,0,0:0:0:0:
368,136,266440,1,8,0:0:0:0:
424,184,266528,1,2,0:0:0:0:
424,192,266616,1,0,0:0:0:0:
424,200,266704,1,0,0:0:0:0:
360,224,266793,5,10,0:0:0:0:
360,232,266881,1,0,0:0:0:0:
320,288,266969,1,2,0:0:0:0:
320,296,267057,1,0,0:0:0:0:
320,304,267145,1,8,0:0:0:0:
272,352,267234,5,2,0:0:0:0:
256,360,267322,1,0,0:0:0:0:
240,368,267410,1,0,0:0:0:0:
208,368,267499,2,0,P|176:368|144:344,1,50,10|0,0:0|0:0,0:0:0:0:
144,216,267675,5,6,0:0:0:0:
157,189,267763,1,0,0:0:0:0:
172,172,267852,1,8,0:0:0:0:
195,163,267940,1,0,0:0:0:0:
219,161,268028,1,0,0:0:0:0:
243,168,268116,1,0,0:0:0:0:
269,182,268205,2,0,P|288:196|299:218,1,50,10|0,0:0|0:0,0:0:0:0:
336,288,268381,5,2,0:0:0:0:
326,303,268469,1,0,0:0:0:0:
327,324,268558,1,8,0:0:0:0:
340,341,268646,1,0,0:0:0:0:
356,349,268734,1,0,0:0:0:0:
377,350,268822,1,0,0:0:0:0:
393,336,268911,1,8,0:0:0:0:
401,320,268999,1,0,0:0:0:0:
448,232,269086,5,6,0:0:0:0:
422,219,269175,1,0,0:0:0:0:
396,206,269263,1,8,0:0:0:0:
336,128,269352,1,2,0:0:0:0:
308,135,269440,1,0,0:0:0:0:
280,142,269528,1,0,0:0:0:0:
232,224,269616,5,10,0:0:0:0:
206,211,269704,1,0,0:0:0:0:
144,152,269792,1,2,0:0:0:0:
126,175,269881,1,0,0:0:0:0:
110,199,269969,1,8,0:0:0:0:
88,296,270057,5,2,0:0:0:0:
120,304,270146,1,0,0:0:0:0:
152,312,270234,1,0,0:0:0:0:
192,344,270322,2,0,B|216:352|216:352|264:344,1,50,10|0,0:0|0:0,0:0:0:0:
392,280,270499,5,6,0:0:0:0:
365,268,270587,1,0,0:0:0:0:
332,265,270675,1,8,0:0:0:0:
306,253,270764,1,0,0:0:0:0:
273,251,270852,1,0,0:0:0:0:
240,232,270940,1,0,0:0:0:0:
208,224,271028,2,0,L|120:190,1,50,10|0,0:0|0:0,0:0:0:0:
80,136,271205,5,2,0:0:0:0:
104,112,271293,1,0,0:0:0:0:
136,104,271381,1,8,0:0:0:0:
168,112,271469,1,0,0:0:0:0:
192,128,271558,1,0,0:0:0:0:
216,152,271646,1,0,0:0:0:0:
248,160,271734,1,8,0:0:0:0:
280,152,271822,1,0,0:0:0:0:
400,152,271910,5,6,0:0:0:0:
408,168,271999,1,0,0:0:0:0:
416,184,272087,1,8,0:0:0:0:
360,224,272175,1,2,0:0:0:0:
360,240,272264,1,0,0:0:0:0:
360,256,272352,1,0,0:0:0:0:
304,304,272440,5,10,0:0:0:0:
296,312,272528,1,0,0:0:0:0:
224,288,272616,1,2,0:0:0:0:
208,288,272704,1,0,0:0:0:0:
192,288,272793,1,8,0:0:0:0:
208,216,272881,5,2,0:0:0:0:
186,205,272969,1,0,0:0:0:0:
165,194,273057,1,0,0:0:0:0:
176,128,273146,2,0,L|144:80,1,50,10|0,0:0|0:0,0:0:0:0:
80,8,273322,5,6,0:0:0:0:
82,36,273411,1,0,0:0:0:0:
74,68,273499,1,8,0:0:0:0:
52,93,273587,1,0,0:0:0:0:
30,117,273675,1,0,0:0:0:0:
22,149,273764,1,0,0:0:0:0:
25,178,273852,2,0,P|34:210|52:228,1,50,10|0,0:0|0:0,0:0:0:0:
152,296,274028,5,2,0:0:0:0:
176,296,274116,1,0,0:0:0:0:
200,288,274205,1,8,0:0:0:0:
216,272,274293,1,0,0:0:0:0:
224,248,274381,1,0,0:0:0:0:
216,224,274469,1,0,0:0:0:0:
200,208,274558,1,8,0:0:0:0:
176,200,274646,1,0,0:0:0:0:
88,192,274734,5,14,0:0:0:0:
91,195,274822,1,8,0:0:0:0:
91,200,274911,1,8,0:0:0:0:
90,205,274999,1,10,0:0:0:0:
87,209,275087,1,8,0:0:0:0:
84,212,275175,1,8,0:0:0:0:
78,213,275264,1,8,0:0:0:0:
74,212,275352,1,8,0:0:0:0:
70,209,275440,1,10,0:0:0:0:
67,204,275528,1,8,0:0:0:0:
66,200,275616,1,8,0:0:0:0:
67,195,275705,1,10,0:0:0:0:
70,190,275793,1,8,0:0:0:0:
75,188,275881,1,8,0:0:0:0:
79,188,275969,1,8,0:0:0:0:
84,189,276058,1,8,0:0:0:0:
88,192,276146,6,0,P|112:200|136:224,3,50,6|0|10|0,0:0|0:0|0:0|0:0,0:0:0:0:
168,280,276499,2,0,P|216:304|288:288,1,100,2|8,0:0|0:0,0:0:0:0:
344,104,276852,2,0,P|296:80|224:96,1,100,2|8,0:0|0:0,0:0:0:0:
216,104,277116,1,0,0:0:0:0:
216,104,277205,2,0,L|200:160,1,50,2|0,0:0|0:0,0:0:0:0:
192,224,277381,6,0,B|248:216|248:216|320:240,1,100,10|6,0:0|0:0,0:0:0:0:
400,328,277734,1,8,0:0:0:0:
440,184,277911,1,2,0:0:0:0:
440,184,277999,1,0,0:0:0:0:
440,184,278087,1,10,0:0:0:0:
328,80,278264,6,0,P|264:56|184:96,1,120.000004577637,2|10,0:0|0:0,0:0:0:0:
184,88,278528,2,0,B|120:136|208:208|152:256,1,180.000006866455,2|10,0:0|0:0,0:0:0:0:
296,304,278969,5,6,0:0:0:0:
312,296,279058,1,0,0:0:0:0:
320,288,279146,1,8,0:0:0:0:
328,272,279234,1,0,0:0:0:0:
312,256,279322,5,2,0:0:0:0:
304,240,279411,1,0,0:0:0:0:
304,224,279499,1,8,0:0:0:0:
312,208,279587,1,0,0:0:0:0:
336,192,279675,5,2,0:0:0:0:
352,168,279764,1,0,0:0:0:0:
360,136,279852,1,8,0:0:0:0:
352,104,279940,1,0,0:0:0:0:
320,80,280028,1,2,0:0:0:0:
296,112,280116,1,0,0:0:0:0:
256,128,280205,1,8,0:0:0:0:
216,128,280293,1,0,0:0:0:0:
176,120,280381,5,6,0:0:0:0:
144,96,280469,1,0,0:0:0:0:
104,96,280558,1,8,0:0:0:0:
80,128,280646,1,0,0:0:0:0:
88,168,280734,1,2,0:0:0:0:
120,192,280822,1,0,0:0:0:0:
160,192,280911,1,8,0:0:0:0:
192,168,280999,1,0,0:0:0:0:
209,130,281087,5,2,0:0:0:0:
249,106,281175,1,0,0:0:0:0:
294,111,281264,1,8,0:0:0:0:
319,148,281352,1,0,0:0:0:0:
312,192,281440,6,0,P|272:240|184:232,1,150,2|0,0:0|0:0,0:0:0:0:
160,200,281793,2,2,P|132:170|90:162,1,80,6|10,0:0|0:0,0:0:0:0:
48,168,282058,2,2,B|72:216|56:272|56:272|120:288|160:352,1,210.000002002716,2|10,0:0|0:0,0:0:0:0:
48,168,282499,6,2,P|85:181|131:171,1,60.0000022888184,6|10,0:0|0:0,0:0:0:0:
149,168,282764,2,2,B|185:206|187:265|187:265|252:261|309:311,1,210.000002002716,2|10,0:0|0:0,0:0:0:0:
355,123,283205,6,2,P|395:120|432:136,1,80,6|2,0:0|0:0,0:0:0:0:
448,248,283558,2,2,P|381:265|299:208,1,160,2|2,0:0|0:0,0:0:0:0:
296,192,283999,2,2,B|304:168|304:168|296:152,1,40
280,80,284175,6,2,P|200:56|129:97,1,160,2|2,0:0|0:0,0:0:0:0:
96,144,284616,5,4,0:0:0:0:
104,160,284705,1,0,0:0:0:0:
104,176,284793,1,8,0:0:0:0:
96,192,284881,1,0,0:0:0:0:
80,216,284969,1,2,0:0:0:0:
72,240,285058,1,0,0:0:0:0:
72,264,285146,1,8,0:0:0:0:
80,288,285234,1,0,0:0:0:0:
104,304,285322,5,2,0:0:0:0:
144,296,285411,1,0,0:0:0:0:
184,304,285499,1,8,0:0:0:0:
216,328,285587,1,0,0:0:0:0:
256,344,285675,1,2,0:0:0:0:
296,328,285764,1,0,0:0:0:0:
312,288,285852,1,8,0:0:0:0:
296,248,285940,1,0,0:0:0:0:
256,232,286028,6,0,P|223:242|198:274,1,50,12|8,0:0|0:0,0:0:0:0:
176,184,286205,2,0,P|143:173|118:141,1,50,8|8,0:0|0:0,0:0:0:0:
112,88,286381,5,2,1:3:0:0:
127,82,286469,1,2,1:3:0:0:
144,84,286558,1,2,1:3:0:0:
155,89,286646,1,2,1:3:0:0:
224,136,286734,5,4,1:3:0:0:
248,144,286822,1,4,1:3:0:0:
272,144,286911,1,4,1:3:0:0:
296,136,286999,1,4,1:3:0:0:
368,88,287087,5,8,1:3:0:0:
408,88,287175,1,8,1:3:0:0:
440,104,287264,1,8,1:3:0:0:
456,136,287352,1,8,1:3:0:0:
448,200,287440,6,0,P|432:248|336:280,1,160,6|2,0:0|0:0,0:0:0:0:
216,256,287890,2,0,P|192:200|200:160,1,80,2|2,0:0|0:0,0:0:0:0:
264,80,288190,1,2,0:0:0:0:
272,200,288340,1,2,0:0:0:0:
368,136,288490,1,2,0:0:0:0:
448,200,288640,6,0,P|427:244|371:270,1,80,6|2,0:0|0:0,0:0:0:0:
402,262,288865,1,0,0:0:0:0:
402,262,288940,1,2,0:0:0:0:
240,248,289090,1,2,0:0:0:0:
184,96,289240,1,2,0:0:0:0:
344,128,289390,1,2,0:0:0:0:
408,264,289540,6,0,P|360:336|296:344,1,120,2|0,0:0|0:0,0:0:0:0:
296,344,289840,6,0,L|200:328,1,80,6|0,0:0|0:0,0:0:0:0:
217,330,290065,1,0,0:0:0:0:
217,330,290140,1,2,0:0:0:0:
272,224,290290,1,2,0:0:0:0:
112,224,290440,1,2,0:0:0:0:
272,224,290590,5,2,0:0:0:0:
192,80,290740,1,2,0:0:0:0:
24,96,290890,1,2,0:0:0:0:
112,224,291040,5,6,0:0:0:0:
128,240,291115,1,0,0:0:0:0:
144,248,291190,1,0,0:0:0:0:
160,248,291265,1,0,0:0:0:0:
176,240,291340,2,0,L|248:208,3,40,2|0|0|0,0:0|0:0|0:0|0:0,0:0:0:0:
232,224,291640,1,2,0:0:0:0:
248,224,291715,1,0,0:0:0:0:
264,232,291790,1,0,0:0:0:0:
280,248,291865,1,0,0:0:0:0:
288,264,291940,6,0,L|293:296,7,20,2|0|0|0|0|0|0|0,0:0|0:0|0:0|0:0|0:0|0:0|0:0|0:0,0:0:0:0:
296,320,292240,6,0,B|256:336|256:336|192:328,1,80,6|0,0:0|0:0,0:0:0:0:
219,331,292465,1,0,0:0:0:0:
219,331,292540,1,2,0:0:0:0:
136,288,292690,1,2,0:0:0:0:
224,240,292840,1,2,0:0:0:0:
144,184,292990,1,2,0:0:0:0:
232,144,293140,2,0,P|289:168|311:211,1,80,2|2,0:0|0:0,0:0:0:0:
392,312,293440,6,0,P|386:272|363:240,1,80,6|0,0:0|0:0,0:0:0:0:
363,240,293665,1,0,0:0:0:0:
363,240,293740,1,2,0:0:0:0:
363,96,293890,1,2,0:0:0:0:
219,96,294040,1,2,0:0:0:0:
219,240,294190,1,2,0:0:0:0:
363,240,294340,2,0,P|335:181|278:149,1,120,2|0,0:0|0:0,0:0:0:0:
248,144,294640,6,0,L|152:160,1,80,6|0,0:0|0:0,0:0:0:0:
169,157,294865,1,0,0:0:0:0:
169,157,294940,1,2,0:0:0:0:
232,24,295090,1,2,0:0:0:0:
364,80,295240,1,2,0:0:0:0:
169,157,295390,1,2,0:0:0:0:
299,215,295540,1,2,0:0:0:0:
236,34,295690,1,2,0:0:0:0:
168,160,295840,5,6,0:0:0:0:
153,169,295915,1,0,0:0:0:0:
145,183,295990,1,0,0:0:0:0:
144,201,296065,1,0,0:0:0:0:
153,216,296140,1,2,0:0:0:0:
167,224,296215,1,0,0:0:0:0:
185,225,296290,1,0,0:0:0:0:
200,215,296365,1,0,0:0:0:0:
208,200,296440,6,0,L|248:168,1,30.0000011444092,2|0,0:0|0:0,0:0:0:0:
280,112,296590,2,0,L|323:138,1,30.0000011444092,2|0,0:0|0:0,0:0:0:0:
392,144,296740,2,0,L|381:194,1,30.0000011444092,2|0,0:0|0:0,0:0:0:0:
400,256,296890,2,0,L|349:263,1,30.0000011444092,2|0,0:0|0:0,0:0:0:0:
240,240,297040,5,6,0:0:0:0:
199,239,297115,1,0,0:0:0:0:
163,222,297190,1,0,0:0:0:0:
133,195,297265,1,0,0:0:0:0:
133,154,297340,5,2,0:0:0:0:
169,131,297415,1,0,0:0:0:0:
212,139,297490,1,0,0:0:0:0:
227,177,297565,1,0,0:0:0:0:
211,221,297640,6,0,L|197:258,1,30.0000011444092,2|0,0:0|0:0,0:0:0:0:
168,335,297790,2,0,L|181:297,1,30.0000011444092,2|0,0:0|0:0,0:0:0:0:
261,268,297940,2,0,L|241:320,1,30.0000011444092,2|0,0:0|0:0,0:0:0:0:
218,382,298090,2,0,L|228:353,1,30.0000011444092,2|0,0:0|0:0,0:0:0:0:
283,208,298240,6,0,L|299:170,2,40,6|0|0,0:0|0:0|0:0,0:0:0:0:
336,248,298540,6,0,L|352:210,2,40
389,288,298840,6,0,L|405:250,2,40
442,328,299140,6,0,L|458:290,2,40
416,168,299440,5,6,0:0:0:0:
408,152,299515,1,0,0:0:0:0:
392,136,299590,1,8,0:0:0:0:
376,128,299665,1,0,0:0:0:0:
360,112,299740,1,2,0:0:0:0:
352,96,299815,1,0,0:0:0:0:
352,80,299890,1,8,0:0:0:0:
360,64,299965,1,0,0:0:0:0:
376,56,300040,5,2,0:0:0:0:
400,48,300115,1,0,0:0:0:0:
424,56,300190,1,8,0:0:0:0:
448,88,300265,1,0,0:0:0:0:
440,128,300340,1,2,0:0:0:0:
400,152,300415,1,0,0:0:0:0:
352,144,300490,2,0,P|320:144|280:128,1,50,8|0,0:0|0:0,0:0:0:0:
172,64,300640,5,6,0:0:0:0:
130,81,300715,1,0,0:0:0:0:
109,121,300790,1,8,0:0:0:0:
118,165,300865,1,0,0:0:0:0:
124,209,300940,5,2,0:0:0:0:
109,253,301015,1,0,0:0:0:0:
69,277,301090,1,8,0:0:0:0:
24,272,301165,1,0,0:0:0:0:
0,232,301240,1,2,0:0:0:0:
16,192,301315,1,0,0:0:0:0:
56,168,301390,1,8,0:0:0:0:
96,176,301465,1,0,0:0:0:0:
124,209,301540,6,0,P|180:249|268:217,1,150,2|0,0:0|0:0,0:0:0:0:
288,208,301840,5,6,0:0:0:0:
312,184,301915,1,0,0:0:0:0:
320,152,301990,1,8,0:0:0:0:
312,120,302065,1,0,0:0:0:0:
288,96,302140,1,2,0:0:0:0:
256,88,302215,1,0,0:0:0:0:
224,96,302290,1,8,0:0:0:0:
200,120,302365,1,0,0:0:0:0:
192,152,302440,5,2,0:0:0:0:
224,184,302515,1,0,0:0:0:0:
232,232,302590,1,8,0:0:0:0:
208,272,302665,1,0,0:0:0:0:
164,286,302740,1,2,0:0:0:0:
120,264,302815,1,0,0:0:0:0:
104,216,302890,1,8,0:0:0:0:
120,168,302965,1,0,0:0:0:0:
168,152,303040,5,6,0:0:0:0:
184,104,303115,1,0,0:0:0:0:
224,72,303190,1,8,0:0:0:0:
272,64,303265,1,0,0:0:0:0:
320,80,303340,5,2,0:0:0:0:
368,64,303415,1,0,0:0:0:0:
416,80,303490,1,8,0:0:0:0:
448,120,303565,1,0,0:0:0:0:
449,170,303640,6,0,B|465:202|473:218|473:218|449:218|433:234|425:266|425:266|401:250|369:258|361:290|361:290|321:282|273:330,1,300,2|0,0:0|0:0,0:0:0:0:
80,272,304240,5,6,0:0:0:0:
88,240,304315,1,0,0:0:0:0:
112,216,304390,1,8,0:0:0:0:
144,208,304465,1,0,0:0:0:0:
184,224,304540,5,2,0:0:0:0:
176,264,304615,1,0,0:0:0:0:
192,304,304690,1,8,0:0:0:0:
224,328,304765,1,0,0:0:0:0:
264,336,304840,2,0,P|329:345|397:305,1,100,2|8,0:0|0:0,0:0:0:0:
392,312,305065,1,0,0:0:0:0:
400,304,305140,1,2,0:0:0:0:
408,296,305215,1,0,0:0:0:0:
392,272,305290,5,8,0:0:0:0:
368,264,305365,1,0,0:0:0:0:
344,264,305440,1,6,0:0:0:0:
320,272,305515,1,0,0:0:0:0:
288,280,305590,5,8,0:0:0:0:
272,248,305665,1,0,0:0:0:0:
272,216,305740,1,2,0:0:0:0:
280,184,305815,1,0,0:0:0:0:
304,160,305890,1,8,0:0:0:0:
336,160,305965,1,0,0:0:0:0:
360,184,306040,2,0,P|369:214|345:248,3,50,2|0|8|0,0:0|0:0|0:0|0:0,0:0:0:0:
336,288,306340,2,0,P|266:326|184:294,1,150,2|0,0:0|0:0,0:0:0:0:
156,204,306640,5,12,1:1:0:0:
149,159,306715,1,2,1:3:0:0:
160,117,306790,1,2,1:3:0:0:
191,86,306865,1,2,1:3:0:0:
264,144,306940,5,8,1:1:0:0:
280,173,307015,1,8,1:3:0:0:
279,206,307090,1,8,1:3:0:0:
262,235,307165,1,8,1:3:0:0:
160,212,307240,5,8,1:1:0:0:
152,188,307315,1,4,1:3:0:0:
144,164,307390,1,4,1:3:0:0:
136,140,307465,1,4,1:3:0:0:
160,64,307540,5,8,1:1:0:0:
174,69,307615,1,12,1:3:0:0:
189,74,307690,1,12,1:3:0:0:
204,80,307765,1,12,1:3:0:0:
232,96,307840,6,0,L|304:88,1,50,12|8,1:1|1:1,1:1:0:0:
384,168,307990,2,0,L|334:173,1,50,8|8,1:1|1:1,1:1:0:0:
184,232,308140,5,0,0:0:0:0:
168,232,308215,1,0,0:0:0:0:
152,240,308290,1,0,0:0:0:0:
144,248,308365,1,0,0:0:0:0:
136,264,308440,1,0,0:0:0:0:
144,280,308515,1,0,0:0:0:0:
160,288,308590,1,0,0:0:0:0:
176,288,308665,1,0,0:0:0:0:
200,280,308740,5,0,0:0:0:0:
216,264,308815,1,0,0:0:0:0:
240,256,308890,1,0,0:0:0:0:
264,256,308965,1,0,0:0:0:0:
288,264,309040,6,0,P|376:256|432:168,1,200,6|2,0:0|0:0,0:0:0:0:
360,56,309490,2,0,P|264:68|215:152,1,200,2|2,0:0|0:0,0:0:0:0:
328,168,309940,1,2,0:0:0:0:
328,168,310015,1,0,0:0:0:0:
328,168,310090,1,2,0:0:0:0:
385,248,310240,6,0,P|421:215|432:167,2,100,6|2|2,0:0|0:0|0:0,0:0:0:0:
256,192,310690,1,2,0:0:0:0:
126,248,310840,2,0,P|90:215|80:167,1,100,2|2,0:0|0:0,0:0:0:0:
176,176,311140,1,2,0:0:0:0:
176,176,311215,1,0,0:0:0:0:
176,176,311290,1,2,0:0:0:0:
248,336,311440,5,6,0:0:0:0:
296,224,311590,1,0,0:0:0:0:
408,192,311740,1,2,0:0:0:0:
256,128,311890,1,0,0:0:0:0:
336,320,312040,1,2,0:0:0:0:
184,256,312190,1,0,0:0:0:0:
408,192,312340,1,2,0:0:0:0:
408,192,312640,5,6,0:0:0:0:
296,224,312790,1,0,0:0:0:0:
184,256,312940,1,2,0:0:0:0:
64,208,313090,2,0,L|184:176,2,100,2|2|2,0:0|0:0|0:0,0:0:0:0:
64,336,313540,2,0,P|168:352|240:312,1,150,2|0,0:0|0:0,0:0:0:0:
256,328,313840,5,6,0:0:0:0:
280,320,313915,1,0,0:0:0:0:
304,320,313990,1,0,0:0:0:0:
328,328,314065,1,0,0:0:0:0:
352,344,314140,2,0,L|424:328,1,50,2|0,0:0|0:0,0:0:0:0:
512,280,314290,2,0,L|456:264,1,50
296,104,314440,1,2,0:0:0:0:
335,135,314515,1,0,0:0:0:0:
349,183,314590,2,0,P|357:204|354:238,1,50
297,307,314740,5,2,0:0:0:0:
269,329,314815,1,0,0:0:0:0:
240,344,314890,1,0,0:0:0:0:
208,351,314965,1,0,0:0:0:0:
183,349,315040,1,6,0:0:0:0:
164,337,315115,1,0,0:0:0:0:
153,323,315190,1,0,0:0:0:0:
149,308,315265,1,0,0:0:0:0:
155,298,315340,5,2,0:0:0:0:
163,296,315415,1,0,0:0:0:0:
171,297,315490,2,0,B|192:283|192:283|242:288,1,50
280,328,315640,6,0,L|360:328,1,60.0000022888184,2|0,0:0|0:0,0:0:0:0:
416,328,315865,5,0,0:0:0:0:
432,336,315940,2,0,P|480:280|464:208,1,150,2|0,0:0|0:0,0:0:0:0:
368,213,316240,2,0,L|320:200,1,50,12|8,0:0|0:0,0:0:0:0:
280,130,316390,2,0,L|232:144,1,50,8|8,0:0|0:0,0:0:0:0:
120,176,316540,5,2,1:3:0:0:
96,231,316615,1,2,1:3:0:0:
113,288,316690,1,2,1:3:0:0:
170,305,316765,1,2,1:3:0:0:
219,271,316840,1,8,1:3:0:0:
215,211,316915,1,8,1:3:0:0:
164,178,316990,1,8,1:3:0:0:
137,124,317065,1,8,1:3:0:0:
141,64,317140,5,4,1:3:0:0:
191,31,317215,1,4,1:3:0:0:
249,45,317290,1,4,1:3:0:0:
272,99,317365,1,4,1:3:0:0:
255,156,317440,5,12,0:0:0:0:
255,172,317515,1,8,0:0:0:0:
247,188,317590,1,8,0:0:0:0:
239,204,317665,1,8,0:0:0:0:
223,212,317740,2,0,L|295:228,1,50,2|2,0:0|0:0,0:0:0:0:
413,266,317890,5,8,0:0:0:0:
400,311,317965,1,8,0:0:0:0:
376,346,318040,1,8,0:0:0:0:
337,368,318115,1,8,0:0:0:0:
294,381,318190,2,0,P|268:380|222:345,1,50,2|2,0:0|0:0,0:0:0:0:
136,320,318340,1,8,0:0:0:0:
148,266,318415,1,8,0:0:0:0:
159,211,318490,2,0,L|178:117,1,50,2|0,0:0|0:0,0:0:0:0:
200,40,318640,5,6,0:0:0:0:
200,56,318715,1,0,0:0:0:0:
208,72,318790,1,8,0:0:0:0:
224,80,318865,1,0,0:0:0:0:
240,72,318940,5,2,0:0:0:0:
256,64,319015,1,0,0:0:0:0:
272,64,319090,1,8,0:0:0:0:
288,72,319165,1,0,0:0:0:0:
296,88,319240,5,2,0:0:0:0:
288,104,319315,1,0,0:0:0:0:
272,112,319390,1,8,0:0:0:0:
256,104,319465,1,0,0:0:0:0:
248,88,319540,2,0,L|200:56,3,30.0000011444092,2|0|8|0,0:0|0:0|0:0|0:0,0:0:0:0:
192,64,319840,6,0,L|160:64,1,30.0000011444092,6|0,0:0|0:0,0:0:0:0:
127,72,319990,2,0,P|95:111|102:183,1,120.000004577637,8|8,0:0|0:0,0:0:0:0:
216,144,320440,1,2,0:0:0:0:
296,56,320590,1,8,0:0:0:0:
376,144,320740,2,0,P|392:200|376:248,1,90.0000034332277,2|0,0:0|0:0,0:0:0:0:
360,288,321040,5,6,0:0:0:0:
304,312,321115,1,0,0:0:0:0:
248,288,321190,1,8,0:0:0:0:
224,232,321265,1,0,0:0:0:0:
184,184,321340,1,2,0:0:0:0:
128,160,321415,1,0,0:0:0:0:
72,184,321490,1,8,0:0:0:0:
48,240,321565,1,0,0:0:0:0:
70,298,321640,5,2,0:0:0:0:
117,339,321715,1,0,0:0:0:0:
177,351,321790,1,8,0:0:0:0:
236,333,321865,1,0,0:0:0:0:
280,291,321940,1,2,0:0:0:0:
298,232,322015,1,0,0:0:0:0:
285,171,322090,2,0,P|278:144|251:120,1,50,8|0,0:0|0:0,0:0:0:0:
184,64,322240,5,6,0:0:0:0:
168,72,322315,1,0,0:0:0:0:
152,88,322390,1,8,0:0:0:0:
144,104,322465,1,0,0:0:0:0:
144,120,322540,2,0,P|144:176|192:224,1,100,2|8,0:0|0:0,0:0:0:0:
304,328,322840,1,2,0:0:0:0:
200,268,322990,1,8,0:0:0:0:
384,236,323140,1,2,0:0:0:0:
239,152,323290,1,8,0:0:0:0:
392,80,323440,5,6,0:0:0:0:
400,120,323515,1,0,0:0:0:0:
385,157,323590,1,8,0:0:0:0:
280,80,323740,5,2,0:0:0:0:
272,40,323815,1,0,0:0:0:0:
286,2,323890,1,8,0:0:0:0:
392,80,324040,5,2,0:0:0:0:
368,120,324115,1,0,0:0:0:0:
368,168,324190,1,8,0:0:0:0:
392,208,324265,1,0,0:0:0:0:
389,254,324340,5,2,0:0:0:0:
368,296,324415,1,0,0:0:0:0:
320,304,324490,1,8,0:0:0:0:
284,275,324565,1,0,0:0:0:0:
272,232,324640,2,0,P|291:197|335:177,1,50,6|0,0:0|0:0,0:0:0:0:
424,160,324790,2,0,P|464:168|488:200,1,50,8|0,0:0|0:0,0:0:0:0:
448,264,324940,5,2,0:0:0:0:
440,272,325015,1,0,0:0:0:0:
432,280,325090,1,8,0:0:0:0:
424,288,325165,1,0,0:0:0:0:
416,296,325240,5,2,0:0:0:0:
368,272,325315,1,0,0:0:0:0:
312,264,325390,1,8,0:0:0:0:
264,288,325465,1,0,0:0:0:0:
231,331,325540,1,2,0:0:0:0:
178,339,325615,1,0,0:0:0:0:
137,306,325690,2,0,P|113:290|113:234,1,50,8|0,0:0|0:0,0:0:0:0:
96,152,325840,5,6,0:0:0:0:
110,149,325915,1,0,0:0:0:0:
124,146,325990,1,8,0:0:0:0:
138,145,326065,1,0,0:0:0:0:
153,145,326140,1,2,0:0:0:0:
167,147,326215,1,0,0:0:0:0:
181,152,326290,1,8,0:0:0:0:
194,158,326365,1,0,0:0:0:0:
205,168,326440,6,0,B|295:211|295:211|423:203,1,200,2|0,0:0|0:0,0:0:0:0:
395,204,326815,1,0,0:0:0:0:
395,204,326890,1,8,0:0:0:0:
264,96,327040,5,10,0:0:0:0:
280,88,327115,1,8,0:0:0:0:
296,80,327190,2,0,L|344:66,1,50,2|2,0:0|0:0,0:0:0:0:
232,168,327340,2,0,L|280:184,1,50,2|0,1:3|1:3,1:3:0:0:
144,112,327490,2,0,L|200:104,1,50,8|0,1:3|1:3,1:3:0:0:
400,80,327640,2,0,B|432:96|456:96|456:96|440:136|440:136|464:160|464:184|464:184|448:200|440:232,1,210.000002002716,14|0,0:0|0:0,0:0:0:0:
424,264,327940,2,0,P|400:272|368:264,3,50,2|0|8|0,1:3|1:3|1:3|1:3,1:3:0:0:
272,288,328240,6,0,B|176:264|176:264|64:288,1,200,6|2,0:0|0:0,0:0:0:0:
72,288,328615,1,0,0:0:0:0:
72,288,328690,1,2,0:0:0:0:
240,96,328840,2,0,B|336:120|336:120|434:98,1,200,2|2,0:0|0:0,0:0:0:0:
434,98,329215,1,0,0:0:0:0:
434,98,329290,1,0,0:0:0:0:
384,208,329440,1,6,0:0:0:0:
264,208,329590,1,2,0:0:0:0:
184,296,329740,1,2,0:0:0:0:
104,208,329890,6,0,P|112:136|240:80,1,200,2|0,0:0|0:0,0:0:0:0:
224,200,330340,1,2,0:0:0:0:
224,200,330415,1,0,0:0:0:0:
224,200,330490,1,0,0:0:0:0:
344,184,330640,6,0,P|328:264|288:296,1,100,6|0,0:0|0:0,0:0:0:0:
176,328,330940,1,2,0:0:0:0:
64,224,331090,1,2,0:0:0:0:
72,72,331240,2,0,L|216:56,1,100,2|2,0:0|0:0,0:0:0:0:
352,152,331540,5,2,0:0:0:0:
152,168,331690,1,2,0:0:0:0:
40,336,331840,1,6,0:0:0:0:
240,336,331990,1,2,0:0:0:0:
40,232,332140,1,2,0:0:0:0:
240,232,332290,1,2,0:0:0:0:
352,64,332440,2,0,P|264:24|176:256,1,400,2|6,0:0|0:0,0:0:0:0:
264,288,333190,5,0,0:0:0:0:
168,360,333340,2,0,P|72:272|40:176,1,200,2|2,0:0|0:0,0:0:0:0:
168,224,333790,1,0,0:0:0:0:
128,112,333940,1,2,0:0:0:0:
128,112,334015,1,0,0:0:0:0:
128,112,334090,1,0,0:0:0:0:
240,72,334240,2,0,B|360:48|416:168,1,200,6|2,0:0|0:0,0:0:0:0:
288,168,334690,2,0,B|170:191|123:88,1,200,2|2,0:0|0:0,0:0:0:0:
248,80,335140,5,2,0:0:0:0:
248,80,335215,1,0,0:0:0:0:
248,80,335290,1,2,0:0:0:0:
336,160,335440,1,2,0:0:0:0:
272,264,335590,1,2,0:0:0:0:
360,344,335740,1,2,0:0:0:0:
288,264,335890,5,2,0:0:0:0:
376,344,336040,1,2,0:0:0:0:
472,264,336190,1,2,0:0:0:0:
376,176,336340,1,2,0:0:0:0:
280,256,336490,1,2,0:0:0:0:
192,176,336640,5,10,0:0:0:0:
186,170,336715,1,8,0:0:0:0:
180,165,336790,1,8,0:0:0:0:
174,159,336865,1,8,0:0:0:0:
168,154,336940,1,10,0:0:0:0:
162,149,337015,1,8,0:0:0:0:
156,143,337090,1,8,0:0:0:0:
150,138,337165,1,8,0:0:0:0:
144,133,337240,5,10,0:0:0:0:
138,127,337315,1,8,0:0:0:0:
132,122,337390,1,8,0:0:0:0:
126,117,337465,1,8,0:0:0:0:
120,111,337540,1,10,0:0:0:0:
114,106,337615,1,8,0:0:0:0:
108,101,337690,1,8,0:0:0:0:
102,95,337765,1,8,0:0:0:0:
96,88,337840,6,0,P|160:72|224:80,1,100,6|10,0:0|0:0,0:0:0:0:
240,216,338140,1,2,0:0:0:0:
240,216,338290,2,0,P|144:200|40:240,1,200,10|10,0:0|0:0,0:0:0:0:
0,344,338740,1,2,0:0:0:0:
0,344,338890,2,0,P|64:328|128:336,1,100,10|6,0:0|0:0,0:0:0:0:
216,344,339190,5,8,0:0:0:0:
360,320,339340,1,2,0:0:0:0:
336,176,339490,1,8,0:0:0:0:
192,200,339640,1,2,0:0:0:0:
296,368,339790,1,8,0:0:0:0:
472,264,339940,2,0,P|480:208|432:144,1,100,2|8,0:0|0:0,0:0:0:0:
296,104,340240,6,0,B|201:84|201:84|102:111,1,180.000006866455,6|0,0:0|0:0,0:0:0:0:
64,176,340540,6,0,B|158:195|158:195|257:168,1,180.000006866455,2|0,0:0|0:0,0:0:0:0:
272,256,340840,6,0,B|366:236|366:236|465:263,1,180.000006866455,2|0,0:0|0:0,0:0:0:0:
504,328,341140,6,0,B|409:347|409:347|310:320,1,180.000006866455,2|0,0:0|0:0,0:0:0:0:
240,320,341440,5,6,0:0:0:0:
168,304,341590,1,2,0:0:0:0:
216,256,341740,1,2,0:0:0:0:
96,112,341890,5,2,0:0:0:0:
120,176,342040,1,2,0:0:0:0:
48,160,342190,1,2,0:0:0:0:
168,128,342340,6,0,P|248:120|304:184,1,120.000004577637,2|0,0:0|0:0,0:0:0:0:
400,296,342640,5,6,0:0:0:0:
349,327,342715,1,0,0:0:0:0:
289,326,342790,1,8,0:0:0:0:
242,287,342865,1,0,0:0:0:0:
184,269,342940,1,0,0:0:0:0:
125,282,343015,1,0,0:0:0:0:
68,302,343090,2,0,P|24:288|0:224,1,60.0000022888184,8|0,0:0|0:0,0:0:0:0:
54,155,343240,5,0,0:0:0:0:
112,170,343315,1,0,0:0:0:0:
137,224,343390,1,8,0:0:0:0:
125,282,343465,1,0,0:0:0:0:
155,333,343540,1,0,0:0:0:0:
209,357,343615,1,0,0:0:0:0:
268,350,343690,2,0,P|313:330|338:286,1,60.0000022888184,8|0,0:0|0:0,0:0:0:0:
408,208,343840,5,4,0:0:0:0:
404,148,343915,1,0,0:0:0:0:
354,113,343990,1,8,0:0:0:0:
294,114,344065,1,0,0:0:0:0:
259,162,344140,5,0,0:0:0:0:
259,221,344215,1,0,0:0:0:0:
305,259,344290,1,8,0:0:0:0:
294,318,344365,1,0,0:0:0:0:
235,329,344440,5,0,0:0:0:0:
226,281,344515,1,0,0:0:0:0:
195,244,344590,1,8,0:0:0:0:
150,227,344665,1,0,0:0:0:0:
143,191,344740,5,0,0:0:0:0:
158,158,344815,1,0,0:0:0:0:
189,140,344890,1,8,0:0:0:0:
224,145,344965,1,0,0:0:0:0:
248,168,345040,5,14,0:0:0:0:
248,176,345115,1,8,0:0:0:0:
248,184,345190,1,8,0:0:0:0:
248,192,345265,1,8,0:0:0:0:
248,200,345340,1,10,0:0:0:0:
248,208,345415,1,8,0:0:0:0:
248,216,345490,1,8,0:0:0:0:
248,224,345565,1,8,0:0:0:0:
248,232,345640,6,0,P|304:224|320:224,1,60.0000022888184,2|0,0:3|1:3,1:3:0:0:
480,176,345790,2,0,P|424:168|408:168,1,60.0000022888184,8|0,1:3|1:3,1:3:0:0:
216,136,345940,2,0,P|272:128|288:128,1,60.0000022888184,4|0,1:3|1:3,1:3:0:0:
448,80,346090,2,0,P|392:72|376:72,1,60.0000022888184,12|0,1:3|1:3,1:3:0:0:
176,56,346240,5,14,0:0:0:0:
152,63,346315,1,8,0:0:0:0:
131,74,346390,1,8,0:0:0:0:
112,90,346465,1,8,0:0:0:0:
98,109,346540,1,10,0:0:0:0:
87,130,346615,1,8,0:0:0:0:
81,154,346690,1,8,0:0:0:0:
80,178,346765,1,8,0:0:0:0:
84,201,346840,5,10,0:0:0:0:
92,224,346915,1,8,0:0:0:0:
105,244,346990,1,8,0:0:0:0:
121,262,347065,1,8,0:0:0:0:
141,275,347140,1,10,0:0:0:0:
163,285,347215,1,8,0:0:0:0:
186,290,347290,1,8,0:0:0:0:
210,290,347365,1,8,0:0:0:0:
234,285,347440,6,0,P|315:254|368:128,1,200,14|2,0:0|0:0,0:0:0:0:
367,159,347815,1,2,0:0:0:0:
367,159,347890,1,8,0:0:0:0:
248,168,348040,1,2,0:0:0:0:
248,48,348190,2,0,P|166:78|146:125,1,100,8|2,0:0|0:0,0:0:0:0:
160,85,348415,1,2,0:0:0:0:
160,85,348490,1,8,0:0:0:0:
80,216,348640,1,6,0:0:0:0:
80,216,348790,2,0,L|184:224,1,100,8|2,0:0|0:0,0:0:0:0:
304,312,349090,6,0,L|80:328,1,200,8|8,0:0|0:0,0:0:0:0:
88,224,349540,1,2,0:0:0:0:
88,224,349615,1,2,0:0:0:0:
88,224,349690,1,8,0:0:0:0:
176,104,349840,5,6,0:0:0:0:
200,136,349915,1,0,0:0:0:0:
240,152,349990,1,8,0:0:0:0:
280,152,350065,1,0,0:0:0:0:
312,160,350140,1,2,0:0:0:0:
336,184,350215,1,0,0:0:0:0:
336,216,350290,1,8,0:0:0:0:
312,240,350365,1,0,0:0:0:0:
280,240,350440,6,0,P|232:248|176:232,1,100,2|8,0:0|0:0,0:0:0:0:
56,80,350740,1,2,0:0:0:0:
256,104,350890,1,8,0:0:0:0:
408,240,351040,1,6,0:0:0:0:
208,248,351190,1,8,0:0:0:0:
360,136,351340,1,2,0:0:0:0:
320,328,351490,2,0,P|240:384|120:344,1,200,8|8,0:0|0:0,0:0:0:0:
216,264,351940,1,0,0:0:0:0:
216,264,352015,1,0,0:0:0:0:
216,264,352090,1,0,0:0:0:0:
176,120,352240,5,6,0:0:0:0:
144,112,352315,1,0,0:0:0:0:
112,120,352390,1,8,0:0:0:0:
88,144,352465,1,0,0:0:0:0:
56,160,352540,1,2,0:0:0:0:
24,144,352615,1,0,0:0:0:0:
16,112,352690,1,8,0:0:0:0:
40,88,352765,1,0,0:0:0:0:
72,80,352840,5,2,0:0:0:0:
96,104,352915,1,0,0:0:0:0:
128,120,352990,1,8,0:0:0:0:
160,120,353065,1,0,0:0:0:0:
192,104,353140,1,2,0:0:0:0:
216,80,353215,1,0,0:0:0:0:
248,72,353290,1,8,0:0:0:0:
280,80,353365,1,0,0:0:0:0:
304,104,353440,5,6,0:0:0:0:
312,136,353515,1,0,0:0:0:0:
296,168,353590,1,8,0:0:0:0:
264,184,353665,1,0,0:0:0:0:
232,176,353740,1,2,0:0:0:0:
208,152,353815,1,0,0:0:0:0:
208,120,353890,1,8,0:0:0:0:
232,96,353965,1,0,0:0:0:0:
264,88,354040,5,2,0:0:0:0:
280,56,354115,1,0,0:0:0:0:
264,24,354190,1,8,0:0:0:0:
232,16,354265,1,0,0:0:0:0:
200,32,354340,2,0,P|160:64|200:160,1,150,2|0,0:0|0:0,0:0:0:0:
232,184,354640,5,6,0:0:0:0:
264,176,354715,1,0,0:0:0:0:
296,184,354790,1,8,0:0:0:0:
320,208,354865,1,0,0:0:0:0:
328,248,354940,5,2,0:0:0:0:
304,288,355015,1,0,0:0:0:0:
256,296,355090,1,8,0:0:0:0:
216,272,355165,1,0,0:0:0:0:
199,219,355240,5,2,0:0:0:0:
167,264,355315,1,0,0:0:0:0:
114,279,355390,1,8,0:0:0:0:
65,253,355465,1,0,0:0:0:0:
66,198,355540,5,2,0:0:0:0:
118,168,355615,1,0,0:0:0:0:
133,109,355690,1,8,0:0:0:0:
98,59,355765,1,0,0:0:0:0:
45,29,355840,6,0,L|40:82,1,50,12|8,0:0|0:0,0:0:0:0:
113,217,355990,2,0,L|118:156,1,50,8|8,0:0|0:0,0:0:0:0:
40,78,356140,5,2,1:3:0:0:
39,87,356215,1,2,1:3:0:0:
39,95,356290,1,2,1:3:0:0:
39,103,356365,1,2,1:3:0:0:
40,112,356440,6,0,L|35:165,1,50,8|8,0:0|0:0,0:0:0:0:
108,268,356590,2,0,L|113:207,1,50,8|8,0:0|0:0,0:0:0:0:
40,120,356740,5,12,1:3:0:0:
40,128,356815,1,12,1:3:0:0:
40,136,356890,1,12,1:3:0:0:
40,144,356965,1,12,1:3:0:0:
40,152,357040,6,0,L|112:160,1,50,4|0,0:0|0:0,0:0:0:0:
136,64,357190,2,0,L|64:72,1,50,10|0,0:0|0:0,0:0:0:0:
128,208,357340,2,0,L|200:216,1,50,0|0,0:0|0:0,0:0:0:0:
224,120,357490,2,0,L|152:128,1,50,10|0,0:0|0:0,0:0:0:0:
224,256,357640,6,0,L|296:264,1,50
320,168,357790,2,0,L|248:176,1,50,10|0,0:0|0:0,0:0:0:0:
312,312,357940,2,0,L|384:320,1,50
408,224,358090,2,0,L|336:232,1,50,10|0,0:0|0:0,0:0:0:0:
224,240,358240,5,4,0:0:0:0:
166,256,358315,1,0,0:0:0:0:
115,222,358390,1,8,0:0:0:0:
112,162,358465,1,0,0:0:0:0:
158,123,358540,1,0,0:0:0:0:
217,129,358615,1,0,0:0:0:0:
257,85,358690,1,8,0:0:0:0:
232,30,358765,1,0,0:0:0:0:
173,17,358840,5,0,0:0:0:0:
126,55,358915,1,0,0:0:0:0:
125,114,358990,1,8,0:0:0:0:
171,152,359065,1,0,0:0:0:0:
193,207,359140,1,0,0:0:0:0:
183,266,359215,1,0,0:0:0:0:
216,315,359290,1,8,0:0:0:0:
273,332,359365,1,0,0:0:0:0:
332,336,359440,6,0,P|367:334|411:316,1,50,6|0,0:0|0:0,0:0:0:0:
496,288,359590,1,10,0:0:0:0:
473,260,359665,1,0,0:0:0:0:
444,247,359740,1,0,0:0:0:0:
408,248,359815,1,0,0:0:0:0:
376,240,359890,1,8,0:0:0:0:
352,216,359965,1,0,0:0:0:0:
336,184,360040,2,0,P|321:146|331:108,1,50,6|0,0:0|0:0,0:0:0:0:
336,8,360190,5,10,0:0:0:0:
304,16,360265,1,0,0:0:0:0:
280,40,360340,1,0,0:0:0:0:
272,72,360415,1,0,0:0:0:0:
248,104,360490,1,8,0:0:0:0:
216,120,360565,1,0,0:0:0:0:
184,120,360640,2,0,P|158:120|130:102,1,50,6|0,0:0|0:0,0:0:0:0:
80,25,360790,5,10,0:0:0:0:
49,53,360865,1,0,0:0:0:0:
39,93,360940,1,0,0:0:0:0:
46,133,361015,1,0,0:0:0:0:
74,164,361090,1,8,0:0:0:0:
110,186,361165,1,0,0:0:0:0:
152,192,361240,2,0,P|184:188|219:166,1,50,6|0,0:0|0:0,0:0:0:0:
288,88,361390,5,10,0:0:0:0:
328,112,361465,1,0,0:0:0:0:
352,152,361540,2,0,P|367:182|272:280,1,150,2|0,0:0|0:0,0:0:0:0:
280,288,361840,2,0,L|176:280,1,100,6|2,0:0|0:0,0:0:0:0:
88,208,362140,1,2,0:0:0:0:
88,208,362290,2,0,L|208:200,1,100,2|2,0:0|0:0,0:0:0:0:
336,192,362590,2,0,P|280:144|144:128,1,200,2|2,0:0|0:0,0:0:0:0:
144,248,363040,2,0,B|190:260|190:260|243:298,2,100,6|2|0,0:0|0:0|0:0,0:0:0:0:
72,112,363490,5,2,0:0:0:0:
72,112,363565,1,0,0:0:0:0:
72,112,363640,2,0,L|208:128,1,100,2|0,0:0|0:0,0:0:0:0:
304,192,363940,2,0,B|272:169|232:209|207:195,1,100,2|0,0:0|0:0,0:0:0:0:
56,192,364240,2,0,L|72:120,1,50,2|2,1:3|1:3,1:3:0:0:
128,88,364390,2,0,P|160:80|192:88,1,50,12|2,1:3|1:1,1:3:0:0:
264,104,364540,5,10,1:3:0:0:
338,283,364690,5,2,1:1:0:0:
338,283,364765,1,2,1:1:0:0:
338,283,364840,2,0,P|367:276|384:262,1,50,8|10,1:1|1:3,1:0:0:0:
446,152,364990,5,2,1:1:0:0:
439,101,365065,1,2,1:1:0:0:
415,57,365140,1,8,1:1:0:0:
369,36,365215,1,12,1:3:0:0:
319,43,365290,1,2,1:1:0:0:
285,79,365365,1,2,1:1:0:0:
288,128,365440,6,0,L|304:184,1,50,12|8,0:0|0:0,0:0:0:0:
256,296,365590,2,0,L|240:240,1,50,8|8,0:0|0:0,0:0:0:0:
240,120,365740,5,2,1:3:0:0:
289,128,365815,1,2,1:3:0:0:
329,160,365890,1,2,1:3:0:0:
345,208,365965,1,2,1:3:0:0:
320,288,366040,5,8,1:3:0:0:
280,272,366115,1,8,1:3:0:0:
254,236,366190,1,8,1:3:0:0:
254,193,366265,1,8,1:3:0:0:
304,112,366340,5,4,1:3:0:0:
336,120,366415,1,4,1:3:0:0:
360,144,366490,2,0,P|369:171|360:202,1,50,4|4,1:3|1:3,1:3:0:0:
336,312,366640,5,14,0:0:0:0:
136,112,369040,5,14,0:0:0:0:
264,336,371440,5,14,0:0:0:0:
384,88,373840,5,14,0:0:0:0:
96,336,376240,5,14,0:0:0:0:
456,312,378640,5,14,0:0:0:0:
112,72,381040,5,14,0:0:0:0:
200,328,383440,5,14,0:0:0:0:
256,192,383515,12,0,384490,0:0:0:0:
336,112,384640,5,12,0:0:0:0:
208,88,384790,2,0,P|177:100|152:145,1,50,2|2,0:0|0:0,0:0:0:0:
80,208,384940,5,8,0:0:0:0:
96,232,385015,1,8,0:0:0:0:
104,256,385090,1,8,0:0:0:0:
104,280,385165,1,8,0:0:0:0:
96,304,385240,2,0,P|91:326|62:354,1,50,2|2,0:0|0:0,0:0:0:0:
160,336,385390,5,8,0:0:0:0:
188,302,385465,1,8,0:0:0:0:
226,279,385540,1,8,0:0:0:0:
270,275,385615,1,8,0:0:0:0:
314,281,385690,2,0,P|341:289|361:315,1,50,2|2,0:0|0:0,0:0:0:0:
456,352,385840,6,0,P|488:280|448:184,1,160,6|2,0:0|0:0,0:0:0:0:
466,205,386215,1,0,0:0:0:0:
466,205,386290,1,0,0:0:0:0:
376,72,386440,1,2,0:0:0:0:
352,232,386590,1,0,0:0:0:0:
200,272,386740,2,0,B|224:232|224:232|224:176,1,80,2|0,0:0|0:0,0:0:0:0:
256,40,387040,2,0,B|256:80|256:80|232:136,1,80,6|0,0:0|0:0,0:0:0:0:
80,128,387340,1,2,0:0:0:0:
80,128,387415,1,0,0:0:0:0:
80,128,387490,6,0,P|48:200|80:296,1,160,2|2,0:0|0:0,0:0:0:0:
152,320,387940,2,0,L|232:336,1,80,2|2,0:0|0:0,0:0:0:0:
312,288,388240,2,0,B|335:209|279:209|298:133,1,160,2|2,0:0|0:0,0:0:0:0:
200,136,388690,2,0,B|219:211|163:211|186:290,1,160,2|0,0:0|0:0,0:0:0:0:
320,296,389140,5,2,0:0:0:0:
320,296,389215,1,0,0:0:0:0:
320,296,389290,1,0,0:0:0:0:
360,144,389440,1,6,0:0:0:0:
288,0,389590,1,0,0:0:0:0:
248,152,389740,1,2,0:0:0:0:
248,152,389815,1,0,0:0:0:0:
248,152,389890,1,0,0:0:0:0:
88,120,390040,6,0,P|101:42|176:9,1,160,2|2,0:0|0:0,0:0:0:0:
232,56,390490,1,0,0:0:0:0:
320,192,390640,2,0,L|256:208,3,40,6|0|8|0,0:0|0:0|0:0|0:0,0:0:0:0:
200,176,390940,1,0,0:0:0:0:
200,176,391015,1,0,0:0:0:0:
200,176,391090,2,0,L|161:166,3,40,10|0|0|0,0:0|0:0|0:0|0:0,0:0:0:0:
48,144,391390,5,8,0:0:0:0:
48,176,391465,1,0,0:0:0:0:
56,208,391540,1,2,0:0:0:0:
72,240,391615,1,0,0:0:0:0:
96,264,391690,2,0,P|111:273|131:281,1,40,8|0,0:0|0:0,0:0:0:0:
256,288,391840,2,0,L|296:272,3,40,6|0|8|0,0:0|0:0|0:0|0:0,0:0:0:0:
368,176,392140,1,0,0:0:0:0:
368,176,392215,1,0,0:0:0:0:
368,176,392290,2,0,L|328:160,3,40,10|0|0|0,0:0|0:0|0:0|0:0,0:0:0:0:
272,76,392590,5,8,0:0:0:0:
244,85,392665,1,0,0:0:0:0:
217,95,392740,1,2,0:0:0:0:
190,105,392815,1,0,0:0:0:0:
163,114,392890,2,0,L|100:133,1,40,8|0,0:0|0:0,0:0:0:0:
196,224,393040,5,2,1:3:0:0:
212,232,393115,1,2,1:3:0:0:
228,248,393190,1,2,1:3:0:0:
236,264,393265,1,2,1:3:0:0:
312,312,393340,1,8,1:3:0:0:
345,323,393415,1,8,1:3:0:0:
374,317,393490,1,8,1:3:0:0:
396,295,393565,1,8,1:3:0:0:
408,261,393640,6,0,L|380:197,1,40,8|8,0:0|0:0,0:0:0:0:
328,120,393790,2,0,L|312:156,1,40,8|8,0:0|0:0,0:0:0:0:
248,256,393940,5,2,0:0:0:0:
224,248,394015,1,2,0:0:0:0:
208,232,394090,1,2,0:0:0:0:
192,208,394165,1,2,0:0:0:0:
192,184,394240,6,0,L|216:120,1,40,12|8,0:0|0:0,0:0:0:0:
256,40,394390,2,0,L|270:77,1,40,8|8,0:0|0:0,0:0:0:0:
304,192,394540,5,2,0:0:0:0:
306,228,394615,1,2,0:0:0:0:
291,260,394690,1,2,1:3:0:0:
261,280,394765,1,2,1:3:0:0:
225,283,394840,5,2,1:3:0:0:
192,267,394915,1,2,1:3:0:0:
172,237,394990,1,2,0:0:0:0:
170,201,395065,1,2,1:0:0:0:
186,169,395140,5,8,1:3:0:0:
215,149,395215,1,8,1:3:0:0:
251,146,395290,1,8,1:3:0:0:
284,162,395365,1,8,1:3:0:0:
304,192,395440,6,0,P|317:276|264:336,1,160,6|2,0:0|0:0,0:0:0:0:
273,331,395815,1,0,0:0:0:0:
273,331,395890,1,0,0:0:0:0:
128,272,396040,1,2,0:0:0:0:
200,128,396190,1,0,0:0:0:0:
104,0,396340,2,0,L|88:96,1,80,2|2,0:0|0:0,0:0:0:0:
72,176,396640,2,0,B|96:248|96:248|184:312,1,160,6|2,0:0|0:0,0:0:0:0:
256,320,397090,2,0,B|232:248|232:248|144:184,1,160,2|0,0:0|0:0,0:0:0:0:
80,184,397540,5,2,0:0:0:0:
80,184,397615,1,0,0:0:0:0:
80,184,397690,1,0,0:0:0:0:
192,72,397840,5,6,0:0:0:0:
232,64,397915,1,0,0:0:0:0:
272,72,397990,1,8,0:0:0:0:
304,96,398065,1,0,0:0:0:0:
320,136,398140,2,0,P|321:164|303:209,1,40,2|0,0:0|0:0,0:0:0:0:
248,248,398290,5,10,0:0:0:0:
225,272,398365,1,0,0:0:0:0:
229,307,398440,1,0,0:0:0:0:
253,330,398515,1,0,0:0:0:0:
286,337,398590,1,8,0:0:0:0:
313,319,398665,1,0,0:0:0:0:
331,288,398740,2,0,P|333:262|320:213,3,40,2|0|8|0,0:0|0:0|0:0|0:0,0:0:0:0:
328,144,399040,5,6,0:0:0:0:
312,120,399115,1,0,0:0:0:0:
288,104,399190,1,8,0:0:0:0:
264,96,399265,1,0,0:0:0:0:
240,80,399340,1,0,0:0:0:0:
224,56,399415,1,0,0:0:0:0:
232,32,399490,1,8,0:0:0:0:
256,24,399565,1,0,0:0:0:0:
280,32,399640,6,0,P|303:36|328:64,3,40,2|0|8|0,0:0|0:0|0:0|0:0,0:0:0:0:
344,120,399940,2,0,P|360:130|380:134,3,40,2|0|8|0,0:0|0:0|0:0|0:0,0:0:0:0:
496,152,400240,5,2,1:3:0:0:
464,192,400315,1,2,1:3:0:0:
416,213,400390,1,2,1:3:0:0:
364,218,400465,1,2,1:3:0:0:
314,202,400540,1,2,1:3:0:0:
272,170,400615,1,2,1:3:0:0:
233,60,400690,5,8,1:3:0:0:
268,64,400765,1,8,1:3:0:0:
300,79,400840,1,8,1:3:0:0:
327,102,400915,1,8,1:3:0:0:
344,133,400990,1,8,1:3:0:0:
349,168,401065,1,8,1:3:0:0:
320,276,401140,5,4,1:3:0:0:
284,269,401215,1,4,1:3:0:0:
259,242,401290,2,0,L|232:196,1,40,4|4,1:3|1:3,1:3:0:0:
176,76,401440,5,14,0:0:0:0:
368,296,402640,5,6,0:0:0:0:
344,280,402715,1,0,0:0:0:0:
312,272,402790,1,8,0:0:0:0:
280,272,402865,1,0,0:0:0:0:
248,280,402940,2,0,P|227:292|210:310,1,35.9999989013672
128,336,403090,5,10,0:0:0:0:
142,298,403165,1,0,0:0:0:0:
156,261,403240,1,0,0:0:0:0:
171,223,403315,1,0,0:0:0:0:
185,186,403390,2,0,L|199:148,1,35.9999989013672,8|0,0:0|0:0,0:0:0:0:
232,48,403540,5,2,0:0:0:0:
272,56,403615,1,0,0:0:0:0:
304,80,403690,2,0,P|317:91|326:107,1,35.9999989013672,8|0,0:0|0:0,0:0:0:0:
320,216,403840,1,6,0:0:0:0:
285,194,403915,1,0,0:0:0:0:
264,160,403990,2,0,P|255:144|252:126,1,35.9999989013672,8|0,0:0|0:0,0:0:0:0:
312,32,404140,2,0,P|320:47|323:65,1,35.9999989013672
336,168,404290,5,10,0:0:0:0:
328,200,404365,1,0,0:0:0:0:
328,232,404440,1,0,0:0:0:0:
336,264,404515,1,0,0:0:0:0:
352,288,404590,1,8,0:0:0:0:
376,312,404665,1,0,0:0:0:0:
400,328,404740,2,0,L|440:344,3,35.9999989013672,2|0|8|0,0:0|0:0|0:0|0:0,0:0:0:0:
496,240,405040,5,6,0:0:0:0:
455,246,405115,1,0,0:0:0:0:
415,242,405190,1,8,0:0:0:0:
378,227,405265,1,0,0:0:0:0:
353,196,405340,2,0,L|314:138,1,35.9999989013672
248,64,405490,1,10,0:0:0:0:
232,80,405565,1,0,0:0:0:0:
224,104,405640,1,0,0:0:0:0:
232,128,405715,1,0,0:0:0:0:
248,144,405790,2,0,L|296:168,1,35.9999989013672,8|0,0:0|0:0,0:0:0:0:
450,221,405940,5,2,0:0:0:0:
426,189,406015,1,0,0:0:0:0:
394,173,406090,2,0,L|346:157,1,35.9999989013672,8|0,0:0|0:0,0:0:0:0:
232,160,406240,5,6,0:0:0:0:
196,178,406315,1,0,0:0:0:0:
156,180,406390,1,8,0:0:0:0:
118,159,406465,1,0,0:0:0:0:
87,129,406540,2,0,P|79:104|79:75,1,35.9999989013672
168,96,406690,5,10,0:0:0:0:
195,66,406765,1,0,0:0:0:0:
231,51,406840,1,0,0:0:0:0:
272,56,406915,1,0,0:0:0:0:
304,80,406990,1,8,0:0:0:0:
320,120,407065,1,0,0:0:0:0:
312,160,407140,2,0,P|304:184|288:200,3,35.9999989013672,2|0|8|0,0:0|0:0|0:0|0:0,0:0:0:0:
198,261,407440,5,6,0:0:0:0:
206,249,407515,1,0,0:0:0:0:
211,235,407590,1,8,0:0:0:0:
211,220,407665,1,0,0:0:0:0:
203,207,407740,1,0,0:0:0:0:
201,185,407815,1,0,0:0:0:0:
209,165,407890,1,10,0:0:0:0:
225,151,407965,1,0,0:0:0:0:
240,136,408040,5,0,0:0:0:0:
248,112,408115,1,0,0:0:0:0:
240,88,408190,1,8,0:0:0:0:
224,72,408265,1,0,0:0:0:0:
194,59,408340,1,2,0:0:0:0:
162,64,408415,1,0,0:0:0:0:
138,86,408490,1,8,0:0:0:0:
132,117,408565,1,0,0:0:0:0:
145,152,408640,5,6,0:0:0:0:
139,198,408715,1,0,0:0:0:0:
111,236,408790,1,8,0:0:0:0:
70,258,408865,1,0,0:0:0:0:
47,299,408940,1,0,0:0:0:0:
59,344,409015,1,0,0:0:0:0:
102,362,409090,1,10,0:0:0:0:
145,344,409165,1,0,0:0:0:0:
170,304,409240,5,0,0:0:0:0:
213,287,409315,1,0,0:0:0:0:
259,294,409390,1,8,0:0:0:0:
295,323,409465,1,0,0:0:0:0:
315,365,409540,2,0,P|331:373|363:373,3,35.9999989013672,2|0|8|0,0:0|0:0|0:0|0:0,0:0:0:0:
416,240,409840,5,6,0:0:0:0:
392,224,409915,1,0,0:0:0:0:
360,216,409990,1,8,0:0:0:0:
328,216,410065,1,0,0:0:0:0:
304,224,410140,2,0,P|274:237|256:254,1,35.9999989013672
208,312,410290,5,10,0:0:0:0:
232,328,410365,1,0,0:0:0:0:
264,336,410440,1,0,0:0:0:0:
296,336,410515,1,0,0:0:0:0:
320,328,410590,2,0,P|349:314|367:297,1,35.9999989013672,8|0,0:0|0:0,0:0:0:0:
432,216,410740,5,2,0:0:0:0:
400,192,410815,1,0,0:0:0:0:
368,168,410890,1,8,0:0:0:0:
336,144,410965,1,0,0:0:0:0:
304,120,411040,6,0,L|248:112,1,35.9999989013672,12|8,0:0|0:0,0:0:0:0:
104,88,411190,2,0,L|168:72,1,35.9999989013672,8|8,0:0|0:0,0:0:0:0:
200,32,411340,5,2,1:3:0:0:
224,36,411415,1,2,1:3:0:0:
249,40,411490,1,10,1:3:0:0:
274,44,411565,1,2,1:3:0:0:
368,88,411640,5,8,1:3:0:0:
360,96,411715,1,8,1:3:0:0:
352,104,411790,1,8,1:3:0:0:
344,112,411865,1,8,1:3:0:0:
304,160,411940,5,14,0:0:0:0:
260,328,412240,5,4,0:0:0:0:
216,320,412315,1,0,0:0:0:0:
176,296,412390,1,8,0:0:0:0:
152,256,412465,1,0,0:0:0:0:
144,208,412540,2,0,P|142:183|150:159,1,50
240,56,412690,1,10,0:0:0:0:
259,81,412765,1,0,0:0:0:0:
279,106,412840,1,0,0:0:0:0:
299,131,412915,1,0,0:0:0:0:
318,156,412990,2,0,L|372:225,1,50,8|0,0:0|0:0,0:0:0:0:
432,328,413140,5,2,0:0:0:0:
393,337,413215,1,0,0:0:0:0:
357,321,413290,2,0,L|283:288,1,50,8|0,0:0|0:0,0:0:0:0:
144,208,413440,6,0,L|240:208,1,50,6|0,0:0|0:0,0:0:0:0:
416,208,413590,6,0,L|366:208,3,50,8|0|0|0,0:0|0:0|0:0|0:0,0:0:0:0:
264,248,413890,1,10,0:0:0:0:
240,216,413965,1,0,0:0:0:0:
232,176,414040,1,0,0:0:0:0:
240,136,414115,1,0,0:0:0:0:
264,104,414190,2,0,P|284:83|317:82,1,50,8|0,0:0|0:0,0:0:0:0:
390,215,414340,5,2,0:0:0:0:
351,225,414415,1,0,0:0:0:0:
312,235,414490,2,0,L|226:257,1,50,8|0,0:0|0:0,0:0:0:0:
64,264,414640,5,6,0:0:0:0:
96,232,414715,1,0,0:0:0:0:
136,208,414790,1,8,0:0:0:0:
176,192,414865,1,0,0:0:0:0:
216,184,414940,2,0,P|248:176|296:184,1,50
424,224,415090,1,10,0:0:0:0:
370,241,415165,1,0,0:0:0:0:
317,258,415240,1,0,0:0:0:0:
264,275,415315,1,0,0:0:0:0:
210,293,415390,2,0,L|149:312,1,50,8|0,0:0|0:0,0:0:0:0:
32,312,415540,5,2,0:0:0:0:
48,264,415615,1,0,0:0:0:0:
88,232,415690,2,0,P|114:221|155:221,1,50,8|0,0:0|0:0,0:0:0:0:
288,200,415840,5,6,0:0:0:0:
240,184,415915,1,0,0:0:0:0:
200,152,415990,1,8,0:0:0:0:
184,104,416065,1,0,0:0:0:0:
184,56,416140,2,0,P|189:22|208:-3,1,50
312,72,416290,1,10,0:0:0:0:
360,88,416365,1,0,0:0:0:0:
400,120,416440,1,0,0:0:0:0:
416,168,416515,1,0,0:0:0:0:
416,216,416590,2,0,P|410:249|391:275,1,50,8|0,0:0|0:0,0:0:0:0:
312,296,416740,6,0,L|232:280,3,50,2|0|8|0,0:0|0:0|0:0|0:0,0:0:0:0:
176,248,417040,5,6,0:0:0:0:
168,232,417115,1,0,0:0:0:0:
168,216,417190,1,8,0:0:0:0:
176,200,417265,1,0,0:0:0:0:
192,184,417340,1,0,0:0:0:0:
216,176,417415,1,0,0:0:0:0:
240,184,417490,1,10,0:0:0:0:
256,200,417565,1,0,0:0:0:0:
264,232,417640,5,0,0:0:0:0:
288,256,417715,1,0,0:0:0:0:
320,264,417790,1,8,0:0:0:0:
352,248,417865,1,0,0:0:0:0:
368,216,417940,1,2,0:0:0:0:
344,176,418015,1,0,0:0:0:0:
296,168,418090,1,8,0:0:0:0:
256,192,418165,1,0,0:0:0:0:
208,200,418240,5,6,0:0:0:0:
160,192,418315,1,0,0:0:0:0:
128,160,418390,1,8,0:0:0:0:
128,112,418465,1,0,0:0:0:0:
168,80,418540,1,0,0:0:0:0:
219,98,418615,1,0,0:0:0:0:
242,147,418690,1,10,0:0:0:0:
221,197,418765,1,0,0:0:0:0:
166,221,418840,5,0,0:0:0:0:
139,274,418915,1,0,0:0:0:0:
154,332,418990,1,8,0:0:0:0:
206,360,419065,1,0,0:0:0:0:
261,338,419140,1,2,0:0:0:0:
286,283,419215,1,0,0:0:0:0:
264,226,419290,1,8,0:0:0:0:
211,196,419365,1,0,0:0:0:0:
162,230,419440,5,14,0:0:0:0:
162,230,419515,1,8,0:0:0:0:
162,230,419590,1,8,0:0:0:0:
162,230,419665,1,8,0:0:0:0:
162,230,419740,6,0,L|248:232,1,50,2|0,1:3|1:3,1:3:0:0:
328,128,419890,2,0,L|242:130,1,50,4|0,1:3|1:3,1:3:0:0:
128,136,420040,5,8,0:0:0:0:
128,136,420115,1,8,0:0:0:0:
128,136,420190,1,8,0:0:0:0:
128,136,420265,1,8,0:0:0:0:
128,136,420340,6,0,L|214:138,1,50,4|4,1:3|1:3,1:3:0:0:
296,48,420490,2,0,L|210:50,1,50,8|8,1:3|1:3,1:3:0:0:
96,48,420640,1,8,0:0:0:0:
96,48,420715,1,8,0:0:0:0:
96,48,420790,1,8,0:0:0:0:
96,48,420865,1,8,0:0:0:0:
96,48,420940,6,0,B|136:48|136:48|160:72,1,50,2|2,1:3|1:3,1:3:0:0:
288,104,421090,2,0,B|248:104|248:104|224:128,1,50,2|2,1:3|1:3,1:3:0:0:
96,144,421240,2,0,B|136:144|136:144|160:168,1,50,4|4,1:3|1:3,1:3:0:0:
288,200,421390,2,0,B|248:200|248:200|224:224,1,50,8|8,1:3|1:3,1:3:0:0:
96,240,421540,2,0,B|136:240|136:240|160:264,1,50,2|2,0:0|0:0,0:0:0:0:
280,296,421690,2,0,B|240:296|240:296|216:320,1,50,2|2,0:0|0:0,0:0:0:0:
88,336,421840,5,12,0:0:0:0:
160,64,421990,1,8,0:0:0:0:
280,296,422140,1,8,0:0:0:0:
16,216,422290,2,0,L|99:203,1,80,8|0,0:0|0:0,0:0:0:0:
32,296,422590,5,8,0:0:0:0:
32,296,422740,1,0,0:0:0:0:
448,192,422890,2,0,L|368:179,1,80,8|0,0:0|0:0,0:0:0:0:
472,264,423190,5,8,0:0:0:0:
472,264,423341,1,0,0:0:0:0:
264,272,423490,1,8,0:0:0:0:
360,88,423640,1,8,0:0:0:0:
392,288,423790,1,8,0:0:0:0:
184,260,423940,2,0,L|296:276,1,80,8|0,0:0|0:0,0:0:0:0:
376,56,424240,5,12,0:0:0:0:
456,208,424390,1,8,0:0:0:0:
352,352,424540,1,8,0:0:0:0:
136,192,424690,2,0,L|240:208,1,80,8|0,0:0|0:0,0:0:0:0:
112,264,424990,5,8,0:0:0:0:
112,264,425140,1,0,0:0:0:0:
456,200,425290,2,0,L|352:216,1,80,8|0,0:0|0:0,0:0:0:0:
488,272,425590,5,8,0:0:0:0:
488,272,425740,1,0,0:0:0:0:
184,264,425890,1,8,0:0:0:0:
296,56,426040,1,8,0:0:0:0:
352,288,426190,1,8,0:0:0:0:
296,56,426340,1,8,0:0:0:0:
152,144,426490,1,8,0:0:0:0:
112,328,426640,5,14,0:0:0:0:
312,16,426790,1,14,0:0:0:0:
312,304,426940,1,14,0:0:0:0:
112,96,427090,5,14,0:0:0:0:
448,136,427390,5,14,0:0:0:0:
88,128,427690,5,14,0:0:0:0:
480,160,427990,5,14,0:0:0:0:
248,208,428290,5,14,0:0:0:0:
440,24,428440,1,14,0:0:0:0:
368,296,428590,1,14,0:0:0:0:
96,368,428740,1,14,0:0:0:0:
64,56,429040,5,6,1:3:0:0:
68,56,429115,1,0,0:0:0:0:
72,57,429190,1,0,0:0:0:0:
76,58,429265,1,0,0:0:0:0:
80,58,429340,1,0,0:0:0:0:
84,59,429415,1,0,0:0:0:0:
88,60,429490,1,0,0:0:0:0:
92,61,429565,1,0,0:0:0:0:
96,62,429640,1,0,0:0:0:0:
100,63,429715,1,0,0:0:0:0:
104,64,429790,1,0,0:0:0:0:
108,65,429865,1,0,0:0:0:0:
112,67,429940,1,0,0:0:0:0:
116,68,430015,1,0,0:0:0:0:
120,69,430090,1,0,0:0:0:0:
124,71,430165,1,0,0:0:0:0:
128,72,430240,5,0,0:0:0:0:
132,73,430315,1,0,0:0:0:0:
136,75,430390,1,0,0:0:0:0:
140,76,430465,1,0,0:0:0:0:
144,78,430540,1,0,0:0:0:0:
147,80,430615,1,0,0:0:0:0:
151,81,430690,1,0,0:0:0:0:
155,83,430765,1,0,0:0:0:0:
159,85,430840,1,0,0:0:0:0:
162,87,430915,1,0,0:0:0:0:
166,89,430990,1,0,0:0:0:0:
170,91,431065,1,0,0:0:0:0:
174,92,431140,1,0,0:0:0:0:
177,94,431215,1,0,0:0:0:0:
181,97,431290,1,0,0:0:0:0:
184,99,431365,1,0,0:0:0:0:
188,101,431440,5,0,0:0:0:0:
192,103,431515,1,0,0:0:0:0:
195,105,431590,1,0,0:0:0:0:
199,108,431665,1,0,0:0:0:0:
202,110,431740,1,0,0:0:0:0:
205,112,431815,1,0,0:0:0:0:
209,115,431890,1,0,0:0:0:0:
212,117,431965,1,0,0:0:0:0:
216,120,432040,1,0,0:0:0:0:
219,122,432115,1,0,0:0:0:0:
222,125,432190,1,0,0:0:0:0:
225,127,432265,1,0,0:0:0:0:
229,130,432340,1,0,0:0:0:0:
232,133,432415,1,0,0:0:0:0:
235,135,432490,1,0,0:0:0:0:
238,138,432565,1,0,0:0:0:0:
241,141,432640,5,0,0:0:0:0:
244,144,432715,1,0,0:0:0:0:
247,147,432790,1,0,0:0:0:0:
250,150,432865,1,0,0:0:0:0:
253,153,432940,1,0,0:0:0:0:
256,156,433015,1,0,0:0:0:0:
259,159,433090,1,0,0:0:0:0:
262,162,433165,1,0,0:0:0:0:
264,165,433240,1,0,0:0:0:0:
267,168,433315,1,0,0:0:0:0:
270,171,433390,1,0,0:0:0:0:
273,174,433465,1,0,0:0:0:0:
275,177,433540,1,0,0:0:0:0:
278,181,433615,1,0,0:0:0:0:
280,184,433690,1,0,0:0:0:0:
283,187,433765,1,0,0:0:0:0:
285,191,433840,5,0,0:0:0:0:
288,194,433915,1,0,0:0:0:0:
290,198,433990,1,0,0:0:0:0:
292,201,434065,1,0,0:0:0:0:
295,204,434140,1,0,0:0:0:0:
297,208,434215,1,0,0:0:0:0:
299,212,434290,1,0,0:0:0:0:
301,215,434365,1,0,0:0:0:0:
303,219,434440,1,0,0:0:0:0:
305,222,434515,1,0,0:0:0:0:
307,226,434590,1,0,0:0:0:0:
309,230,434665,1,0,0:0:0:0:
311,233,434740,1,0,0:0:0:0:
313,237,434815,1,0,0:0:0:0:
315,241,434890,1,0,0:0:0:0:
317,244,434965,1,0,0:0:0:0:
319,248,435040,5,0,0:0:0:0:
320,252,435115,1,0,0:0:0:0:
322,256,435190,1,0,0:0:0:0:
324,260,435265,1,0,0:0:0:0:
325,264,435340,1,0,0:0:0:0:
327,267,435415,1,0,0:0:0:0:
328,271,435490,1,0,0:0:0:0:
330,275,435565,1,0,0:0:0:0:
331,279,435640,1,0,0:0:0:0:
332,283,435715,1,0,0:0:0:0:
334,287,435790,1,0,0:0:0:0:
335,291,435865,1,0,0:0:0:0:
336,295,435940,1,0,0:0:0:0:
337,299,436015,1,0,0:0:0:0:
338,303,436090,1,0,0:0:0:0:
339,307,436165,1,0,0:0:0:0:
340,311,436240,5,10,0:0:0:0:
440,232,436390,1,10,0:0:0:0:
368,112,436540,1,10,0:0:0:0:
232,160,436690,1,10,0:0:0:0:
304,344,436840,5,10,0:0:0:0:
488,264,436990,1,10,0:0:0:0:
408,80,437140,1,10,0:0:0:0:
232,160,437290,1,10,0:0:0:0:
416,344,437440,2,0,P|474:291|480:160,1,210.000008010865
448,144,438040,6,0,B|376:160|376:160|304:192|304:192|248:160|248:160|160:128,1,280
128,160,438640,1,12,0:0:0:0:
112,168,438715,1,8,0:0:0:0:
100,181,438790,1,8,0:0:0:0:
92,197,438865,1,8,0:0:0:0:
92,213,438940,1,8,0:0:0:0:
456,64,439265,5,14,0:0:0:0:
160,136,439465,1,14,0:0:0:0:
368,264,439665,1,14,0:0:0:0:
72,336,439865,1,14,0:0:0:0:
