osu file format v14

[General]
AudioFilename: audio.mp3
AudioLeadIn: 0
PreviewTime: 182593
Countdown: 0
SampleSet: Normal
StackLeniency: 0.7
Mode: 1
LetterboxInBreaks: 0
WidescreenStoryboard: 1

[Editor]
Bookmarks: 20293,46693,77893,97093,113893,135493,200293,219493,242293,328269,347469,402717
DistanceSpacing: 2.5
BeatDivisor: 4
GridSize: 32
TimelineZoom: 3.799999

[Metadata]
Title:Through The Fire And Flames
TitleUnicode:Through The Fire And Flames
Artist:DragonForce
ArtistUnicode:DragonForce
Creator:LittleFox
Version:Tatsujin
Source:
Tags:Inhuman Rampage Power Speed Metal TTFAF TTFATF
BeatmapID:1500057
BeatmapSetID:709536

[Difficulty]
HPDrainRate:5
CircleSize:2
OverallDifficulty:6
ApproachRate:5
SliderMultiplier:1.4
SliderTickRate:4

[Events]
//Background and Video events
0,0,"Background.jpg",0,0
//Break Periods
//Storyboard Layer 0 (Background)
//Storyboard Layer 1 (Fail)
//Storyboard Layer 2 (Pass)
//Storyboard Layer 3 (Foreground)
//Storyboard Sound Samples

[TimingPoints]
1141,300,4,1,0,50,1,0
19141,-100,4,1,0,100,0,0
19741,-99.009900990099,4,1,0,100,0,0
19816,-98.0392156862745,4,1,0,100,0,0
19891,-97.0873786407767,4,1,0,100,0,0
19966,-96.1538461538461,4,1,0,100,0,0
20041,-95.2380952380952,4,1,0,100,0,0
20116,-94.3396226415094,4,1,0,100,0,0
20191,-93.4579439252336,4,1,0,100,0,0
20266,-91.743119266055,4,1,0,100,0,0
20341,-90.9090909090909,4,1,0,100,0,0
39691,-100,4,1,0,100,0,0
47791,-95.2380952380952,4,1,0,100,0,0
68491,-100,4,1,0,100,0,0
77941,-95.2380952380952,4,1,0,100,0,0
97141,-90.9090909090909,4,1,0,100,0,1
113941,-90.9090909090909,4,1,0,100,0,0
135541,-133.333333333333,4,1,0,100,0,0
145141,-90.9090909090909,4,1,0,100,0,0
183541,-86.9565217391304,4,1,0,100,0,1
200341,-90.9090909090909,4,1,0,100,0,0
221641,-100,4,1,0,100,0,0
224116,-90.9090909090909,4,1,0,100,0,0
226441,-100,4,1,0,100,0,0
236191,-90.9090909090909,4,1,0,100,0,0
238741,-100,4,1,0,100,0,0
242341,352.941176470588,4,1,0,100,1,1
242341,-95.2380952380952,4,1,0,100,0,1
253723,-100,4,1,0,100,0,0
264929,-100,4,1,0,100,0,1
276223,-100,4,1,0,100,0,0
287517,300,4,1,0,100,1,0
299517,-90.9090909090909,4,1,0,100,0,1
318717,-90.9090909090909,4,1,0,100,0,0
366717,-76.9230769230769,4,1,0,100,0,0
366792,-133.333333333333,4,1,0,100,0,0
372717,-133.333333333333,4,1,0,10,0,0
373917,-133.333333333333,4,1,0,100,0,0
375117,-133.333333333333,4,1,0,10,0,0
376317,-133.333333333333,4,1,0,100,0,0
377817,-133.333333333333,4,1,0,10,0,0
378717,-133.333333333333,4,1,0,100,0,0
379917,-133.333333333333,4,1,0,10,0,0
381117,-133.333333333333,4,1,0,100,0,0
384792,-100,4,1,0,100,0,0
386067,-90.9090909090909,4,1,0,100,0,1
401592,-90.9090909090909,4,1,0,100,0,0
402717,-90.9090909090909,4,1,0,100,0,0
429117,-100,4,1,0,100,0,0
438717,-90.9090909090909,4,1,0,100,0,0
439917,-83.3333333333333,4,1,0,100,0,0

[HitObjects]
256,192,1141,5,12,0:0:0:0:
224,192,1291,1,0,0:0:0:0:
256,192,1441,1,8,0:0:0:0:
256,192,1591,1,0,0:0:0:0:
256,192,1741,1,0,0:0:0:0:
256,192,1891,1,8,0:0:0:0:
256,192,2041,1,8,0:0:0:0:
256,192,2191,1,0,0:0:0:0:
256,192,2341,1,8,0:0:0:0:
256,192,2491,1,0,0:0:0:0:
256,192,2641,1,8,0:0:0:0:
256,192,2791,1,0,0:0:0:0:
256,192,2941,1,8,0:0:0:0:
256,192,3091,1,0,0:0:0:0:
256,192,3241,1,0,0:0:0:0:
256,192,3316,1,0,0:0:0:0:
256,192,3391,1,0,0:0:0:0:
256,192,3466,1,0,0:0:0:0:
256,192,3541,1,8,0:0:0:0:
256,192,3691,1,0,0:0:0:0:
256,192,3841,1,8,0:0:0:0:
256,192,3991,1,0,0:0:0:0:
256,192,4141,1,0,0:0:0:0:
256,192,4291,1,8,0:0:0:0:
256,192,4441,1,8,0:0:0:0:
256,192,4591,1,0,0:0:0:0:
256,192,4741,1,8,0:0:0:0:
256,192,4891,1,0,0:0:0:0:
256,192,5041,1,8,0:0:0:0:
256,192,5191,1,0,0:0:0:0:
256,192,5341,1,8,0:0:0:0:
256,192,5491,1,0,0:0:0:0:
256,192,5641,1,8,0:0:0:0:
256,192,5791,1,0,0:0:0:0:
256,192,5941,5,4,0:0:0:0:
256,192,6241,1,8,0:0:0:0:
256,192,6391,1,0,0:0:0:0:
256,192,6541,1,0,0:0:0:0:
256,192,6691,1,8,0:0:0:0:
256,192,6841,1,8,0:0:0:0:
256,192,6991,1,0,0:0:0:0:
256,192,7141,1,8,0:0:0:0:
256,192,7291,1,0,0:0:0:0:
256,192,7441,1,8,0:0:0:0:
256,192,7591,1,0,0:0:0:0:
256,192,7741,1,8,0:0:0:0:
256,192,7891,1,0,0:0:0:0:
256,192,8041,1,8,0:0:0:0:
256,192,8191,1,0,0:0:0:0:
256,192,8341,1,4,0:0:0:0:
224,192,8491,1,0,0:0:0:0:
256,192,8641,1,8,0:0:0:0:
256,192,8791,1,0,0:0:0:0:
256,192,8941,1,0,0:0:0:0:
256,192,9091,1,8,0:0:0:0:
256,192,9241,1,8,0:0:0:0:
256,192,9391,1,0,0:0:0:0:
256,192,9541,1,12,0:0:0:0:
256,192,9691,1,0,0:0:0:0:
256,192,9841,1,8,0:0:0:0:
256,192,9991,1,0,0:0:0:0:
256,192,10141,1,8,0:0:0:0:
256,192,10291,1,0,0:0:0:0:
256,192,10441,1,8,0:0:0:0:
256,192,10591,1,0,0:0:0:0:
256,192,10741,1,12,0:0:0:0:
256,192,10891,1,0,0:0:0:0:
256,192,11041,1,8,0:0:0:0:
256,192,11191,1,0,0:0:0:0:
256,192,11341,1,0,0:0:0:0:
256,192,11491,1,8,0:0:0:0:
256,192,11641,1,8,0:0:0:0:
256,192,11791,1,0,0:0:0:0:
256,192,11941,1,8,0:0:0:0:
256,192,12091,1,0,0:0:0:0:
256,192,12241,1,8,0:0:0:0:
256,192,12391,1,0,0:0:0:0:
256,192,12541,1,8,0:0:0:0:
256,192,12691,1,0,0:0:0:0:
256,192,12841,1,8,0:0:0:0:
224,224,12916,1,0,0:0:0:0:
256,192,12991,1,0,0:0:0:0:
256,192,13066,1,0,0:0:0:0:
256,192,13141,1,8,0:0:0:0:
256,192,13291,1,0,0:0:0:0:
256,192,13441,1,8,0:0:0:0:
256,192,13591,1,0,0:0:0:0:
256,192,13741,1,0,0:0:0:0:
256,192,13891,1,8,0:0:0:0:
256,192,14041,1,8,0:0:0:0:
256,192,14191,1,0,0:0:0:0:
256,192,14341,1,8,0:0:0:0:
256,192,14491,1,0,0:0:0:0:
256,192,14641,1,8,0:0:0:0:
256,192,14791,1,0,0:0:0:0:
256,192,14941,1,8,0:0:0:0:
256,192,15091,1,0,0:0:0:0:
256,192,15241,1,8,0:0:0:0:
256,192,15391,1,0,0:0:0:0:
256,192,15541,1,4,0:0:0:0:
256,192,15841,1,8,0:0:0:0:
256,192,15991,1,0,0:0:0:0:
256,192,16141,1,0,0:0:0:0:
256,192,16291,1,8,0:0:0:0:
256,192,16441,1,8,0:0:0:0:
256,192,16591,1,0,0:0:0:0:
256,192,16741,1,8,0:0:0:0:
256,192,16891,1,0,0:0:0:0:
256,192,17041,1,8,0:0:0:0:
256,192,17191,1,0,0:0:0:0:
256,192,17341,1,8,0:0:0:0:
256,192,17491,1,0,0:0:0:0:
256,192,17641,1,8,0:0:0:0:
256,192,17791,1,0,0:0:0:0:
256,192,17941,1,4,0:0:0:0:
256,192,18091,1,0,0:0:0:0:
256,192,18241,1,8,0:0:0:0:
256,192,18391,1,0,0:0:0:0:
256,192,18541,1,0,0:0:0:0:
256,192,18691,1,8,0:0:0:0:
256,192,18841,1,8,0:0:0:0:
256,192,18991,1,0,0:0:0:0:
256,192,19141,1,8,0:0:0:0:
256,192,19216,1,0,0:0:0:0:
256,192,19291,1,0,0:0:0:0:
256,192,19441,1,8,0:0:0:0:
256,192,19516,1,0,0:0:0:0:
256,192,19591,1,0,0:0:0:0:
256,192,19741,1,8,0:0:0:0:
256,192,19816,1,0,0:0:0:0:
256,192,19891,1,8,0:0:0:0:
256,192,19966,1,8,0:0:0:0:
256,192,20041,1,0,0:0:0:0:
256,192,20116,1,0,0:0:0:0:
256,192,20191,5,8,0:0:0:0:
256,192,20266,1,0,0:0:0:0:
256,192,20341,1,8,0:0:0:0:
256,192,20416,1,8,0:0:0:0:
256,192,20491,1,8,0:0:0:0:
256,192,20641,1,0,0:0:0:0:
256,192,20791,1,8,0:0:0:0:
256,192,20866,1,8,0:0:0:0:
256,192,20941,1,8,0:0:0:0:
256,192,21091,1,0,0:0:0:0:
256,192,21241,1,8,0:0:0:0:
256,192,21316,1,0,0:0:0:0:
256,192,21391,1,0,0:0:0:0:
256,192,21541,1,8,0:0:0:0:
288,192,21616,1,8,0:0:0:0:
256,192,21691,1,8,0:0:0:0:
256,192,21841,1,0,0:0:0:0:
256,192,21916,1,0,0:0:0:0:
256,192,21991,1,8,0:0:0:0:
256,192,22066,1,8,0:0:0:0:
256,192,22141,1,8,0:0:0:0:
256,192,22291,1,0,0:0:0:0:
256,192,22441,1,8,0:0:0:0:
288,192,22516,1,0,0:0:0:0:
288,192,22591,1,0,0:0:0:0:
256,192,22666,1,0,0:0:0:0:
256,192,22741,1,8,0:0:0:0:
256,192,22816,1,8,0:0:0:0:
256,192,22891,1,8,0:0:0:0:
256,192,23041,1,0,0:0:0:0:
256,192,23191,1,8,0:0:0:0:
256,192,23266,1,8,0:0:0:0:
256,192,23341,1,8,0:0:0:0:
256,192,23491,1,0,0:0:0:0:
256,192,23641,1,8,0:0:0:0:
256,192,23716,1,0,0:0:0:0:
256,192,23791,1,0,0:0:0:0:
256,192,23941,1,8,0:0:0:0:
224,192,24016,1,8,0:0:0:0:
256,192,24091,1,8,0:0:0:0:
256,192,24241,1,0,0:0:0:0:
256,192,24316,1,0,0:0:0:0:
256,192,24391,1,8,0:0:0:0:
256,192,24466,1,8,0:0:0:0:
256,192,24541,1,8,0:0:0:0:
256,192,24691,1,0,0:0:0:0:
256,192,24766,1,0,0:0:0:0:
256,192,24841,1,8,0:0:0:0:
256,192,24916,1,0,0:0:0:0:
288,192,24991,1,0,0:0:0:0:
256,192,25066,1,0,0:0:0:0:
256,192,25141,1,8,0:0:0:0:
256,192,25216,1,8,0:0:0:0:
256,192,25291,1,8,0:0:0:0:
288,192,25366,1,8,0:0:0:0:
256,192,25441,1,0,0:0:0:0:
256,192,25591,1,8,0:0:0:0:
256,192,25666,1,8,0:0:0:0:
256,192,25741,1,8,0:0:0:0:
256,192,25891,1,0,0:0:0:0:
256,192,26041,1,8,0:0:0:0:
256,192,26116,1,0,0:0:0:0:
256,192,26191,1,0,0:0:0:0:
256,192,26341,1,8,0:0:0:0:
256,192,26416,1,8,0:0:0:0:
256,192,26491,1,8,0:0:0:0:
256,192,26641,1,0,0:0:0:0:
256,192,26716,1,0,0:0:0:0:
256,192,26791,1,8,0:0:0:0:
256,192,26866,1,8,0:0:0:0:
256,192,26941,1,8,0:0:0:0:
256,192,27091,1,0,0:0:0:0:
256,192,27241,1,8,0:0:0:0:
256,192,27316,1,0,0:0:0:0:
256,192,27391,1,0,0:0:0:0:
256,192,27541,1,8,0:0:0:0:
256,192,27616,1,8,0:0:0:0:
256,192,27691,1,8,0:0:0:0:
256,192,27766,1,0,0:0:0:0:
256,192,27841,1,0,0:0:0:0:
256,192,27991,1,0,0:0:0:0:
256,192,28066,1,0,0:0:0:0:
256,192,28141,1,8,0:0:0:0:
256,192,28216,1,8,0:0:0:0:
256,192,28291,1,0,0:0:0:0:
256,192,28366,1,0,0:0:0:0:
256,192,28441,1,8,0:0:0:0:
256,192,28591,1,0,0:0:0:0:
256,192,28741,1,8,0:0:0:0:
256,192,28816,1,0,0:0:0:0:
256,192,28891,1,8,0:0:0:0:
256,192,28966,1,8,0:0:0:0:
256,192,29041,1,0,0:0:0:0:
256,192,29116,1,0,0:0:0:0:
256,192,29191,1,8,0:0:0:0:
256,192,29266,1,8,0:0:0:0:
256,192,29341,1,0,0:0:0:0:
256,192,29416,1,0,0:0:0:0:
352,160,29491,1,8,0:0:0:0:
256,192,29566,1,0,0:0:0:0:
256,192,29641,1,8,0:0:0:0:
256,192,29791,1,0,0:0:0:0:
256,192,29866,1,0,0:0:0:0:
256,192,29941,1,8,0:0:0:0:
256,192,30016,1,8,0:0:0:0:
256,192,30091,1,8,0:0:0:0:
256,192,30241,1,0,0:0:0:0:
256,192,30391,1,8,0:0:0:0:
256,192,30466,1,8,0:0:0:0:
256,192,30541,1,8,0:0:0:0:
256,192,30691,1,0,0:0:0:0:
256,192,30841,1,8,0:0:0:0:
256,192,30916,1,0,0:0:0:0:
256,192,30991,1,0,0:0:0:0:
256,192,31141,1,8,0:0:0:0:
256,192,31216,1,8,0:0:0:0:
256,192,31291,1,8,0:0:0:0:
256,192,31441,1,0,0:0:0:0:
256,192,31516,1,0,0:0:0:0:
256,192,31591,1,8,0:0:0:0:
256,192,31666,1,8,0:0:0:0:
256,192,31741,1,8,0:0:0:0:
256,192,31891,1,0,0:0:0:0:
256,192,32041,1,8,0:0:0:0:
288,192,32116,1,0,0:0:0:0:
288,192,32191,1,0,0:0:0:0:
256,192,32266,1,0,0:0:0:0:
256,192,32341,1,8,0:0:0:0:
256,192,32416,1,8,0:0:0:0:
256,192,32491,1,8,0:0:0:0:
256,192,32641,1,0,0:0:0:0:
256,192,32791,1,8,0:0:0:0:
256,192,32866,1,8,0:0:0:0:
256,192,32941,1,8,0:0:0:0:
256,192,33091,1,0,0:0:0:0:
256,192,33241,1,8,0:0:0:0:
256,192,33316,1,0,0:0:0:0:
256,192,33391,1,0,0:0:0:0:
256,192,33541,1,8,0:0:0:0:
288,192,33616,1,8,0:0:0:0:
256,192,33691,1,8,0:0:0:0:
256,192,33841,1,0,0:0:0:0:
256,192,33916,1,0,0:0:0:0:
256,192,33991,1,8,0:0:0:0:
256,192,34066,1,8,0:0:0:0:
256,192,34141,1,8,0:0:0:0:
256,192,34291,1,0,0:0:0:0:
256,192,34366,1,0,0:0:0:0:
256,192,34441,1,8,0:0:0:0:
256,192,34516,1,0,0:0:0:0:
288,192,34591,1,0,0:0:0:0:
256,192,34666,1,0,0:0:0:0:
256,192,34741,1,8,0:0:0:0:
256,192,34816,1,8,0:0:0:0:
256,192,34891,1,8,0:0:0:0:
256,192,34966,1,8,0:0:0:0:
256,192,35041,1,0,0:0:0:0:
256,192,35191,1,8,0:0:0:0:
256,192,35266,1,8,0:0:0:0:
256,192,35341,1,8,0:0:0:0:
256,192,35491,1,0,0:0:0:0:
256,192,35641,1,8,0:0:0:0:
256,192,35716,1,0,0:0:0:0:
256,192,35791,1,0,0:0:0:0:
256,192,35941,1,8,0:0:0:0:
256,192,36016,1,8,0:0:0:0:
256,192,36091,1,8,0:0:0:0:
256,192,36241,1,0,0:0:0:0:
256,192,36316,1,0,0:0:0:0:
256,192,36391,1,8,0:0:0:0:
256,192,36466,1,8,0:0:0:0:
256,192,36541,1,8,0:0:0:0:
256,192,36691,1,0,0:0:0:0:
256,192,36841,1,8,0:0:0:0:
256,192,36916,1,0,0:0:0:0:
256,192,36991,1,0,0:0:0:0:
256,192,37141,1,8,0:0:0:0:
256,192,37216,1,8,0:0:0:0:
256,192,37291,1,8,0:0:0:0:
256,192,37366,1,0,0:0:0:0:
256,192,37441,1,0,0:0:0:0:
256,192,37591,1,0,0:0:0:0:
256,192,37666,1,0,0:0:0:0:
256,192,37741,1,8,0:0:0:0:
256,192,37816,1,8,0:0:0:0:
256,192,37891,1,0,0:0:0:0:
256,192,38041,1,8,0:0:0:0:
256,192,38116,1,8,0:0:0:0:
256,192,38191,1,0,0:0:0:0:
256,192,38341,1,8,0:0:0:0:
256,192,38416,1,8,0:0:0:0:
256,192,38491,1,8,0:0:0:0:
256,192,38566,1,0,0:0:0:0:
256,192,38641,1,0,0:0:0:0:
256,192,38741,1,8,0:0:0:0:
256,192,38841,1,8,0:0:0:0:
256,192,38941,1,8,0:0:0:0:
256,192,39041,1,8,0:0:0:0:
256,192,39141,1,8,0:0:0:0:
256,192,39241,1,8,0:0:0:0:
256,192,39341,1,8,0:0:0:0:
256,192,39441,1,8,0:0:0:0:
256,192,39541,1,12,0:0:0:0:
256,192,41941,1,4,0:0:0:0:
256,192,44341,1,12,0:0:0:0:
256,192,46741,1,8,0:0:0:0:
256,192,46891,1,0,0:0:0:0:
256,192,46966,1,0,0:0:0:0:
256,192,47041,1,8,0:0:0:0:
256,192,47191,1,0,0:0:0:0:
256,192,47266,1,0,0:0:0:0:
256,192,47341,1,8,0:0:0:0:
256,192,47491,1,8,0:0:0:0:
256,192,47791,1,0,0:0:0:0:
256,192,47941,1,0,0:0:0:0:
256,192,48091,1,0,0:0:0:0:
256,192,48166,1,0,0:0:0:0:
256,192,48241,1,8,0:0:0:0:
256,192,48316,1,8,0:0:0:0:
256,192,48391,1,0,0:0:0:0:
256,192,48466,1,0,0:0:0:0:
256,192,48541,1,0,0:0:0:0:
256,192,48616,1,0,0:0:0:0:
256,192,48691,1,8,0:0:0:0:
256,192,48766,1,8,0:0:0:0:
256,192,48841,1,0,0:0:0:0:
256,192,48916,1,8,0:0:0:0:
256,192,48991,1,0,0:0:0:0:
256,192,49066,1,0,0:0:0:0:
256,192,49141,1,8,0:0:0:0:
256,192,49291,1,8,0:0:0:0:
256,192,49441,1,0,0:0:0:0:
256,192,49516,1,0,0:0:0:0:
256,192,49591,1,8,0:0:0:0:
256,192,49741,1,0,0:0:0:0:
256,192,49891,1,8,0:0:0:0:
256,192,50041,1,0,0:0:0:0:
256,192,50116,1,0,0:0:0:0:
256,192,50191,1,8,0:0:0:0:
256,192,50341,1,0,0:0:0:0:
256,192,50491,1,8,0:0:0:0:
256,192,50641,1,0,0:0:0:0:
256,192,50716,1,0,0:0:0:0:
256,192,50791,1,8,0:0:0:0:
256,192,50866,1,8,0:0:0:0:
256,192,50941,1,0,0:0:0:0:
256,192,51091,1,8,0:0:0:0:
256,192,51166,1,0,0:0:0:0:
256,192,51316,1,0,0:0:0:0:
256,192,51391,1,8,0:0:0:0:
256,192,51466,1,0,0:0:0:0:
256,192,51541,1,0,0:0:0:0:
256,192,51691,1,8,0:0:0:0:
256,192,51841,1,0,0:0:0:0:
256,192,51916,1,0,0:0:0:0:
256,192,51991,1,8,0:0:0:0:
256,192,52141,1,0,0:0:0:0:
256,192,52291,1,8,0:0:0:0:
256,192,52441,1,0,0:0:0:0:
256,192,52516,1,0,0:0:0:0:
256,192,52591,1,8,0:0:0:0:
256,192,52741,1,0,0:0:0:0:
256,192,52891,1,8,0:0:0:0:
256,192,53041,1,0,0:0:0:0:
256,192,53116,1,0,0:0:0:0:
256,192,53191,1,8,0:0:0:0:
256,192,53341,1,0,0:0:0:0:
256,192,53491,1,8,0:0:0:0:
256,192,53566,1,0,0:0:0:0:
256,192,53641,1,0,0:0:0:0:
256,192,53716,1,0,0:0:0:0:
256,192,53791,1,8,0:0:0:0:
256,192,53941,1,0,0:0:0:0:
256,192,54016,1,0,0:0:0:0:
256,192,54091,1,8,0:0:0:0:
256,192,54241,1,0,0:0:0:0:
256,192,54391,1,0,0:0:0:0:
256,192,54466,1,0,0:0:0:0:
256,192,54541,1,8,0:0:0:0:
256,192,54691,1,0,0:0:0:0:
256,192,54841,1,0,0:0:0:0:
256,192,54991,1,8,0:0:0:0:
256,192,55141,1,0,0:0:0:0:
256,192,55216,1,0,0:0:0:0:
256,192,55291,1,8,0:0:0:0:
256,192,55441,1,0,0:0:0:0:
256,192,55516,1,8,0:0:0:0:
256,192,55591,1,0,0:0:0:0:
256,192,55741,1,8,0:0:0:0:
256,192,55891,1,0,0:0:0:0:
256,192,56041,1,0,0:0:0:0:
256,192,56116,1,0,0:0:0:0:
256,192,56191,1,8,0:0:0:0:
256,192,56341,1,0,0:0:0:0:
256,192,56491,1,8,0:0:0:0:
256,192,56641,1,0,0:0:0:0:
256,192,56716,1,8,0:0:0:0:
256,192,56791,1,0,0:0:0:0:
256,192,56941,1,8,0:0:0:0:
256,192,57091,1,8,0:0:0:0:
256,192,57241,1,0,0:0:0:0:
256,192,57316,1,0,0:0:0:0:
256,192,57391,1,8,0:0:0:0:
256,192,57541,1,0,0:0:0:0:
256,192,57691,1,8,0:0:0:0:
256,192,57766,1,0,0:0:0:0:
256,192,57841,1,8,0:0:0:0:
256,192,57991,1,0,0:0:0:0:
256,192,58141,1,8,0:0:0:0:
256,192,58291,1,8,0:0:0:0:
256,192,58366,1,8,0:0:0:0:
256,192,58441,1,0,0:0:0:0:
256,192,58516,1,0,0:0:0:0:
256,192,58591,1,8,0:0:0:0:
256,192,58666,1,8,0:0:0:0:
256,192,58741,1,0,0:0:0:0:
256,192,58891,1,8,0:0:0:0:
256,192,59041,1,0,0:0:0:0:
256,192,59116,1,0,0:0:0:0:
256,192,59191,1,8,0:0:0:0:
256,192,59266,1,0,0:0:0:0:
256,192,59341,1,0,0:0:0:0:
256,192,59491,1,8,0:0:0:0:
256,192,59641,1,0,0:0:0:0:
256,192,59716,1,0,0:0:0:0:
256,192,59791,1,8,0:0:0:0:
256,192,59866,1,0,0:0:0:0:
256,192,59941,1,0,0:0:0:0:
256,192,60091,1,8,0:0:0:0:
256,192,60241,1,0,0:0:0:0:
256,192,60316,1,0,0:0:0:0:
256,192,60391,1,8,0:0:0:0:
256,192,60466,1,8,0:0:0:0:
256,192,60541,1,0,0:0:0:0:
256,192,60691,1,8,0:0:0:0:
256,192,60766,1,0,0:0:0:0:
256,192,60916,1,8,0:0:0:0:
256,192,60991,1,0,0:0:0:0:
256,192,61066,1,8,0:0:0:0:
256,192,61141,1,0,0:0:0:0:
256,192,61291,1,8,0:0:0:0:
256,192,61441,1,0,0:0:0:0:
256,192,61516,1,0,0:0:0:0:
256,192,61591,1,8,0:0:0:0:
256,192,61666,1,0,0:0:0:0:
256,192,61741,1,0,0:0:0:0:
256,192,61891,1,8,0:0:0:0:
256,192,62041,1,0,0:0:0:0:
256,192,62116,1,0,0:0:0:0:
256,192,62191,1,8,0:0:0:0:
256,192,62266,1,0,0:0:0:0:
256,192,62341,1,0,0:0:0:0:
256,192,62491,1,8,0:0:0:0:
256,192,62641,1,0,0:0:0:0:
256,192,62716,1,0,0:0:0:0:
256,192,62791,1,8,0:0:0:0:
256,192,62941,1,0,0:0:0:0:
256,192,63091,1,8,0:0:0:0:
256,192,63166,1,0,0:0:0:0:
256,192,63241,1,0,0:0:0:0:
256,192,63391,1,8,0:0:0:0:
256,192,63541,1,0,0:0:0:0:
256,192,63616,1,0,0:0:0:0:
256,192,63691,1,8,0:0:0:0:
256,192,63841,1,0,0:0:0:0:
256,192,63991,1,0,0:0:0:0:
256,192,64066,1,0,0:0:0:0:
256,192,64141,1,8,0:0:0:0:
256,192,64291,1,0,0:0:0:0:
256,192,64441,1,0,0:0:0:0:
256,192,64591,1,8,0:0:0:0:
256,192,64741,1,0,0:0:0:0:
256,192,64816,1,0,0:0:0:0:
256,192,64891,1,8,0:0:0:0:
256,192,65041,1,0,0:0:0:0:
256,192,65116,1,8,0:0:0:0:
256,192,65191,1,0,0:0:0:0:
256,192,65341,1,8,0:0:0:0:
256,192,65491,1,0,0:0:0:0:
256,192,65641,1,0,0:0:0:0:
256,192,65716,1,0,0:0:0:0:
256,192,65791,1,0,0:0:0:0:
256,192,65866,1,8,0:0:0:0:
256,192,65941,1,0,0:0:0:0:
256,192,66091,1,8,0:0:0:0:
256,192,66241,1,8,0:0:0:0:
256,192,66316,1,8,0:0:0:0:
256,192,66391,1,0,0:0:0:0:
256,192,66541,1,8,0:0:0:0:
256,192,66691,1,0,0:0:0:0:
256,192,66841,1,0,0:0:0:0:
256,192,66916,1,0,0:0:0:0:
256,192,66991,1,8,0:0:0:0:
256,192,67141,1,0,0:0:0:0:
256,192,67291,1,12,0:0:0:0:
256,192,67591,1,12,0:0:0:0:
256,192,67891,1,12,0:0:0:0:
256,192,68191,1,8,0:0:0:0:
256,192,68266,1,0,0:0:0:0:
256,192,68341,1,8,0:0:0:0:
256,192,68491,1,0,0:0:0:0:
256,192,68641,1,0,0:0:0:0:
256,192,68791,1,8,0:0:0:0:
256,192,68941,1,0,0:0:0:0:
256,192,69091,1,0,0:0:0:0:
256,192,69241,1,8,0:0:0:0:
256,192,69391,1,0,0:0:0:0:
256,192,69541,1,8,0:0:0:0:
256,192,69691,1,0,0:0:0:0:
256,192,69841,1,0,0:0:0:0:
256,192,69991,1,8,0:0:0:0:
256,192,70141,1,0,0:0:0:0:
256,192,70291,1,0,0:0:0:0:
256,192,70441,1,8,0:0:0:0:
256,192,70591,1,0,0:0:0:0:
256,192,70741,1,8,0:0:0:0:
256,192,70891,1,0,0:0:0:0:
256,192,71041,1,0,0:0:0:0:
256,192,71191,1,0,0:0:0:0:
256,192,71341,1,0,0:0:0:0:
256,192,71491,1,8,0:0:0:0:
256,192,71641,1,0,0:0:0:0:
256,192,71791,1,0,0:0:0:0:
256,192,71941,1,8,0:0:0:0:
256,192,72166,1,0,0:0:0:0:
256,192,72391,1,0,0:0:0:0:
256,192,72616,1,8,0:0:0:0:
256,192,72841,1,0,0:0:0:0:
256,192,72991,1,0,0:0:0:0:
256,192,73066,1,0,0:0:0:0:
256,192,73141,1,8,0:0:0:0:
256,192,73291,1,0,0:0:0:0:
256,192,73441,1,0,0:0:0:0:
256,192,73591,1,8,0:0:0:0:
256,192,73741,1,0,0:0:0:0:
256,192,73891,1,0,0:0:0:0:
256,192,74041,1,8,0:0:0:0:
256,192,74191,1,0,0:0:0:0:
256,192,74341,1,8,0:0:0:0:
256,192,74491,1,0,0:0:0:0:
256,192,74641,1,0,0:0:0:0:
256,192,74791,1,8,0:0:0:0:
256,192,74941,1,0,0:0:0:0:
256,192,75091,1,0,0:0:0:0:
256,192,75241,1,8,0:0:0:0:
256,192,75391,1,0,0:0:0:0:
256,192,75541,1,12,0:0:0:0:
256,192,75841,1,0,0:0:0:0:
256,192,75991,1,0,0:0:0:0:
256,192,76141,1,0,0:0:0:0:
256,192,76291,1,0,0:0:0:0:
256,192,76441,1,0,0:0:0:0:
256,192,76591,1,0,0:0:0:0:
256,192,76741,1,0,0:0:0:0:
256,192,77041,1,12,0:0:0:0:
256,192,77341,1,4,0:0:0:0:
256,192,77641,1,12,0:0:0:0:
256,192,77941,1,4,0:0:0:0:
256,192,78091,1,8,0:0:0:0:
256,192,78241,1,0,0:0:0:0:
256,192,78316,1,0,0:0:0:0:
256,192,78391,1,8,0:0:0:0:
256,192,78541,1,0,0:0:0:0:
256,192,78691,1,8,0:0:0:0:
256,192,78841,1,0,0:0:0:0:
256,192,78916,1,0,0:0:0:0:
256,192,78991,1,8,0:0:0:0:
256,192,79141,1,0,0:0:0:0:
256,192,79291,1,8,0:0:0:0:
256,192,79441,1,0,0:0:0:0:
256,192,79516,1,0,0:0:0:0:
256,192,79591,1,8,0:0:0:0:
256,192,79741,1,0,0:0:0:0:
256,192,79891,1,8,0:0:0:0:
256,192,79966,1,0,0:0:0:0:
256,192,80116,1,8,0:0:0:0:
256,192,80191,1,0,0:0:0:0:
256,192,80266,1,8,0:0:0:0:
256,192,80341,1,0,0:0:0:0:
256,192,80491,1,8,0:0:0:0:
256,192,80641,1,0,0:0:0:0:
256,192,80716,1,0,0:0:0:0:
256,192,80791,1,8,0:0:0:0:
256,192,80941,1,0,0:0:0:0:
256,192,81091,1,8,0:0:0:0:
256,192,81241,1,0,0:0:0:0:
256,192,81316,1,0,0:0:0:0:
256,192,81391,1,8,0:0:0:0:
256,192,81466,1,8,0:0:0:0:
256,192,81541,1,0,0:0:0:0:
256,192,81691,1,8,0:0:0:0:
256,192,81841,1,0,0:0:0:0:
256,192,81916,1,0,0:0:0:0:
256,192,81991,1,8,0:0:0:0:
256,192,82141,1,0,0:0:0:0:
256,192,82216,1,0,0:0:0:0:
256,192,82291,1,8,0:0:0:0:
256,192,82441,1,0,0:0:0:0:
256,192,82516,1,0,0:0:0:0:
256,192,82591,1,8,0:0:0:0:
256,192,82741,1,0,0:0:0:0:
256,192,82891,1,8,0:0:0:0:
256,192,83041,1,8,0:0:0:0:
256,192,83116,1,0,0:0:0:0:
256,192,83191,1,8,0:0:0:0:
256,192,83341,1,0,0:0:0:0:
256,192,83491,1,8,0:0:0:0:
256,192,83566,1,0,0:0:0:0:
256,192,83641,1,8,0:0:0:0:
256,192,83791,1,8,0:0:0:0:
256,192,83941,1,0,0:0:0:0:
256,192,84091,1,8,0:0:0:0:
256,192,84241,1,8,0:0:0:0:
256,192,84316,1,0,0:0:0:0:
256,192,84391,1,8,0:0:0:0:
256,192,84541,1,0,0:0:0:0:
256,192,84691,1,8,0:0:0:0:
256,192,84841,1,8,0:0:0:0:
256,192,84916,1,8,0:0:0:0:
256,192,84991,1,0,0:0:0:0:
256,192,85141,1,0,0:0:0:0:
256,192,85291,1,8,0:0:0:0:
256,192,85441,1,0,0:0:0:0:
256,192,85516,1,0,0:0:0:0:
256,192,85591,1,8,0:0:0:0:
256,192,85741,1,0,0:0:0:0:
256,192,85891,1,8,0:0:0:0:
256,192,86041,1,0,0:0:0:0:
256,192,86116,1,0,0:0:0:0:
256,192,86191,1,8,0:0:0:0:
256,192,86341,1,8,0:0:0:0:
256,192,86416,1,8,0:0:0:0:
256,192,86491,1,8,0:0:0:0:
256,192,86566,1,0,0:0:0:0:
256,192,86641,1,0,0:0:0:0:
256,192,86716,1,0,0:0:0:0:
256,192,86791,1,8,0:0:0:0:
256,192,86866,1,8,0:0:0:0:
256,192,86941,1,0,0:0:0:0:
256,192,87016,1,0,0:0:0:0:
256,192,87091,1,8,0:0:0:0:
256,192,87166,1,0,0:0:0:0:
256,192,87241,1,8,0:0:0:0:
256,192,87316,1,8,0:0:0:0:
256,192,87391,1,0,0:0:0:0:
256,192,87541,1,8,0:0:0:0:
256,192,87691,1,8,0:0:0:0:
256,192,87841,1,0,0:0:0:0:
256,192,87916,1,0,0:0:0:0:
256,192,87991,1,8,0:0:0:0:
256,192,88141,1,0,0:0:0:0:
256,192,88291,1,8,0:0:0:0:
256,192,88441,1,0,0:0:0:0:
256,192,88516,1,0,0:0:0:0:
256,192,88591,1,8,0:0:0:0:
256,192,88741,1,0,0:0:0:0:
256,192,88891,1,8,0:0:0:0:
256,192,89041,1,0,0:0:0:0:
256,192,89116,1,0,0:0:0:0:
256,192,89191,1,8,0:0:0:0:
256,192,89341,1,0,0:0:0:0:
256,192,89491,1,8,0:0:0:0:
256,192,89566,1,0,0:0:0:0:
256,192,89716,1,8,0:0:0:0:
256,192,89791,1,0,0:0:0:0:
256,192,89866,1,8,0:0:0:0:
256,192,89941,1,0,0:0:0:0:
256,192,90091,1,8,0:0:0:0:
256,192,90241,1,0,0:0:0:0:
256,192,90316,1,0,0:0:0:0:
256,192,90391,1,8,0:0:0:0:
256,192,90541,1,0,0:0:0:0:
256,192,90691,1,8,0:0:0:0:
256,192,90841,1,0,0:0:0:0:
256,192,90916,1,0,0:0:0:0:
256,192,90991,1,8,0:0:0:0:
256,192,91066,1,8,0:0:0:0:
256,192,91141,1,0,0:0:0:0:
256,192,91291,1,8,0:0:0:0:
256,192,91441,1,0,0:0:0:0:
256,192,91516,1,0,0:0:0:0:
256,192,91591,1,8,0:0:0:0:
256,192,91741,1,0,0:0:0:0:
256,192,91891,1,8,0:0:0:0:
256,192,92041,1,0,0:0:0:0:
256,192,92116,1,0,0:0:0:0:
256,192,92191,1,8,0:0:0:0:
256,192,92341,1,8,0:0:0:0:
256,192,92416,1,0,0:0:0:0:
256,192,92491,1,8,0:0:0:0:
256,192,92641,1,8,0:0:0:0:
256,192,92716,1,8,0:0:0:0:
256,192,92791,1,0,0:0:0:0:
256,192,92941,1,8,0:0:0:0:
256,192,93016,1,8,0:0:0:0:
256,192,93091,1,0,0:0:0:0:
256,192,93166,1,0,0:0:0:0:
256,192,93241,1,8,0:0:0:0:
256,192,93316,1,8,0:0:0:0:
256,192,93391,1,0,0:0:0:0:
256,192,93541,1,8,0:0:0:0:
256,192,93616,1,8,0:0:0:0:
256,192,93691,1,0,0:0:0:0:
256,192,93841,1,8,0:0:0:0:
256,192,93916,1,0,0:0:0:0:
256,192,93991,1,8,0:0:0:0:
256,192,94141,1,8,0:0:0:0:
256,192,94216,1,0,0:0:0:0:
256,192,94291,1,0,0:0:0:0:
256,192,94366,1,0,0:0:0:0:
256,192,94441,1,8,0:0:0:0:
256,192,94516,1,8,0:0:0:0:
256,192,94591,1,0,0:0:0:0:
256,192,94666,1,0,0:0:0:0:
256,192,94741,1,8,0:0:0:0:
256,192,94891,1,0,0:0:0:0:
256,192,95041,1,0,0:0:0:0:
224,192,95116,1,0,0:0:0:0:
256,192,95191,1,8,0:0:0:0:
256,192,95341,1,0,0:0:0:0:
256,192,95491,1,0,0:0:0:0:
224,192,95566,1,8,0:0:0:0:
256,192,95641,1,0,0:0:0:0:
256,192,95791,1,8,0:0:0:0:
256,192,95941,1,0,0:0:0:0:
256,192,97141,1,4,0:0:0:0:
256,192,97291,1,8,0:0:0:0:
256,192,97441,1,0,0:0:0:0:
256,192,97516,1,0,0:0:0:0:
256,192,97591,1,8,0:0:0:0:
256,192,97741,1,0,0:0:0:0:
256,192,97891,1,8,0:0:0:0:
256,192,98041,1,0,0:0:0:0:
256,192,98116,1,0,0:0:0:0:
256,192,98191,1,8,0:0:0:0:
256,192,98266,1,8,0:0:0:0:
256,192,98341,1,0,0:0:0:0:
256,192,98491,1,8,0:0:0:0:
256,192,98641,1,0,0:0:0:0:
256,192,98716,1,0,0:0:0:0:
256,192,98791,1,8,0:0:0:0:
256,192,98941,1,0,0:0:0:0:
256,192,99091,1,8,0:0:0:0:
256,192,99166,1,0,0:0:0:0:
256,192,99316,1,0,0:0:0:0:
256,192,99391,1,8,0:0:0:0:
256,192,99466,1,0,0:0:0:0:
256,192,99541,1,0,0:0:0:0:
256,192,99691,1,8,0:0:0:0:
256,192,99841,1,0,0:0:0:0:
256,192,99916,1,0,0:0:0:0:
256,192,99991,1,8,0:0:0:0:
256,192,100141,1,0,0:0:0:0:
256,192,100291,1,8,0:0:0:0:
256,192,100441,1,0,0:0:0:0:
256,192,100516,1,0,0:0:0:0:
256,192,100591,1,8,0:0:0:0:
224,192,100666,1,0,0:0:0:0:
256,192,100741,1,0,0:0:0:0:
224,192,100816,1,0,0:0:0:0:
256,192,100891,1,8,0:0:0:0:
256,192,101041,1,0,0:0:0:0:
256,192,101116,1,0,0:0:0:0:
256,192,101191,1,8,0:0:0:0:
256,192,101341,1,0,0:0:0:0:
256,192,101491,1,8,0:0:0:0:
224,192,101566,1,8,0:0:0:0:
256,192,101641,1,0,0:0:0:0:
224,192,101716,1,0,0:0:0:0:
224,192,101791,1,8,0:0:0:0:
256,192,101941,1,0,0:0:0:0:
256,192,102016,1,0,0:0:0:0:
256,192,102091,1,8,0:0:0:0:
256,192,102166,1,8,0:0:0:0:
256,192,102241,1,0,0:0:0:0:
256,192,102316,1,0,0:0:0:0:
256,192,102391,1,8,0:0:0:0:
256,192,102466,1,8,0:0:0:0:
256,192,102541,1,0,0:0:0:0:
256,192,102616,1,0,0:0:0:0:
256,192,102691,1,8,0:0:0:0:
256,192,102766,1,0,0:0:0:0:
256,192,102841,1,0,0:0:0:0:
256,192,102916,1,0,0:0:0:0:
256,192,102991,1,8,0:0:0:0:
256,192,103066,1,8,0:0:0:0:
256,192,103141,1,8,0:0:0:0:
256,192,103216,1,0,0:0:0:0:
256,192,103291,1,8,0:0:0:0:
256,192,103366,1,0,0:0:0:0:
256,192,103441,1,0,0:0:0:0:
256,192,103516,1,0,0:0:0:0:
256,192,103591,1,8,0:0:0:0:
256,192,103666,1,0,0:0:0:0:
256,192,103741,1,0,0:0:0:0:
256,192,103816,1,0,0:0:0:0:
256,192,103891,1,8,0:0:0:0:
256,192,103966,1,8,0:0:0:0:
256,192,104041,1,0,0:0:0:0:
256,192,104116,1,0,0:0:0:0:
256,192,104191,1,8,0:0:0:0:
288,192,104266,1,0,0:0:0:0:
256,192,104341,1,8,0:0:0:0:
256,192,104491,1,8,0:0:0:0:
256,192,104641,1,0,0:0:0:0:
256,192,104716,1,0,0:0:0:0:
256,192,104791,1,8,0:0:0:0:
256,192,104941,1,0,0:0:0:0:
256,192,105091,1,8,0:0:0:0:
256,192,105241,1,0,0:0:0:0:
256,192,105316,1,8,0:0:0:0:
256,192,105391,1,8,0:0:0:0:
256,192,105541,1,0,0:0:0:0:
256,224,105616,1,0,0:0:0:0:
256,192,105691,1,8,0:0:0:0:
256,224,105766,1,8,0:0:0:0:
256,192,105841,1,8,0:0:0:0:
256,192,105916,1,0,0:0:0:0:
256,192,105991,1,0,0:0:0:0:
256,192,106141,1,8,0:0:0:0:
256,192,106216,1,8,0:0:0:0:
256,192,106291,1,0,0:0:0:0:
256,192,106441,1,8,0:0:0:0:
256,192,106516,1,8,0:0:0:0:
256,192,106591,1,0,0:0:0:0:
256,192,106741,1,4,0:0:0:0:
256,192,106891,1,8,0:0:0:0:
256,192,107041,1,0,0:0:0:0:
256,192,107116,1,8,0:0:0:0:
256,192,107191,1,8,0:0:0:0:
256,192,107341,1,0,0:0:0:0:
256,192,107491,1,8,0:0:0:0:
256,192,107641,1,0,0:0:0:0:
256,192,107716,1,8,0:0:0:0:
256,192,107791,1,8,0:0:0:0:
256,192,107866,1,8,0:0:0:0:
256,192,107941,1,0,0:0:0:0:
256,192,108091,1,8,0:0:0:0:
256,192,108241,1,0,0:0:0:0:
256,192,108316,1,0,0:0:0:0:
256,192,108391,1,8,0:0:0:0:
256,192,108541,1,0,0:0:0:0:
256,192,108691,1,8,0:0:0:0:
256,192,108766,1,0,0:0:0:0:
256,192,108916,1,8,0:0:0:0:
256,192,108991,1,8,0:0:0:0:
256,192,109066,1,0,0:0:0:0:
256,192,109141,1,0,0:0:0:0:
256,192,109291,1,8,0:0:0:0:
256,192,109441,1,0,0:0:0:0:
256,192,109516,1,0,0:0:0:0:
256,192,109591,1,8,0:0:0:0:
256,192,109741,1,0,0:0:0:0:
256,192,109891,1,8,0:0:0:0:
256,192,110041,1,0,0:0:0:0:
256,192,110116,1,8,0:0:0:0:
256,192,110191,1,8,0:0:0:0:
224,192,110266,1,0,0:0:0:0:
256,192,110341,1,0,0:0:0:0:
224,192,110416,1,0,0:0:0:0:
256,192,110491,1,8,0:0:0:0:
256,192,110641,1,0,0:0:0:0:
256,192,110716,1,0,0:0:0:0:
256,192,110791,1,8,0:0:0:0:
256,192,110941,1,8,0:0:0:0:
256,192,111016,1,8,0:0:0:0:
256,192,111091,1,0,0:0:0:0:
256,192,111241,1,0,0:0:0:0:
256,192,111316,1,0,0:0:0:0:
256,192,111391,1,0,0:0:0:0:
256,192,111541,1,8,0:0:0:0:
256,192,111616,1,8,0:0:0:0:
256,192,111691,1,8,0:0:0:0:
256,192,111766,1,8,0:0:0:0:
256,192,111841,1,0,0:0:0:0:
256,192,111991,1,8,0:0:0:0:
256,192,112066,1,8,0:0:0:0:
256,192,112141,1,8,0:0:0:0:
256,192,112216,1,0,0:0:0:0:
256,192,112291,1,0,0:0:0:0:
256,192,112441,1,8,0:0:0:0:
256,192,112516,1,8,0:0:0:0:
256,192,112591,1,0,0:0:0:0:
256,192,112666,1,0,0:0:0:0:
256,192,112741,1,8,0:0:0:0:
256,192,113941,1,0,0:0:0:0:
256,192,114091,1,8,0:0:0:0:
256,192,114241,1,0,0:0:0:0:
256,192,114316,1,0,0:0:0:0:
256,192,114391,1,8,0:0:0:0:
256,192,114541,1,8,0:0:0:0:
256,192,114691,1,8,0:0:0:0:
256,192,114841,1,0,0:0:0:0:
256,192,114916,1,0,0:0:0:0:
256,192,114991,1,8,0:0:0:0:
256,192,115141,1,0,0:0:0:0:
256,192,115291,1,8,0:0:0:0:
256,192,115441,1,0,0:0:0:0:
256,192,115516,1,0,0:0:0:0:
256,192,115591,1,8,0:0:0:0:
256,192,115666,1,0,0:0:0:0:
256,192,115741,1,8,0:0:0:0:
256,192,115891,1,8,0:0:0:0:
256,192,116041,1,0,0:0:0:0:
224,192,116191,1,8,0:0:0:0:
256,192,116341,1,0,0:0:0:0:
256,192,116491,1,8,0:0:0:0:
256,192,116791,1,8,0:0:0:0:
256,192,116866,1,0,0:0:0:0:
256,192,116941,1,8,0:0:0:0:
256,192,117016,1,0,0:0:0:0:
256,192,117091,1,8,0:0:0:0:
256,192,117241,1,0,0:0:0:0:
256,192,117391,1,8,0:0:0:0:
256,192,117541,1,8,0:0:0:0:
224,192,117616,1,0,0:0:0:0:
256,192,117691,1,8,0:0:0:0:
224,192,117766,1,8,0:0:0:0:
256,192,117841,1,0,0:0:0:0:
256,192,117991,1,8,0:0:0:0:
224,192,118066,1,8,0:0:0:0:
256,192,118141,1,0,0:0:0:0:
256,192,118216,1,0,0:0:0:0:
256,192,118291,1,8,0:0:0:0:
256,192,118366,1,0,0:0:0:0:
224,192,118441,1,0,0:0:0:0:
224,192,118516,1,0,0:0:0:0:
224,192,118591,1,8,0:0:0:0:
256,192,118741,1,8,0:0:0:0:
256,192,118891,1,8,0:0:0:0:
256,192,119041,1,0,0:0:0:0:
256,192,119116,1,0,0:0:0:0:
256,192,119191,1,8,0:0:0:0:
256,192,119341,1,0,0:0:0:0:
256,192,119491,1,8,0:0:0:0:
256,192,119641,1,8,0:0:0:0:
256,192,119716,1,0,0:0:0:0:
256,192,119791,1,8,0:0:0:0:
256,192,119941,1,8,0:0:0:0:
256,192,120091,1,8,0:0:0:0:
256,192,120241,1,0,0:0:0:0:
256,192,120316,1,0,0:0:0:0:
256,192,120391,1,8,0:0:0:0:
256,192,120541,1,0,0:0:0:0:
256,192,120691,1,8,0:0:0:0:
256,192,120841,1,0,0:0:0:0:
256,192,120916,1,0,0:0:0:0:
256,192,120991,1,0,0:0:0:0:
256,192,121141,1,8,0:0:0:0:
256,192,121291,1,8,0:0:0:0:
256,192,121441,1,0,0:0:0:0:
256,192,121591,1,8,0:0:0:0:
256,192,121666,1,0,0:0:0:0:
256,192,121741,1,8,0:0:0:0:
256,192,121816,1,0,0:0:0:0:
256,192,121891,1,0,0:0:0:0:
256,192,122041,1,8,0:0:0:0:
256,192,122116,1,0,0:0:0:0:
256,192,122191,1,0,0:0:0:0:
256,192,122266,1,0,0:0:0:0:
256,192,122341,1,8,0:0:0:0:
256,192,122491,1,0,0:0:0:0:
256,192,122641,1,0,0:0:0:0:
256,192,122791,1,8,0:0:0:0:
256,192,122941,1,0,0:0:0:0:
256,192,123091,1,0,0:0:0:0:
256,192,123241,1,8,0:0:0:0:
224,192,123316,1,0,0:0:0:0:
256,192,123391,1,0,0:0:0:0:
224,192,123466,1,0,0:0:0:0:
256,192,123541,1,8,0:0:0:0:
256,192,123691,1,8,0:0:0:0:
256,192,123841,1,0,0:0:0:0:
256,192,123916,1,0,0:0:0:0:
256,192,123991,1,8,0:0:0:0:
256,192,124141,1,8,0:0:0:0:
256,192,124291,1,8,0:0:0:0:
256,192,124441,1,0,0:0:0:0:
256,192,124516,1,8,0:0:0:0:
256,192,124591,1,0,0:0:0:0:
256,192,124741,1,8,0:0:0:0:
256,192,124891,1,8,0:0:0:0:
256,160,125041,1,8,0:0:0:0:
256,160,125116,1,0,0:0:0:0:
256,192,125191,1,8,0:0:0:0:
256,192,125341,1,0,0:0:0:0:
256,192,125416,1,8,0:0:0:0:
256,192,125491,1,0,0:0:0:0:
256,192,125566,1,0,0:0:0:0:
256,192,125641,1,8,0:0:0:0:
256,160,125791,1,0,0:0:0:0:
256,160,125866,1,0,0:0:0:0:
256,192,125941,1,8,0:0:0:0:
256,160,126016,1,0,0:0:0:0:
256,192,126091,1,8,0:0:0:0:
256,160,126166,1,0,0:0:0:0:
256,192,126241,1,0,0:0:0:0:
256,160,126316,1,0,0:0:0:0:
256,192,126391,1,8,0:0:0:0:
256,160,126466,1,8,0:0:0:0:
256,192,126541,1,8,0:0:0:0:
256,160,126616,1,0,0:0:0:0:
256,192,126691,1,8,0:0:0:0:
256,160,126766,1,0,0:0:0:0:
256,192,126841,1,0,0:0:0:0:
256,160,126916,1,0,0:0:0:0:
256,192,126991,1,8,0:0:0:0:
256,160,127066,1,0,0:0:0:0:
256,192,127141,1,8,0:0:0:0:
256,192,127291,1,0,0:0:0:0:
256,192,127441,1,0,0:0:0:0:
256,192,127591,1,8,0:0:0:0:
256,192,127891,1,0,0:0:0:0:
256,192,127966,1,0,0:0:0:0:
256,192,128041,1,8,0:0:0:0:
256,192,128116,1,0,0:0:0:0:
256,192,128191,1,0,0:0:0:0:
256,192,128266,1,0,0:0:0:0:
256,192,128341,1,8,0:0:0:0:
256,192,128491,1,8,0:0:0:0:
256,192,128641,1,0,0:0:0:0:
256,192,128716,1,0,0:0:0:0:
256,192,128791,1,8,0:0:0:0:
256,192,128941,1,8,0:0:0:0:
256,192,129091,1,8,0:0:0:0:
256,192,129241,1,0,0:0:0:0:
256,192,129391,1,0,0:0:0:0:
256,192,129541,1,8,0:0:0:0:
256,192,129691,1,8,0:0:0:0:
256,192,129841,1,0,0:0:0:0:
256,224,129916,1,0,0:0:0:0:
256,192,129991,1,0,0:0:0:0:
256,192,130141,1,8,0:0:0:0:
256,192,130291,1,0,0:0:0:0:
256,192,130441,1,8,0:0:0:0:
256,192,130591,1,0,0:0:0:0:
256,192,130741,1,8,0:0:0:0:
256,192,130816,1,8,0:0:0:0:
256,192,130891,1,8,0:0:0:0:
256,192,130966,1,8,0:0:0:0:
256,192,131041,1,8,0:0:0:0:
256,192,131116,1,0,0:0:0:0:
256,192,131191,1,0,0:0:0:0:
256,192,131266,1,0,0:0:0:0:
256,192,131341,1,8,0:0:0:0:
256,192,131391,1,8,0:0:0:0:
256,192,131441,1,8,0:0:0:0:
256,192,131491,1,0,0:0:0:0:
256,192,131566,1,0,0:0:0:0:
256,192,131641,1,8,0:0:0:0:
256,192,131716,1,0,0:0:0:0:
256,192,131791,1,0,0:0:0:0:
256,192,131866,1,0,0:0:0:0:
256,192,131941,1,8,0:0:0:0:
256,192,132016,1,8,0:0:0:0:
256,192,132091,1,8,0:0:0:0:
256,192,132166,1,8,0:0:0:0:
256,192,132241,1,0,0:0:0:0:
256,192,132541,1,4,0:0:0:0:
256,192,132741,1,4,0:0:0:0:
256,192,132941,1,4,0:0:0:0:
256,192,133141,1,12,0:0:0:0:
256,192,135541,1,0,0:0:0:0:
256,192,135841,1,8,0:0:0:0:
256,192,136141,1,0,0:0:0:0:
256,192,136291,1,0,0:0:0:0:
256,192,136441,1,8,0:0:0:0:
256,192,136741,1,0,0:0:0:0:
256,192,137041,1,8,0:0:0:0:
256,192,137341,1,0,0:0:0:0:
256,192,137491,1,0,0:0:0:0:
256,192,137641,1,8,0:0:0:0:
256,192,137791,1,8,0:0:0:0:
256,192,137941,1,0,0:0:0:0:
256,192,138241,1,8,0:0:0:0:
256,192,138541,1,0,0:0:0:0:
256,192,138691,1,0,0:0:0:0:
256,192,138841,1,8,0:0:0:0:
256,192,139141,1,0,0:0:0:0:
256,192,139441,1,8,0:0:0:0:
256,192,139741,1,0,0:0:0:0:
256,192,139891,1,0,0:0:0:0:
256,192,140041,1,8,0:0:0:0:
256,192,140341,1,0,0:0:0:0:
256,192,140641,1,8,0:0:0:0:
256,192,140941,1,0,0:0:0:0:
256,192,141091,1,0,0:0:0:0:
256,192,141241,1,8,0:0:0:0:
256,192,141541,1,8,0:0:0:0:
256,192,141616,1,8,0:0:0:0:
256,192,141691,1,8,0:0:0:0:
256,192,141766,1,8,0:0:0:0:
256,192,141841,1,0,0:0:0:0:
256,192,141991,1,8,0:0:0:0:
256,192,142066,1,8,0:0:0:0:
256,192,142141,1,8,0:0:0:0:
256,192,142216,1,0,0:0:0:0:
256,192,142291,1,0,0:0:0:0:
256,192,142441,1,8,0:0:0:0:
256,192,142516,1,0,0:0:0:0:
256,192,142591,1,0,0:0:0:0:
256,192,142666,1,0,0:0:0:0:
256,192,142741,1,8,0:0:0:0:
224,192,143941,1,0,0:0:0:0:
256,192,145141,1,0,0:0:0:0:
256,192,145291,1,8,0:0:0:0:
256,192,145441,1,0,0:0:0:0:
256,192,145516,1,0,0:0:0:0:
256,192,145591,1,8,0:0:0:0:
256,192,145666,1,8,0:0:0:0:
256,192,145741,1,0,0:0:0:0:
256,192,145891,1,8,0:0:0:0:
256,192,146041,1,0,0:0:0:0:
256,192,146116,1,0,0:0:0:0:
256,192,146191,1,8,0:0:0:0:
256,192,146266,1,8,0:0:0:0:
256,192,146341,1,0,0:0:0:0:
256,192,146491,1,8,0:0:0:0:
256,192,146641,1,0,0:0:0:0:
256,192,146716,1,0,0:0:0:0:
256,192,146791,1,8,0:0:0:0:
256,192,146941,1,0,0:0:0:0:
256,192,147091,1,8,0:0:0:0:
256,192,147166,1,0,0:0:0:0:
256,192,147316,1,8,0:0:0:0:
256,192,147391,1,0,0:0:0:0:
256,192,147466,1,8,0:0:0:0:
256,192,147541,1,0,0:0:0:0:
256,192,147691,1,8,0:0:0:0:
256,192,147841,1,0,0:0:0:0:
256,192,147916,1,0,0:0:0:0:
256,192,147991,1,8,0:0:0:0:
256,192,148141,1,0,0:0:0:0:
256,192,148291,1,8,0:0:0:0:
256,192,148441,1,0,0:0:0:0:
256,192,148516,1,8,0:0:0:0:
256,192,148591,1,0,0:0:0:0:
256,192,148741,1,0,0:0:0:0:
256,192,148891,1,8,0:0:0:0:
256,192,149041,1,0,0:0:0:0:
256,192,149116,1,0,0:0:0:0:
256,192,149191,1,8,0:0:0:0:
256,192,149341,1,0,0:0:0:0:
256,192,149491,1,0,0:0:0:0:
256,192,149566,1,8,0:0:0:0:
256,192,149641,1,0,0:0:0:0:
256,192,149791,1,8,0:0:0:0:
256,192,149941,1,0,0:0:0:0:
256,192,150016,1,0,0:0:0:0:
256,192,150091,1,8,0:0:0:0:
256,192,150241,1,0,0:0:0:0:
256,192,150391,1,0,0:0:0:0:
256,192,150466,1,0,0:0:0:0:
256,192,150541,1,8,0:0:0:0:
256,192,150691,1,0,0:0:0:0:
256,192,150841,1,0,0:0:0:0:
256,192,150991,1,8,0:0:0:0:
256,192,151141,1,0,0:0:0:0:
256,192,151216,1,0,0:0:0:0:
256,192,151291,1,8,0:0:0:0:
256,192,151441,1,0,0:0:0:0:
256,192,151516,1,8,0:0:0:0:
256,192,151591,1,0,0:0:0:0:
256,192,151741,1,8,0:0:0:0:
256,192,151891,1,0,0:0:0:0:
256,192,152041,1,0,0:0:0:0:
256,192,152116,1,0,0:0:0:0:
256,192,152191,1,8,0:0:0:0:
256,192,152266,1,0,0:0:0:0:
256,192,152341,1,0,0:0:0:0:
256,192,152491,1,8,0:0:0:0:
256,192,152641,1,8,0:0:0:0:
256,192,152716,1,8,0:0:0:0:
256,192,152791,1,0,0:0:0:0:
256,192,152941,1,8,0:0:0:0:
256,192,153091,1,0,0:0:0:0:
256,192,153241,1,0,0:0:0:0:
256,192,153316,1,0,0:0:0:0:
256,192,153391,1,8,0:0:0:0:
256,192,153541,1,0,0:0:0:0:
256,192,153691,1,12,0:0:0:0:
256,192,153991,5,12,0:0:0:0:
256,192,154291,1,12,0:0:0:0:
224,192,154441,1,0,0:0:0:0:
224,192,154516,1,0,0:0:0:0:
224,192,154591,1,0,0:0:0:0:
224,192,154666,1,0,0:0:0:0:
224,192,154741,1,8,0:0:0:0:
256,192,154891,5,0,0:0:0:0:
256,192,155041,1,0,0:0:0:0:
256,192,155191,1,8,0:0:0:0:
256,192,155341,1,0,0:0:0:0:
256,192,155491,1,0,0:0:0:0:
256,192,155641,1,8,0:0:0:0:
256,192,155791,1,0,0:0:0:0:
256,192,155941,1,8,0:0:0:0:
256,192,156091,1,0,0:0:0:0:
256,192,156241,1,0,0:0:0:0:
256,192,156391,1,8,0:0:0:0:
256,192,156541,1,0,0:0:0:0:
256,192,156691,1,0,0:0:0:0:
256,192,156841,1,8,0:0:0:0:
256,192,156991,1,0,0:0:0:0:
256,192,157141,1,8,0:0:0:0:
224,192,157216,1,0,0:0:0:0:
256,192,157291,1,0,0:0:0:0:
256,192,157441,1,0,0:0:0:0:
256,192,157591,1,8,0:0:0:0:
224,192,157666,1,0,0:0:0:0:
256,192,157741,1,0,0:0:0:0:
256,192,157891,1,8,0:0:0:0:
224,192,157966,1,8,0:0:0:0:
256,192,158041,1,8,0:0:0:0:
256,192,158191,1,0,0:0:0:0:
256,192,158341,1,8,0:0:0:0:
256,192,158491,1,4,0:0:0:0:
256,192,158716,1,4,0:0:0:0:
256,192,158941,1,4,0:0:0:0:
256,192,159166,1,0,0:0:0:0:
256,192,159391,1,0,0:0:0:0:
256,192,159466,1,0,0:0:0:0:
256,192,159541,1,8,0:0:0:0:
256,192,159691,1,0,0:0:0:0:
256,192,159841,1,0,0:0:0:0:
256,192,159991,1,8,0:0:0:0:
256,192,160141,1,0,0:0:0:0:
256,192,160291,1,0,0:0:0:0:
256,192,160441,1,8,0:0:0:0:
256,192,160591,1,0,0:0:0:0:
256,192,160741,1,8,0:0:0:0:
256,192,160891,1,0,0:0:0:0:
256,192,161041,1,0,0:0:0:0:
256,192,161191,1,8,0:0:0:0:
256,192,161341,1,0,0:0:0:0:
256,192,161491,1,0,0:0:0:0:
256,192,161641,1,8,0:0:0:0:
256,192,161791,1,0,0:0:0:0:
256,192,161941,1,8,0:0:0:0:
256,192,162241,1,0,0:0:0:0:
256,192,162391,1,0,0:0:0:0:
256,192,162541,1,0,0:0:0:0:
256,192,162691,1,0,0:0:0:0:
256,192,162841,1,0,0:0:0:0:
256,192,162991,1,0,0:0:0:0:
256,192,163141,1,0,0:0:0:0:
256,192,163441,1,8,0:0:0:0:
256,192,163741,1,0,0:0:0:0:
256,192,164041,1,8,0:0:0:0:
256,192,164341,1,4,0:0:0:0:
256,192,164491,1,8,0:0:0:0:
256,192,164641,1,0,0:0:0:0:
256,192,164716,1,0,0:0:0:0:
256,192,164791,1,8,0:0:0:0:
256,192,164941,1,0,0:0:0:0:
256,192,165091,1,8,0:0:0:0:
256,192,165241,1,0,0:0:0:0:
256,192,165316,1,0,0:0:0:0:
256,192,165391,1,8,0:0:0:0:
256,192,165541,1,0,0:0:0:0:
256,192,165691,1,8,0:0:0:0:
256,192,165841,1,0,0:0:0:0:
256,192,165916,1,0,0:0:0:0:
256,192,165991,1,8,0:0:0:0:
256,192,166141,1,0,0:0:0:0:
256,192,166291,1,8,0:0:0:0:
256,192,166441,1,0,0:0:0:0:
256,192,166516,1,0,0:0:0:0:
256,192,166591,1,8,0:0:0:0:
256,192,166666,1,0,0:0:0:0:
256,192,166741,1,8,0:0:0:0:
256,192,166891,1,8,0:0:0:0:
256,192,167041,1,0,0:0:0:0:
256,192,167116,1,0,0:0:0:0:
256,192,167191,1,8,0:0:0:0:
256,192,167341,1,0,0:0:0:0:
256,192,167491,1,8,0:0:0:0:
256,192,167641,1,0,0:0:0:0:
256,192,167716,1,0,0:0:0:0:
256,192,167791,1,8,0:0:0:0:
256,192,167941,1,0,0:0:0:0:
256,192,168091,1,8,0:0:0:0:
256,192,168241,1,0,0:0:0:0:
256,192,168316,1,0,0:0:0:0:
256,192,168391,1,8,0:0:0:0:
256,192,168541,1,0,0:0:0:0:
256,192,168616,1,0,0:0:0:0:
256,192,168691,1,8,0:0:0:0:
256,192,168841,1,0,0:0:0:0:
256,192,168916,1,0,0:0:0:0:
256,192,168991,1,8,0:0:0:0:
256,192,169141,1,0,0:0:0:0:
256,192,169291,1,8,0:0:0:0:
256,192,169441,1,8,0:0:0:0:
256,192,169516,1,0,0:0:0:0:
256,192,169591,1,8,0:0:0:0:
256,192,169741,1,0,0:0:0:0:
256,192,169891,1,8,0:0:0:0:
256,192,169966,1,0,0:0:0:0:
256,192,170041,1,8,0:0:0:0:
256,192,170191,1,8,0:0:0:0:
256,192,170341,1,0,0:0:0:0:
256,192,170491,1,8,0:0:0:0:
256,192,170641,1,8,0:0:0:0:
256,192,170716,1,0,0:0:0:0:
256,192,170791,1,8,0:0:0:0:
256,192,170941,1,0,0:0:0:0:
256,192,171091,1,8,0:0:0:0:
256,192,171241,1,8,0:0:0:0:
256,192,171316,1,8,0:0:0:0:
256,192,171391,1,0,0:0:0:0:
256,192,171541,1,0,0:0:0:0:
256,192,171691,1,8,0:0:0:0:
256,192,171841,1,0,0:0:0:0:
256,192,171916,1,0,0:0:0:0:
256,192,171991,1,8,0:0:0:0:
256,192,172141,1,0,0:0:0:0:
256,192,172291,1,8,0:0:0:0:
256,192,172441,1,0,0:0:0:0:
256,192,172516,1,0,0:0:0:0:
256,192,172591,1,8,0:0:0:0:
256,192,172741,1,8,0:0:0:0:
256,192,172816,1,8,0:0:0:0:
256,192,172891,1,8,0:0:0:0:
256,192,172966,1,0,0:0:0:0:
256,192,173041,1,0,0:0:0:0:
256,192,173116,1,0,0:0:0:0:
256,192,173191,1,8,0:0:0:0:
256,192,173266,1,8,0:0:0:0:
256,192,173341,1,0,0:0:0:0:
256,192,173416,1,0,0:0:0:0:
256,192,173491,1,8,0:0:0:0:
256,192,173566,1,0,0:0:0:0:
256,192,173641,1,8,0:0:0:0:
256,192,173716,1,8,0:0:0:0:
256,192,173791,1,0,0:0:0:0:
256,192,173941,1,8,0:0:0:0:
256,192,174091,1,8,0:0:0:0:
256,192,174241,1,0,0:0:0:0:
256,192,174316,1,0,0:0:0:0:
256,192,174391,1,8,0:0:0:0:
256,192,174541,1,8,0:0:0:0:
256,192,174691,1,8,0:0:0:0:
256,192,174841,1,0,0:0:0:0:
256,192,174916,1,0,0:0:0:0:
256,192,174991,1,8,0:0:0:0:
256,192,175141,1,8,0:0:0:0:
256,192,175291,1,8,0:0:0:0:
256,192,175441,1,0,0:0:0:0:
256,192,175516,1,0,0:0:0:0:
256,192,175591,1,8,0:0:0:0:
256,192,175741,1,0,0:0:0:0:
256,192,175891,1,8,0:0:0:0:
256,192,176041,1,0,0:0:0:0:
256,192,176116,1,0,0:0:0:0:
256,192,176191,1,8,0:0:0:0:
256,192,176341,1,8,0:0:0:0:
256,192,176491,1,0,0:0:0:0:
256,192,176641,1,8,0:0:0:0:
256,192,176716,1,0,0:0:0:0:
256,192,176791,1,8,0:0:0:0:
256,192,176941,1,0,0:0:0:0:
256,192,177091,1,8,0:0:0:0:
256,192,177166,1,0,0:0:0:0:
256,192,177241,1,8,0:0:0:0:
256,192,177316,1,8,0:0:0:0:
256,192,177391,1,0,0:0:0:0:
256,192,177541,1,0,0:0:0:0:
256,192,177691,1,8,0:0:0:0:
256,192,177841,1,0,0:0:0:0:
256,192,177916,1,0,0:0:0:0:
256,192,177991,1,8,0:0:0:0:
256,192,178141,1,0,0:0:0:0:
256,192,178291,1,8,0:0:0:0:
256,192,178441,1,0,0:0:0:0:
256,192,178516,1,0,0:0:0:0:
256,192,178591,1,8,0:0:0:0:
256,192,178741,1,8,0:0:0:0:
256,192,178816,1,0,0:0:0:0:
256,192,178891,1,8,0:0:0:0:
256,192,178966,1,8,0:0:0:0:
256,192,179041,1,8,0:0:0:0:
256,192,179116,1,0,0:0:0:0:
256,192,179191,1,0,0:0:0:0:
256,192,179266,1,0,0:0:0:0:
256,192,179341,1,8,0:0:0:0:
256,192,179416,1,0,0:0:0:0:
256,192,179491,1,0,0:0:0:0:
256,192,179566,1,0,0:0:0:0:
256,192,179641,1,8,0:0:0:0:
256,192,179716,1,8,0:0:0:0:
256,192,179791,1,0,0:0:0:0:
256,192,179866,1,0,0:0:0:0:
256,192,179941,1,8,0:0:0:0:
256,192,180016,1,0,0:0:0:0:
256,192,180091,1,8,0:0:0:0:
256,192,180166,1,0,0:0:0:0:
256,192,180241,1,8,0:0:0:0:
256,192,180316,1,8,0:0:0:0:
256,192,180391,1,8,0:0:0:0:
256,192,180466,1,0,0:0:0:0:
256,192,180541,1,8,0:0:0:0:
256,192,180616,1,0,0:0:0:0:
256,192,180691,1,0,0:0:0:0:
256,192,180766,1,0,0:0:0:0:
256,192,180841,1,8,0:0:0:0:
256,192,180916,1,0,0:0:0:0:
256,192,180991,1,8,0:0:0:0:
256,192,181066,1,8,0:0:0:0:
256,192,181141,1,0,0:0:0:0:
256,192,181291,1,0,0:0:0:0:
256,192,181441,1,0,0:0:0:0:
256,192,181591,1,0,0:0:0:0:
256,192,181666,1,0,0:0:0:0:
256,192,181741,1,8,0:0:0:0:
256,192,181891,1,0,0:0:0:0:
256,192,181966,1,0,0:0:0:0:
256,192,182041,1,8,0:0:0:0:
256,192,182116,1,0,0:0:0:0:
256,192,182191,1,8,0:0:0:0:
256,192,182266,1,0,0:0:0:0:
256,192,182341,1,0,0:0:0:0:
256,192,183541,1,4,0:0:0:0:
256,192,183691,1,8,0:0:0:0:
256,192,183841,1,0,0:0:0:0:
256,192,183916,1,0,0:0:0:0:
256,192,183991,1,8,0:0:0:0:
256,192,184141,1,0,0:0:0:0:
256,192,184291,1,8,0:0:0:0:
256,192,184441,1,0,0:0:0:0:
256,192,184516,1,0,0:0:0:0:
256,192,184591,1,8,0:0:0:0:
256,192,184666,1,0,0:0:0:0:
256,192,184741,1,8,0:0:0:0:
256,192,184891,1,8,0:0:0:0:
256,192,185041,1,0,0:0:0:0:
256,192,185116,1,0,0:0:0:0:
256,192,185191,1,8,0:0:0:0:
256,192,185341,1,0,0:0:0:0:
256,192,185491,1,8,0:0:0:0:
256,192,185566,1,0,0:0:0:0:
256,192,185716,1,0,0:0:0:0:
256,192,185791,1,8,0:0:0:0:
256,192,185866,1,0,0:0:0:0:
256,192,185941,1,0,0:0:0:0:
256,192,186091,1,8,0:0:0:0:
256,192,186241,1,0,0:0:0:0:
256,192,186316,1,0,0:0:0:0:
256,192,186391,1,8,0:0:0:0:
256,192,186541,1,0,0:0:0:0:
256,192,186691,1,8,0:0:0:0:
256,192,186841,1,0,0:0:0:0:
256,192,186916,1,0,0:0:0:0:
256,192,186991,1,8,0:0:0:0:
224,192,187066,1,0,0:0:0:0:
256,192,187141,1,0,0:0:0:0:
224,192,187216,1,0,0:0:0:0:
256,192,187291,1,8,0:0:0:0:
256,192,187441,1,0,0:0:0:0:
256,192,187516,1,0,0:0:0:0:
256,192,187591,1,8,0:0:0:0:
256,192,187741,1,0,0:0:0:0:
256,192,187891,1,8,0:0:0:0:
224,192,187966,1,0,0:0:0:0:
256,192,188041,1,0,0:0:0:0:
224,192,188116,1,0,0:0:0:0:
224,192,188191,1,8,0:0:0:0:
256,192,188341,1,0,0:0:0:0:
256,192,188416,1,0,0:0:0:0:
256,192,188491,1,8,0:0:0:0:
256,192,188566,1,8,0:0:0:0:
256,192,188641,1,0,0:0:0:0:
256,192,188716,1,0,0:0:0:0:
256,192,188791,1,8,0:0:0:0:
256,192,188866,1,8,0:0:0:0:
256,192,188941,1,0,0:0:0:0:
256,192,189016,1,0,0:0:0:0:
256,192,189091,1,8,0:0:0:0:
256,192,189166,1,0,0:0:0:0:
256,192,189241,1,0,0:0:0:0:
256,192,189316,1,0,0:0:0:0:
256,192,189391,1,8,0:0:0:0:
256,192,189466,1,8,0:0:0:0:
256,192,189541,1,8,0:0:0:0:
256,192,189616,1,0,0:0:0:0:
256,192,189691,1,8,0:0:0:0:
256,192,189766,1,0,0:0:0:0:
256,192,189841,1,0,0:0:0:0:
256,192,189916,1,0,0:0:0:0:
256,192,189991,1,8,0:0:0:0:
256,192,190066,1,0,0:0:0:0:
256,192,190141,1,0,0:0:0:0:
256,192,190216,1,0,0:0:0:0:
256,192,190291,1,8,0:0:0:0:
256,192,190366,1,8,0:0:0:0:
256,192,190441,1,0,0:0:0:0:
256,192,190516,1,0,0:0:0:0:
256,192,190591,1,8,0:0:0:0:
288,192,190666,1,0,0:0:0:0:
256,192,190741,1,8,0:0:0:0:
256,192,190891,5,8,0:0:0:0:
256,192,191041,1,0,0:0:0:0:
256,192,191116,1,0,0:0:0:0:
256,192,191191,1,8,0:0:0:0:
256,192,191341,1,0,0:0:0:0:
256,192,191491,1,8,0:0:0:0:
256,192,191641,1,0,0:0:0:0:
256,192,191716,1,8,0:0:0:0:
256,192,191791,1,8,0:0:0:0:
256,192,191941,5,0,0:0:0:0:
256,224,192016,1,0,0:0:0:0:
256,192,192091,1,8,0:0:0:0:
256,224,192166,1,8,0:0:0:0:
256,192,192241,1,8,0:0:0:0:
256,192,192316,1,0,0:0:0:0:
256,192,192391,1,0,0:0:0:0:
256,192,192466,1,0,0:0:0:0:
256,192,192541,1,8,0:0:0:0:
256,192,192616,1,8,0:0:0:0:
256,192,192691,1,0,0:0:0:0:
256,192,192766,1,0,0:0:0:0:
256,192,192841,1,8,0:0:0:0:
256,192,192916,1,8,0:0:0:0:
256,192,192991,1,0,0:0:0:0:
256,192,193066,1,0,0:0:0:0:
256,192,193141,1,0,0:0:0:0:
256,192,193291,1,8,0:0:0:0:
256,192,193441,1,0,0:0:0:0:
256,192,193516,1,8,0:0:0:0:
256,192,193591,1,8,0:0:0:0:
256,192,193741,1,0,0:0:0:0:
256,192,193891,1,8,0:0:0:0:
256,192,194041,1,0,0:0:0:0:
256,192,194116,1,8,0:0:0:0:
256,192,194191,1,8,0:0:0:0:
256,192,194266,1,8,0:0:0:0:
256,192,194341,1,0,0:0:0:0:
256,192,194491,1,8,0:0:0:0:
256,192,194641,1,0,0:0:0:0:
256,192,194716,1,0,0:0:0:0:
256,192,194791,1,8,0:0:0:0:
256,192,194941,1,0,0:0:0:0:
256,192,195091,1,8,0:0:0:0:
256,192,195166,1,0,0:0:0:0:
256,192,195316,1,0,0:0:0:0:
256,192,195391,1,8,0:0:0:0:
256,192,195541,1,0,0:0:0:0:
256,192,195691,1,8,0:0:0:0:
256,192,195841,1,0,0:0:0:0:
256,192,195916,1,0,0:0:0:0:
256,192,195991,1,8,0:0:0:0:
224,192,196066,1,8,0:0:0:0:
256,192,196141,1,0,0:0:0:0:
256,192,196291,1,8,0:0:0:0:
256,192,196441,1,0,0:0:0:0:
256,192,196516,1,8,0:0:0:0:
256,192,196591,1,8,0:0:0:0:
224,192,196666,1,0,0:0:0:0:
256,192,196741,1,0,0:0:0:0:
224,192,196816,1,0,0:0:0:0:
256,192,196891,1,8,0:0:0:0:
256,192,197041,1,0,0:0:0:0:
256,192,197116,1,0,0:0:0:0:
256,192,197191,1,8,0:0:0:0:
256,192,197341,1,8,0:0:0:0:
256,192,197416,1,8,0:0:0:0:
256,192,197491,1,0,0:0:0:0:
256,192,197641,1,0,0:0:0:0:
256,192,197716,1,0,0:0:0:0:
256,192,197791,1,0,0:0:0:0:
256,192,197941,1,8,0:0:0:0:
256,192,198016,1,8,0:0:0:0:
256,192,198091,1,8,0:0:0:0:
256,192,198166,1,8,0:0:0:0:
256,192,198241,1,0,0:0:0:0:
256,192,198316,1,0,0:0:0:0:
256,192,198391,1,8,0:0:0:0:
256,192,198466,1,8,0:0:0:0:
256,192,198541,1,8,0:0:0:0:
256,192,198616,1,0,0:0:0:0:
256,192,198691,1,0,0:0:0:0:
256,192,198766,1,0,0:0:0:0:
256,192,198841,1,8,0:0:0:0:
256,192,198916,1,8,0:0:0:0:
256,192,198991,1,0,0:0:0:0:
256,192,199066,1,0,0:0:0:0:
256,192,199141,1,8,0:0:0:0:
256,192,200341,1,0,0:0:0:0:
256,192,200491,1,8,0:0:0:0:
256,192,200641,1,0,0:0:0:0:
256,192,200716,1,0,0:0:0:0:
256,192,200791,1,8,0:0:0:0:
256,192,200941,1,8,0:0:0:0:
256,192,201091,1,8,0:0:0:0:
256,192,201241,1,0,0:0:0:0:
256,192,201316,1,0,0:0:0:0:
256,192,201391,1,8,0:0:0:0:
256,192,201541,1,0,0:0:0:0:
256,192,201691,1,8,0:0:0:0:
256,192,201841,1,0,0:0:0:0:
256,192,201916,1,0,0:0:0:0:
256,192,201991,1,8,0:0:0:0:
256,192,202066,1,0,0:0:0:0:
256,192,202141,1,8,0:0:0:0:
256,192,202291,1,8,0:0:0:0:
256,192,202441,1,0,0:0:0:0:
224,192,202591,1,8,0:0:0:0:
256,192,202741,1,8,0:0:0:0:
256,192,202816,1,0,0:0:0:0:
256,192,202891,1,8,0:0:0:0:
256,192,202966,1,0,0:0:0:0:
256,192,203041,1,0,0:0:0:0:
256,192,203116,1,0,0:0:0:0:
256,192,203191,1,8,0:0:0:0:
256,192,203266,1,8,0:0:0:0:
256,192,203341,1,0,0:0:0:0:
256,192,203416,1,0,0:0:0:0:
256,192,203491,1,8,0:0:0:0:
256,192,203566,1,0,0:0:0:0:
256,192,203641,1,8,0:0:0:0:
256,192,203716,1,8,0:0:0:0:
256,192,203791,1,0,0:0:0:0:
256,192,203866,1,0,0:0:0:0:
256,192,203941,1,8,0:0:0:0:
224,192,204016,1,0,0:0:0:0:
256,192,204091,1,8,0:0:0:0:
256,192,204241,1,0,0:0:0:0:
256,192,204391,1,8,0:0:0:0:
256,192,204541,1,0,0:0:0:0:
256,192,204616,1,0,0:0:0:0:
256,192,204691,1,8,0:0:0:0:
256,192,204841,1,0,0:0:0:0:
224,192,204916,1,0,0:0:0:0:
224,192,204991,1,8,0:0:0:0:
224,192,205066,1,0,0:0:0:0:
256,192,205141,1,8,0:0:0:0:
256,192,205291,1,8,0:0:0:0:
256,192,205441,1,0,0:0:0:0:
256,192,205516,1,0,0:0:0:0:
256,192,205591,1,8,0:0:0:0:
256,192,205741,1,0,0:0:0:0:
256,192,205891,1,8,0:0:0:0:
256,192,206041,1,8,0:0:0:0:
256,192,206116,1,0,0:0:0:0:
256,192,206191,1,8,0:0:0:0:
256,192,206341,1,8,0:0:0:0:
256,192,206491,1,8,0:0:0:0:
256,192,206641,1,0,0:0:0:0:
256,192,206716,1,0,0:0:0:0:
256,192,206791,1,8,0:0:0:0:
256,192,206941,1,0,0:0:0:0:
256,192,207091,1,8,0:0:0:0:
256,192,207241,1,0,0:0:0:0:
256,192,207316,1,0,0:0:0:0:
256,192,207391,1,0,0:0:0:0:
256,192,207541,1,8,0:0:0:0:
256,192,207766,1,8,0:0:0:0:
256,192,207841,1,0,0:0:0:0:
256,192,207991,1,8,0:0:0:0:
256,192,208216,1,8,0:0:0:0:
256,192,208291,1,0,0:0:0:0:
256,192,208441,1,8,0:0:0:0:
256,192,208516,1,0,0:0:0:0:
256,192,208591,1,0,0:0:0:0:
256,192,208666,1,0,0:0:0:0:
256,192,208741,1,8,0:0:0:0:
256,192,208891,1,0,0:0:0:0:
256,192,209041,1,0,0:0:0:0:
256,192,209191,1,0,0:0:0:0:
256,192,209266,1,0,0:0:0:0:
256,192,209341,1,8,0:0:0:0:
256,192,209416,1,8,0:0:0:0:
256,192,209491,1,0,0:0:0:0:
256,192,209566,1,0,0:0:0:0:
256,192,209641,1,8,0:0:0:0:
224,192,209716,1,0,0:0:0:0:
256,192,209791,1,0,0:0:0:0:
224,192,209866,1,0,0:0:0:0:
256,192,209941,1,8,0:0:0:0:
256,192,210091,1,8,0:0:0:0:
256,192,210241,1,0,0:0:0:0:
256,192,210316,1,0,0:0:0:0:
256,192,210391,1,8,0:0:0:0:
256,192,210541,1,8,0:0:0:0:
256,192,210691,1,8,0:0:0:0:
256,192,210841,1,0,0:0:0:0:
256,192,210916,1,0,0:0:0:0:
256,192,210991,1,0,0:0:0:0:
256,192,211141,1,8,0:0:0:0:
256,192,211291,1,8,0:0:0:0:
256,160,211441,1,0,0:0:0:0:
256,160,211516,1,0,0:0:0:0:
256,192,211591,1,0,0:0:0:0:
256,192,211741,1,8,0:0:0:0:
256,192,211891,1,8,0:0:0:0:
256,192,211966,1,0,0:0:0:0:
256,192,212041,1,8,0:0:0:0:
256,160,212191,1,0,0:0:0:0:
256,160,212266,1,0,0:0:0:0:
256,192,212341,1,8,0:0:0:0:
256,160,212416,1,0,0:0:0:0:
256,192,212491,1,8,0:0:0:0:
256,160,212566,1,0,0:0:0:0:
256,192,212641,1,8,0:0:0:0:
256,160,212716,1,0,0:0:0:0:
256,192,212791,1,8,0:0:0:0:
224,192,212866,1,0,0:0:0:0:
256,192,212941,1,8,0:0:0:0:
256,160,213016,1,0,0:0:0:0:
256,192,213091,1,8,0:0:0:0:
256,160,213166,1,0,0:0:0:0:
256,192,213241,1,8,0:0:0:0:
256,160,213316,1,0,0:0:0:0:
256,192,213391,1,0,0:0:0:0:
256,160,213466,1,0,0:0:0:0:
256,192,213541,1,8,0:0:0:0:
256,192,213691,1,0,0:0:0:0:
256,192,213841,1,0,0:0:0:0:
256,192,213991,1,8,0:0:0:0:
256,192,214291,1,0,0:0:0:0:
256,192,214366,1,0,0:0:0:0:
256,192,214441,1,8,0:0:0:0:
256,192,214516,1,0,0:0:0:0:
256,192,214591,1,0,0:0:0:0:
256,192,214666,1,0,0:0:0:0:
256,192,214741,1,8,0:0:0:0:
256,192,214891,1,8,0:0:0:0:
256,192,215041,1,0,0:0:0:0:
256,192,215191,1,8,0:0:0:0:
256,192,215266,1,0,0:0:0:0:
256,192,215341,1,8,0:0:0:0:
256,192,215491,1,8,0:0:0:0:
256,192,215641,1,0,0:0:0:0:
256,192,215791,1,0,0:0:0:0:
256,192,215941,1,8,0:0:0:0:
256,192,216016,1,0,0:0:0:0:
256,192,216091,1,8,0:0:0:0:
256,192,216241,1,0,0:0:0:0:
256,192,216391,1,0,0:0:0:0:
256,224,216466,1,0,0:0:0:0:
256,192,216541,1,8,0:0:0:0:
256,192,216691,1,0,0:0:0:0:
256,192,216841,1,8,0:0:0:0:
256,192,216991,1,0,0:0:0:0:
256,192,217141,1,8,0:0:0:0:
256,192,217216,1,0,0:0:0:0:
256,192,217291,1,8,0:0:0:0:
256,192,217366,1,0,0:0:0:0:
256,192,217441,1,8,0:0:0:0:
256,192,217516,1,0,0:0:0:0:
256,192,217591,1,0,0:0:0:0:
256,192,217666,1,0,0:0:0:0:
256,192,217741,1,8,0:0:0:0:
256,192,217816,1,8,0:0:0:0:
256,192,217891,1,0,0:0:0:0:
256,192,217966,1,0,0:0:0:0:
256,192,218041,1,8,0:0:0:0:
256,192,218116,1,0,0:0:0:0:
256,192,218191,1,0,0:0:0:0:
256,192,218266,1,0,0:0:0:0:
256,192,218341,1,8,0:0:0:0:
256,192,218416,1,8,0:0:0:0:
256,192,218491,1,8,0:0:0:0:
256,192,218641,1,12,0:0:0:0:
256,192,218941,1,4,0:0:0:0:
256,192,219141,1,4,0:0:0:0:
256,192,219341,1,4,0:0:0:0:
256,192,219541,1,12,0:0:0:0:
256,192,221641,1,4,0:0:0:0:
256,192,221941,1,4,0:0:0:0:
256,192,224191,1,4,0:0:0:0:
256,192,224341,1,4,0:0:0:0:
256,192,226441,1,4,0:0:0:0:
256,192,226741,1,4,0:0:0:0:
256,192,229141,1,4,0:0:0:0:
256,192,231241,1,4,0:0:0:0:
256,192,231541,1,4,0:0:0:0:
256,192,233641,1,4,0:0:0:0:
256,192,233941,1,4,0:0:0:0:
256,192,236191,1,4,0:0:0:0:
256,192,236341,1,4,0:0:0:0:
256,192,238741,1,4,0:0:0:0:
256,192,239941,12,0,242041,0:0:0:0:
256,192,242341,5,0,0:0:0:0:
256,192,242429,1,0,0:0:0:0:
256,192,242517,1,8,0:0:0:0:
256,192,242605,1,8,0:0:0:0:
256,192,242693,1,8,0:0:0:0:
256,192,242782,1,8,0:0:0:0:
256,192,242870,1,0,0:0:0:0:
256,192,242958,1,0,0:0:0:0:
256,192,243046,1,8,0:0:0:0:
256,192,243135,1,8,0:0:0:0:
256,192,243223,1,0,0:0:0:0:
256,192,243311,1,0,0:0:0:0:
256,192,243399,1,0,0:0:0:0:
256,192,243488,1,0,0:0:0:0:
256,192,243576,1,8,0:0:0:0:
256,192,243664,1,0,0:0:0:0:
256,192,243752,1,8,0:0:0:0:
256,192,243841,1,8,0:0:0:0:
256,192,243929,1,0,0:0:0:0:
256,192,244017,1,8,0:0:0:0:
256,192,244105,1,8,0:0:0:0:
256,192,244193,1,0,0:0:0:0:
256,192,244282,1,8,0:0:0:0:
256,192,244370,1,0,0:0:0:0:
256,192,244458,1,8,0:0:0:0:
256,192,244546,1,8,0:0:0:0:
256,192,244635,1,0,0:0:0:0:
256,192,244723,1,8,0:0:0:0:
256,192,244811,1,8,0:0:0:0:
256,192,244899,1,0,0:0:0:0:
256,192,244988,1,8,0:0:0:0:
256,192,245076,1,8,0:0:0:0:
256,192,245164,1,0,0:0:0:0:
256,192,245252,1,0,0:0:0:0:
256,192,245341,1,8,0:0:0:0:
256,192,245429,1,8,0:0:0:0:
256,192,245517,1,8,0:0:0:0:
256,192,245605,1,8,0:0:0:0:
256,192,245693,1,0,0:0:0:0:
256,192,245782,1,0,0:0:0:0:
256,192,245870,1,8,0:0:0:0:
256,192,245958,1,8,0:0:0:0:
256,192,246046,1,0,0:0:0:0:
256,192,246135,1,0,0:0:0:0:
256,192,246223,1,0,0:0:0:0:
256,192,246311,1,0,0:0:0:0:
256,192,246399,1,8,0:0:0:0:
256,192,246488,1,0,0:0:0:0:
256,192,246576,1,8,0:0:0:0:
256,192,246664,1,8,0:0:0:0:
256,192,246752,1,0,0:0:0:0:
256,192,246841,1,8,0:0:0:0:
256,192,246929,1,8,0:0:0:0:
256,192,247017,1,0,0:0:0:0:
256,192,247105,1,8,0:0:0:0:
256,192,247193,1,8,0:0:0:0:
256,192,247282,1,8,0:0:0:0:
256,192,247370,1,8,0:0:0:0:
256,192,247458,1,0,0:0:0:0:
256,192,247546,1,8,0:0:0:0:
256,192,247635,1,8,0:0:0:0:
256,192,247723,1,0,0:0:0:0:
256,192,247811,1,8,0:0:0:0:
256,192,247899,1,8,0:0:0:0:
256,192,247988,1,0,0:0:0:0:
256,192,248076,1,0,0:0:0:0:
256,192,248164,1,8,0:0:0:0:
256,192,248252,1,8,0:0:0:0:
256,192,248341,1,8,0:0:0:0:
256,192,248429,1,8,0:0:0:0:
256,192,248517,1,0,0:0:0:0:
256,192,248605,1,0,0:0:0:0:
256,192,248693,1,8,0:0:0:0:
256,192,248782,1,8,0:0:0:0:
256,192,248870,1,0,0:0:0:0:
256,192,248958,1,0,0:0:0:0:
256,192,249046,1,0,0:0:0:0:
256,192,249135,1,0,0:0:0:0:
256,192,249223,1,8,0:0:0:0:
256,192,249311,1,0,0:0:0:0:
256,192,249399,1,8,0:0:0:0:
256,192,249488,1,8,0:0:0:0:
256,192,249576,1,0,0:0:0:0:
256,192,249664,1,8,0:0:0:0:
256,192,249752,1,8,0:0:0:0:
256,192,249841,1,0,0:0:0:0:
256,192,249929,1,8,0:0:0:0:
256,192,250017,1,0,0:0:0:0:
256,192,250105,1,8,0:0:0:0:
256,192,250193,1,8,0:0:0:0:
256,192,250282,1,0,0:0:0:0:
256,192,250370,1,8,0:0:0:0:
256,192,250458,1,8,0:0:0:0:
256,192,250546,1,0,0:0:0:0:
256,192,250635,1,8,0:0:0:0:
256,192,250723,1,8,0:0:0:0:
256,192,250811,1,0,0:0:0:0:
256,192,250899,1,0,0:0:0:0:
256,192,250988,1,8,0:0:0:0:
256,192,251076,1,8,0:0:0:0:
256,192,251164,1,8,0:0:0:0:
256,192,251252,1,8,0:0:0:0:
256,192,251341,1,0,0:0:0:0:
256,192,251429,1,0,0:0:0:0:
256,192,251517,1,8,0:0:0:0:
256,192,251605,1,8,0:0:0:0:
256,192,251693,1,0,0:0:0:0:
256,192,251782,1,0,0:0:0:0:
256,192,251870,1,0,0:0:0:0:
256,192,251958,1,0,0:0:0:0:
256,192,252046,1,8,0:0:0:0:
256,192,252135,1,0,0:0:0:0:
256,192,252223,1,8,0:0:0:0:
256,192,252311,1,8,0:0:0:0:
256,192,252399,1,8,0:0:0:0:
256,192,252488,1,0,0:0:0:0:
256,192,252576,1,0,0:0:0:0:
256,192,252664,1,8,0:0:0:0:
256,192,252752,1,8,0:0:0:0:
256,192,252841,1,8,0:0:0:0:
256,192,252929,1,0,0:0:0:0:
256,192,253017,1,0,0:0:0:0:
256,192,253105,1,8,0:0:0:0:
256,192,253193,1,0,0:0:0:0:
256,192,253282,1,8,0:0:0:0:
256,192,253370,1,8,0:0:0:0:
256,192,253458,1,0,0:0:0:0:
256,192,253546,1,0,0:0:0:0:
256,192,253635,1,8,0:0:0:0:
256,192,253811,1,8,0:0:0:0:
256,192,254076,1,0,0:0:0:0:
256,192,254164,1,8,0:0:0:0:
256,192,254341,1,8,0:0:0:0:
256,192,254429,1,0,0:0:0:0:
256,192,254517,1,8,0:0:0:0:
256,192,254605,1,8,0:0:0:0:
256,192,254693,1,0,0:0:0:0:
256,192,254870,1,8,0:0:0:0:
256,192,255046,1,0,0:0:0:0:
256,192,255223,1,8,0:0:0:0:
256,192,255488,1,0,0:0:0:0:
256,192,255576,1,8,0:0:0:0:
256,192,255752,1,0,0:0:0:0:
256,192,255841,1,8,0:0:0:0:
256,192,255929,1,8,0:0:0:0:
256,192,256017,1,8,0:0:0:0:
256,192,256105,1,0,0:0:0:0:
256,192,256282,1,0,0:0:0:0:
256,192,256458,1,0,0:0:0:0:
256,192,256546,1,8,0:0:0:0:
256,192,256635,1,0,0:0:0:0:
256,192,256723,1,8,0:0:0:0:
256,192,256811,1,0,0:0:0:0:
256,192,256899,1,8,0:0:0:0:
256,192,256988,1,8,0:0:0:0:
256,192,257076,1,0,0:0:0:0:
256,192,257164,1,0,0:0:0:0:
256,192,257252,1,8,0:0:0:0:
256,192,257341,1,8,0:0:0:0:
256,192,257429,1,0,0:0:0:0:
256,192,257517,1,8,0:0:0:0:
256,192,257605,1,0,0:0:0:0:
256,192,257693,1,8,0:0:0:0:
256,192,257782,1,8,0:0:0:0:
256,192,257870,1,8,0:0:0:0:
256,192,257958,1,0,0:0:0:0:
256,192,258046,1,8,0:0:0:0:
256,192,258135,1,8,0:0:0:0:
256,192,258223,1,0,0:0:0:0:
256,192,258311,1,8,0:0:0:0:
256,192,258399,1,0,0:0:0:0:
256,192,258488,1,0,0:0:0:0:
256,192,258576,1,8,0:0:0:0:
256,192,258664,1,8,0:0:0:0:
256,192,258753,1,0,0:0:0:0:
256,192,258841,1,0,0:0:0:0:
256,192,258929,1,8,0:0:0:0:
256,192,259017,1,0,0:0:0:0:
256,192,259105,1,8,0:0:0:0:
256,192,259193,1,0,0:0:0:0:
256,192,259282,1,0,0:0:0:0:
256,192,259458,1,8,0:0:0:0:
256,192,259723,1,0,0:0:0:0:
256,192,259811,1,8,0:0:0:0:
256,192,259988,1,0,0:0:0:0:
256,192,260164,1,8,0:0:0:0:
256,192,260252,1,0,0:0:0:0:
256,192,260517,1,8,0:0:0:0:
256,192,260693,1,0,0:0:0:0:
256,192,260870,1,8,0:0:0:0:
256,192,260958,5,8,0:0:0:0:
256,192,261135,1,0,0:0:0:0:
256,192,261223,1,8,0:0:0:0:
256,192,261399,1,8,0:0:0:0:
256,192,261488,1,8,0:0:0:0:
256,192,261576,1,0,0:0:0:0:
256,192,261664,1,0,0:0:0:0:
256,192,261752,1,8,0:0:0:0:
256,192,261929,1,0,0:0:0:0:
256,192,262105,5,8,0:0:0:0:
256,192,262193,1,8,0:0:0:0:
256,192,262282,1,0,0:0:0:0:
256,192,262370,1,0,0:0:0:0:
256,192,262458,1,8,0:0:0:0:
256,192,262546,1,0,0:0:0:0:
256,192,262635,1,8,0:0:0:0:
256,192,262723,1,0,0:0:0:0:
256,192,262811,1,8,0:0:0:0:
256,192,262899,1,8,0:0:0:0:
256,192,262988,1,0,0:0:0:0:
256,192,263076,1,0,0:0:0:0:
256,192,263164,1,8,0:0:0:0:
256,192,263252,1,0,0:0:0:0:
256,192,263341,1,8,0:0:0:0:
256,192,263429,1,0,0:0:0:0:
256,192,263517,1,8,0:0:0:0:
256,192,263605,1,8,0:0:0:0:
256,192,263693,1,0,0:0:0:0:
256,192,263782,1,0,0:0:0:0:
256,192,263870,1,8,0:0:0:0:
256,192,263958,1,8,0:0:0:0:
256,192,264046,1,8,0:0:0:0:
256,192,264135,1,0,0:0:0:0:
256,192,264223,1,0,0:0:0:0:
256,192,264311,1,0,0:0:0:0:
256,192,264399,1,8,0:0:0:0:
256,192,264488,1,8,0:0:0:0:
256,192,264576,1,8,0:0:0:0:
256,192,264664,1,8,0:0:0:0:
256,192,264752,1,0,0:0:0:0:
256,192,264841,1,0,0:0:0:0:
256,192,264929,1,8,0:0:0:0:
256,192,265017,1,0,0:0:0:0:
256,192,265105,1,8,0:0:0:0:
256,192,265193,1,0,0:0:0:0:
256,192,265281,1,8,0:0:0:0:
256,192,265370,1,8,0:0:0:0:
256,192,265458,1,0,0:0:0:0:
256,192,265546,1,0,0:0:0:0:
256,192,265634,1,8,0:0:0:0:
256,192,265723,1,8,0:0:0:0:
256,192,265811,1,0,0:0:0:0:
256,192,265899,1,0,0:0:0:0:
256,192,265987,1,0,0:0:0:0:
256,192,266076,1,0,0:0:0:0:
256,192,266164,1,8,0:0:0:0:
256,192,266252,1,0,0:0:0:0:
256,192,266340,1,8,0:0:0:0:
256,192,266429,1,8,0:0:0:0:
256,192,266517,1,0,0:0:0:0:
256,192,266605,1,8,0:0:0:0:
256,192,266693,1,8,0:0:0:0:
256,192,266781,1,0,0:0:0:0:
256,192,266870,1,8,0:0:0:0:
256,192,266958,1,0,0:0:0:0:
256,192,267046,1,8,0:0:0:0:
256,192,267134,1,8,0:0:0:0:
256,192,267223,1,0,0:0:0:0:
256,192,267311,1,8,0:0:0:0:
256,192,267399,1,8,0:0:0:0:
256,192,267487,1,0,0:0:0:0:
256,192,267576,1,8,0:0:0:0:
256,192,267664,1,8,0:0:0:0:
256,192,267752,1,0,0:0:0:0:
256,192,267840,1,0,0:0:0:0:
256,192,267929,1,8,0:0:0:0:
256,192,268017,1,8,0:0:0:0:
256,192,268105,1,8,0:0:0:0:
256,192,268193,1,8,0:0:0:0:
256,192,268281,1,0,0:0:0:0:
256,192,268370,1,0,0:0:0:0:
256,192,268458,1,8,0:0:0:0:
256,192,268546,1,8,0:0:0:0:
256,192,268634,1,0,0:0:0:0:
256,192,268723,1,0,0:0:0:0:
256,192,268811,1,0,0:0:0:0:
256,192,268899,1,0,0:0:0:0:
256,192,268987,1,8,0:0:0:0:
256,192,269076,1,0,0:0:0:0:
256,192,269164,1,8,0:0:0:0:
256,192,269252,1,8,0:0:0:0:
256,192,269340,1,0,0:0:0:0:
256,192,269429,1,8,0:0:0:0:
256,192,269517,1,8,0:0:0:0:
256,192,269605,1,0,0:0:0:0:
256,192,269693,1,8,0:0:0:0:
256,192,269782,1,8,0:0:0:0:
256,192,269870,1,8,0:0:0:0:
256,192,269958,1,8,0:0:0:0:
256,192,270046,1,0,0:0:0:0:
256,192,270134,1,8,0:0:0:0:
256,192,270223,1,8,0:0:0:0:
256,192,270311,1,0,0:0:0:0:
256,192,270399,1,8,0:0:0:0:
256,192,270487,1,8,0:0:0:0:
256,192,270576,1,0,0:0:0:0:
256,192,270664,1,0,0:0:0:0:
256,192,270752,1,8,0:0:0:0:
256,192,270841,1,0,0:0:0:0:
256,192,270929,1,8,0:0:0:0:
256,192,271017,1,8,0:0:0:0:
256,192,271105,1,0,0:0:0:0:
256,192,271193,1,0,0:0:0:0:
256,192,271281,1,8,0:0:0:0:
256,192,271370,1,8,0:0:0:0:
256,192,271458,1,0,0:0:0:0:
256,192,271546,1,0,0:0:0:0:
256,192,271634,1,0,0:0:0:0:
256,192,271723,1,0,0:0:0:0:
256,192,271811,1,8,0:0:0:0:
256,192,271899,1,0,0:0:0:0:
256,192,271987,1,8,0:0:0:0:
256,192,272076,1,8,0:0:0:0:
256,192,272164,1,0,0:0:0:0:
256,192,272252,1,8,0:0:0:0:
256,192,272340,1,8,0:0:0:0:
256,192,272429,1,0,0:0:0:0:
256,192,272517,1,8,0:0:0:0:
256,192,272605,1,0,0:0:0:0:
256,192,272693,1,8,0:0:0:0:
256,192,272781,1,8,0:0:0:0:
256,192,272870,1,0,0:0:0:0:
256,192,272958,1,8,0:0:0:0:
256,192,273046,1,8,0:0:0:0:
256,192,273134,1,0,0:0:0:0:
256,192,273223,1,8,0:0:0:0:
256,192,273311,1,8,0:0:0:0:
256,192,273399,1,0,0:0:0:0:
256,192,273487,1,0,0:0:0:0:
256,192,273576,1,8,0:0:0:0:
256,192,273664,1,8,0:0:0:0:
256,192,273752,1,8,0:0:0:0:
256,192,273840,1,8,0:0:0:0:
256,192,273929,1,0,0:0:0:0:
256,192,274017,1,0,0:0:0:0:
256,192,274105,1,8,0:0:0:0:
256,192,274193,1,8,0:0:0:0:
256,192,274281,1,0,0:0:0:0:
256,192,274370,1,0,0:0:0:0:
256,192,274458,1,0,0:0:0:0:
256,192,274546,1,0,0:0:0:0:
256,192,274634,1,8,0:0:0:0:
256,192,274723,1,0,0:0:0:0:
256,192,274811,1,8,0:0:0:0:
256,192,274899,1,8,0:0:0:0:
256,192,274987,1,8,0:0:0:0:
256,192,275076,1,0,0:0:0:0:
256,192,275164,1,0,0:0:0:0:
256,192,275252,1,8,0:0:0:0:
256,192,275340,1,8,0:0:0:0:
256,192,275429,1,8,0:0:0:0:
256,192,275517,1,0,0:0:0:0:
256,192,275605,1,0,0:0:0:0:
256,192,275693,1,8,0:0:0:0:
256,192,275781,1,0,0:0:0:0:
256,192,275870,1,8,0:0:0:0:
256,192,275958,1,8,0:0:0:0:
256,192,276046,1,0,0:0:0:0:
256,192,276135,1,0,0:0:0:0:
256,192,276223,1,0,0:0:0:0:
256,192,276399,1,8,0:0:0:0:
256,192,276576,1,0,0:0:0:0:
256,192,276664,1,0,0:0:0:0:
256,192,276752,1,8,0:0:0:0:
256,192,276929,1,0,0:0:0:0:
256,192,277105,1,8,0:0:0:0:
256,192,277193,1,0,0:0:0:0:
256,192,277370,1,0,0:0:0:0:
256,192,277458,1,8,0:0:0:0:
256,192,277635,1,0,0:0:0:0:
256,192,277811,1,8,0:0:0:0:
256,192,277988,1,0,0:0:0:0:
256,192,278076,1,0,0:0:0:0:
256,192,278164,1,8,0:0:0:0:
256,192,278341,1,0,0:0:0:0:
256,192,278429,1,0,0:0:0:0:
256,192,278517,1,8,0:0:0:0:
256,192,278605,1,0,0:0:0:0:
256,192,278693,1,0,0:0:0:0:
256,192,278782,1,0,0:0:0:0:
256,192,278870,1,8,0:0:0:0:
256,192,279046,1,0,0:0:0:0:
256,192,279135,1,0,0:0:0:0:
256,192,279223,1,8,0:0:0:0:
256,192,279311,1,0,0:0:0:0:
256,192,279399,1,0,0:0:0:0:
256,192,279488,1,0,0:0:0:0:
256,192,279576,1,8,0:0:0:0:
256,192,279664,1,8,0:0:0:0:
256,192,279752,1,0,0:0:0:0:
256,192,279841,1,0,0:0:0:0:
256,192,279929,1,8,0:0:0:0:
256,192,280017,1,0,0:0:0:0:
256,192,280105,1,0,0:0:0:0:
256,192,280193,1,0,0:0:0:0:
256,192,280282,1,8,0:0:0:0:
256,192,280370,1,0,0:0:0:0:
256,192,280458,1,0,0:0:0:0:
256,192,280546,1,0,0:0:0:0:
256,192,280635,1,8,0:0:0:0:
256,192,280723,1,8,0:0:0:0:
256,192,280811,1,0,0:0:0:0:
256,192,280899,1,0,0:0:0:0:
256,192,280988,1,8,0:0:0:0:
256,192,281076,1,8,0:0:0:0:
256,192,281164,1,0,0:0:0:0:
256,192,281252,1,0,0:0:0:0:
256,192,281341,1,8,0:0:0:0:
256,192,281429,1,8,0:0:0:0:
256,192,281517,1,8,0:0:0:0:
256,192,281605,1,0,0:0:0:0:
256,192,281693,1,8,0:0:0:0:
256,192,281782,1,0,0:0:0:0:
256,192,281870,1,0,0:0:0:0:
256,192,282135,1,8,0:0:0:0:
256,192,282311,1,0,0:0:0:0:
256,192,282399,1,8,0:0:0:0:
256,192,282576,1,0,0:0:0:0:
256,192,282841,1,8,0:0:0:0:
256,192,283017,1,0,0:0:0:0:
256,192,283105,1,8,0:0:0:0:
256,192,283282,1,0,0:0:0:0:
256,192,283458,1,0,0:0:0:0:
256,192,283546,1,8,0:0:0:0:
256,192,283811,1,8,0:0:0:0:
256,192,283988,1,8,0:0:0:0:
256,192,284076,1,0,0:0:0:0:
256,192,284164,1,0,0:0:0:0:
288,192,284252,1,8,0:0:0:0:
288,192,284429,1,8,0:0:0:0:
288,192,284517,1,0,0:0:0:0:
256,192,284693,1,8,0:0:0:0:
256,192,284782,1,0,0:0:0:0:
256,192,284870,1,8,0:0:0:0:
256,192,284958,1,0,0:0:0:0:
256,192,285046,1,8,0:0:0:0:
256,192,285135,1,0,0:0:0:0:
256,192,285223,1,8,0:0:0:0:
256,192,285311,1,0,0:0:0:0:
256,192,285399,1,0,0:0:0:0:
256,192,285488,1,0,0:0:0:0:
256,192,285576,1,8,0:0:0:0:
256,192,285664,1,0,0:0:0:0:
256,192,285752,1,8,0:0:0:0:
256,192,285841,1,0,0:0:0:0:
256,192,285929,1,8,0:0:0:0:
256,192,286017,1,0,0:0:0:0:
256,192,286105,1,8,0:0:0:0:
256,192,286193,1,8,0:0:0:0:
256,192,286282,1,8,0:0:0:0:
256,192,286370,1,8,0:0:0:0:
256,192,286458,1,0,0:0:0:0:
256,192,286546,1,0,0:0:0:0:
256,192,286635,1,0,0:0:0:0:
256,192,286723,1,0,0:0:0:0:
256,192,286811,1,8,0:0:0:0:
256,192,286899,1,0,0:0:0:0:
256,192,286988,1,0,0:0:0:0:
256,192,287076,1,0,0:0:0:0:
256,192,287164,1,8,0:0:0:0:
256,192,287252,1,8,0:0:0:0:
256,192,287341,1,0,0:0:0:0:
256,192,287429,1,8,0:0:0:0:
256,192,287517,1,4,0:0:0:0:
256,192,288717,1,0,0:0:0:0:
256,192,289917,1,0,0:0:0:0:
256,192,291117,1,4,0:0:0:0:
256,192,292017,1,8,0:0:0:0:
256,192,292067,1,8,0:0:0:0:
256,192,292117,1,8,0:0:0:0:
256,192,292167,1,8,0:0:0:0:
256,192,292217,1,8,0:0:0:0:
256,192,292267,1,8,0:0:0:0:
256,192,292317,1,0,0:0:0:0:
256,192,293517,5,0,0:0:0:0:
256,192,294717,5,0,0:0:0:0:
256,192,295917,1,4,0:0:0:0:
256,192,296517,5,0,0:0:0:0:
256,192,296667,1,0,0:0:0:0:
256,192,296817,1,8,0:0:0:0:
256,192,296967,1,8,0:0:0:0:
256,192,297117,1,4,0:0:0:0:
256,192,297717,1,8,0:0:0:0:
256,192,297867,1,8,0:0:0:0:
256,192,298017,1,0,0:0:0:0:
256,192,298167,1,0,0:0:0:0:
256,192,298317,1,12,0:0:0:0:
256,192,299517,5,0,0:0:0:0:
256,192,299592,1,0,0:0:0:0:
256,192,299667,1,8,0:0:0:0:
256,192,299742,1,0,0:0:0:0:
256,192,299817,1,0,0:0:0:0:
256,192,299892,1,8,0:0:0:0:
256,192,299967,1,0,0:0:0:0:
256,192,300042,1,8,0:0:0:0:
256,192,300117,1,0,0:0:0:0:
256,192,300192,1,0,0:0:0:0:
256,192,300267,1,8,0:0:0:0:
256,192,300342,1,8,0:0:0:0:
256,192,300417,1,0,0:0:0:0:
256,192,300492,1,8,0:0:0:0:
256,192,300567,1,8,0:0:0:0:
256,192,300642,1,8,0:0:0:0:
256,192,300717,1,0,0:0:0:0:
256,192,300792,1,8,0:0:0:0:
256,192,300867,1,8,0:0:0:0:
256,192,300942,1,0,0:0:0:0:
256,192,301017,1,0,0:0:0:0:
256,192,301117,1,8,0:0:0:0:
256,192,301217,1,8,0:0:0:0:
256,192,301317,1,0,0:0:0:0:
256,192,301417,1,0,0:0:0:0:
256,192,301517,1,8,0:0:0:0:
256,192,301617,1,0,0:0:0:0:
256,192,301692,1,0,0:0:0:0:
256,192,301767,1,0,0:0:0:0:
256,192,301842,1,0,0:0:0:0:
256,192,301917,1,8,0:0:0:0:
256,192,301992,1,0,0:0:0:0:
256,192,302067,1,8,0:0:0:0:
256,192,302142,1,8,0:0:0:0:
256,192,302217,1,0,0:0:0:0:
256,192,302292,1,0,0:0:0:0:
256,192,302367,1,8,0:0:0:0:
256,192,302442,1,0,0:0:0:0:
256,192,302517,1,8,0:0:0:0:
256,192,302617,1,0,0:0:0:0:
256,192,302717,1,0,0:0:0:0:
256,192,302817,1,8,0:0:0:0:
256,192,302892,1,0,0:0:0:0:
256,192,302967,1,8,0:0:0:0:
256,192,303042,1,8,0:0:0:0:
256,192,303117,1,8,0:0:0:0:
256,192,303192,1,0,0:0:0:0:
256,192,303267,1,8,0:0:0:0:
256,192,303342,1,0,0:0:0:0:
256,192,303417,1,8,0:0:0:0:
256,192,303492,1,8,0:0:0:0:
256,192,303567,1,0,0:0:0:0:
256,192,303642,1,0,0:0:0:0:
256,192,303717,1,8,0:0:0:0:
256,192,303867,1,8,0:0:0:0:
256,192,304017,1,8,0:0:0:0:
256,192,304167,1,0,0:0:0:0:
256,192,304317,1,8,0:0:0:0:
256,192,304392,1,0,0:0:0:0:
256,192,304467,1,8,0:0:0:0:
256,192,304542,1,8,0:0:0:0:
256,192,304617,1,0,0:0:0:0:
256,192,304692,1,8,0:0:0:0:
256,192,304767,1,0,0:0:0:0:
256,192,304842,1,0,0:0:0:0:
256,192,304917,1,8,0:0:0:0:
256,192,304992,1,0,0:0:0:0:
256,192,305067,1,8,0:0:0:0:
256,192,305142,1,8,0:0:0:0:
256,192,305217,1,8,0:0:0:0:
256,192,305292,1,0,0:0:0:0:
256,192,305367,1,8,0:0:0:0:
256,192,305442,1,0,0:0:0:0:
256,192,305517,1,8,0:0:0:0:
256,192,305592,1,0,0:0:0:0:
256,192,305667,1,8,0:0:0:0:
256,192,305742,1,8,0:0:0:0:
256,192,305817,1,0,0:0:0:0:
256,192,305892,1,8,0:0:0:0:
256,192,305967,1,0,0:0:0:0:
256,192,306042,1,0,0:0:0:0:
256,192,306117,1,8,0:0:0:0:
256,192,306217,1,0,0:0:0:0:
256,192,306317,1,8,0:0:0:0:
256,192,306417,1,0,0:0:0:0:
256,192,306467,1,0,0:0:0:0:
256,192,306517,1,0,0:0:0:0:
256,192,306567,1,8,0:0:0:0:
256,192,306717,1,0,0:0:0:0:
256,192,306792,1,0,0:0:0:0:
256,192,306867,1,0,0:0:0:0:
256,192,306942,1,0,0:0:0:0:
256,192,307017,1,8,0:0:0:0:
256,192,307092,1,8,0:0:0:0:
256,192,307167,1,0,0:0:0:0:
256,192,307242,1,0,0:0:0:0:
256,192,307317,1,8,0:0:0:0:
256,192,307392,1,8,0:0:0:0:
256,192,307467,1,8,0:0:0:0:
256,192,307542,1,0,0:0:0:0:
256,192,307617,1,0,0:0:0:0:
256,192,307692,1,8,0:0:0:0:
256,192,307767,1,8,0:0:0:0:
256,192,307842,1,0,0:0:0:0:
256,192,307917,1,0,0:0:0:0:
256,192,307992,5,0,0:0:0:0:
256,192,308067,1,8,0:0:0:0:
256,192,308142,1,0,0:0:0:0:
256,192,308217,1,8,0:0:0:0:
256,192,308292,1,8,0:0:0:0:
256,192,308367,1,0,0:0:0:0:
256,192,308442,1,0,0:0:0:0:
256,192,308517,1,8,0:0:0:0:
256,192,308592,1,8,0:0:0:0:
256,192,308667,1,0,0:0:0:0:
256,192,308742,1,0,0:0:0:0:
256,192,308817,1,8,0:0:0:0:
256,192,308892,1,8,0:0:0:0:
256,192,308967,1,8,0:0:0:0:
256,192,309042,1,0,0:0:0:0:
256,192,309117,1,8,0:0:0:0:
256,192,309267,1,8,0:0:0:0:
256,192,309417,1,0,0:0:0:0:
256,192,309492,1,0,0:0:0:0:
256,192,309567,1,8,0:0:0:0:
256,192,309717,1,0,0:0:0:0:
256,192,309867,1,8,0:0:0:0:
256,192,309942,1,0,0:0:0:0:
256,192,310017,1,0,0:0:0:0:
256,192,310092,1,0,0:0:0:0:
256,192,310167,1,8,0:0:0:0:
256,192,310317,1,0,0:0:0:0:
256,192,310467,1,8,0:0:0:0:
256,192,310617,1,0,0:0:0:0:
256,192,310692,1,0,0:0:0:0:
256,192,310767,1,8,0:0:0:0:
256,192,310917,1,0,0:0:0:0:
256,192,310992,1,0,0:0:0:0:
256,192,311067,1,8,0:0:0:0:
256,192,311142,1,8,0:0:0:0:
256,192,311217,1,0,0:0:0:0:
256,192,311367,1,8,0:0:0:0:
256,192,311517,1,8,0:0:0:0:
256,192,311592,1,0,0:0:0:0:
256,192,311667,1,8,0:0:0:0:
256,192,311817,1,0,0:0:0:0:
256,192,311967,1,8,0:0:0:0:
256,192,312042,1,8,0:0:0:0:
256,192,312117,1,0,0:0:0:0:
256,192,312192,1,0,0:0:0:0:
256,192,312267,1,8,0:0:0:0:
256,192,312417,1,0,0:0:0:0:
256,192,312567,1,8,0:0:0:0:
256,192,312717,1,8,0:0:0:0:
256,192,312792,1,0,0:0:0:0:
256,192,312867,1,8,0:0:0:0:
256,192,313017,1,0,0:0:0:0:
256,192,313167,1,8,0:0:0:0:
256,192,313242,1,8,0:0:0:0:
256,192,313317,1,0,0:0:0:0:
256,192,313392,1,0,0:0:0:0:
256,192,313467,1,8,0:0:0:0:
224,192,313542,1,8,0:0:0:0:
256,192,313617,1,8,0:0:0:0:
256,192,313767,1,0,0:0:0:0:
256,192,313917,1,0,0:0:0:0:
256,192,313992,1,0,0:0:0:0:
256,192,314067,1,0,0:0:0:0:
256,192,314142,1,0,0:0:0:0:
256,192,314217,1,8,0:0:0:0:
256,192,314267,1,8,0:0:0:0:
256,192,314317,1,8,0:0:0:0:
256,192,314367,1,0,0:0:0:0:
256,192,314442,1,0,0:0:0:0:
256,192,314517,1,0,0:0:0:0:
256,192,314592,1,0,0:0:0:0:
256,192,314667,1,8,0:0:0:0:
256,192,314717,1,0,0:0:0:0:
256,192,314767,1,0,0:0:0:0:
256,192,314817,1,0,0:0:0:0:
256,192,314892,1,8,0:0:0:0:
256,192,314967,1,8,0:0:0:0:
256,192,315042,1,0,0:0:0:0:
256,192,315117,1,0,0:0:0:0:
256,192,315192,1,0,0:0:0:0:
256,192,315267,1,0,0:0:0:0:
256,192,315342,1,0,0:0:0:0:
256,192,315417,1,8,0:0:0:0:
256,192,315467,1,8,0:0:0:0:
256,192,315517,1,8,0:0:0:0:
256,192,315567,1,0,0:0:0:0:
256,192,315642,1,0,0:0:0:0:
256,192,315717,1,0,0:0:0:0:
256,192,315792,1,8,0:0:0:0:
256,192,315867,1,0,0:0:0:0:
256,192,315942,1,8,0:0:0:0:
256,192,316017,1,8,0:0:0:0:
256,192,316167,1,0,0:0:0:0:
256,192,316317,1,8,0:0:0:0:
256,192,316392,1,8,0:0:0:0:
256,192,316467,1,8,0:0:0:0:
256,192,316542,1,0,0:0:0:0:
256,192,316617,1,0,0:0:0:0:
256,192,316692,1,0,0:0:0:0:
256,192,316767,1,8,0:0:0:0:
256,192,316842,1,0,0:0:0:0:
256,192,316917,1,8,0:0:0:0:
256,192,316992,1,8,0:0:0:0:
256,192,317067,1,8,0:0:0:0:
256,192,317142,1,0,0:0:0:0:
256,192,317217,1,0,0:0:0:0:
256,192,317292,1,0,0:0:0:0:
256,192,317367,1,8,0:0:0:0:
256,192,317442,1,0,0:0:0:0:
256,192,317517,1,8,0:0:0:0:
256,192,317592,1,8,0:0:0:0:
256,192,317667,1,8,0:0:0:0:
256,192,317742,1,8,0:0:0:0:
256,192,317817,1,0,0:0:0:0:
256,192,317892,1,0,0:0:0:0:
256,192,317967,1,0,0:0:0:0:
256,192,318042,1,0,0:0:0:0:
256,192,318117,1,8,0:0:0:0:
256,192,318417,1,12,0:0:0:0:
256,192,318717,1,4,0:0:0:0:
256,192,318867,1,8,0:0:0:0:
256,192,319017,1,0,0:0:0:0:
256,192,319092,1,0,0:0:0:0:
256,192,319167,1,8,0:0:0:0:
256,192,319242,1,8,0:0:0:0:
256,192,319317,1,0,0:0:0:0:
256,192,319467,1,8,0:0:0:0:
256,192,319617,1,0,0:0:0:0:
256,192,319692,1,8,0:0:0:0:
256,192,319767,1,8,0:0:0:0:
256,192,319917,1,8,0:0:0:0:
256,192,319992,1,0,0:0:0:0:
256,192,320067,1,8,0:0:0:0:
256,192,320217,1,0,0:0:0:0:
256,192,320292,1,0,0:0:0:0:
256,192,320367,1,8,0:0:0:0:
256,192,320517,1,0,0:0:0:0:
256,192,320667,1,8,0:0:0:0:
256,192,320817,1,0,0:0:0:0:
256,192,320892,1,0,0:0:0:0:
256,192,320967,1,8,0:0:0:0:
192,160,321117,1,0,0:0:0:0:
256,192,321267,1,8,0:0:0:0:
256,192,321417,1,0,0:0:0:0:
256,192,321492,1,0,0:0:0:0:
256,192,321567,1,8,0:0:0:0:
256,192,321717,1,0,0:0:0:0:
256,192,321867,1,8,0:0:0:0:
256,192,322017,1,0,0:0:0:0:
256,192,322092,1,0,0:0:0:0:
256,192,322167,1,8,0:0:0:0:
256,192,322317,1,8,0:0:0:0:
256,192,322392,1,8,0:0:0:0:
256,192,322467,1,8,0:0:0:0:
256,192,322542,1,0,0:0:0:0:
256,192,322617,1,8,0:0:0:0:
256,192,322767,1,8,0:0:0:0:
256,192,322917,1,0,0:0:0:0:
256,192,323067,1,8,0:0:0:0:
256,192,323217,1,0,0:0:0:0:
256,192,323292,1,0,0:0:0:0:
256,192,323367,1,8,0:0:0:0:
256,192,323517,1,0,0:0:0:0:
256,192,323667,1,8,0:0:0:0:
256,192,323817,1,0,0:0:0:0:
256,192,323892,1,0,0:0:0:0:
256,192,323967,1,8,0:0:0:0:
256,192,324117,1,0,0:0:0:0:
256,192,324267,1,8,0:0:0:0:
256,192,324417,1,0,0:0:0:0:
256,192,324492,1,0,0:0:0:0:
256,192,324567,1,8,0:0:0:0:
256,192,324717,1,0,0:0:0:0:
256,192,324867,1,8,0:0:0:0:
256,192,325017,1,0,0:0:0:0:
256,192,325092,1,8,0:0:0:0:
256,192,325167,1,8,0:0:0:0:
256,192,325317,1,0,0:0:0:0:
256,192,325467,1,8,0:0:0:0:
256,192,325617,1,0,0:0:0:0:
256,192,325692,1,0,0:0:0:0:
256,192,325767,1,8,0:0:0:0:
256,192,325917,1,0,0:0:0:0:
256,192,325992,1,8,0:0:0:0:
256,192,326067,1,0,0:0:0:0:
256,192,326142,1,0,0:0:0:0:
256,192,326217,1,8,0:0:0:0:
256,192,326292,1,8,0:0:0:0:
256,192,326367,1,0,0:0:0:0:
256,192,326442,1,0,0:0:0:0:
256,192,326517,1,8,0:0:0:0:
256,192,326592,1,8,0:0:0:0:
256,192,326667,1,8,0:0:0:0:
256,192,326742,1,0,0:0:0:0:
256,192,326817,1,0,0:0:0:0:
256,192,326892,1,8,0:0:0:0:
256,192,326967,1,8,0:0:0:0:
256,192,327042,1,0,0:0:0:0:
256,192,327117,1,8,0:0:0:0:
256,192,327192,1,8,0:0:0:0:
256,192,327267,1,0,0:0:0:0:
256,192,327342,1,0,0:0:0:0:
256,192,327417,1,0,0:0:0:0:
256,192,327492,1,0,0:0:0:0:
256,192,327567,1,0,0:0:0:0:
256,192,327642,1,0,0:0:0:0:
256,192,327717,1,8,0:0:0:0:
256,192,327792,1,8,0:0:0:0:
256,192,327867,1,8,0:0:0:0:
256,192,327942,1,8,0:0:0:0:
256,192,328017,1,0,0:0:0:0:
256,192,328092,1,0,0:0:0:0:
256,192,328167,1,8,0:0:0:0:
256,192,328317,1,12,0:0:0:0:
256,192,328467,1,8,0:0:0:0:
256,192,328617,1,0,0:0:0:0:
256,192,328692,1,0,0:0:0:0:
256,192,328767,1,8,0:0:0:0:
256,192,328842,1,8,0:0:0:0:
256,192,328917,1,0,0:0:0:0:
256,192,329067,1,8,0:0:0:0:
256,192,329217,1,0,0:0:0:0:
256,192,329292,1,0,0:0:0:0:
256,192,329367,1,8,0:0:0:0:
256,192,329442,1,0,0:0:0:0:
256,192,329517,1,8,0:0:0:0:
256,192,329667,1,8,0:0:0:0:
256,192,329817,1,0,0:0:0:0:
256,192,329892,1,0,0:0:0:0:
256,192,329967,1,8,0:0:0:0:
256,192,330117,1,0,0:0:0:0:
256,192,330267,1,8,0:0:0:0:
256,192,330417,1,0,0:0:0:0:
256,192,330567,1,0,0:0:0:0:
256,192,330642,1,0,0:0:0:0:
256,192,330717,1,8,0:0:0:0:
256,192,330867,1,8,0:0:0:0:
256,192,331017,1,0,0:0:0:0:
256,192,331167,1,0,0:0:0:0:
256,192,331317,1,8,0:0:0:0:
256,192,331467,1,8,0:0:0:0:
256,192,331617,1,0,0:0:0:0:
256,192,331767,1,8,0:0:0:0:
256,192,331917,1,0,0:0:0:0:
256,192,332067,1,8,0:0:0:0:
256,192,332217,1,0,0:0:0:0:
256,192,332292,1,0,0:0:0:0:
256,192,332367,1,8,0:0:0:0:
256,192,332442,1,0,0:0:0:0:
256,192,332517,1,8,0:0:0:0:
256,192,332667,1,8,0:0:0:0:
256,192,332742,1,0,0:0:0:0:
256,192,332817,1,8,0:0:0:0:
256,192,332892,1,8,0:0:0:0:
256,192,332967,1,8,0:0:0:0:
256,192,333042,1,8,0:0:0:0:
256,192,333117,1,0,0:0:0:0:
256,192,333267,1,8,0:0:0:0:
256,192,333417,1,0,0:0:0:0:
256,192,333492,1,0,0:0:0:0:
256,192,333567,1,8,0:0:0:0:
256,192,333717,1,0,0:0:0:0:
256,192,333867,1,8,0:0:0:0:
256,192,334017,1,0,0:0:0:0:
256,192,334092,1,0,0:0:0:0:
256,192,334167,1,8,0:0:0:0:
256,192,334242,1,8,0:0:0:0:
256,192,334317,1,0,0:0:0:0:
256,192,334467,1,8,0:0:0:0:
256,192,334617,1,0,0:0:0:0:
256,192,334692,1,0,0:0:0:0:
256,192,334767,1,8,0:0:0:0:
256,192,334917,1,0,0:0:0:0:
256,192,335067,1,8,0:0:0:0:
256,192,335217,1,8,0:0:0:0:
256,192,335292,1,8,0:0:0:0:
256,192,335367,1,0,0:0:0:0:
256,192,335517,1,8,0:0:0:0:
256,192,335667,1,8,0:0:0:0:
256,192,335742,1,0,0:0:0:0:
256,192,335817,1,8,0:0:0:0:
256,192,335892,1,0,0:0:0:0:
256,192,335967,1,8,0:0:0:0:
256,192,336042,1,0,0:0:0:0:
256,192,336117,1,0,0:0:0:0:
256,192,336267,1,8,0:0:0:0:
256,192,336417,1,8,0:0:0:0:
256,192,336492,1,0,0:0:0:0:
256,192,336567,1,0,0:0:0:0:
256,192,336642,1,0,0:0:0:0:
256,192,336717,1,8,0:0:0:0:
256,192,336792,1,8,0:0:0:0:
256,192,336867,1,0,0:0:0:0:
256,192,336942,1,0,0:0:0:0:
256,192,337017,1,8,0:0:0:0:
256,192,337092,1,8,0:0:0:0:
256,192,337167,1,0,0:0:0:0:
256,192,337242,1,0,0:0:0:0:
256,192,337317,1,8,0:0:0:0:
256,192,337392,1,8,0:0:0:0:
256,192,337467,1,8,0:0:0:0:
256,192,337542,1,0,0:0:0:0:
256,192,337617,1,0,0:0:0:0:
256,192,337692,1,0,0:0:0:0:
256,192,337767,1,8,0:0:0:0:
256,192,337842,1,8,0:0:0:0:
256,192,337917,1,0,0:0:0:0:
256,192,338067,1,8,0:0:0:0:
256,192,338217,1,0,0:0:0:0:
256,192,338292,1,0,0:0:0:0:
256,192,338367,1,8,0:0:0:0:
256,192,338517,1,0,0:0:0:0:
256,192,338667,1,8,0:0:0:0:
256,192,338817,1,0,0:0:0:0:
256,192,338892,1,0,0:0:0:0:
256,192,338967,1,8,0:0:0:0:
256,192,339042,1,8,0:0:0:0:
256,192,339117,1,0,0:0:0:0:
256,192,339267,1,8,0:0:0:0:
256,192,339417,1,0,0:0:0:0:
256,192,339492,1,0,0:0:0:0:
256,192,339567,1,8,0:0:0:0:
256,192,339717,1,0,0:0:0:0:
256,192,339867,1,8,0:0:0:0:
256,192,339942,1,0,0:0:0:0:
256,192,340017,1,0,0:0:0:0:
256,192,340092,1,0,0:0:0:0:
256,192,340167,1,8,0:0:0:0:
256,192,340242,1,0,0:0:0:0:
256,192,340317,1,8,0:0:0:0:
256,192,340392,1,8,0:0:0:0:
256,192,340467,1,8,0:0:0:0:
256,192,340617,1,0,0:0:0:0:
256,192,340692,1,8,0:0:0:0:
256,192,340767,1,8,0:0:0:0:
256,192,340917,1,0,0:0:0:0:
256,192,340992,1,0,0:0:0:0:
256,192,341067,1,8,0:0:0:0:
256,192,341217,1,0,0:0:0:0:
256,192,341292,1,0,0:0:0:0:
256,192,341367,1,0,0:0:0:0:
256,192,341517,1,8,0:0:0:0:
224,160,341592,1,8,0:0:0:0:
256,192,341667,1,0,0:0:0:0:
224,160,341742,1,0,0:0:0:0:
256,192,341817,1,0,0:0:0:0:
256,192,341892,1,0,0:0:0:0:
256,192,341967,1,8,0:0:0:0:
256,192,342042,1,0,0:0:0:0:
256,192,342117,1,8,0:0:0:0:
224,192,342192,1,0,0:0:0:0:
256,192,342267,1,8,0:0:0:0:
256,160,342342,1,8,0:0:0:0:
256,192,342417,1,8,0:0:0:0:
256,192,342567,1,0,0:0:0:0:
256,192,342717,1,8,0:0:0:0:
256,192,342792,1,0,0:0:0:0:
256,192,342867,1,8,0:0:0:0:
256,192,342942,1,0,0:0:0:0:
256,192,343017,1,0,0:0:0:0:
256,192,343167,1,8,0:0:0:0:
256,192,343317,1,8,0:0:0:0:
256,192,343392,1,0,0:0:0:0:
256,192,343467,1,8,0:0:0:0:
256,192,343542,1,0,0:0:0:0:
256,192,343617,1,0,0:0:0:0:
256,192,343767,1,8,0:0:0:0:
256,192,343917,1,8,0:0:0:0:
256,192,343992,1,0,0:0:0:0:
256,192,344067,1,8,0:0:0:0:
256,192,344142,1,0,0:0:0:0:
256,192,344217,1,0,0:0:0:0:
256,192,344367,1,8,0:0:0:0:
256,192,344442,1,8,0:0:0:0:
256,192,344517,1,0,0:0:0:0:
256,224,344592,1,0,0:0:0:0:
256,192,344667,1,8,0:0:0:0:
256,192,344742,1,0,0:0:0:0:
256,192,344817,1,0,0:0:0:0:
256,192,344967,1,8,0:0:0:0:
256,192,345117,1,0,0:0:0:0:
256,192,345267,1,0,0:0:0:0:
256,192,345342,1,0,0:0:0:0:
256,192,345417,1,8,0:0:0:0:
256,192,345492,1,8,0:0:0:0:
256,192,345567,1,8,0:0:0:0:
256,192,345642,1,0,0:0:0:0:
256,192,345717,1,0,0:0:0:0:
256,192,345867,1,0,0:0:0:0:
256,192,346017,1,0,0:0:0:0:
256,192,346092,1,0,0:0:0:0:
256,192,346167,1,0,0:0:0:0:
256,192,346242,1,0,0:0:0:0:
256,192,346317,1,8,0:0:0:0:
256,192,346392,1,8,0:0:0:0:
256,192,346467,1,8,0:0:0:0:
256,192,346542,1,8,0:0:0:0:
256,192,346617,1,0,0:0:0:0:
256,192,346692,1,0,0:0:0:0:
256,192,346767,1,0,0:0:0:0:
256,192,346842,1,0,0:0:0:0:
256,192,346917,1,8,0:0:0:0:
256,192,346992,1,8,0:0:0:0:
256,192,347067,1,8,0:0:0:0:
256,192,347142,1,8,0:0:0:0:
256,192,347217,1,0,0:0:0:0:
256,192,347292,1,0,0:0:0:0:
256,192,347367,1,0,0:0:0:0:
256,192,347442,1,0,0:0:0:0:
256,192,347517,1,8,0:0:0:0:
256,192,347667,1,8,0:0:0:0:
256,192,347817,1,0,0:0:0:0:
256,192,347892,1,0,0:0:0:0:
256,192,347967,1,8,0:0:0:0:
256,192,348117,1,0,0:0:0:0:
256,192,348267,1,8,0:0:0:0:
256,192,348417,1,0,0:0:0:0:
256,192,348492,1,0,0:0:0:0:
256,192,348567,1,8,0:0:0:0:
256,192,348642,1,0,0:0:0:0:
256,192,348717,1,8,0:0:0:0:
256,192,348867,1,8,0:0:0:0:
256,192,349017,1,0,0:0:0:0:
256,192,349092,1,0,0:0:0:0:
256,192,349167,1,8,0:0:0:0:
256,192,349317,1,0,0:0:0:0:
256,192,349467,1,8,0:0:0:0:
256,192,349617,1,0,0:0:0:0:
224,192,349692,1,0,0:0:0:0:
256,192,349767,1,8,0:0:0:0:
256,192,349917,1,0,0:0:0:0:
256,192,350067,1,8,0:0:0:0:
256,192,350217,1,8,0:0:0:0:
224,192,350292,1,8,0:0:0:0:
256,192,350367,1,0,0:0:0:0:
256,192,350517,1,8,0:0:0:0:
256,192,350667,1,8,0:0:0:0:
256,192,350817,1,8,0:0:0:0:
224,192,350892,1,0,0:0:0:0:
224,192,350967,1,8,0:0:0:0:
256,192,351042,1,0,0:0:0:0:
224,192,351117,1,0,0:0:0:0:
224,192,351267,1,0,0:0:0:0:
224,192,351417,1,8,0:0:0:0:
224,192,351492,1,8,0:0:0:0:
224,192,351567,1,0,0:0:0:0:
224,192,351642,1,0,0:0:0:0:
256,192,351717,1,0,0:0:0:0:
224,192,351792,1,0,0:0:0:0:
256,192,351867,1,8,0:0:0:0:
256,192,351942,1,8,0:0:0:0:
256,192,352017,1,0,0:0:0:0:
256,192,352092,1,0,0:0:0:0:
256,192,352167,1,8,0:0:0:0:
256,192,352242,1,0,0:0:0:0:
256,192,352317,1,8,0:0:0:0:
256,192,352392,1,8,0:0:0:0:
256,192,352467,1,0,0:0:0:0:
256,192,352542,1,0,0:0:0:0:
256,192,352617,1,8,0:0:0:0:
256,192,352692,1,0,0:0:0:0:
256,192,352767,1,8,0:0:0:0:
256,192,352842,1,8,0:0:0:0:
256,192,352917,1,0,0:0:0:0:
256,192,352992,1,0,0:0:0:0:
256,192,353067,1,8,0:0:0:0:
256,192,353142,1,0,0:0:0:0:
256,192,353217,1,8,0:0:0:0:
256,192,353292,1,8,0:0:0:0:
256,192,353367,1,0,0:0:0:0:
256,192,353442,1,8,0:0:0:0:
256,192,353517,1,8,0:0:0:0:
256,192,353592,1,0,0:0:0:0:
256,192,353667,1,8,0:0:0:0:
256,192,353742,1,0,0:0:0:0:
256,192,353817,1,0,0:0:0:0:
256,192,353892,1,0,0:0:0:0:
256,192,353967,1,8,0:0:0:0:
256,192,354042,1,0,0:0:0:0:
256,192,354117,1,0,0:0:0:0:
256,192,354192,1,0,0:0:0:0:
256,192,354267,1,8,0:0:0:0:
256,192,354342,1,0,0:0:0:0:
256,192,354417,1,8,0:0:0:0:
256,192,354492,1,8,0:0:0:0:
256,192,354567,1,8,0:0:0:0:
256,192,354642,1,8,0:0:0:0:
256,192,354717,1,0,0:0:0:0:
256,192,354792,1,0,0:0:0:0:
256,192,354867,1,8,0:0:0:0:
256,192,354942,1,0,0:0:0:0:
256,192,355017,1,0,0:0:0:0:
256,192,355092,1,0,0:0:0:0:
256,192,355167,1,8,0:0:0:0:
256,192,355242,1,0,0:0:0:0:
256,192,355317,1,0,0:0:0:0:
256,192,355392,1,8,0:0:0:0:
256,192,355467,1,8,0:0:0:0:
256,192,355542,1,0,0:0:0:0:
256,192,355617,1,0,0:0:0:0:
256,192,355692,1,0,0:0:0:0:
256,192,355767,1,8,0:0:0:0:
256,192,355842,1,0,0:0:0:0:
256,192,355917,1,8,0:0:0:0:
256,192,355992,5,8,0:0:0:0:
256,192,356067,1,8,0:0:0:0:
256,192,356142,1,8,0:0:0:0:
224,192,356217,1,0,0:0:0:0:
256,192,356367,1,0,0:0:0:0:
256,192,356517,1,8,0:0:0:0:
256,192,356592,1,8,0:0:0:0:
256,192,356667,1,8,0:0:0:0:
256,192,356742,1,8,0:0:0:0:
256,192,356817,1,0,0:0:0:0:
256,192,356967,1,0,0:0:0:0:
256,192,357117,5,8,0:0:0:0:
256,192,357192,1,8,0:0:0:0:
256,192,357267,1,0,0:0:0:0:
256,192,357417,1,8,0:0:0:0:
256,192,357492,1,8,0:0:0:0:
256,192,357567,1,0,0:0:0:0:
256,192,357717,1,8,0:0:0:0:
256,192,357792,1,8,0:0:0:0:
256,192,357867,1,0,0:0:0:0:
256,192,358017,1,8,0:0:0:0:
256,192,358092,1,8,0:0:0:0:
256,192,358167,1,0,0:0:0:0:
256,192,358242,1,0,0:0:0:0:
256,192,358317,5,8,0:0:0:0:
256,192,358392,1,8,0:0:0:0:
256,192,358467,1,8,0:0:0:0:
256,192,358542,1,8,0:0:0:0:
256,192,358617,1,8,0:0:0:0:
256,192,358692,1,8,0:0:0:0:
256,192,358767,1,8,0:0:0:0:
256,192,358842,1,8,0:0:0:0:
256,192,358917,1,8,0:0:0:0:
256,192,358992,1,8,0:0:0:0:
256,192,359067,1,8,0:0:0:0:
256,192,359142,1,8,0:0:0:0:
256,192,359217,1,8,0:0:0:0:
256,192,359292,1,8,0:0:0:0:
256,192,359367,1,8,0:0:0:0:
256,192,359442,1,8,0:0:0:0:
256,192,359517,1,0,0:0:0:0:
256,192,359592,1,0,0:0:0:0:
256,192,359667,1,8,0:0:0:0:
256,192,359817,1,0,0:0:0:0:
256,192,359892,1,0,0:0:0:0:
256,192,359967,1,8,0:0:0:0:
256,192,360042,1,8,0:0:0:0:
256,192,360117,1,0,0:0:0:0:
256,192,360192,1,0,0:0:0:0:
256,192,360267,1,8,0:0:0:0:
256,192,360417,1,0,0:0:0:0:
256,192,360492,1,0,0:0:0:0:
256,192,360567,1,8,0:0:0:0:
256,192,360717,1,0,0:0:0:0:
256,192,360792,1,0,0:0:0:0:
256,192,360867,1,8,0:0:0:0:
256,192,360942,1,0,0:0:0:0:
256,192,361017,1,8,0:0:0:0:
256,192,361167,1,8,0:0:0:0:
256,192,361242,1,0,0:0:0:0:
256,192,361317,1,8,0:0:0:0:
256,192,361392,1,8,0:0:0:0:
256,192,361467,1,0,0:0:0:0:
256,192,361542,1,0,0:0:0:0:
256,192,361617,1,8,0:0:0:0:
256,192,361767,1,0,0:0:0:0:
256,192,361917,1,8,0:0:0:0:
256,192,361992,1,8,0:0:0:0:
256,192,362067,1,0,0:0:0:0:
256,192,362142,1,0,0:0:0:0:
256,192,362217,1,8,0:0:0:0:
256,192,362292,1,0,0:0:0:0:
256,192,362367,1,8,0:0:0:0:
256,192,362442,1,0,0:0:0:0:
256,192,362517,1,0,0:0:0:0:
256,192,362592,1,0,0:0:0:0:
256,192,362667,1,8,0:0:0:0:
256,192,362742,1,0,0:0:0:0:
256,192,362817,1,0,0:0:0:0:
256,192,362892,1,8,0:0:0:0:
256,192,362967,1,8,0:0:0:0:
256,192,363042,1,0,0:0:0:0:
256,192,363117,1,8,0:0:0:0:
256,192,363192,1,0,0:0:0:0:
256,192,363267,1,8,0:0:0:0:
256,192,363342,1,0,0:0:0:0:
256,192,363417,1,8,0:0:0:0:
256,192,363492,1,0,0:0:0:0:
256,192,363567,1,0,0:0:0:0:
256,192,363642,1,0,0:0:0:0:
256,192,363717,1,8,0:0:0:0:
256,192,363792,1,8,0:0:0:0:
256,192,363867,1,0,0:0:0:0:
256,192,363942,1,0,0:0:0:0:
256,192,364017,1,8,0:0:0:0:
256,192,364092,1,8,0:0:0:0:
256,192,364167,1,8,0:0:0:0:
256,192,364242,1,0,0:0:0:0:
256,192,364317,1,8,0:0:0:0:
256,192,364392,1,0,0:0:0:0:
256,192,364467,1,0,0:0:0:0:
256,192,364542,1,0,0:0:0:0:
256,192,364617,1,8,0:0:0:0:
256,192,364692,1,8,0:0:0:0:
256,192,364767,1,8,0:0:0:0:
256,192,364842,1,8,0:0:0:0:
256,192,364917,1,0,0:0:0:0:
256,192,364992,1,0,0:0:0:0:
256,192,365067,1,0,0:0:0:0:
256,192,365142,1,0,0:0:0:0:
256,192,365217,1,8,0:0:0:0:
256,192,365292,1,0,0:0:0:0:
256,192,365367,1,0,0:0:0:0:
256,192,365442,1,0,0:0:0:0:
256,192,365517,1,8,0:0:0:0:
256,192,365592,1,0,0:0:0:0:
256,192,365667,1,8,0:0:0:0:
256,192,365742,1,0,0:0:0:0:
256,192,365817,1,8,0:0:0:0:
256,192,365892,1,8,0:0:0:0:
256,192,365967,1,8,0:0:0:0:
256,192,366042,1,8,0:0:0:0:
256,192,366117,1,0,0:0:0:0:
256,192,366192,1,0,0:0:0:0:
256,192,366267,1,8,0:0:0:0:
256,192,366342,1,8,0:0:0:0:
256,192,366417,1,8,0:0:0:0:
256,192,366492,1,8,0:0:0:0:
256,192,366567,1,8,0:0:0:0:
256,192,366642,1,0,0:0:0:0:
256,192,366717,5,12,0:0:0:0:
256,192,369117,1,4,0:0:0:0:
256,192,371517,1,4,0:0:0:0:
256,192,373017,1,8,0:0:0:0:
256,192,373617,1,8,0:0:0:0:
256,192,373917,1,4,0:0:0:0:
256,192,375417,1,0,0:0:0:0:
256,192,375717,1,0,0:0:0:0:
256,192,376017,1,8,0:0:0:0:
256,192,376317,1,4,0:0:0:0:
256,192,377967,1,8,0:0:0:0:
256,192,378417,1,0,0:0:0:0:
256,192,378717,5,4,0:0:0:0:
256,192,380217,1,0,0:0:0:0:
256,192,380367,1,0,0:0:0:0:
256,192,380517,1,8,0:0:0:0:
256,192,380817,1,8,0:0:0:0:
256,192,381117,5,4,0:0:0:0:
256,192,383517,12,0,384417,0:0:0:0:
256,192,384717,5,0,0:0:0:0:
256,192,384867,5,8,0:0:0:0:
256,192,384942,1,8,0:0:0:0:
256,192,385017,1,0,0:0:0:0:
256,192,385167,1,0,0:0:0:0:
256,192,385317,1,8,0:0:0:0:
256,192,385392,1,0,0:0:0:0:
256,192,385467,1,0,0:0:0:0:
256,192,385617,1,8,0:0:0:0:
256,192,385692,1,8,0:0:0:0:
256,192,385767,1,0,0:0:0:0:
256,192,385842,1,0,0:0:0:0:
256,192,385917,1,0,0:0:0:0:
256,192,386067,1,8,0:0:0:0:
256,192,386217,1,0,0:0:0:0:
256,192,386292,1,0,0:0:0:0:
256,192,386367,1,8,0:0:0:0:
256,192,386517,1,0,0:0:0:0:
256,192,386667,1,8,0:0:0:0:
256,192,386817,1,0,0:0:0:0:
256,192,386892,1,0,0:0:0:0:
256,192,386967,1,8,0:0:0:0:
256,192,387042,1,8,0:0:0:0:
256,192,387117,1,0,0:0:0:0:
256,192,387267,1,8,0:0:0:0:
256,192,387417,1,0,0:0:0:0:
256,192,387492,1,0,0:0:0:0:
256,192,387567,1,8,0:0:0:0:
256,192,387717,1,0,0:0:0:0:
256,192,387867,1,8,0:0:0:0:
256,192,387942,1,0,0:0:0:0:
256,192,388092,1,0,0:0:0:0:
256,192,388167,1,8,0:0:0:0:
256,192,388242,1,0,0:0:0:0:
256,192,388317,1,0,0:0:0:0:
256,192,388467,1,8,0:0:0:0:
256,192,388617,1,0,0:0:0:0:
256,192,388692,1,0,0:0:0:0:
256,192,388767,1,8,0:0:0:0:
256,192,388917,1,0,0:0:0:0:
256,192,389067,1,8,0:0:0:0:
256,192,389217,1,0,0:0:0:0:
256,192,389292,1,0,0:0:0:0:
256,192,389367,1,8,0:0:0:0:
224,192,389442,1,0,0:0:0:0:
256,192,389517,1,0,0:0:0:0:
224,192,389592,1,0,0:0:0:0:
256,192,389667,1,8,0:0:0:0:
256,192,389817,1,0,0:0:0:0:
256,192,389892,1,0,0:0:0:0:
256,192,389967,1,8,0:0:0:0:
256,192,390117,1,0,0:0:0:0:
256,192,390267,1,8,0:0:0:0:
224,192,390342,1,8,0:0:0:0:
256,192,390417,1,0,0:0:0:0:
224,192,390492,1,0,0:0:0:0:
224,192,390567,1,8,0:0:0:0:
256,192,390717,1,0,0:0:0:0:
256,192,390792,1,0,0:0:0:0:
256,192,390867,1,8,0:0:0:0:
256,192,390942,1,8,0:0:0:0:
256,192,391017,1,0,0:0:0:0:
256,192,391092,1,0,0:0:0:0:
256,192,391167,1,8,0:0:0:0:
256,192,391242,1,8,0:0:0:0:
256,192,391317,1,0,0:0:0:0:
256,192,391392,1,0,0:0:0:0:
256,192,391467,1,8,0:0:0:0:
256,192,391542,1,0,0:0:0:0:
256,192,391617,1,0,0:0:0:0:
256,192,391692,1,0,0:0:0:0:
256,192,391767,1,8,0:0:0:0:
256,192,391842,1,8,0:0:0:0:
256,192,391917,1,8,0:0:0:0:
256,192,391992,1,0,0:0:0:0:
256,192,392067,1,8,0:0:0:0:
256,192,392142,1,0,0:0:0:0:
256,192,392217,1,0,0:0:0:0:
256,192,392292,1,0,0:0:0:0:
256,192,392367,1,8,0:0:0:0:
256,192,392442,1,0,0:0:0:0:
256,192,392517,1,0,0:0:0:0:
256,192,392592,1,0,0:0:0:0:
256,192,392667,1,8,0:0:0:0:
256,192,392742,1,8,0:0:0:0:
256,192,392817,1,0,0:0:0:0:
256,192,392892,1,0,0:0:0:0:
256,192,392967,1,8,0:0:0:0:
288,192,393042,1,0,0:0:0:0:
256,192,393117,1,8,0:0:0:0:
256,192,393267,5,8,0:0:0:0:
256,192,393417,1,0,0:0:0:0:
256,192,393492,1,0,0:0:0:0:
256,192,393567,1,8,0:0:0:0:
256,192,393717,1,0,0:0:0:0:
256,192,393867,1,8,0:0:0:0:
256,192,394017,1,0,0:0:0:0:
256,192,394092,1,8,0:0:0:0:
256,192,394167,1,8,0:0:0:0:
256,192,394317,5,0,0:0:0:0:
256,224,394392,1,0,0:0:0:0:
256,192,394467,1,8,0:0:0:0:
256,224,394542,1,8,0:0:0:0:
256,192,394617,1,8,0:0:0:0:
256,192,394692,1,0,0:0:0:0:
256,192,394767,1,0,0:0:0:0:
256,192,394842,1,0,0:0:0:0:
256,192,394917,1,8,0:0:0:0:
256,192,394992,1,8,0:0:0:0:
256,192,395067,1,0,0:0:0:0:
256,192,395142,1,0,0:0:0:0:
256,192,395217,1,8,0:0:0:0:
256,192,395292,1,8,0:0:0:0:
256,192,395367,1,0,0:0:0:0:
256,192,395442,1,0,0:0:0:0:
256,192,395517,1,0,0:0:0:0:
256,192,395667,1,8,0:0:0:0:
256,192,395817,1,0,0:0:0:0:
256,192,395892,1,0,0:0:0:0:
256,192,395967,1,8,0:0:0:0:
256,192,396117,1,0,0:0:0:0:
256,192,396267,1,8,0:0:0:0:
256,192,396417,1,0,0:0:0:0:
256,192,396492,1,8,0:0:0:0:
256,192,396567,1,8,0:0:0:0:
256,192,396642,1,8,0:0:0:0:
256,192,396717,1,0,0:0:0:0:
256,192,396867,1,8,0:0:0:0:
256,192,397017,1,0,0:0:0:0:
256,192,397092,1,0,0:0:0:0:
256,192,397167,1,8,0:0:0:0:
256,192,397317,1,0,0:0:0:0:
256,192,397467,1,8,0:0:0:0:
256,192,397542,1,0,0:0:0:0:
256,192,397692,1,0,0:0:0:0:
256,192,397767,1,8,0:0:0:0:
256,192,397917,1,0,0:0:0:0:
256,192,398067,1,8,0:0:0:0:
256,192,398217,1,0,0:0:0:0:
256,192,398292,1,0,0:0:0:0:
256,192,398367,1,8,0:0:0:0:
256,192,398517,1,0,0:0:0:0:
256,192,398667,1,8,0:0:0:0:
256,192,398817,1,0,0:0:0:0:
256,192,398892,1,0,0:0:0:0:
256,192,398967,1,8,0:0:0:0:
224,192,399042,1,0,0:0:0:0:
256,192,399117,1,0,0:0:0:0:
224,192,399192,1,0,0:0:0:0:
256,192,399267,1,8,0:0:0:0:
256,192,399417,1,0,0:0:0:0:
256,192,399492,1,0,0:0:0:0:
256,192,399567,1,8,0:0:0:0:
256,192,399717,1,8,0:0:0:0:
256,192,399792,1,8,0:0:0:0:
256,192,399867,1,0,0:0:0:0:
256,192,400017,1,0,0:0:0:0:
256,192,400092,1,0,0:0:0:0:
256,192,400167,1,0,0:0:0:0:
256,192,400317,1,8,0:0:0:0:
256,192,400392,1,8,0:0:0:0:
256,192,400467,1,8,0:0:0:0:
256,192,400542,1,8,0:0:0:0:
256,192,400617,1,0,0:0:0:0:
256,192,400692,1,0,0:0:0:0:
256,192,400767,1,8,0:0:0:0:
256,192,400842,1,8,0:0:0:0:
256,192,400917,1,8,0:0:0:0:
256,192,400992,1,0,0:0:0:0:
256,192,401067,1,0,0:0:0:0:
256,192,401142,1,0,0:0:0:0:
256,192,401217,1,8,0:0:0:0:
256,192,401292,1,8,0:0:0:0:
256,192,401367,1,0,0:0:0:0:
256,192,401442,1,0,0:0:0:0:
256,192,401517,1,8,0:0:0:0:
256,192,402717,1,8,0:0:0:0:
256,192,402792,1,8,0:0:0:0:
256,192,402867,1,8,0:0:0:0:
256,192,403017,1,0,0:0:0:0:
256,192,403167,1,8,0:0:0:0:
256,192,403242,1,8,0:0:0:0:
256,192,403317,1,8,0:0:0:0:
256,192,403467,1,0,0:0:0:0:
256,192,403617,1,8,0:0:0:0:
256,192,403692,1,0,0:0:0:0:
256,192,403767,1,0,0:0:0:0:
256,192,403917,1,8,0:0:0:0:
288,192,403992,1,8,0:0:0:0:
256,192,404067,1,8,0:0:0:0:
256,192,404142,1,8,0:0:0:0:
256,192,404217,1,0,0:0:0:0:
256,192,404367,1,8,0:0:0:0:
256,192,404442,1,8,0:0:0:0:
256,192,404517,1,8,0:0:0:0:
256,192,404667,1,0,0:0:0:0:
256,192,404817,1,8,0:0:0:0:
288,192,404892,1,0,0:0:0:0:
288,192,404967,1,0,0:0:0:0:
256,192,405042,1,0,0:0:0:0:
256,192,405117,1,8,0:0:0:0:
256,192,405192,1,8,0:0:0:0:
256,192,405267,1,8,0:0:0:0:
256,192,405417,1,0,0:0:0:0:
256,192,405567,1,8,0:0:0:0:
256,192,405642,1,8,0:0:0:0:
256,192,405717,1,8,0:0:0:0:
256,192,405867,1,0,0:0:0:0:
256,192,406017,1,8,0:0:0:0:
256,192,406092,1,0,0:0:0:0:
256,192,406167,1,0,0:0:0:0:
256,192,406317,1,8,0:0:0:0:
224,192,406392,1,8,0:0:0:0:
256,192,406467,1,8,0:0:0:0:
256,192,406542,1,8,0:0:0:0:
256,192,406617,1,0,0:0:0:0:
256,192,406767,1,8,0:0:0:0:
256,192,406842,1,8,0:0:0:0:
256,192,406917,1,8,0:0:0:0:
256,192,407067,1,0,0:0:0:0:
256,192,407142,1,0,0:0:0:0:
256,192,407217,1,8,0:0:0:0:
256,192,407292,1,0,0:0:0:0:
288,192,407367,1,0,0:0:0:0:
256,192,407442,1,0,0:0:0:0:
256,192,407517,1,8,0:0:0:0:
256,192,407592,1,8,0:0:0:0:
256,192,407667,1,8,0:0:0:0:
288,192,407742,1,8,0:0:0:0:
256,192,407817,1,0,0:0:0:0:
256,192,407967,1,8,0:0:0:0:
256,192,408042,1,8,0:0:0:0:
256,192,408117,1,8,0:0:0:0:
256,192,408267,1,0,0:0:0:0:
256,192,408417,1,8,0:0:0:0:
256,192,408492,1,0,0:0:0:0:
256,192,408567,1,0,0:0:0:0:
256,192,408717,1,8,0:0:0:0:
256,192,408792,1,8,0:0:0:0:
256,192,408867,1,8,0:0:0:0:
256,192,409017,1,0,0:0:0:0:
256,192,409092,1,0,0:0:0:0:
256,192,409167,1,8,0:0:0:0:
256,192,409242,1,8,0:0:0:0:
256,192,409317,1,8,0:0:0:0:
256,192,409467,1,0,0:0:0:0:
256,192,409617,1,8,0:0:0:0:
256,192,409692,1,0,0:0:0:0:
256,192,409767,1,0,0:0:0:0:
256,192,409917,1,8,0:0:0:0:
256,192,409992,1,8,0:0:0:0:
256,192,410067,1,8,0:0:0:0:
256,192,410142,1,0,0:0:0:0:
256,192,410217,1,0,0:0:0:0:
256,192,410367,1,0,0:0:0:0:
256,192,410442,1,0,0:0:0:0:
256,192,410517,1,8,0:0:0:0:
256,192,410592,1,8,0:0:0:0:
256,192,410667,1,0,0:0:0:0:
256,192,410742,1,0,0:0:0:0:
256,192,410817,1,8,0:0:0:0:
256,192,410967,1,0,0:0:0:0:
256,192,411117,1,8,0:0:0:0:
256,192,411192,1,0,0:0:0:0:
256,192,411267,1,8,0:0:0:0:
256,192,411342,1,8,0:0:0:0:
256,192,411417,1,0,0:0:0:0:
256,192,411492,1,0,0:0:0:0:
256,192,411567,1,8,0:0:0:0:
256,192,411642,1,8,0:0:0:0:
256,192,411717,1,0,0:0:0:0:
256,192,411792,1,0,0:0:0:0:
352,160,411867,1,8,0:0:0:0:
256,192,411942,1,0,0:0:0:0:
256,192,412017,1,8,0:0:0:0:
256,192,412167,1,0,0:0:0:0:
256,192,412242,1,0,0:0:0:0:
256,192,412317,1,8,0:0:0:0:
256,192,412392,1,8,0:0:0:0:
256,192,412467,1,8,0:0:0:0:
256,192,412617,1,0,0:0:0:0:
256,192,412767,1,8,0:0:0:0:
256,192,412842,1,8,0:0:0:0:
256,192,412917,1,8,0:0:0:0:
256,192,413067,1,0,0:0:0:0:
256,192,413217,1,8,0:0:0:0:
256,192,413292,1,0,0:0:0:0:
256,192,413367,1,0,0:0:0:0:
256,192,413517,1,8,0:0:0:0:
256,192,413592,1,8,0:0:0:0:
256,192,413667,1,8,0:0:0:0:
256,192,413817,1,0,0:0:0:0:
256,192,413892,1,0,0:0:0:0:
256,192,413967,1,8,0:0:0:0:
256,192,414042,1,8,0:0:0:0:
256,192,414117,1,8,0:0:0:0:
256,192,414267,1,0,0:0:0:0:
256,192,414417,1,8,0:0:0:0:
288,192,414492,1,0,0:0:0:0:
288,192,414567,1,0,0:0:0:0:
256,192,414642,1,0,0:0:0:0:
256,192,414717,1,8,0:0:0:0:
256,192,414792,1,8,0:0:0:0:
256,192,414867,1,8,0:0:0:0:
256,192,414942,1,8,0:0:0:0:
256,192,415017,1,0,0:0:0:0:
256,192,415167,1,8,0:0:0:0:
256,192,415242,1,8,0:0:0:0:
256,192,415317,1,8,0:0:0:0:
256,192,415467,1,0,0:0:0:0:
256,192,415617,1,8,0:0:0:0:
256,192,415692,1,0,0:0:0:0:
256,192,415767,1,0,0:0:0:0:
256,192,415917,1,8,0:0:0:0:
288,192,415992,1,8,0:0:0:0:
256,192,416067,1,8,0:0:0:0:
256,192,416142,1,8,0:0:0:0:
256,192,416217,1,0,0:0:0:0:
256,192,416367,1,8,0:0:0:0:
256,192,416442,1,8,0:0:0:0:
256,192,416517,1,8,0:0:0:0:
256,192,416667,1,0,0:0:0:0:
256,192,416742,1,0,0:0:0:0:
256,192,416817,1,8,0:0:0:0:
256,192,416892,1,0,0:0:0:0:
288,192,416967,1,0,0:0:0:0:
256,192,417042,1,0,0:0:0:0:
256,192,417117,1,8,0:0:0:0:
256,192,417192,1,8,0:0:0:0:
256,192,417267,1,8,0:0:0:0:
256,192,417342,1,8,0:0:0:0:
256,192,417417,1,0,0:0:0:0:
256,192,417567,1,8,0:0:0:0:
256,192,417642,1,8,0:0:0:0:
256,192,417717,1,8,0:0:0:0:
256,192,417867,1,0,0:0:0:0:
256,192,418017,1,8,0:0:0:0:
256,192,418092,1,0,0:0:0:0:
256,192,418167,1,0,0:0:0:0:
256,192,418317,1,8,0:0:0:0:
256,192,418392,1,8,0:0:0:0:
256,192,418467,1,8,0:0:0:0:
256,192,418542,1,8,0:0:0:0:
256,192,418617,1,0,0:0:0:0:
256,192,418767,1,8,0:0:0:0:
256,192,418842,5,8,0:0:0:0:
256,192,418917,1,8,0:0:0:0:
256,192,419067,1,0,0:0:0:0:
256,192,419217,1,8,0:0:0:0:
256,192,419292,1,0,0:0:0:0:
256,192,419367,1,0,0:0:0:0:
256,192,419517,1,8,0:0:0:0:
256,192,419667,1,0,0:0:0:0:
256,192,419742,1,0,0:0:0:0:
256,192,419817,1,8,0:0:0:0:
256,192,419892,1,8,0:0:0:0:
256,192,419967,1,0,0:0:0:0:
256,192,420042,1,0,0:0:0:0:
256,192,420117,1,8,0:0:0:0:
256,192,420192,1,0,0:0:0:0:
256,192,420267,1,8,0:0:0:0:
256,192,420342,1,0,0:0:0:0:
256,192,420417,1,0,0:0:0:0:
224,192,420492,1,0,0:0:0:0:
256,192,420567,1,8,0:0:0:0:
256,192,420642,1,0,0:0:0:0:
256,192,420717,1,0,0:0:0:0:
256,192,420792,1,8,0:0:0:0:
256,192,420867,1,0,0:0:0:0:
256,192,420942,1,8,0:0:0:0:
256,192,421017,1,0,0:0:0:0:
256,192,421067,1,0,0:0:0:0:
256,192,421117,1,8,0:0:0:0:
256,192,421167,1,8,0:0:0:0:
256,192,421217,1,0,0:0:0:0:
256,192,421267,1,0,0:0:0:0:
256,192,421317,1,8,0:0:0:0:
256,192,421367,1,8,0:0:0:0:
256,192,421417,1,0,0:0:0:0:
256,192,421467,1,0,0:0:0:0:
256,192,421517,1,8,0:0:0:0:
256,192,421567,1,8,0:0:0:0:
256,192,421617,1,0,0:0:0:0:
256,192,421692,1,0,0:0:0:0:
256,192,421767,1,8,0:0:0:0:
256,192,421842,1,0,0:0:0:0:
256,192,421917,1,8,0:0:0:0:
256,192,422067,1,8,0:0:0:0:
256,192,422217,1,0,0:0:0:0:
256,192,422367,1,0,0:0:0:0:
256,192,422667,1,0,0:0:0:0:
256,192,422967,1,8,0:0:0:0:
256,192,423267,1,0,0:0:0:0:
256,192,423567,1,8,0:0:0:0:
256,192,423717,1,8,0:0:0:0:
256,192,423867,1,0,0:0:0:0:
256,192,424017,1,0,0:0:0:0:
256,192,424167,1,0,0:0:0:0:
256,192,424317,1,0,0:0:0:0:
256,192,424467,1,8,0:0:0:0:
256,192,424617,1,8,0:0:0:0:
256,192,424767,1,0,0:0:0:0:
256,192,425067,1,0,0:0:0:0:
256,192,425367,1,8,0:0:0:0:
256,192,425667,1,0,0:0:0:0:
256,192,425967,1,8,0:0:0:0:
256,192,426117,1,8,0:0:0:0:
256,192,426267,1,0,0:0:0:0:
256,192,426417,1,0,0:0:0:0:
256,192,426567,1,0,0:0:0:0:
256,192,426717,1,12,0:0:0:0:
256,192,426867,1,12,0:0:0:0:
256,192,427017,1,12,0:0:0:0:
256,192,427167,1,12,0:0:0:0:
256,192,427467,1,12,0:0:0:0:
256,192,427767,1,12,0:0:0:0:
256,192,428067,1,12,0:0:0:0:
256,192,428367,1,12,0:0:0:0:
256,192,428517,1,12,0:0:0:0:
256,192,428667,1,4,0:0:0:0:
256,192,428817,1,12,0:0:0:0:
416,192,429117,6,0,P|96:192|96:192,12,280
256,192,436467,1,4,0:0:0:0:
256,192,436617,1,4,0:0:0:0:
256,192,436767,1,4,0:0:0:0:
256,192,436917,1,4,0:0:0:0:
256,192,437067,1,4,0:0:0:0:
256,192,437217,1,4,0:0:0:0:
256,192,437367,1,4,0:0:0:0:
256,192,437517,1,4,0:0:0:0:
256,192,438717,1,8,0:0:0:0:
256,192,438792,1,8,0:0:0:0:
256,192,438867,1,0,0:0:0:0:
256,192,438942,1,0,0:0:0:0:
256,192,439017,1,0,0:0:0:0:
256,192,439167,1,0,0:0:0:0:
256,192,439317,1,4,0:0:0:0:
256,192,439517,1,4,0:0:0:0:
256,192,439717,1,4,0:0:0:0:
256,192,439917,1,12,0:0:0:0:
