osu file format v14

[General]
AudioFilename: audio.mp3
AudioLeadIn: 0
PreviewTime: -1
Countdown: 0
SampleSet: Normal
StackLeniency: 0.7
Mode: 1
LetterboxInBreaks: 0
WidescreenStoryboard: 1

[Editor]
DistanceSpacing: 1.03
BeatDivisor: 4
GridSize: 4
TimelineZoom: 1

[Metadata]
Title:Through The Fire And Flames
TitleUnicode:Through The Fire And Flames
Artist:DragonForce
ArtistUnicode:DragonForce
Creator:- PICO -
Version:TaikoLegend
Source:
Tags:
BeatmapID:1036890
BeatmapSetID:478948

[Difficulty]
HPDrainRate:7
CircleSize:5
OverallDifficulty:8
ApproachRate:8
SliderMultiplier:1.59999990463257
SliderTickRate:2

[Events]
//Background and Video events
0,0,"bg.png",0,0
//Break Periods
//Storyboard Layer 0 (Background)
//Storyboard Layer 1 (Fail)
//Storyboard Layer 2 (Pass)
//Storyboard Layer 3 (Foreground)
//Storyboard Sound Samples

[TimingPoints]
1070,300,4,1,0,40,1,0
20270,-100,4,1,0,40,0,1
29795,-100,4,1,0,40,0,0
29870,-100,4,1,0,40,0,1
38195,-100,4,1,0,40,0,0
38270,-100,4,1,0,40,0,1
39470,-100,4,1,0,40,0,0
39620,-100,4,2,1,40,0,0
41795,-100,4,1,0,40,0,0
41945,-100,4,2,1,40,0,0
44195,-100,4,1,0,40,0,0
44345,-100,4,2,1,40,0,0
46595,-100,4,1,0,40,0,0
97070,-100,4,1,0,40,0,1
106595,-100,4,1,0,40,0,0
106670,-100,4,1,0,40,0,1
112670,-100,4,1,0,40,0,0
131870,-100,4,2,1,20,0,0
135395,-100,4,1,0,40,0,0

[HitObjects]
256,192,1070,5,0,0:0:0:0:
256,192,1220,1,0,0:0:0:0:
256,192,1370,1,0,0:0:0:0:
256,192,1520,1,0,0:0:0:0:
256,192,1670,1,0,0:0:0:0:
256,192,1820,1,0,0:0:0:0:
256,192,1970,1,0,0:0:0:0:
256,192,2120,1,0,0:0:0:0:
256,192,2270,1,0,0:0:0:0:
256,192,2420,1,0,0:0:0:0:
256,192,2570,1,0,0:0:0:0:
256,192,2720,1,0,0:0:0:0:
256,192,2870,1,0,0:0:0:0:
256,192,3020,1,0,0:0:0:0:
256,192,3170,1,0,0:0:0:0:
256,192,3245,1,0,0:0:0:0:
256,192,3320,1,0,0:0:0:0:
256,192,3395,1,0,0:0:0:0:
256,192,3470,1,0,0:0:0:0:
256,192,3620,1,0,0:0:0:0:
256,192,3770,1,0,0:0:0:0:
256,192,3920,1,0,0:0:0:0:
256,192,4070,1,0,0:0:0:0:
256,192,4220,1,0,0:0:0:0:
256,192,4370,1,0,0:0:0:0:
256,192,4520,1,0,0:0:0:0:
256,192,4670,1,0,0:0:0:0:
256,192,4820,1,0,0:0:0:0:
256,192,4970,1,0,0:0:0:0:
256,192,5120,1,0,0:0:0:0:
256,192,5270,1,0,0:0:0:0:
256,192,5420,1,0,0:0:0:0:
256,192,5570,1,0,0:0:0:0:
256,192,5720,1,0,0:0:0:0:
256,192,5870,1,0,0:0:0:0:
256,192,6020,1,0,0:0:0:0:
256,192,6170,1,0,0:0:0:0:
256,192,6320,1,0,0:0:0:0:
256,192,6470,1,0,0:0:0:0:
256,192,6620,1,0,0:0:0:0:
256,192,6770,1,0,0:0:0:0:
256,192,6920,1,0,0:0:0:0:
256,192,7070,1,0,0:0:0:0:
256,192,7220,1,0,0:0:0:0:
256,192,7370,1,0,0:0:0:0:
256,192,7520,1,0,0:0:0:0:
256,192,7670,1,0,0:0:0:0:
256,192,7820,1,0,0:0:0:0:
256,192,7970,1,0,0:0:0:0:
256,192,8120,1,0,0:0:0:0:
256,192,8270,1,0,0:0:0:0:
256,192,8420,1,0,0:0:0:0:
256,192,8570,1,0,0:0:0:0:
256,192,8720,1,0,0:0:0:0:
256,192,8870,1,0,0:0:0:0:
256,192,9020,1,0,0:0:0:0:
256,192,9170,1,0,0:0:0:0:
256,192,9320,1,0,0:0:0:0:
256,192,9470,1,0,0:0:0:0:
256,192,9620,1,0,0:0:0:0:
256,192,9770,1,0,0:0:0:0:
256,192,9920,1,0,0:0:0:0:
256,192,10070,1,0,0:0:0:0:
256,192,10220,1,0,0:0:0:0:
256,192,10370,1,0,0:0:0:0:
256,192,10520,1,0,0:0:0:0:
256,192,10670,1,0,0:0:0:0:
256,192,10820,1,0,0:0:0:0:
256,192,10970,1,0,0:0:0:0:
256,192,11120,1,0,0:0:0:0:
256,192,11270,1,0,0:0:0:0:
256,192,11420,1,0,0:0:0:0:
256,192,11570,1,0,0:0:0:0:
256,192,11720,1,0,0:0:0:0:
256,192,11870,1,0,0:0:0:0:
256,192,12020,1,0,0:0:0:0:
256,192,12170,1,0,0:0:0:0:
256,192,12320,1,0,0:0:0:0:
256,192,12470,1,0,0:0:0:0:
256,192,12620,1,0,0:0:0:0:
256,192,12770,1,0,0:0:0:0:
256,192,12845,1,0,0:0:0:0:
256,192,12920,1,0,0:0:0:0:
256,192,12995,1,0,0:0:0:0:
256,192,13070,1,0,0:0:0:0:
256,192,13220,1,0,0:0:0:0:
256,192,13370,1,0,0:0:0:0:
256,192,13520,1,0,0:0:0:0:
256,192,13670,1,0,0:0:0:0:
256,192,13820,1,0,0:0:0:0:
256,192,13970,1,0,0:0:0:0:
256,192,14120,1,0,0:0:0:0:
256,192,14270,1,0,0:0:0:0:
256,192,14420,1,0,0:0:0:0:
256,192,14570,1,0,0:0:0:0:
256,192,14720,1,0,0:0:0:0:
256,192,14870,1,0,0:0:0:0:
256,192,15020,1,0,0:0:0:0:
256,192,15170,1,0,0:0:0:0:
256,192,15320,1,0,0:0:0:0:
256,192,15470,1,0,0:0:0:0:
256,192,15620,1,0,0:0:0:0:
256,192,15770,1,0,0:0:0:0:
256,192,15920,1,0,0:0:0:0:
256,192,16070,1,0,0:0:0:0:
256,192,16220,1,0,0:0:0:0:
256,192,16370,1,0,0:0:0:0:
256,192,16520,1,0,0:0:0:0:
256,192,16670,1,0,0:0:0:0:
256,192,16820,1,0,0:0:0:0:
256,192,16970,1,0,0:0:0:0:
256,192,17120,1,0,0:0:0:0:
256,192,17270,1,0,0:0:0:0:
256,192,17420,1,0,0:0:0:0:
256,192,17570,1,0,0:0:0:0:
256,192,17720,1,0,0:0:0:0:
256,192,17870,1,0,0:0:0:0:
256,192,18020,1,0,0:0:0:0:
256,192,18170,1,0,0:0:0:0:
256,192,18320,1,0,0:0:0:0:
256,192,18470,1,0,0:0:0:0:
256,192,18620,1,0,0:0:0:0:
256,192,18770,1,0,0:0:0:0:
256,192,18920,1,0,0:0:0:0:
256,192,19070,1,12,0:0:0:0:
256,192,19370,1,12,0:0:0:0:
256,192,19670,1,12,0:0:0:0:
256,192,19745,1,0,0:0:0:0:
256,192,19820,1,0,0:0:0:0:
256,192,19895,1,0,0:0:0:0:
256,192,19970,1,0,0:0:0:0:
256,192,20045,1,0,0:0:0:0:
256,192,20120,1,0,0:0:0:0:
256,192,20195,1,0,0:0:0:0:
256,192,20270,1,12,0:0:0:0:
256,192,20345,1,0,0:0:0:0:
256,192,20420,1,0,0:0:0:0:
256,192,20495,1,0,0:0:0:0:
256,192,20570,1,0,0:0:0:0:
256,192,20645,1,0,0:0:0:0:
256,192,20720,1,0,0:0:0:0:
256,192,20795,1,0,0:0:0:0:
256,192,20870,1,0,0:0:0:0:
256,192,20945,1,0,0:0:0:0:
256,192,21020,1,0,0:0:0:0:
256,192,21095,1,0,0:0:0:0:
256,192,21170,1,0,0:0:0:0:
256,192,21245,1,0,0:0:0:0:
256,192,21320,1,0,0:0:0:0:
256,192,21395,1,0,0:0:0:0:
256,192,21470,1,0,0:0:0:0:
256,192,21545,1,0,0:0:0:0:
256,192,21620,1,0,0:0:0:0:
256,192,21695,1,0,0:0:0:0:
256,192,21770,1,0,0:0:0:0:
256,192,21845,1,0,0:0:0:0:
256,192,21920,1,0,0:0:0:0:
256,192,21995,1,0,0:0:0:0:
256,192,22070,1,0,0:0:0:0:
256,192,22145,1,0,0:0:0:0:
256,192,22220,1,0,0:0:0:0:
256,192,22295,1,0,0:0:0:0:
256,192,22370,1,0,0:0:0:0:
256,192,22445,1,0,0:0:0:0:
256,192,22520,1,0,0:0:0:0:
256,192,22595,1,0,0:0:0:0:
256,192,22670,1,0,0:0:0:0:
256,192,22745,1,0,0:0:0:0:
256,192,22820,1,0,0:0:0:0:
256,192,22895,1,0,0:0:0:0:
256,192,22970,1,0,0:0:0:0:
256,192,23045,1,0,0:0:0:0:
256,192,23120,1,0,0:0:0:0:
256,192,23195,1,0,0:0:0:0:
256,192,23270,1,0,0:0:0:0:
256,192,23345,1,0,0:0:0:0:
256,192,23420,1,0,0:0:0:0:
256,192,23495,1,0,0:0:0:0:
256,192,23570,1,0,0:0:0:0:
256,192,23645,1,0,0:0:0:0:
256,192,23720,1,0,0:0:0:0:
256,192,23795,1,0,0:0:0:0:
256,192,23870,1,0,0:0:0:0:
256,192,23945,1,0,0:0:0:0:
256,192,24020,1,0,0:0:0:0:
256,192,24095,1,0,0:0:0:0:
256,192,24170,1,0,0:0:0:0:
256,192,24245,1,0,0:0:0:0:
256,192,24320,1,0,0:0:0:0:
256,192,24395,1,0,0:0:0:0:
256,192,24470,1,0,0:0:0:0:
256,192,24545,1,0,0:0:0:0:
256,192,24620,1,0,0:0:0:0:
256,192,24695,1,0,0:0:0:0:
256,192,24770,1,0,0:0:0:0:
256,192,24845,1,0,0:0:0:0:
256,192,24920,1,0,0:0:0:0:
256,192,24995,1,0,0:0:0:0:
256,192,25070,1,0,0:0:0:0:
256,192,25145,1,0,0:0:0:0:
256,192,25220,1,0,0:0:0:0:
256,192,25295,1,0,0:0:0:0:
256,192,25370,1,0,0:0:0:0:
256,192,25445,1,0,0:0:0:0:
256,192,25520,1,0,0:0:0:0:
256,192,25595,1,0,0:0:0:0:
256,192,25670,1,0,0:0:0:0:
256,192,25745,1,0,0:0:0:0:
256,192,25820,1,0,0:0:0:0:
256,192,25895,1,0,0:0:0:0:
256,192,25970,1,0,0:0:0:0:
256,192,26045,1,0,0:0:0:0:
256,192,26120,1,0,0:0:0:0:
256,192,26195,1,0,0:0:0:0:
256,192,26270,1,0,0:0:0:0:
256,192,26345,1,0,0:0:0:0:
256,192,26420,1,0,0:0:0:0:
256,192,26495,1,0,0:0:0:0:
256,192,26570,1,0,0:0:0:0:
256,192,26645,1,0,0:0:0:0:
256,192,26720,1,0,0:0:0:0:
256,192,26795,1,0,0:0:0:0:
256,192,26870,1,0,0:0:0:0:
256,192,26945,1,0,0:0:0:0:
256,192,27020,1,0,0:0:0:0:
256,192,27095,1,0,0:0:0:0:
256,192,27170,1,0,0:0:0:0:
256,192,27245,1,0,0:0:0:0:
256,192,27320,1,0,0:0:0:0:
256,192,27395,1,0,0:0:0:0:
256,192,27470,1,0,0:0:0:0:
256,192,27545,1,0,0:0:0:0:
256,192,27620,1,0,0:0:0:0:
256,192,27695,1,0,0:0:0:0:
256,192,27770,1,0,0:0:0:0:
256,192,27845,1,0,0:0:0:0:
256,192,27920,1,0,0:0:0:0:
256,192,27995,1,0,0:0:0:0:
256,192,28070,1,0,0:0:0:0:
256,192,28145,1,0,0:0:0:0:
256,192,28220,1,0,0:0:0:0:
256,192,28295,1,0,0:0:0:0:
256,192,28370,1,0,0:0:0:0:
256,192,28445,1,0,0:0:0:0:
256,192,28520,1,0,0:0:0:0:
256,192,28595,1,0,0:0:0:0:
256,192,28670,1,0,0:0:0:0:
256,192,28745,1,0,0:0:0:0:
256,192,28820,1,0,0:0:0:0:
256,192,28895,1,0,0:0:0:0:
256,192,28970,1,0,0:0:0:0:
256,192,29045,1,0,0:0:0:0:
256,192,29120,1,0,0:0:0:0:
256,192,29195,1,0,0:0:0:0:
256,192,29270,1,0,0:0:0:0:
256,192,29345,1,0,0:0:0:0:
256,192,29420,1,0,0:0:0:0:
256,192,29495,1,0,0:0:0:0:
256,192,29570,1,0,0:0:0:0:
256,192,29645,1,0,0:0:0:0:
256,192,29720,1,0,0:0:0:0:
256,192,29795,1,0,0:0:0:0:
256,192,29870,1,0,0:0:0:0:
256,192,29945,1,0,0:0:0:0:
256,192,30020,1,0,0:0:0:0:
256,192,30095,1,0,0:0:0:0:
256,192,30170,1,0,0:0:0:0:
256,192,30245,1,0,0:0:0:0:
256,192,30320,1,0,0:0:0:0:
256,192,30395,1,0,0:0:0:0:
256,192,30470,1,0,0:0:0:0:
256,192,30545,1,0,0:0:0:0:
256,192,30620,1,0,0:0:0:0:
256,192,30695,1,0,0:0:0:0:
256,192,30770,1,0,0:0:0:0:
256,192,30845,1,0,0:0:0:0:
256,192,30920,1,0,0:0:0:0:
256,192,30995,1,0,0:0:0:0:
256,192,31070,1,0,0:0:0:0:
256,192,31145,1,0,0:0:0:0:
256,192,31220,1,0,0:0:0:0:
256,192,31295,1,0,0:0:0:0:
256,192,31370,1,0,0:0:0:0:
256,192,31445,1,0,0:0:0:0:
256,192,31520,1,0,0:0:0:0:
256,192,31595,1,0,0:0:0:0:
256,192,31670,1,0,0:0:0:0:
256,192,31745,1,0,0:0:0:0:
256,192,31820,1,0,0:0:0:0:
256,192,31895,1,0,0:0:0:0:
256,192,31970,1,0,0:0:0:0:
256,192,32045,1,0,0:0:0:0:
256,192,32120,1,0,0:0:0:0:
256,192,32195,1,0,0:0:0:0:
256,192,32270,1,0,0:0:0:0:
256,192,32345,1,0,0:0:0:0:
256,192,32420,1,0,0:0:0:0:
256,192,32495,1,0,0:0:0:0:
256,192,32570,1,0,0:0:0:0:
256,192,32645,1,0,0:0:0:0:
256,192,32720,1,0,0:0:0:0:
256,192,32795,1,0,0:0:0:0:
256,192,32870,1,0,0:0:0:0:
256,192,32945,1,0,0:0:0:0:
256,192,33020,1,0,0:0:0:0:
256,192,33095,1,0,0:0:0:0:
256,192,33170,1,0,0:0:0:0:
256,192,33245,1,0,0:0:0:0:
256,192,33320,1,0,0:0:0:0:
256,192,33395,1,0,0:0:0:0:
256,192,33470,1,0,0:0:0:0:
256,192,33545,1,0,0:0:0:0:
256,192,33620,1,0,0:0:0:0:
256,192,33695,1,0,0:0:0:0:
256,192,33770,1,0,0:0:0:0:
256,192,33845,1,0,0:0:0:0:
256,192,33920,1,0,0:0:0:0:
256,192,33995,1,0,0:0:0:0:
256,192,34070,1,0,0:0:0:0:
256,192,34145,1,0,0:0:0:0:
256,192,34220,1,0,0:0:0:0:
256,192,34295,1,0,0:0:0:0:
256,192,34370,1,0,0:0:0:0:
256,192,34445,1,0,0:0:0:0:
256,192,34520,1,0,0:0:0:0:
256,192,34595,1,0,0:0:0:0:
256,192,34670,1,0,0:0:0:0:
256,192,34745,1,0,0:0:0:0:
256,192,34820,1,0,0:0:0:0:
256,192,34895,1,0,0:0:0:0:
256,192,34970,1,0,0:0:0:0:
256,192,35045,1,0,0:0:0:0:
256,192,35120,1,0,0:0:0:0:
256,192,35195,1,0,0:0:0:0:
256,192,35270,1,0,0:0:0:0:
256,192,35345,1,0,0:0:0:0:
256,192,35420,1,0,0:0:0:0:
256,192,35495,1,0,0:0:0:0:
256,192,35570,1,0,0:0:0:0:
256,192,35645,1,0,0:0:0:0:
256,192,35720,1,0,0:0:0:0:
256,192,35795,1,0,0:0:0:0:
256,192,35870,1,0,0:0:0:0:
256,192,35945,1,0,0:0:0:0:
256,192,36020,1,0,0:0:0:0:
256,192,36095,1,0,0:0:0:0:
256,192,36170,1,0,0:0:0:0:
256,192,36245,1,0,0:0:0:0:
256,192,36320,1,0,0:0:0:0:
256,192,36395,1,0,0:0:0:0:
256,192,36470,1,0,0:0:0:0:
256,192,36545,1,0,0:0:0:0:
256,192,36620,1,0,0:0:0:0:
256,192,36695,1,0,0:0:0:0:
256,192,36770,1,0,0:0:0:0:
256,192,36845,1,0,0:0:0:0:
256,192,36920,1,0,0:0:0:0:
256,192,36995,1,0,0:0:0:0:
256,192,37070,1,0,0:0:0:0:
256,192,37145,1,0,0:0:0:0:
256,192,37220,1,0,0:0:0:0:
256,192,37295,1,0,0:0:0:0:
256,192,37370,1,0,0:0:0:0:
256,192,37445,1,0,0:0:0:0:
256,192,37520,1,0,0:0:0:0:
256,192,37595,1,0,0:0:0:0:
256,192,37670,1,0,0:0:0:0:
256,192,37745,1,0,0:0:0:0:
256,192,37820,1,0,0:0:0:0:
256,192,37895,1,0,0:0:0:0:
256,192,37970,1,0,0:0:0:0:
256,192,38045,1,0,0:0:0:0:
256,192,38120,1,0,0:0:0:0:
256,192,38195,1,0,0:0:0:0:
256,192,38270,1,0,0:0:0:0:
256,192,38345,1,0,0:0:0:0:
256,192,38420,1,0,0:0:0:0:
256,192,38495,1,0,0:0:0:0:
256,192,38570,1,0,0:0:0:0:
256,192,38645,1,0,0:0:0:0:
256,192,38720,1,0,0:0:0:0:
256,192,38795,1,0,0:0:0:0:
256,192,38870,1,0,0:0:0:0:
256,192,38945,1,0,0:0:0:0:
256,192,39020,1,0,0:0:0:0:
256,192,39095,1,0,0:0:0:0:
256,192,39170,1,0,0:0:0:0:
256,192,39245,1,0,0:0:0:0:
256,192,39320,1,0,0:0:0:0:
256,192,39395,1,0,0:0:0:0:
256,192,39470,1,0,0:0:0:0:
256,192,39620,1,0,0:0:0:0:
256,192,39770,1,0,0:0:0:0:
256,192,39920,1,0,0:0:0:0:
256,192,40070,1,0,0:0:0:0:
256,192,40220,1,0,0:0:0:0:
256,192,40370,1,0,0:0:0:0:
256,192,40520,1,0,0:0:0:0:
256,192,40670,1,0,0:0:0:0:
256,192,40820,1,0,0:0:0:0:
256,192,40970,1,0,0:0:0:0:
256,192,41120,1,0,0:0:0:0:
256,192,41270,1,0,0:0:0:0:
256,192,41420,1,0,0:0:0:0:
256,192,41570,1,0,0:0:0:0:
256,192,41720,1,0,0:0:0:0:
256,192,41870,1,0,0:0:0:0:
256,192,42020,1,0,0:0:0:0:
256,192,42170,1,0,0:0:0:0:
256,192,42320,1,0,0:0:0:0:
256,192,42470,1,0,0:0:0:0:
256,192,42620,1,0,0:0:0:0:
256,192,42770,1,0,0:0:0:0:
256,192,42920,1,0,0:0:0:0:
256,192,43070,1,0,0:0:0:0:
256,192,43220,1,0,0:0:0:0:
256,192,43370,1,0,0:0:0:0:
256,192,43520,1,0,0:0:0:0:
256,192,43670,1,0,0:0:0:0:
256,192,43820,1,0,0:0:0:0:
256,192,43970,1,0,0:0:0:0:
256,192,44120,1,0,0:0:0:0:
256,192,44270,1,0,0:0:0:0:
256,192,44420,1,0,0:0:0:0:
256,192,44570,1,0,0:0:0:0:
256,192,44720,1,0,0:0:0:0:
256,192,44870,1,0,0:0:0:0:
256,192,45020,1,0,0:0:0:0:
256,192,45170,1,0,0:0:0:0:
256,192,45320,1,0,0:0:0:0:
256,192,45470,1,0,0:0:0:0:
256,192,45620,1,0,0:0:0:0:
256,192,45770,1,0,0:0:0:0:
256,192,45920,1,0,0:0:0:0:
256,192,46070,1,0,0:0:0:0:
256,192,46220,1,0,0:0:0:0:
256,192,46370,1,0,0:0:0:0:
256,192,46520,1,0,0:0:0:0:
256,192,46670,1,0,0:0:0:0:
256,192,46745,1,0,0:0:0:0:
256,192,46820,1,0,0:0:0:0:
256,192,46895,1,0,0:0:0:0:
256,192,46970,1,0,0:0:0:0:
256,192,47045,1,0,0:0:0:0:
256,192,47120,1,0,0:0:0:0:
256,192,47195,1,0,0:0:0:0:
256,192,47270,1,0,0:0:0:0:
256,192,47345,1,0,0:0:0:0:
256,192,47420,1,0,0:0:0:0:
256,192,47495,1,0,0:0:0:0:
256,192,47570,1,0,0:0:0:0:
256,192,47645,1,0,0:0:0:0:
256,192,47720,1,0,0:0:0:0:
256,192,47795,1,0,0:0:0:0:
256,192,47870,1,0,0:0:0:0:
256,192,47945,1,0,0:0:0:0:
256,192,48020,1,0,0:0:0:0:
256,192,48095,1,0,0:0:0:0:
256,192,48170,1,0,0:0:0:0:
256,192,48245,1,0,0:0:0:0:
256,192,48320,1,0,0:0:0:0:
256,192,48395,1,0,0:0:0:0:
256,192,48470,1,0,0:0:0:0:
256,192,48545,1,0,0:0:0:0:
256,192,48620,1,0,0:0:0:0:
256,192,48695,1,0,0:0:0:0:
256,192,48770,1,0,0:0:0:0:
256,192,48845,1,0,0:0:0:0:
256,192,48920,1,0,0:0:0:0:
256,192,48995,1,0,0:0:0:0:
256,192,49070,1,0,0:0:0:0:
256,192,49145,1,0,0:0:0:0:
256,192,49220,1,0,0:0:0:0:
256,192,49295,1,0,0:0:0:0:
256,192,49370,1,0,0:0:0:0:
256,192,49445,1,0,0:0:0:0:
256,192,49520,1,0,0:0:0:0:
256,192,49595,1,0,0:0:0:0:
256,192,49670,1,0,0:0:0:0:
256,192,49745,1,0,0:0:0:0:
256,192,49820,1,0,0:0:0:0:
256,192,49895,1,0,0:0:0:0:
256,192,49970,1,0,0:0:0:0:
256,192,50045,1,0,0:0:0:0:
256,192,50120,1,0,0:0:0:0:
256,192,50195,1,0,0:0:0:0:
256,192,50270,1,0,0:0:0:0:
256,192,50345,1,0,0:0:0:0:
256,192,50420,1,0,0:0:0:0:
256,192,50495,1,0,0:0:0:0:
256,192,50570,1,0,0:0:0:0:
256,192,50645,1,0,0:0:0:0:
256,192,50720,1,0,0:0:0:0:
256,192,50795,1,0,0:0:0:0:
256,192,50870,1,0,0:0:0:0:
256,192,50945,1,0,0:0:0:0:
256,192,51020,1,0,0:0:0:0:
256,192,51095,1,0,0:0:0:0:
256,192,51170,1,0,0:0:0:0:
256,192,51245,1,0,0:0:0:0:
256,192,51320,1,0,0:0:0:0:
256,192,51395,1,0,0:0:0:0:
256,192,51470,1,0,0:0:0:0:
256,192,51545,1,0,0:0:0:0:
256,192,51620,1,0,0:0:0:0:
256,192,51695,1,0,0:0:0:0:
256,192,51770,1,0,0:0:0:0:
256,192,51845,1,0,0:0:0:0:
256,192,51920,1,0,0:0:0:0:
256,192,51995,1,0,0:0:0:0:
256,192,52070,1,0,0:0:0:0:
256,192,52145,1,0,0:0:0:0:
256,192,52220,1,0,0:0:0:0:
256,192,52295,1,0,0:0:0:0:
256,192,52370,1,0,0:0:0:0:
256,192,52445,1,0,0:0:0:0:
256,192,52520,1,0,0:0:0:0:
256,192,52595,1,0,0:0:0:0:
256,192,52670,1,0,0:0:0:0:
256,192,52745,1,0,0:0:0:0:
256,192,52820,1,0,0:0:0:0:
256,192,52895,1,0,0:0:0:0:
256,192,52970,1,0,0:0:0:0:
256,192,53045,1,0,0:0:0:0:
256,192,53120,1,0,0:0:0:0:
256,192,53195,1,0,0:0:0:0:
256,192,53270,1,0,0:0:0:0:
256,192,53345,1,0,0:0:0:0:
256,192,53420,1,0,0:0:0:0:
256,192,53495,1,0,0:0:0:0:
256,192,53570,1,0,0:0:0:0:
256,192,53645,1,0,0:0:0:0:
256,192,53720,1,0,0:0:0:0:
256,192,53795,1,0,0:0:0:0:
256,192,53870,1,0,0:0:0:0:
256,192,53945,1,0,0:0:0:0:
256,192,54020,1,0,0:0:0:0:
256,192,54095,1,0,0:0:0:0:
256,192,54170,1,0,0:0:0:0:
256,192,54245,1,0,0:0:0:0:
256,192,54320,1,0,0:0:0:0:
256,192,54395,1,0,0:0:0:0:
256,192,54470,1,0,0:0:0:0:
256,192,54545,1,0,0:0:0:0:
256,192,54620,1,0,0:0:0:0:
256,192,54695,1,0,0:0:0:0:
256,192,54770,1,0,0:0:0:0:
256,192,54845,1,0,0:0:0:0:
256,192,54920,1,0,0:0:0:0:
256,192,54995,1,0,0:0:0:0:
256,192,55070,1,0,0:0:0:0:
256,192,55220,1,0,0:0:0:0:
256,192,55295,1,0,0:0:0:0:
256,192,55370,1,0,0:0:0:0:
256,192,55445,1,0,0:0:0:0:
256,192,55520,1,0,0:0:0:0:
256,192,55595,1,0,0:0:0:0:
256,192,55670,1,0,0:0:0:0:
256,192,55745,1,0,0:0:0:0:
256,192,55820,1,0,0:0:0:0:
256,192,55895,1,0,0:0:0:0:
256,192,55970,1,0,0:0:0:0:
256,192,56045,1,0,0:0:0:0:
256,192,56120,1,0,0:0:0:0:
256,192,56195,1,0,0:0:0:0:
256,192,56270,1,0,0:0:0:0:
256,192,56420,1,0,0:0:0:0:
256,192,56495,1,0,0:0:0:0:
256,192,56570,1,0,0:0:0:0:
256,192,56645,1,0,0:0:0:0:
256,192,56720,1,0,0:0:0:0:
256,192,56795,1,0,0:0:0:0:
256,192,56870,1,0,0:0:0:0:
256,192,56945,1,0,0:0:0:0:
256,192,57020,1,0,0:0:0:0:
256,192,57095,1,0,0:0:0:0:
256,192,57170,1,0,0:0:0:0:
256,192,57245,1,0,0:0:0:0:
256,192,57320,1,0,0:0:0:0:
256,192,57395,1,0,0:0:0:0:
256,192,57470,1,0,0:0:0:0:
256,192,57545,1,0,0:0:0:0:
256,192,57620,1,0,0:0:0:0:
256,192,57695,1,0,0:0:0:0:
256,192,57770,1,0,0:0:0:0:
256,192,57845,1,0,0:0:0:0:
256,192,57920,1,0,0:0:0:0:
256,192,57995,1,0,0:0:0:0:
256,192,58070,1,0,0:0:0:0:
256,192,58145,1,0,0:0:0:0:
256,192,58220,1,0,0:0:0:0:
256,192,58295,1,0,0:0:0:0:
256,192,58445,1,0,0:0:0:0:
256,192,58595,1,0,0:0:0:0:
256,192,58670,1,0,0:0:0:0:
256,192,58745,1,0,0:0:0:0:
256,192,58820,1,0,0:0:0:0:
256,192,58895,1,0,0:0:0:0:
256,192,58970,1,0,0:0:0:0:
256,192,59045,1,0,0:0:0:0:
256,192,59120,1,0,0:0:0:0:
256,192,59195,1,0,0:0:0:0:
256,192,59270,1,0,0:0:0:0:
256,192,59345,1,0,0:0:0:0:
256,192,59420,1,0,0:0:0:0:
256,192,59495,1,0,0:0:0:0:
256,192,59570,1,0,0:0:0:0:
256,192,59645,1,0,0:0:0:0:
256,192,59720,1,0,0:0:0:0:
256,192,59795,1,0,0:0:0:0:
256,192,59870,1,0,0:0:0:0:
256,192,59945,1,0,0:0:0:0:
256,192,60020,1,0,0:0:0:0:
256,192,60095,1,0,0:0:0:0:
256,192,60170,1,0,0:0:0:0:
256,192,60245,1,0,0:0:0:0:
256,192,60320,1,0,0:0:0:0:
256,192,60395,1,0,0:0:0:0:
256,192,60470,1,0,0:0:0:0:
256,192,60545,1,0,0:0:0:0:
256,192,60620,1,0,0:0:0:0:
256,192,60695,1,0,0:0:0:0:
256,192,60770,1,0,0:0:0:0:
256,192,60845,1,0,0:0:0:0:
256,192,60920,1,0,0:0:0:0:
256,192,60995,1,0,0:0:0:0:
256,192,61070,1,0,0:0:0:0:
256,192,61145,1,0,0:0:0:0:
256,192,61220,1,0,0:0:0:0:
256,192,61295,1,0,0:0:0:0:
256,192,61370,1,0,0:0:0:0:
256,192,61445,1,0,0:0:0:0:
256,192,61520,1,0,0:0:0:0:
256,192,61595,1,0,0:0:0:0:
256,192,61670,1,0,0:0:0:0:
256,192,61745,1,0,0:0:0:0:
256,192,61820,1,0,0:0:0:0:
256,192,61895,1,0,0:0:0:0:
256,192,61970,1,0,0:0:0:0:
256,192,62045,1,0,0:0:0:0:
256,192,62120,1,0,0:0:0:0:
256,192,62195,1,0,0:0:0:0:
256,192,62270,1,0,0:0:0:0:
256,192,62345,1,0,0:0:0:0:
256,192,62420,1,0,0:0:0:0:
256,192,62495,1,0,0:0:0:0:
256,192,62570,1,0,0:0:0:0:
256,192,62645,1,0,0:0:0:0:
256,192,62720,1,0,0:0:0:0:
256,192,62795,1,0,0:0:0:0:
256,192,62870,1,0,0:0:0:0:
256,192,62945,1,0,0:0:0:0:
256,192,63020,1,0,0:0:0:0:
256,192,63095,1,0,0:0:0:0:
256,192,63170,1,0,0:0:0:0:
256,192,63245,1,0,0:0:0:0:
256,192,63320,1,0,0:0:0:0:
256,192,63395,1,0,0:0:0:0:
256,192,63470,1,0,0:0:0:0:
256,192,63545,1,0,0:0:0:0:
256,192,63620,1,0,0:0:0:0:
