osu file format v14

[General]
AudioFilename: dragonforce-three-hammers.mp3
AudioLeadIn: 0
PreviewTime: 99838
Countdown: 0
SampleSet: None
StackLeniency: 0.2
Mode: 0
LetterboxInBreaks: 1
WidescreenStoryboard: 1

[Editor]
DistanceSpacing: 0.9
BeatDivisor: 6
GridSize: 16
TimelineZoom: 1.9

[Metadata]
Title:Three Hammers
TitleUnicode:Three Hammers
Artist:DragonForce
ArtistUnicode:DragonForce
Creator:Tehron
Version:Legend
Source:Maximum Overload
Tags:dragon force maximum overload legend insane stream deathstream speedmetal power speed metal powermetal
BeatmapID:2581551
BeatmapSetID:380377

[Difficulty]
HPDrainRate:6
CircleSize:5
OverallDifficulty:9.5
ApproachRate:9.2
SliderMultiplier:1.4
SliderTickRate:1

[Events]
//Background and Video events
0,0,"Three Hammers bg.png",0,0
//Break Periods
//Storyboard Layer 0 (Background)
//Storyboard Layer 1 (Fail)
//Storyboard Layer 2 (Pass)
//Storyboard Layer 3 (Foreground)
//Storyboard Layer 4 (Overlay)
//Storyboard Sound Samples

[TimingPoints]
92,480,4,1,1,40,1,0
2012,-100,4,1,1,40,0,0
9125,480,4,1,1,40,1,0
9125,-100,4,1,1,40,0,0
9411,480,4,1,1,40,1,0
9411,-100,4,1,1,40,0,0
9692,480,4,1,1,40,1,0
9692,-100,4,1,1,40,0,0
17852,-100,4,1,1,40,0,0
30812,-117.647058823529,4,1,1,40,0,0
30972,-117.647058823529,4,1,1,40,0,0
32572,-117.647058823529,4,1,1,5,0,0
32732,-117.647058823529,4,1,1,30,0,0
34492,-117.647058823529,4,1,1,5,0,0
34652,487.80487804878,4,1,1,15,1,0
34652,-100,4,2,1,15,0,0
42456,480,4,2,1,17,1,0
42456,-100,4,2,1,17,0,0
48253,481.927710843374,4,2,1,17,1,0
48253,-100,4,2,1,17,0,0
50189,480,4,1,2,25,1,0
50189,-100,4,1,2,25,0,0
57869,478.08764940239,4,1,1,25,1,0
57869,-100,4,1,1,25,0,0
58825,-100,4,1,1,27,0,0
59781,-100,4,1,1,29,0,0
60737,-100,4,1,1,31,0,0
61693,-100,4,1,1,33,0,0
62649,-100,4,1,1,35,0,0
63606,-100,4,1,1,37,0,0
64562,-100,4,1,1,39,0,0
65518,480,4,1,1,40,1,0
65518,-90.9090909090909,4,1,1,40,0,0
80878,-111.111111111111,4,1,1,40,0,0
82798,-90.9090909090909,4,1,1,45,0,0
84718,-90.9090909090909,4,1,1,45,0,1
85198,-90.9090909090909,4,1,1,45,0,0
85678,-90.9090909090909,4,1,1,45,0,1
86158,-90.9090909090909,4,1,1,45,0,0
86638,-90.9090909090909,4,1,1,45,0,1
87598,-90.9090909090909,4,1,1,45,0,0
88558,-90.9090909090909,4,1,1,45,0,0
98158,-90.9090909090909,4,1,1,50,0,1
99118,-90.9090909090909,4,1,1,50,0,0
100078,-83.3333333333333,4,1,1,60,0,1
122158,-83.3333333333333,4,1,1,40,0,0
123118,-90.9090909090909,4,1,1,40,0,0
138478,-111.111111111111,4,1,1,40,0,0
140398,-90.9090909090908,4,1,1,45,0,0
142318,-90.9090909090908,4,1,1,45,0,1
142798,-90.9090909090908,4,1,1,45,0,0
143278,-90.9090909090908,4,1,1,45,0,1
143758,-90.9090909090908,4,1,1,45,0,0
144238,-90.9090909090908,4,1,1,45,0,1
145198,-90.9090909090908,4,1,1,45,0,0
146158,-90.9090909090908,4,1,1,45,0,0
155758,-90.9090909090908,4,1,1,50,0,1
156718,-90.9090909090908,4,1,1,50,0,0
157678,-83.3333333333333,4,1,1,60,0,1
175918,-100,4,1,1,50,0,0
176478,480,4,1,1,50,1,0
176478,-100,4,1,1,50,0,0
177190,480,4,1,1,50,1,0
177190,-100,4,1,1,50,0,0
180725,266.666666666667,4,1,1,35,1,0
180725,-125,4,1,1,35,0,0
180858,-125,4,1,1,25,0,0
182458,-125,4,1,1,35,0,0
182991,-125,4,1,1,25,0,0
184725,-125,4,1,1,35,0,0
185125,-125,4,1,1,30,0,0
186991,-125,4,1,1,35,0,0
187525,-125,4,1,1,25,0,0
188191,-83.3333333333333,4,1,1,40,0,0
189125,-100,4,1,1,45,0,0
209658,-71.4285714285714,4,1,1,45,0,0
210591,-100,4,1,1,45,0,0
213525,-71.4285714285714,4,1,1,50,0,0
214858,-100,4,1,1,60,0,1
216458,-71.4285714285714,4,1,1,60,0,0
216591,-100,4,1,1,60,0,1
221258,-100,4,1,1,60,0,0
222325,-100,4,1,1,60,0,1
225658,-71.4285714285714,4,1,1,60,0,1
225791,-100,4,1,1,60,0,1
225925,-71.4285714285714,4,1,1,60,0,1
226058,-100,4,1,1,60,0,1
227658,-100,4,1,1,60,0,0
228725,-100,4,1,1,60,0,1
229258,-100,4,1,1,60,0,0
229791,-100,4,1,1,60,0,1
230325,-100,4,1,1,60,0,0
230858,-100,4,1,1,60,0,1
231925,-100,4,1,1,60,0,0
238325,-100,4,1,1,60,0,1
240458,-100,4,1,1,60,0,0
246858,-100,4,1,1,60,0,1
248991,-166.666666666667,4,1,1,45,0,0
256458,-100,4,1,1,45,0,0
257525,-166.666666666667,4,1,1,45,0,0
264991,-111.111111111111,4,1,1,45,0,0
266058,960,4,1,1,100,1,0
266058,-125,4,1,1,45,0,0
270858,-100,4,1,1,5,0,0
271338,480,4,1,1,40,1,0
271338,-100,4,1,1,40,0,0
279018,-90.9090909090909,4,1,1,42,0,0
286698,-90.9090909090909,4,1,1,44,0,0
294378,-90.9090909090909,4,1,1,45,0,0
302058,465.477114041893,4,1,1,45,1,0
302058,-100,4,1,1,45,0,1
302988,-100,4,1,1,45,0,0
303980,465.477114041893,4,1,1,45,1,0
303980,-100,4,1,1,45,0,1
304910,-100,4,1,1,45,0,0
305887,487.80487804878,4,1,1,45,1,0
305887,-100,4,1,0,45,0,0
307818,465.477114041893,4,1,1,45,1,0
307818,-100,4,1,1,45,0,0
308760,480,4,1,1,45,1,0
308760,-100,4,1,1,45,0,0
309738,480,4,1,1,60,1,0
309738,-83.3333333333333,4,1,1,60,0,1
342378,-83.3333333333333,4,1,1,55,0,0

[Colours]
Combo1 : 55,55,55
Combo2 : 234,158,0
Combo3 : 148,148,148
Combo4 : 255,202,91

[HitObjects]
375,64,2012,6,0,L|368:167,1,93.3333333333333,2|0,0:0|0:0,0:0:0:0:
358,284,2492,1,4,0:0:0:0:
419,328,2652,1,4,0:0:0:0:
425,252,2812,1,4,0:0:0:0:
229,278,2972,1,4,0:0:0:0:
486,296,3452,6,0,L|493:201,1,93.3333333333333,2|2,0:0|0:0,0:0:0:0:
461,70,3932,2,0,P|357:102|428:166,1,233.333333333333,2|2,0:0|0:0,0:0:0:0:
313,32,4892,2,0,L|160:44,1,140,2|2,0:0|0:0,0:0:0:0:
88,138,5532,2,0,P|92:161|107:183,1,46.6666666666667,2|2,0:0|0:0,0:0:0:0:
170,357,5852,6,0,L|163:254,1,93.3333333333333,2|0,0:0|0:0,0:0:0:0:
153,137,6332,1,4,0:0:0:0:
214,93,6492,1,4,0:0:0:0:
220,169,6652,1,4,0:0:0:0:
24,143,6812,1,4,0:0:0:0:
285,124,7292,6,0,L|291:219,1,93.3333333333333,2|2,0:0|0:0,0:0:0:0:
347,334,7772,2,0,P|451:302|380:238,1,233.333333333333,2|2,0:0|0:0,0:0:0:0:
235,349,8732,5,2,0:0:0:0:
34,247,9125,1,2,0:0:0:0:
77,29,9411,1,2,0:0:0:0:
377,83,9692,6,0,L|366:176,1,93.3333333333333,2|0,0:0|0:0,0:0:0:0:
348,302,10172,1,4,0:0:0:0:
277,249,10332,1,4,0:0:0:0:
189,263,10492,1,4,0:0:0:0:
348,302,10652,1,4,0:0:0:0:
220,179,11132,6,0,L|209:86,1,93.3333333333333,2|2,0:0|0:0,0:0:0:0:
111,185,11612,2,0,P|190:259|210:165,1,233.333333333333,2|2,0:0|0:0,0:0:0:0:
117,72,12572,2,0,B|105:71|94:76|94:76|149:97|215:85,1,140,2|2,0:0|0:0,0:0:0:0:
331,76,13212,2,0,P|347:97|357:124,1,46.6666666666667,2|2,0:0|0:0,0:0:0:0:
418,224,13532,6,0,L|428:118,1,93.3333333333333,2|0,0:0|0:0,0:0:0:0:
441,11,14012,1,4,0:0:0:0:
500,76,14172,1,4,0:0:0:0:
495,165,14332,1,4,0:0:0:0:
441,11,14492,1,4,0:0:0:0:
233,284,14972,1,0,0:0:0:0:
239,27,15452,6,0,P|331:52|260:116,1,233.333333333333,2|0,0:0|0:0,0:0:0:0:
194,84,16412,2,0,P|167:81|126:88,1,46.6666666666667,2|2,0:0|0:0,0:0:0:0:
66,148,16732,2,0,P|93:151|134:144,1,46.6666666666667,2|2,0:0|0:0,0:0:0:0:
192,217,17052,2,0,P|165:220|124:213,1,46.6666666666667,2|2,0:0|0:0,0:0:0:0:
51,346,17372,6,0,L|61:245,1,93.3333333333333,2|0,0:0|0:0,0:0:0:0:
147,82,17852,1,8,0:0:0:0:
192,217,18012,1,8,0:0:0:0:
66,148,18172,1,8,0:0:0:0:
273,151,18332,1,8,0:0:0:0:
166,328,18652,1,8,0:0:0:0:
66,148,18972,1,8,0:0:0:0:
273,151,19292,6,0,L|263:252,1,93.3333333333333,2|0,0:0|0:0,0:0:0:0:
411,349,19772,1,8,0:0:0:0:
359,216,19932,1,8,0:0:0:0:
307,350,20092,1,8,0:0:0:0:
480,219,20252,2,0,L|490:118,1,93.3333333333333,2|0,0:0|0:0,0:0:0:0:
342,21,20732,1,8,0:0:0:0:
394,154,20892,1,10,0:0:0:0:
446,20,21052,1,10,0:0:0:0:
273,151,21212,6,0,P|226:149|185:117,1,93.3333333333333,2|0,0:0|0:0,0:0:0:0:
257,56,21692,1,8,0:0:0:0:
330,111,21852,1,8,0:0:0:0:
342,201,22012,1,8,0:0:0:0:
286,273,22172,1,8,0:0:0:0:
96,99,22492,1,8,0:0:0:0:
342,21,22812,1,8,0:0:0:0:
96,99,23132,6,0,L|106:200,1,93.3333333333333,2|0,0:0|0:0,0:0:0:0:
126,352,23612,1,8,0:0:0:0:
198,296,23772,1,8,0:0:0:0:
35,339,23932,1,8,0:0:0:0:
254,349,24092,2,0,L|264:248,1,93.3333333333333,2|0,0:0|0:0,0:0:0:0:
284,96,24572,1,8,0:0:0:0:
356,152,24732,1,10,0:0:0:0:
193,109,24892,1,8,0:0:0:0:
412,100,25052,6,0,P|431:141|420:193,1,93.3333333333333,2|0,0:0|0:0,0:0:0:0:
362,265,25532,1,8,0:0:0:0:
265,267,25692,1,8,0:0:0:0:
198,203,25852,1,8,0:0:0:0:
193,109,26012,1,8,0:0:0:0:
362,265,26332,1,8,0:0:0:0:
142,333,26652,1,8,0:0:0:0:
362,265,26972,6,0,L|372:164,1,93.3333333333333,2|0,0:0|0:0,0:0:0:0:
382,19,27452,1,8,0:0:0:0:
310,75,27612,1,8,0:0:0:0:
473,32,27772,1,8,0:0:0:0:
241,20,27932,2,0,L|251:121,1,93.3333333333333,2|0,0:0|0:0,0:0:0:0:
261,266,28412,1,8,0:0:0:0:
189,210,28572,1,10,0:0:0:0:
352,253,28732,1,10,0:0:0:0:
120,265,28892,6,0,P|100:223|111:171,1,93.3333333333333,2|0,0:0|0:0,0:0:0:0:
189,210,29372,1,8,0:0:0:0:
175,297,29532,1,8,0:0:0:0:
101,352,29692,1,8,0:0:0:0:
11,337,29852,1,8,0:0:0:0:
261,266,30172,1,8,0:0:0:0:
74,84,30492,1,8,0:0:0:0:
237,369,30812,6,0,B|288:405|343:383|367:343|375:286|326:248|326:248|283:208|291:147|349:109|401:134,1,436.333341655731,2|0,0:0|0:0,0:0:0:0:
371,196,32732,6,0,B|325:227|268:202|256:152|256:152|240:88|181:55|120:66|75:113|69:164|86:203,1,436.333341655731,2|0,0:0|0:0,0:0:0:0:
199,354,34652,6,0,L|204:303,2,46.6666666666667,0|0|0,0:0|0:0|0:0,0:0:0:0:
132,303,35139,2,0,L|122:202,1,93.3333333333333,0|0,0:0|0:0,0:0:0:0:
60,119,35627,2,0,L|50:220,1,93.3333333333333,0|0,0:0|0:0,0:0:0:0:
131,126,36115,2,0,P|173:106|225:117,1,93.3333333333333,0|0,0:0|0:0,0:0:0:0:
335,189,36603,5,0,0:0:0:0:
353,256,36765,1,0,0:0:0:0:
285,238,36928,1,0,0:0:0:0:
335,189,37091,2,0,L|436:179,1,93.3333333333333,0|0,0:0|0:0,0:0:0:0:
440,92,37578,2,0,P|420:134|431:186,1,93.3333333333333,0|0,0:0|0:0,0:0:0:0:
485,242,38066,2,0,P|491:287|472:328,1,93.3333333333333,0|0,0:0|0:0,0:0:0:0:
335,352,38554,5,0,0:0:0:0:
283,302,38717,1,0,0:0:0:0:
300,233,38879,1,0,0:0:0:0:
248,183,39042,2,0,P|202:176|161:195,1,93.3333333333333,0|0,0:0|0:0,0:0:0:0:
317,162,39530,2,0,L|307:61,1,93.3333333333333,0|0,0:0|0:0,0:0:0:0:
396,22,40017,2,0,L|386:123,1,93.3333333333333,0|0,0:0|0:0,0:0:0:0:
293,279,40505,5,0,0:0:0:0:
226,213,40668,1,0,0:0:0:0:
315,187,40830,1,0,0:0:0:0:
276,293,40993,5,0,0:0:0:0:
181,294,41156,1,0,0:0:0:0:
226,213,41318,1,0,0:0:0:0:
274,318,41481,5,0,0:0:0:0:
181,294,41643,1,0,0:0:0:0:
132,211,41806,1,0,0:0:0:0:
179,61,41969,5,0,0:0:0:0:
131,144,42131,1,0,0:0:0:0:
38,170,42294,1,0,0:0:0:0:
48,35,42456,5,0,0:0:0:0:
110,60,42616,1,0,0:0:0:0:
54,103,42776,1,0,0:0:0:0:
166,17,42936,2,0,L|216:22,2,46.6666666666667,0|0|0,0:0|0:0|0:0,0:0:0:0:
190,123,43416,2,0,L|199:215,1,93.3333333333333,0|0,0:0|0:0,0:0:0:0:
288,161,43896,2,0,L|278:253,1,93.3333333333333,0|0,0:0|0:0,0:0:0:0:
313,362,44376,5,0,0:0:0:0:
380,380,44536,1,0,0:0:0:0:
362,312,44696,1,0,0:0:0:0:
313,362,44856,2,0,P|267:368|226:349,1,93.3333333333333,0|0,0:0|0:0,0:0:0:0:
112,228,45336,2,0,P|157:234|198:215,1,93.3333333333333,0|0,0:0|0:0,0:0:0:0:
278,68,45816,2,0,L|287:160,1,93.3333333333333,0|0,0:0|0:0,0:0:0:0:
349,261,46296,6,0,L|358:168,1,93.3333333333333,0|0,0:0|0:0,0:0:0:0:
370,45,46776,1,0,0:0:0:0:
437,27,46936,1,0,0:0:0:0:
419,95,47096,1,0,0:0:0:0:
267,79,47256,1,0,0:0:0:0:
211,119,47416,2,0,L|206:165,2,46.6666666666667,0|0|0,0:0|0:0|0:0,0:0:0:0:
288,187,47896,2,0,L|292:233,1,46.6666666666667,0|0,0:0|0:0,0:0:0:0:
199,53,48254,5,0,0:0:0:0:
109,20,48413,1,0,0:0:0:0:
124,112,48574,1,0,0:0:0:0:
306,131,48734,5,0,0:0:0:0:
265,44,48895,1,0,0:0:0:0:
211,119,49056,1,0,0:0:0:0:
326,261,49216,5,0,0:0:0:0:
359,171,49377,1,0,0:0:0:0:
267,186,49538,1,0,0:0:0:0:
247,367,49698,5,0,0:0:0:0:
334,327,49859,1,0,0:0:0:0:
259,272,50020,1,0,0:0:0:0:
397,315,50189,6,0,L|342:309,1,46.6666666666667,2|0,0:0|0:0,0:0:0:0:
258,296,50509,1,0,0:0:0:0:
370,242,50669,2,0,P|388:199|380:154,1,93.3333333333333,2|0,0:0|0:0,0:0:0:0:
313,45,51149,1,2,0:0:0:0:
313,45,51309,1,0,0:0:0:0:
402,83,51469,1,0,0:0:0:0:
313,190,51629,2,0,P|267:199|225:180,1,93.3333333333333,2|0,0:0|0:0,0:0:0:0:
76,106,52109,6,0,P|48:170|76:246,2,140,2|2|2,0:0|0:0|0:0,0:0:0:0:
138,175,53549,2,0,P|181:191|225:180,1,93.3333333333333,2|0,0:0|0:0,0:0:0:0:
309,80,54029,6,0,L|318:172,1,93.3333333333333,2|0,0:0|0:0,0:0:0:0:
405,260,54509,2,0,L|414:167,1,93.3333333333333,2|0,0:0|0:0,0:0:0:0:
379,44,54989,1,2,0:0:0:0:
312,26,55149,1,0,0:0:0:0:
330,94,55309,1,0,0:0:0:0:
458,108,55469,2,0,P|481:68|478:22,1,93.3333333333333,2|0,0:0|0:0,0:0:0:0:
405,176,55949,6,0,L|414:268,1,93.3333333333333,2|2,0:0|0:0,0:0:0:0:
375,384,56429,5,0,0:0:0:0:
307,363,56589,1,2,0:0:0:0:
359,314,56749,1,0,0:0:0:0:
342,196,56909,5,2,0:0:0:0:
282,156,57069,1,0,0:0:0:0:
277,228,57229,1,0,0:0:0:0:
214,103,57389,5,2,0:0:0:0:
143,117,57549,1,0,0:0:0:0:
190,171,57709,1,0,0:0:0:0:
57,127,57869,6,0,L|47:219,1,93.3333333333333,10|0,0:0|0:0,0:0:0:0:
0,66,58347,1,8,0:0:0:0:
84,45,58506,1,8,0:0:0:0:
157,90,58665,1,8,0:0:0:0:
178,174,58825,2,0,P|208:207|253:218,1,93.3333333333333,10|0,0:0|0:0,0:0:0:0:
371,110,59303,1,8,0:0:0:0:
337,19,59462,1,8,0:0:0:0:
275,93,59621,1,8,0:0:0:0:
431,161,59781,6,0,L|440:68,1,93.3333333333333,10|0,0:0|0:0,0:0:0:0:
488,222,60259,1,8,0:0:0:0:
404,243,60418,1,8,0:0:0:0:
331,198,60577,1,8,0:0:0:0:
310,114,60737,2,0,P|279:80|234:69,1,93.3333333333333,10|0,0:0|0:0,0:0:0:0:
117,178,61215,1,8,0:0:0:0:
151,269,61374,1,8,0:0:0:0:
213,195,61533,1,8,0:0:0:0:
55,252,61693,6,0,P|54:297|80:336,1,93.3333333333333,10|0,0:0|0:0,0:0:0:0:
117,178,62171,1,8,0:0:0:0:
100,90,62331,1,8,0:0:0:0:
83,2,62490,1,8,0:0:0:0:
167,31,62649,2,0,L|259:21,1,93.3333333333333,10|0,0:0|0:0,0:0:0:0:
402,70,63127,1,8,0:0:0:0:
352,153,63286,1,8,0:0:0:0:
304,70,63445,1,8,0:0:0:0:
391,203,63606,6,0,P|366:215|333:213,1,46.6666666666667,10|0,0:0|0:0,0:0:0:0:
438,292,63924,2,0,P|463:280|496:282,1,46.6666666666667,2|8,0:0|0:0,0:0:0:0:
381,384,64243,1,8,0:0:0:0:
265,336,64402,1,8,0:0:0:0:
247,211,64562,2,0,P|256:166|290:134,1,93.3333333333333,10|0,0:0|0:0,0:0:0:0:
485,119,65040,1,8,0:0:0:0:
511,239,65199,1,8,0:0:0:0:
391,203,65359,1,8,0:0:0:0:
220,27,65518,6,0,P|146:23|69:61,1,154.000004699707,10|10,0:0|0:0,0:0:0:0:
0,262,66158,1,8,0:0:0:0:
78,339,66318,1,8,0:0:0:0:
105,230,66478,2,0,P|123:182|166:154,1,102.666669799805,10|0,0:0|0:0,0:0:0:0:
358,192,66958,1,10,0:0:0:0:
355,301,67118,1,8,0:0:0:0:
259,352,67278,1,8,0:0:0:0:
358,192,67438,6,0,P|344:219|343:247,1,51.3333348999024,10|0,0:0|0:0,0:0:0:0:
259,352,67758,2,0,L|253:301,1,51.3333348999024,2|8,0:0|0:0,0:0:0:0:
195,130,68078,2,0,L|189:180,1,51.3333348999024,10|8,0:0|0:0,0:0:0:0:
124,355,68398,2,0,L|113:253,1,102.666669799805,10|0,0:0|0:0,0:0:0:0:
153,80,68878,1,10,0:0:0:0:
193,181,69038,1,8,0:0:0:0:
233,8,69198,1,8,0:0:0:0:
63,59,69358,6,0,P|46:131|70:213,1,154.000004699707,10|10,0:0|0:0,0:0:0:0:
231,297,69998,1,8,0:0:0:0:
219,186,70158,1,8,0:0:0:0:
129,252,70318,2,0,L|118:353,1,102.666669799805,10|0,0:0|0:0,0:0:0:0:
59,201,70798,1,10,0:0:0:0:
113,89,70958,1,8,0:0:0:0:
230,50,71118,1,8,0:0:0:0:
340,105,71278,6,0,L|345:155,1,51.3333348999024,10|0,0:0|0:0,0:0:0:0:
358,249,71598,1,8,0:0:0:0:
117,354,71758,2,0,L|122:303,1,51.3333348999024,10|8,0:0|0:0,0:0:0:0:
135,210,72078,1,8,0:0:0:0:
378,348,72238,1,10,0:0:0:0:
365,255,72398,1,8,0:0:0:0:
365,255,72478,1,4,0:0:0:0:
365,255,72558,1,8,0:0:0:0:
117,354,72718,1,4,0:0:0:0:
90,163,72878,1,8,0:0:0:0:
241,44,73038,1,4,0:0:0:0:
440,193,73198,6,0,P|412:235|365:254,1,102.666669799805,10|0,0:0|0:0,0:0:0:0:
189,188,73678,1,10,0:0:0:0:
220,80,73838,1,8,0:0:0:0:
297,161,73998,1,8,0:0:0:0:
133,314,74158,2,0,L|122:212,1,102.666669799805,10|0,0:0|0:0,0:0:0:0:
220,80,74638,1,10,0:0:0:0:
279,171,74798,1,8,0:0:0:0:
229,267,74958,1,8,0:0:0:0:
280,37,75118,6,0,L|285:87,1,51.3333348999024,10|0,0:0|0:0,0:0:0:0:
346,286,75438,2,0,L|351:235,1,51.3333348999024,2|8,0:0|0:0,0:0:0:0:
404,37,75758,2,0,L|409:87,1,51.3333348999024,10|8,0:0|0:0,0:0:0:0:
470,288,76078,2,0,L|481:186,1,102.666669799805,10|0,0:0|0:0,0:0:0:0:
404,37,76558,1,10,0:0:0:0:
331,122,76718,1,8,0:0:0:0:
441,140,76878,1,8,0:0:0:0:
243,8,77038,6,0,P|189:12|152:43,1,102.666669799805,10|0,0:0|0:0,0:0:0:0:
116,229,77518,1,10,0:0:0:0:
189,144,77678,1,8,0:0:0:0:
79,126,77838,1,8,0:0:0:0:
226,247,77998,2,0,P|280:243|317:212,1,102.666669799805,10|0,0:0|0:0,0:0:0:0:
353,26,78478,1,10,0:0:0:0:
247,165,78638,1,8,0:0:0:0:
314,326,78798,1,8,0:0:0:0:
291,63,78958,5,10,0:0:0:0:
226,247,79118,1,4,0:0:0:0:
226,247,79198,1,4,0:0:0:0:
226,247,79278,1,6,0:0:0:0:
417,211,79438,1,10,0:0:0:0:
415,86,79598,1,4,0:0:0:0:
325,1,79758,1,4,0:0:0:0:
226,247,79918,2,0,P|199:254|168:249,1,51.3333348999024,10|4,0:0|0:0,0:0:0:0:
86,228,80238,1,4,0:0:0:0:
291,63,80398,1,10,0:0:0:0:
226,247,80558,1,8,0:0:0:0:
99,98,80718,1,8,0:0:0:0:
429,212,80878,6,0,B|460:273|406:337|326:332|296:269|307:225|307:225|318:181|284:146|237:145|199:175|195:221|231:252,1,461.999985900879,2|0,0:0|0:0,0:0:0:0:
371,241,82798,5,10,0:0:0:0:
342,46,82958,1,4,0:0:0:0:
342,46,83038,1,4,0:0:0:0:
342,46,83118,1,4,0:0:0:0:
226,247,83278,1,10,0:0:0:0:
371,241,83438,1,4,0:0:0:0:
293,118,83598,1,4,0:0:0:0:
180,353,83758,2,0,L|130:348,1,51.3333348999024,10|4,0:0|0:0,0:0:0:0:
37,336,84078,1,4,0:0:0:0:
279,302,84238,2,0,L|329:297,1,51.3333348999024,10|4,0:0|0:0,0:0:0:0:
422,285,84558,1,4,0:0:0:0:
180,353,84718,5,10,0:0:0:0:
119,187,84878,1,8,0:0:0:0:
231,51,85038,1,8,0:0:0:0:
180,353,85198,1,8,0:0:0:0:
391,181,85678,5,10,0:0:0:0:
322,38,85838,1,8,0:0:0:0:
232,169,85998,1,8,0:0:0:0:
481,50,86158,1,8,0:0:0:0:
206,17,86638,5,10,0:0:0:0:
174,159,86798,1,8,0:0:0:0:
251,282,86958,1,10,0:0:0:0:
300,68,87118,1,8,0:0:0:0:
90,132,87278,1,10,0:0:0:0:
311,291,87438,1,8,0:0:0:0:
338,20,87598,5,10,0:0:0:0:
38,153,88078,1,4,0:0:0:0:
459,216,88558,6,0,L|470:318,1,102.666669799805,2|0,0:0|0:0,0:0:0:0:
369,190,89038,1,10,0:0:0:0:
353,82,89198,1,4,0:0:0:0:
439,16,89358,1,4,0:0:0:0:
369,190,89518,2,0,L|319:185,1,51.3333348999024,2|4,0:0|0:0,0:0:0:0:
226,173,89838,1,4,0:0:0:0:
327,335,89998,2,0,L|377:330,1,51.3333348999024,10|4,0:0|0:0,0:0:0:0:
470,318,90318,1,4,0:0:0:0:
253,89,90478,6,0,P|179:97|140:161,1,154.000004699707,6|10,0:0|0:0,0:0:0:0:
227,173,91118,1,4,0:0:0:0:
227,173,91198,1,4,0:0:0:0:
227,173,91278,1,4,0:0:0:0:
72,52,91438,2,0,L|67:102,1,51.3333348999024,10|4,0:0|0:0,0:0:0:0:
55,195,91758,1,4,0:0:0:0:
323,263,91918,1,10,0:0:0:0:
339,155,92078,1,4,0:0:0:0:
253,89,92238,1,4,0:0:0:0:
302,345,92398,6,0,P|356:341|393:310,1,102.666669799805,2|0,0:0|0:0,0:0:0:0:
339,155,92878,1,10,0:0:0:0:
233,186,93038,1,4,0:0:0:0:
209,292,93198,1,4,0:0:0:0:
430,242,93358,2,0,L|425:192,1,51.3333348999024,10|4,0:0|0:0,0:0:0:0:
413,99,93678,1,4,0:0:0:0:
129,218,93838,2,0,L|124:268,1,51.3333348999024,10|4,0:0|0:0,0:0:0:0:
126,298,94078,1,4,0:0:0:0:
126,298,94158,1,4,0:0:0:0:
323,263,94318,6,0,P|295:253|265:254,1,51.3333348999024,6|0,0:0|0:0,0:0:0:0:
126,298,94638,2,0,P|154:308|184:307,1,51.3333348999024,2|8,0:0|0:0,0:0:0:0:
178,110,94958,2,0,P|150:100|120:101,1,51.3333348999024,6|4,0:0|0:0,0:0:0:0:
315,365,95278,2,0,L|326:263,1,102.666669799805,6|0,0:0|0:0,0:0:0:0:
348,78,95758,1,10,0:0:0:0:
281,164,95918,1,4,0:0:0:0:
326,262,96078,1,4,0:0:0:0:
407,17,96238,6,0,P|358:-6|310:1,1,102.666669799805,6|0,0:0|0:0,0:0:0:0:
280,163,96718,2,0,P|325:188|375:183,1,102.666669799805,10|0,0:0|0:0,0:0:0:0:
189,76,97198,2,0,L|194:126,1,51.3333348999024,10|4,0:0|0:0,0:0:0:0:
206,219,97518,1,4,0:0:0:0:
1,357,97678,2,0,L|6:307,1,51.3333348999024,10|4,0:0|0:0,0:0:0:0:
18,214,97998,1,4,0:0:0:0:
281,373,98158,5,10,0:0:0:0:
413,227,98318,1,4,0:0:0:0:
403,31,98478,1,4,0:0:0:0:
483,253,98638,1,10,0:0:0:0:
337,121,98798,1,4,0:0:0:0:
141,131,98958,1,4,0:0:0:0:
281,373,99118,1,10,0:0:0:0:
39,123,100078,6,0,P|32:155|36:184,1,55.9999982910157,2|0,0:0|0:0,0:0:0:0:
156,355,100398,2,0,P|163:323|159:294,1,55.9999982910157,2|8,0:0|0:0,0:0:0:0:
294,126,100718,2,0,P|287:158|291:187,1,55.9999982910157,2|0,0:0|0:0,0:0:0:0:
411,358,101038,2,0,L|423:245,1,111.999996582031,2|0,0:0|0:0,0:0:0:0:
402,19,101518,1,8,0:0:0:0:
402,19,101678,1,10,0:0:0:0:
230,186,101838,1,10,0:0:0:0:
5,103,101998,6,0,L|0:48,1,55.9999982910157,2|0,0:0|0:0,0:0:0:0:
104,251,102318,2,0,L|98:306,1,55.9999982910157,2|8,0:0|0:0,0:0:0:0:
199,70,102638,2,0,P|228:56|258:54,1,55.9999982910157,2|0,0:0|0:0,0:0:0:0:
484,206,102958,2,0,P|439:235|372:217,1,111.999996582031,2|0,0:0|0:0,0:0:0:0:
199,70,103438,1,8,0:0:0:0:
421,150,103598,1,8,0:0:0:0:
239,302,103758,1,8,0:0:0:0:
332,46,103918,6,0,P|358:26|386:17,1,55.9999982910157,2|0,0:0|0:0,0:0:0:0:
356,286,104238,2,0,P|329:305|301:314,1,55.9999982910157,2|8,0:0|0:0,0:0:0:0:
58,313,104558,2,0,L|52:258,1,55.9999982910157,2|0,0:0|0:0,0:0:0:0:
175,36,104878,2,0,L|162:148,1,111.999996582031,2|0,0:0|0:0,0:0:0:0:
231,351,105358,1,8,0:0:0:0:
353,380,105518,1,8,0:0:0:0:
439,288,105678,1,10,0:0:0:0:
381,85,105838,6,0,P|351:71|321:69,1,55.9999982910157,2|4,0:0|0:0,0:0:0:0:
240,88,106158,1,4,0:0:0:0:
90,354,106318,2,0,P|119:367|149:369,1,55.9999982910157,2|4,0:0|0:0,0:0:0:0:
231,351,106638,1,4,0:0:0:0:
99,30,106798,5,10,0:0:0:0:
59,173,106958,1,4,0:0:0:0:
135,301,107118,1,4,0:0:0:0:
333,185,107278,5,10,0:0:0:0:
199,120,107438,1,4,0:0:0:0:
59,173,107598,1,4,0:0:0:0:
231,351,107758,6,0,L|236:296,1,55.9999982910157,2|0,0:0|0:0,0:0:0:0:
328,68,108078,2,0,L|333:123,1,55.9999982910157,2|8,0:0|0:0,0:0:0:0:
358,342,108398,2,0,L|352:287,1,55.9999982910157,2|0,0:0|0:0,0:0:0:0:
172,72,108718,2,0,P|204:114|273:120,1,111.999996582031,2|0,0:0|0:0,0:0:0:0:
467,44,109198,1,8,0:0:0:0:
467,44,109358,1,10,0:0:0:0:
276,189,109518,1,10,0:0:0:0:
54,96,109678,6,0,P|84:84|113:84,1,55.9999982910157,2|0,0:0|0:0,0:0:0:0:
329,176,109998,2,0,P|298:187|269:187,1,55.9999982910157,2|8,0:0|0:0,0:0:0:0:
73,304,110318,2,0,P|103:292|132:292,1,55.9999982910157,2|0,0:0|0:0,0:0:0:0:
347,383,110638,2,0,L|359:270,1,111.999996582031,2|0,0:0|0:0,0:0:0:0:
336,37,111118,1,8,0:0:0:0:
212,13,111278,1,8,0:0:0:0:
107,83,111438,1,8,0:0:0:0:
219,331,111598,6,0,L|223:265,1,55.9999982910157,2|0,0:0|0:0,0:0:0:0:
336,37,111918,2,0,L|340:103,1,55.9999982910157,2|8,0:0|0:0,0:0:0:0:
219,331,112238,2,0,P|186:336|157:331,1,55.9999982910157,2|0,0:0|0:0,0:0:0:0:
53,49,112558,2,0,L|165:61,1,111.999996582031,2|0,0:0|0:0,0:0:0:0:
223,276,113038,1,8,0:0:0:0:
223,276,113198,1,8,0:0:0:0:
238,36,113358,1,10,0:0:0:0:
23,143,113518,6,0,P|15:196|60:249,1,111.999996582031,2|2,0:0|0:0,0:0:0:0:
245,166,113998,2,0,L|179:170,1,55.9999982910157,8|2,0:0|0:0,0:0:0:0:
99,176,114318,1,0,0:0:0:0:
288,274,114478,1,10,0:0:0:0:
279,57,114638,1,4,0:0:0:0:
279,57,114718,1,4,0:0:0:0:
279,57,114798,1,2,0:0:0:0:
164,278,114958,1,8,0:0:0:0:
347,162,115118,1,10,0:0:0:0:
154,65,115278,1,10,0:0:0:0:
236,384,115438,6,0,L|240:318,1,55.9999982910157,10|4,0:0|0:0,0:0:0:0:
246,238,115758,1,4,0:0:0:0:
482,69,115918,2,0,L|486:135,1,55.9999982910157,10|4,0:0|0:0,0:0:0:0:
492,215,116238,1,4,0:0:0:0:
164,277,116398,5,10,0:0:0:0:
227,134,116558,1,4,0:0:0:0:
372,78,116718,1,4,0:0:0:0:
301,353,116878,5,10,0:0:0:0:
164,277,117038,1,4,0:0:0:0:
120,128,117198,1,4,0:0:0:0:
382,162,117358,5,10,0:0:0:0:
236,218,117518,1,4,0:0:0:0:
260,64,117678,1,4,0:0:0:0:
391,243,117838,5,10,0:0:0:0:
236,218,117998,1,4,0:0:0:0:
334,97,118158,1,4,0:0:0:0:
358,318,118318,5,10,0:0:0:0:
389,168,118478,1,4,0:0:0:0:
389,168,118558,1,4,0:0:0:0:
389,168,118638,1,4,0:0:0:0:
502,354,118798,5,10,0:0:0:0:
299,366,118958,1,4,0:0:0:0:
147,233,119118,1,4,0:0:0:0:
382,162,119278,5,8,0:0:0:0:
365,324,119438,1,4,0:0:0:0:
365,324,119518,1,4,0:0:0:0:
365,324,119598,1,4,0:0:0:0:
282,114,119758,5,4,0:0:0:0:
434,249,119918,1,4,0:0:0:0:
241,313,120078,1,4,0:0:0:0:
401,124,120238,5,8,0:0:0:0:
376,348,120398,1,4,0:0:0:0:
376,348,120478,1,4,0:0:0:0:
376,348,120558,1,4,0:0:0:0:
271,90,120718,5,4,0:0:0:0:
460,251,120878,1,4,0:0:0:0:
225,334,121038,1,4,0:0:0:0:
271,90,121198,5,8,0:0:0:0:
230,71,121278,1,4,0:0:0:0:
186,82,121358,1,4,0:0:0:0:
144,98,121438,1,4,0:0:0:0:
105,74,121518,1,4,0:0:0:0:
99,29,121598,1,4,0:0:0:0:
132,48,121678,5,8,0:0:0:0:
148,92,121758,1,4,0:0:0:0:
145,139,121838,1,4,0:0:0:0:
133,185,121918,1,4,0:0:0:0:
140,232,121998,1,4,0:0:0:0:
173,265,122078,1,4,0:0:0:0:
219,273,122158,6,0,P|271:262|305:201,1,111.999996582031,2|0,0:0|0:0,0:0:0:0:
370,136,122638,2,0,L|378:261,1,111.999996582031,2|0,0:0|0:0,0:0:0:0:
65,325,123118,6,0,L|71:217,1,102.666669799805,2|0,0:0|0:0,0:0:0:0:
84,31,123598,1,10,0:0:0:0:
161,112,123758,1,4,0:0:0:0:
53,139,123918,1,4,0:0:0:0:
192,4,124078,2,0,P|237:25|263:68,1,102.666669799805,2|0,0:0|0:0,0:0:0:0:
230,257,124558,1,10,0:0:0:0:
131,202,124718,1,4,0:0:0:0:
99,94,124878,1,4,0:0:0:0:
304,251,125038,6,0,P|300:281|286:305,1,51.3333348999024,2|0,0:0|0:0,0:0:0:0:
133,316,125358,2,0,P|136:285|150:261,1,51.3333348999024,2|8,0:0|0:0,0:0:0:0:
378,245,125678,2,0,P|374:275|360:299,1,51.3333348999024,6|4,0:0|0:0,0:0:0:0:
59,322,125998,2,0,L|54:215,1,102.666669799805,2|0,0:0|0:0,0:0:0:0:
196,99,126478,1,8,0:0:0:0:
156,200,126638,1,8,0:0:0:0:
116,27,126798,1,8,0:0:0:0:
285,78,126958,6,0,P|325:139|331:225,1,154.000004699707,2|10,0:0|0:0,0:0:0:0:
291,322,127598,1,4,0:0:0:0:
221,233,127758,1,4,0:0:0:0:
402,189,127918,2,0,L|407:82,1,102.666669799805,2|0,0:0|0:0,0:0:0:0:
228,6,128398,1,8,0:0:0:0:
176,119,128558,1,4,0:0:0:0:
221,233,128718,1,4,0:0:0:0:
104,17,128878,5,10,0:0:0:0:
247,87,129038,1,0,0:0:0:0:
247,87,129118,1,0,0:0:0:0:
247,87,129198,1,4,0:0:0:0:
72,172,129358,2,0,L|76:274,1,102.666669799805,10|0,0:0|0:0,0:0:0:0:
264,330,129838,1,10,0:0:0:0:
150,285,129998,1,4,0:0:0:0:
38,338,130158,1,4,0:0:0:0:
245,208,130318,2,0,L|251:100,1,102.666669799805,10|0,0:0|0:0,0:0:0:0:
477,292,130798,6,0,P|436:320|386:321,1,102.666669799805,2|0,0:0|0:0,0:0:0:0:
245,208,131278,1,10,0:0:0:0:
353,181,131438,1,4,0:0:0:0:
322,289,131598,1,4,0:0:0:0:
142,214,131758,2,0,L|136:106,1,102.666669799805,2|0,0:0|0:0,0:0:0:0:
304,9,132238,1,10,0:0:0:0:
315,120,132398,1,4,0:0:0:0:
245,208,132558,1,4,0:0:0:0:
78,89,132718,6,0,L|81:35,1,51.3333348999024,2|0,0:0|0:0,0:0:0:0:
205,96,133038,2,0,L|208:150,1,51.3333348999024,2|8,0:0|0:0,0:0:0:0:
10,113,133358,2,0,L|13:59,1,51.3333348999024,2|0,0:0|0:0,0:0:0:0:
273,120,133678,2,0,L|278:222,1,102.666669799805,2|0,0:0|0:0,0:0:0:0:
147,355,134158,1,8,0:0:0:0:
70,274,134318,1,8,0:0:0:0:
178,247,134478,1,8,0:0:0:0:
309,379,134638,6,0,P|358:378|399:349,1,102.666669799805,2|0,0:0|0:0,0:0:0:0:
354,159,135118,1,10,0:0:0:0:
323,267,135278,1,4,0:0:0:0:
431,240,135438,1,4,0:0:0:0:
246,186,135598,2,0,P|241:135|265:91,1,102.666669799805,2|0,0:0|0:0,0:0:0:0:
436,5,136078,1,10,0:0:0:0:
354,159,136238,1,4,0:0:0:0:
179,168,136398,1,4,0:0:0:0:
423,100,136558,5,10,0:0:0:0:
423,100,136638,1,4,0:0:0:0:
423,100,136718,1,4,0:0:0:0:
509,169,136878,2,0,P|510:199|501:225,1,51.3333348999024,6|8,0:0|0:0,0:0:0:0:
430,319,137198,1,4,0:0:0:0:
307,337,137358,1,4,0:0:0:0:
221,117,137518,2,0,P|248:114|278:125,1,51.3333348999024,10|4,0:0|0:0,0:0:0:0:
354,159,137838,1,4,0:0:0:0:
141,297,137998,1,10,0:0:0:0:
28,136,138158,1,8,0:0:0:0:
221,117,138318,1,8,0:0:0:0:
47,319,138478,6,0,B|36:228|96:191|172:177|220:242|220:242|259:283|311:279|362:255|367:187,1,461.999985900879,2|0,0:0|0:0,0:0:0:0:
283,186,140398,5,10,0:0:0:0:
341,337,140558,1,4,0:0:0:0:
341,337,140638,1,4,0:0:0:0:
341,337,140718,1,4,0:0:0:0:
400,99,140878,1,10,0:0:0:0:
283,186,141038,1,4,0:0:0:0:
417,242,141198,1,4,0:0:0:0:
240,71,141358,2,0,L|190:76,1,51.3333348999024,10|4,0:0|0:0,0:0:0:0:
97,88,141678,1,4,0:0:0:0:
283,186,141838,2,0,L|333:181,1,51.3333348999024,10|4,0:0|0:0,0:0:0:0:
426,169,142158,1,4,0:0:0:0:
188,76,142318,5,10,0:0:0:0:
325,247,142478,1,8,0:0:0:0:
154,384,142638,1,8,0:0:0:0:
17,213,142798,1,8,0:0:0:0:
325,247,143278,5,10,0:0:0:0:
491,90,143438,1,8,0:0:0:0:
272,24,143598,1,8,0:0:0:0:
439,296,143758,1,8,0:0:0:0:
138,343,144238,5,10,0:0:0:0:
106,154,144398,1,8,0:0:0:0:
295,122,144558,1,10,0:0:0:0:
327,311,144718,1,8,0:0:0:0:
111,259,144878,1,10,0:0:0:0:
367,188,145038,1,8,0:0:0:0:
65,136,145198,5,10,0:0:0:0:
502,104,145678,1,4,0:0:0:0:
69,33,146158,6,0,L|65:135,1,102.666669799805,2|0,0:0|0:0,0:0:0:0:
134,309,146638,1,10,0:0:0:0:
150,201,146798,1,4,0:0:0:0:
64,135,146958,1,4,0:0:0:0:
134,309,147118,2,0,L|184:304,1,51.3333348999024,2|4,0:0|0:0,0:0:0:0:
277,292,147438,1,4,0:0:0:0:
307,110,147598,2,0,L|257:105,1,51.3333348999024,10|4,0:0|0:0,0:0:0:0:
164,93,147918,1,4,0:0:0:0:
385,150,148078,6,0,P|389:75|334:26,1,154.000004699707,6|10,0:0|0:0,0:0:0:0:
307,110,148718,1,4,0:0:0:0:
307,110,148798,1,4,0:0:0:0:
307,110,148878,1,4,0:0:0:0:
474,223,149038,2,0,L|479:173,1,51.3333348999024,10|4,0:0|0:0,0:0:0:0:
491,80,149358,1,4,0:0:0:0:
311,197,149518,1,10,0:0:0:0:
295,305,149678,1,4,0:0:0:0:
381,371,149838,1,4,0:0:0:0:
307,110,149998,6,0,P|257:132|233:174,1,102.666669799805,2|0,0:0|0:0,0:0:0:0:
295,305,150478,1,10,0:0:0:0:
396,264,150638,1,4,0:0:0:0:
410,157,150798,1,4,0:0:0:0:
157,223,150958,2,0,L|162:273,1,51.3333348999024,10|4,0:0|0:0,0:0:0:0:
174,366,151278,1,4,0:0:0:0:
311,197,151438,2,0,L|305:147,1,51.3333348999024,10|4,0:0|0:0,0:0:0:0:
296,117,151678,1,4,0:0:0:0:
296,117,151758,1,4,0:0:0:0:
92,187,151918,6,0,P|85:216|86:250,1,51.3333348999024,6|0,0:0|0:0,0:0:0:0:
376,233,152238,2,0,P|383:204|382:170,1,51.3333348999024,2|8,0:0|0:0,0:0:0:0:
140,27,152558,2,0,L|90:32,1,51.3333348999024,6|4,0:0|0:0,0:0:0:0:
248,310,152878,2,0,L|358:299,1,102.666669799805,6|0,0:0|0:0,0:0:0:0:
389,118,153358,1,10,0:0:0:0:
314,197,153518,1,4,0:0:0:0:
350,299,153678,1,4,0:0:0:0:
471,39,153838,6,0,P|428:5|379:4,1,102.666669799805,10|0,0:0|0:0,0:0:0:0:
420,223,154318,2,0,P|462:256|511:257,1,102.666669799805,10|0,0:0|0:0,0:0:0:0:
284,93,154798,2,0,P|257:102|234:128,1,51.3333348999024,10|4,0:0|0:0,0:0:0:0:
177,192,155118,1,4,0:0:0:0:
402,357,155278,2,0,P|428:347|451:321,1,51.3333348999024,10|4,0:0|0:0,0:0:0:0:
509,258,155598,1,4,0:0:0:0:
386,67,155758,5,10,0:0:0:0:
272,210,155918,1,4,0:0:0:0:
339,379,156078,1,4,0:0:0:0:
284,93,156238,1,10,0:0:0:0:
112,159,156398,1,4,0:0:0:0:
86,338,156558,1,4,0:0:0:0:
420,223,156718,1,10,0:0:0:0:
424,89,157678,6,0,P|431:121|427:150,1,55.9999982910157,2|0,0:0|0:0,0:0:0:0:
228,207,157998,2,0,P|221:239|225:268,1,55.9999982910157,2|8,0:0|0:0,0:0:0:0:
428,379,158318,2,0,P|435:347|431:318,1,55.9999982910157,2|0,0:0|0:0,0:0:0:0:
172,172,158638,2,0,L|159:59,1,111.999996582031,2|0,0:0|0:0,0:0:0:0:
33,235,159118,1,8,0:0:0:0:
33,235,159278,1,10,0:0:0:0:
259,313,159438,1,10,0:0:0:0:
428,143,159598,6,0,L|422:88,1,55.9999982910157,2|0,0:0|0:0,0:0:0:0:
259,313,159918,2,0,L|253:368,1,55.9999982910157,2|8,0:0|0:0,0:0:0:0:
84,135,160238,2,0,P|101:107|125:89,1,55.9999982910157,2|0,0:0|0:0,0:0:0:0:
344,241,160558,2,0,P|290:251|244:222,1,111.999996582031,2|0,0:0|0:0,0:0:0:0:
380,30,161038,1,8,0:0:0:0:
480,243,161198,1,8,0:0:0:0:
244,222,161358,1,8,0:0:0:0:
490,107,161518,6,0,P|497:139|493:168,1,55.9999982910157,2|0,0:0|0:0,0:0:0:0:
358,369,161838,2,0,P|351:337|355:308,1,55.9999982910157,2|8,0:0|0:0,0:0:0:0:
216,107,162158,2,0,P|223:139|219:168,1,55.9999982910157,2|0,0:0|0:0,0:0:0:0:
84,369,162478,2,0,L|71:256,1,111.999996582031,2|0,0:0|0:0,0:0:0:0:
124,34,162958,1,8,0:0:0:0:
246,5,163118,1,8,0:0:0:0:
332,97,163278,1,10,0:0:0:0:
286,302,163438,6,0,P|256:316|226:318,1,55.9999982910157,2|4,0:0|0:0,0:0:0:0:
145,299,163758,1,4,0:0:0:0:
332,97,163918,2,0,P|362:83|392:81,1,55.9999982910157,2|4,0:0|0:0,0:0:0:0:
473,100,164238,1,4,0:0:0:0:
296,368,164398,5,10,0:0:0:0:
256,225,164558,1,4,0:0:0:0:
332,97,164718,1,4,0:0:0:0:
286,302,164878,5,10,0:0:0:0:
156,229,165038,1,4,0:0:0:0:
119,84,165198,1,4,0:0:0:0:
373,30,165358,6,0,L|367:85,1,55.9999982910157,2|0,0:0|0:0,0:0:0:0:
226,280,165678,2,0,L|220:225,1,55.9999982910157,2|8,0:0|0:0,0:0:0:0:
196,6,165998,2,0,L|201:61,1,55.9999982910157,2|0,0:0|0:0,0:0:0:0:
344,278,166318,2,0,L|356:165,1,111.999996582031,2|0,0:0|0:0,0:0:0:0:
91,215,166798,1,8,0:0:0:0:
91,215,166958,1,10,0:0:0:0:
282,360,167118,1,10,0:0:0:0:
504,267,167278,6,0,P|505:234|496:206,1,55.9999982910157,2|0,0:0|0:0,0:0:0:0:
277,92,167598,2,0,P|275:124|284:152,1,55.9999982910157,2|8,0:0|0:0,0:0:0:0:
457,361,167918,2,0,P|458:328|449:300,1,55.9999982910157,2|0,0:0|0:0,0:0:0:0:
230,186,168238,2,0,L|242:298,1,111.999996582031,2|0,0:0|0:0,0:0:0:0:
403,98,168718,1,8,0:0:0:0:
298,28,168878,1,8,0:0:0:0:
174,52,169038,1,8,0:0:0:0:
337,347,169198,6,0,L|342:292,1,55.9999982910157,2|0,0:0|0:0,0:0:0:0:
174,52,169518,2,0,L|179:107,1,55.9999982910157,2|8,0:0|0:0,0:0:0:0:
337,347,169838,2,0,P|369:345|396:334,1,55.9999982910157,2|0,0:0|0:0,0:0:0:0:
468,40,170158,2,0,L|355:52,1,111.999996582031,2|0,0:0|0:0,0:0:0:0:
268,267,170638,1,8,0:0:0:0:
268,267,170798,1,8,0:0:0:0:
283,27,170958,1,10,0:0:0:0:
483,159,171118,6,0,P|491:212|446:265,1,111.999996582031,2|2,0:0|0:0,0:0:0:0:
261,182,171598,2,0,L|327:186,1,55.9999982910157,8|2,0:0|0:0,0:0:0:0:
407,192,171918,1,0,0:0:0:0:
264,357,172078,1,10,0:0:0:0:
192,150,172238,1,4,0:0:0:0:
192,150,172318,1,4,0:0:0:0:
192,150,172398,1,2,0:0:0:0:
382,315,172558,1,8,0:0:0:0:
168,274,172718,1,10,0:0:0:0:
311,108,172878,1,10,0:0:0:0:
264,357,173038,6,0,L|260:291,1,55.9999982910157,10|4,0:0|0:0,0:0:0:0:
254,211,173358,1,4,0:0:0:0:
509,96,173518,2,0,L|505:162,1,55.9999982910157,14|4,0:0|0:0,0:0:0:0:
499,242,173838,1,4,0:0:0:0:
192,150,173998,5,10,0:0:0:0:
264,357,174158,1,4,0:0:0:0:
264,357,174238,1,4,0:0:0:0:
264,357,174318,1,4,0:0:0:0:
338,140,174478,2,0,L|272:144,1,55.9999982910157,10|4,0:0|0:0,0:0:0:0:
192,150,174798,1,4,0:0:0:0:
388,303,174958,5,8,0:0:0:0:
447,228,175118,1,4,0:0:0:0:
352,214,175278,1,4,0:0:0:0:
342,68,175438,5,8,0:0:0:0:
247,54,175598,1,4,0:0:0:0:
282,143,175758,1,4,0:0:0:0:
499,51,175918,5,4,0:0:0:0:
7,132,176478,1,4,0:0:0:0:
295,340,177190,1,4,0:0:0:0:
62,98,180725,6,0,P|59:125|68:152,1,56,4|0,0:0|0:0,0:0:0:0:
177,194,180991,2,0,P|185:167|183:139,1,56,0|0,0:0|0:0,0:0:0:0:
279,43,181258,2,0,L|341:52,1,56,0|0,0:0|0:0,0:0:0:0:
438,106,181525,2,0,L|376:115,1,56,0|0,0:0|0:0,0:0:0:0:
279,169,181791,2,0,L|341:178,1,56,0|0,0:0|0:0,0:0:0:0:
426,268,182058,1,0,0:0:0:0:
366,327,182191,1,0,0:0:0:0:
344,246,182325,1,0,0:0:0:0:
447,349,182458,1,8,0:0:0:0:
285,305,182591,1,8,0:0:0:0:
403,185,182725,6,0,P|430:180|457:187,2,56,4|0|0,0:0|0:0|0:0,0:0:0:0:
285,305,183125,2,0,P|257:307|230:298,1,56,0|0,0:0|0:0,0:0:0:0:
161,203,183391,2,0,L|170:141,1,56,0|0,0:0|0:0,0:0:0:0:
283,116,183658,2,0,L|292:178,1,56,0|0,0:0|0:0,0:0:0:0:
199,33,183925,1,0,0:0:0:0:
199,33,184058,1,0,0:0:0:0:
283,116,184191,1,0,0:0:0:0:
283,116,184324,1,0,0:0:0:0:
169,147,184458,1,0,0:0:0:0:
85,134,184591,1,0,0:0:0:0:
1,282,184725,1,8,0:0:0:0:
168,281,184858,1,8,0:0:0:0:
85,134,184992,6,0,P|59:122|31:122,1,56,4|0,0:0|0:0,0:0:0:0:
155,216,185258,2,0,P|182:215|208:204,1,56,0|0,0:0|0:0,0:0:0:0:
278,74,185525,2,0,P|258:93|248:119,1,56,0|0,0:0|0:0,0:0:0:0:
348,201,185791,2,0,P|348:174|337:148,1,56,0|0,0:0|0:0,0:0:0:0:
208,204,186058,2,0,P|200:230|203:258,1,56,0|0,0:0|0:0,0:0:0:0:
298,357,186325,1,0,0:0:0:0:
340,285,186458,1,0,0:0:0:0:
348,202,186591,1,0,0:0:0:0:
417,249,186725,1,0,0:0:0:0:
340,285,186858,1,0,0:0:0:0:
271,237,186991,5,8,0:0:0:0:
464,180,187258,1,8,0:0:0:0:
464,180,187391,6,0,P|468:152|462:125,1,56,4|0,0:0|0:0,0:0:0:0:
365,30,187658,2,0,P|361:58|367:85,1,56,0|0,0:0|0:0,0:0:0:0:
272,182,187925,2,0,P|276:210|270:237,1,56,0|0,0:0|0:0,0:0:0:0:
133,280,188191,1,12,0:0:0:0:
137,238,188258,1,4,0:0:0:0:
127,196,188325,1,4,0:0:0:0:
104,160,188391,1,4,0:0:0:0:
96,118,188458,1,12,0:0:0:0:
114,80,188525,1,4,0:0:0:0:
151,62,188591,1,4,0:0:0:0:
192,69,188658,1,4,0:0:0:0:
222,98,188725,1,12,0:0:0:0:
263,103,188791,1,4,0:0:0:0:
303,90,188858,2,0,P|322:84|349:84,1,41.9999987182618,4|4,0:0|0:0,0:0:0:0:
437,106,188991,1,12,0:0:0:0:
437,106,189125,6,0,P|411:168|433:234,1,140,10|2,0:0|0:0,0:0:0:0:
503,349,189525,2,0,L|428:338,1,70,10|0,0:0|0:0,0:0:0:0:
261,269,189791,2,0,L|335:258,1,70,10|0,0:0|0:0,0:0:0:0:
175,373,190058,2,0,L|100:362,1,70,10|0,0:0|0:0,0:0:0:0:
42,186,190325,2,0,P|38:150|56:117,1,70,10|0,0:0|0:0,0:0:0:0:
236,117,190591,2,0,P|240:151|225:182,1,70,10|0,0:0|0:0,0:0:0:0:
7,45,190858,1,8,0:0:0:0:
143,15,190991,1,8,0:0:0:0:
236,117,191125,1,8,0:0:0:0:
150,275,191258,6,0,L|170:136,1,140,10|2,0:0|0:0,0:0:0:0:
284,336,191658,2,0,P|248:340|215:321,1,70,10|0,0:0|0:0,0:0:0:0:
390,261,191925,2,0,P|411:290|412:327,1,70,10|0,0:0|0:0,0:0:0:0:
272,206,192191,2,0,P|286:172|318:153,1,70,10|0,0:0|0:0,0:0:0:0:
413,322,192458,1,10,0:0:0:0:
218,325,192591,1,2,0:0:0:0:
314,154,192725,2,0,L|388:164,1,70,10|2,0:0|0:0,0:0:0:0:
386,383,192991,1,8,0:0:0:0:
284,290,193125,1,8,0:0:0:0:
314,154,193258,1,8,0:0:0:0:
489,290,193391,6,0,P|426:315|360:293,1,140,10|2,0:0|0:0,0:0:0:0:
411,111,193791,2,0,L|421:180,1,70,10|0,0:0|0:0,0:0:0:0:
264,86,194058,2,0,L|274:16,1,70,10|0,0:0|0:0,0:0:0:0:
117,112,194325,2,0,L|127:181,1,70,10|0,0:0|0:0,0:0:0:0:
189,370,194591,2,0,P|220:385|254:380,1,70,10|0,0:0|0:0,0:0:0:0:
383,228,194858,2,0,P|348:223|317:238,1,70,10|0,0:0|0:0,0:0:0:0:
475,371,195125,1,10,0:0:0:0:
512,236,195258,1,0,0:0:0:0:
415,138,195392,1,10,0:0:0:0:
168,231,195525,6,0,L|188:369,1,140,10|2,0:0|0:0,0:0:0:0:
215,149,195925,2,0,P|183:133|149:138,1,70,10|0,0:0|0:0,0:0:0:0:
317,238,196191,2,0,P|341:211|347:174,1,70,10|0,0:0|0:0,0:0:0:0:
54,223,196458,1,10,0:0:0:0:
156,354,196591,1,0,0:0:0:0:
237,143,196725,1,14,0:0:0:0:
198,137,196791,1,4,0:0:0:0:
159,142,196858,1,4,0:0:0:0:
123,157,196925,1,4,0:0:0:0:
85,152,196991,1,14,0:0:0:0:
54,127,197058,1,4,0:0:0:0:
42,90,197125,1,4,0:0:0:0:
49,53,197191,1,4,0:0:0:0:
76,25,197258,1,14,0:0:0:0:
237,143,197391,1,8,0:0:0:0:
54,223,197525,1,8,0:0:0:0:
190,37,197658,6,0,P|256:24|316:58,1,140,10|2,0:0|0:0,0:0:0:0:
257,281,198058,2,0,L|236:142,1,140,10|2,0:0|0:0,0:0:0:0:
403,72,198458,1,0,0:0:0:0:
321,292,198591,2,0,P|286:296|256:280,1,70,10|2,0:0|0:0,0:0:0:0:
171,106,198858,1,0,0:0:0:0:
299,223,198991,1,2,0:0:0:0:
143,374,199125,2,0,L|74:364,1,70,8|2,0:0|0:0,0:0:0:0:
15,141,199391,2,0,L|84:151,1,70,0|2,0:0|0:0,0:0:0:0:
0,347,199658,1,8,0:0:0:0:
65,66,199791,6,0,P|130:82|170:138,1,140,10|2,0:0|0:0,0:0:0:0:
38,287,200191,2,0,L|48:218,1,70,10|0,0:0|0:0,0:0:0:0:
286,195,200458,1,0,0:0:0:0:
187,311,200591,1,0,0:0:0:0:
38,287,200725,1,8,0:0:0:0:
299,110,200858,2,0,P|353:151|366:219,1,140,10|2,0:0|0:0,0:0:0:0:
187,311,201258,2,0,L|197:242,1,70,10|0,0:0|0:0,0:0:0:0:
448,264,201525,1,8,0:0:0:0:
330,361,201658,1,8,0:0:0:0:
187,311,201792,1,8,0:0:0:0:
388,80,201925,6,0,L|367:219,1,140,10|2,0:0|0:0,0:0:0:0:
134,364,202325,2,0,P|114:334|115:300,1,70,10|0,0:0|0:0,0:0:0:0:
35,258,202591,2,0,P|42:223|66:199,1,70,10|0,0:0|0:0,0:0:0:0:
40,113,202858,2,0,P|69:93|103:94,1,70,10|0,0:0|0:0,0:0:0:0:
332,133,203125,1,8,0:0:0:0:
184,311,203258,1,0,0:0:0:0:
103,94,203391,2,0,L|113:25,1,70,8|0,0:0|0:0,0:0:0:0:
332,133,203658,2,0,L|321:211,1,70,8|0,0:0|0:0,0:0:0:0:
303,330,203925,1,8,0:0:0:0:
69,198,204058,6,0,P|126:163|194:174,1,140,10|2,0:0|0:0,0:0:0:0:
419,311,204458,2,0,L|426:239,1,70,10|0,0:0|0:0,0:0:0:0:
480,163,204725,2,0,L|434:107,1,70,10|0,0:0|0:0,0:0:0:0:
418,15,204991,2,0,L|346:8,1,70,10|0,0:0|0:0,0:0:0:0:
138,49,205258,1,12,0:0:0:0:
108,74,205325,1,4,0:0:0:0:
99,111,205391,2,0,P|98:134|103:158,1,35,4|4,0:0|0:0,0:0:0:0:
197,253,205525,1,12,0:0:0:0:
198,291,205591,1,4,0:0:0:0:
187,328,205658,1,4,0:0:0:0:
165,360,205725,1,4,0:0:0:0:
133,381,205791,2,0,L|212:378,1,70,12|12,0:0|0:0,0:0:0:0:
332,372,206058,1,8,0:0:0:0:
94,281,206191,6,0,L|73:142,1,140,8|0,0:0|0:0,0:0:0:0:
257,21,206591,2,0,L|247:90,1,70,10|0,0:0|0:0,0:0:0:0:
212,312,206858,1,2,0:0:0:0:
147,172,206991,1,0,0:0:0:0:
300,187,207125,1,10,0:0:0:0:
94,281,207258,2,0,P|59:273|35:249,1,70,2|0,0:0|0:0,0:0:0:0:
300,187,207525,2,0,P|334:194|358:218,2,70,2|8|2,0:0|0:0|0:0,0:0:0:0:
94,281,207925,1,0,0:0:0:0:
210,374,208059,1,2,0:0:0:0:
354,323,208192,1,8,0:0:0:0:
315,98,208325,6,0,P|250:114|210:170,1,140,2|0,0:0|0:0,0:0:0:0:
354,323,208725,2,0,L|344:254,1,70,10|0,0:0|0:0,0:0:0:0:
148,174,208991,1,2,0:0:0:0:
213,313,209124,1,0,0:0:0:0:
300,187,209258,1,10,0:0:0:0:
94,281,209391,2,0,L|104:350,1,70,2|0,0:0|0:0,0:0:0:0:
339,181,209658,1,6,0:0:0:0:
300,187,209725,1,4,0:0:0:0:
269,211,209791,1,4,0:0:0:0:
230,218,209858,1,4,0:0:0:0:
193,203,209925,2,0,P|176:188|166:161,1,48.9999985046387,6|4,0:0|0:0,0:0:0:0:
166,61,210058,1,4,0:0:0:0:
175,23,210124,1,4,0:0:0:0:
208,0,210191,1,6,0:0:0:0:
247,3,210258,1,4,0:0:0:0:
274,32,210324,1,4,0:0:0:0:
273,76,210391,1,4,0:0:0:0:
292,115,210458,1,4,0:0:0:0:
330,137,210525,1,4,0:0:0:0:
373,136,210591,6,0,P|437:116|474:58,1,140,6|8,0:0|0:0,0:0:0:0:
381,40,210991,1,0,0:0:0:0:
230,218,211125,2,0,P|165:198|128:140,1,140,2|8,0:0|0:0,0:0:0:0:
222,122,211525,1,0,0:0:0:0:
425,286,211658,6,0,P|439:318|432:351,1,70,10|0,0:0|0:0,0:0:0:0:
440,214,211925,2,0,P|472:226|491:255,1,70,10|0,0:0|0:0,0:0:0:0:
399,152,212191,2,0,P|431:137|464:144,1,70,10|0,0:0|0:0,0:0:0:0:
326,137,212458,2,0,P|338:104|367:85,1,70,10|0,0:0|0:0,0:0:0:0:
342,233,212725,5,14,0:0:0:0:
342,233,212791,1,4,0:0:0:0:
342,233,212858,1,4,0:0:0:0:
238,322,212991,1,4,0:0:0:0:
212,187,213125,1,12,0:0:0:0:
212,187,213191,1,4,0:0:0:0:
212,187,213258,5,4,0:0:0:0:
315,307,213391,1,4,0:0:0:0:
185,261,213525,1,8,0:0:0:0:
151,281,213591,1,0,0:0:0:0:
126,311,213658,2,0,P|116:336|120:367,1,48.9999985046387
67,256,213791,5,8,0:0:0:0:
57,213,213858,1,0,0:0:0:0:
84,178,213924,1,0,0:0:0:0:
128,178,213991,1,0,0:0:0:0:
169,192,214058,1,0,0:0:0:0:
210,177,214124,1,0,0:0:0:0:
227,136,214191,5,8,0:0:0:0:
271,139,214258,1,0,0:0:0:0:
298,174,214324,1,0,0:0:0:0:
292,217,214391,1,0,0:0:0:0:
257,244,214458,1,0,0:0:0:0:
219,268,214525,1,0,0:0:0:0:
206,309,214591,1,8,0:0:0:0:
216,352,214658,1,0,0:0:0:0:
248,382,214725,2,0,P|277:386|308:377,1,48.9999985046387
450,359,214859,5,8,0:0:0:0:
476,309,214925,1,0,0:0:0:0:
475,254,214992,1,0,0:0:0:0:
443,207,215059,1,0,0:0:0:0:
392,187,215125,1,8,0:0:0:0:
442,163,215191,1,0,0:0:0:0:
469,114,215258,1,0,0:0:0:0:
464,59,215324,1,0,0:0:0:0:
426,17,215391,1,8,0:0:0:0:
372,5,215458,1,0,0:0:0:0:
321,28,215524,1,0,0:0:0:0:
290,74,215591,1,0,0:0:0:0:
241,102,215658,2,0,P|205:102|171:83,1,70,8|0,0:0|0:0,0:0:0:0:
33,24,215925,6,0,P|50:54|51:93,1,70,8|0,0:0|0:0,0:0:0:0:
29,139,216125,1,0,0:0:0:0:
0,187,216191,1,8,0:0:0:0:
10,242,216258,1,0,0:0:0:0:
53,278,216325,1,0,0:0:0:0:
109,278,216391,1,0,0:0:0:0:
152,242,216458,2,0,P|178:235|207:236,1,48.9999985046387,8|0,0:0|0:0,0:0:0:0:
373,340,216591,2,0,P|431:308|440:227,1,140,0|0,0:0|0:0,0:0:0:0:
302,213,216991,5,8,0:0:0:0:
254,199,217058,1,0,0:0:0:0:
227,159,217124,1,0,0:0:0:0:
230,110,217191,1,0,0:0:0:0:
265,75,217258,1,8,0:0:0:0:
314,71,217324,1,0,0:0:0:0:
354,99,217391,1,0,0:0:0:0:
402,107,217458,1,0,0:0:0:0:
444,84,217524,1,8,0:0:0:0:
466,40,217591,1,0,0:0:0:0:
431,5,217658,1,0,0:0:0:0:
387,27,217724,1,0,0:0:0:0:
395,76,217791,2,0,P|416:103|452:118,1,70,8|0,0:0|0:0,0:0:0:0:
234,267,218058,5,8,0:0:0:0:
229,316,218125,1,0,0:0:0:0:
200,355,218191,1,0,0:0:0:0:
154,372,218258,1,0,0:0:0:0:
106,361,218325,1,8,0:0:0:0:
134,324,218391,1,0,0:0:0:0:
181,308,218457,1,0,0:0:0:0:
228,320,218524,1,0,0:0:0:0:
261,356,218591,2,0,P|327:361|379:298,1,140,8|8,0:0|0:0,0:0:0:0:
284,235,218991,1,0,0:0:0:0:
284,235,219058,1,0,0:0:0:0:
284,235,219125,5,8,0:0:0:0:
300,280,219191,1,0,0:0:0:0:
328,320,219258,1,0,0:0:0:0:
375,332,219325,1,0,0:0:0:0:
419,312,219391,1,8,0:0:0:0:
440,267,219458,1,0,0:0:0:0:
427,220,219525,1,0,0:0:0:0:
387,192,219591,1,0,0:0:0:0:
338,196,219658,5,8,0:0:0:0:
298,225,219725,1,0,0:0:0:0:
249,223,219791,1,0,0:0:0:0:
216,185,219858,1,0,0:0:0:0:
200,138,219925,1,8,0:0:0:0:
160,109,219992,1,0,0:0:0:0:
111,111,220058,1,0,0:0:0:0:
78,149,220125,1,0,0:0:0:0:
62,196,220191,6,0,L|67:230,1,35,12|0,0:0|0:0,0:0:0:0:
228,38,220325,2,0,L|233:3,1,35,4|0,0:0|0:0,0:0:0:0:
380,259,220458,1,8,0:0:0:0:
387,210,220524,1,0,0:0:0:0:
394,162,220591,1,0,0:0:0:0:
401,113,220658,1,0,0:0:0:0:
408,65,220725,5,8,0:0:0:0:
359,64,220791,1,0,0:0:0:0:
324,99,220858,1,0,0:0:0:0:
325,148,220925,1,0,0:0:0:0:
358,183,220991,1,8,0:0:0:0:
406,191,221058,1,0,0:0:0:0:
447,218,221125,1,0,0:0:0:0:
465,262,221191,1,0,0:0:0:0:
461,311,221258,6,0,P|447:342|416:366,1,70,8|0,0:0|0:0,0:0:0:0:
325,148,221525,2,0,P|338:116|369:92,1,70,8|0,0:0|0:0,0:0:0:0:
350,340,221791,2,0,P|317:352|279:348,1,70,8|0,3:0|3:0,0:0:0:0:
436,119,222058,2,0,P|468:106|506:110,1,70,8|0,3:0|3:0,0:0:0:0:
347,231,222325,5,8,0:0:0:0:
298,227,222391,1,0,0:0:0:0:
258,198,222458,1,0,0:0:0:0:
241,152,222525,1,0,0:0:0:0:
252,104,222591,1,8,0:0:0:0:
283,141,222658,1,0,0:0:0:0:
291,190,222725,1,0,0:0:0:0:
271,234,222792,1,0,0:0:0:0:
229,260,222858,2,0,P|194:260|159:243,1,70,8|8,0:0|0:0,0:0:0:0:
110,36,223125,2,0,P|141:21|176:22,1,70,8|8,0:0|0:0,0:0:0:0:
342,169,223391,5,8,0:0:0:0:
365,212,223458,1,0,0:0:0:0:
371,260,223525,1,0,0:0:0:0:
359,307,223591,1,0,0:0:0:0:
317,333,223658,1,8,0:0:0:0:
318,283,223725,1,0,0:0:0:0:
336,239,223792,1,0,0:0:0:0:
370,204,223858,1,0,0:0:0:0:
412,179,223925,2,0,P|426:147|425:112,1,70,8|0,0:0|0:0,0:0:0:0:
248,313,224191,2,0,P|247:347|261:379,1,70,8|0,0:0|0:0,0:0:0:0:
412,179,224458,5,8,0:0:0:0:
383,139,224525,1,0,0:0:0:0:
338,119,224591,1,0,0:0:0:0:
289,125,224658,1,0,0:0:0:0:
247,151,224725,1,8,0:0:0:0:
198,153,224791,1,0,0:0:0:0:
156,126,224858,1,0,0:0:0:0:
136,80,224925,1,0,0:0:0:0:
143,32,224991,5,8,0:0:0:0:
174,69,225058,1,0,0:0:0:0:
187,116,225125,1,0,0:0:0:0:
182,164,225191,1,0,0:0:0:0:
170,211,225258,1,8,0:0:0:0:
177,259,225325,1,0,0:0:0:0:
210,294,225391,1,0,0:0:0:0:
257,306,225458,1,0,0:0:0:0:
303,289,225525,5,8,0:0:0:0:
304,264,225591,1,0,0:0:0:0:
306,239,225658,2,0,L|257:232,1,48.9999985046387,0|0,0:0|0:0,0:0:0:0:
402,189,225791,1,8,0:0:0:0:
401,164,225858,1,0,0:0:0:0:
399,139,225925,2,0,L|447:132,1,48.9999985046387,0|0,0:0|0:0,0:0:0:0:
303,89,226058,5,8,0:0:0:0:
263,74,226125,1,0,0:0:0:0:
221,76,226191,1,0,0:0:0:0:
183,94,226258,1,0,0:0:0:0:
158,128,226325,1,8,0:0:0:0:
118,143,226392,1,0,0:0:0:0:
76,141,226458,1,0,0:0:0:0:
38,123,226525,1,0,0:0:0:0:
13,89,226591,5,8,0:0:0:0:
190,21,226725,1,8,0:0:0:0:
254,200,226858,1,8,0:0:0:0:
76,266,226991,1,8,0:0:0:0:
303,89,227125,1,8,0:0:0:0:
348,100,227192,1,0,0:0:0:0:
382,136,227258,1,0,0:0:0:0:
389,185,227325,1,0,0:0:0:0:
370,230,227391,2,0,L|301:240,1,70,8|0,0:0|0:0,0:0:0:0:
484,363,227658,5,8,0:0:0:0:
509,175,227791,1,0,0:0:0:0:
414,373,227925,2,0,L|483:363,1,70,8|0,0:0|0:0,0:0:0:0:
300,240,228191,2,0,P|276:287|291:352,1,105,8|0,0:0|0:0,0:0:0:0:
283,337,228458,2,0,L|214:327,1,70,8|0,0:0|0:0,0:0:0:0:
63,149,228725,5,8,0:0:0:0:
49,101,228791,1,0,0:0:0:0:
66,55,228858,1,0,0:0:0:0:
106,28,228925,1,0,0:0:0:0:
155,30,228991,1,8,0:0:0:0:
194,60,229058,1,0,0:0:0:0:
233,90,229125,1,0,0:0:0:0:
282,92,229191,1,0,0:0:0:0:
322,65,229258,2,0,P|353:50|388:51,1,70,8|0,0:0|0:0,0:0:0:0:
300,240,229525,2,0,P|274:216|262:183,1,70,8|0,0:0|0:0,0:0:0:0:
497,179,229791,5,8,0:0:0:0:
501,228,229858,1,0,0:0:0:0:
475,270,229925,1,0,0:0:0:0:
432,293,229991,1,0,0:0:0:0:
383,286,230058,1,8,0:0:0:0:
348,250,230125,1,0,0:0:0:0:
300,240,230191,1,0,0:0:0:0:
255,261,230258,1,0,0:0:0:0:
242,308,230325,5,8,0:0:0:0:
82,243,230458,1,0,0:0:0:0:
147,81,230591,1,8,0:0:0:0:
308,148,230725,1,0,0:0:0:0:
308,148,230792,1,0,0:0:0:0:
308,148,230858,5,8,0:0:0:0:
327,201,230924,1,0,0:0:0:0:
312,260,230991,1,0,0:0:0:0:
266,296,231058,1,0,0:0:0:0:
206,299,231124,1,8,0:0:0:0:
157,266,231191,1,0,0:0:0:0:
135,211,231258,1,0,0:0:0:0:
150,154,231324,1,0,0:0:0:0:
196,117,231391,5,8,0:0:0:0:
223,178,231458,1,0,0:0:0:0:
196,238,231524,1,0,0:0:0:0:
137,263,231591,1,0,0:0:0:0:
75,238,231658,1,8,0:0:0:0:
51,178,231724,1,0,0:0:0:0:
75,117,231791,1,0,0:0:0:0:
137,90,231858,1,0,0:0:0:0:
196,117,231925,5,8,0:0:0:0:
212,255,232058,1,0,0:0:0:0:
345,329,232191,1,8,0:0:0:0:
361,191,232325,1,0,0:0:0:0:
494,117,232458,1,0,0:0:0:0:
510,255,232592,1,0,0:0:0:0:
308,148,232725,2,0,L|318:79,1,70,8|0,0:0|0:0,0:0:0:0:
510,255,232991,2,0,L|500:324,1,70,0|0,0:0|0:0,0:0:0:0:
292,372,233258,1,8,0:0:0:0:
310,232,233391,1,8,0:0:0:0:
437,180,233525,2,0,P|440:145|427:113,1,70,0|0,0:0|0:0,0:0:0:0:
252,275,233791,2,0,P|239:242|242:208,1,70,8|0,0:0|0:0,0:0:0:0:
433,310,234058,6,0,P|436:344|423:376,1,70,0|0,0:0|0:0,0:0:0:0:
242,208,234325,2,0,P|238:173|251:141,1,70,8|0,0:0|0:0,0:0:0:0:
469,59,234591,1,0,0:0:0:0:
395,230,234725,1,0,0:0:0:0:
283,80,234858,2,0,P|248:73|215:83,2,70,8|0|0,0:0|0:0|0:0,0:0:0:0:
395,230,235258,1,0,0:0:0:0:
469,59,235391,1,8,0:0:0:0:
283,80,235525,1,8,0:0:0:0:
488,140,235658,2,0,L|498:209,1,70,0|0,0:0|0:0,0:0:0:0:
364,334,235925,1,8,0:0:0:0:
188,280,236058,1,0,0:0:0:0:
188,280,236125,1,0,0:0:0:0:
188,280,236191,6,0,P|156:219|171:152,1,140,0|8,0:0|0:0,0:0:0:0:
357,190,236591,2,0,L|288:200,1,70,0|0,0:0|0:0,0:0:0:0:
287,200,236858,1,0,0:0:0:0:
354,26,236991,1,8,0:0:0:0:
472,172,237125,1,0,0:0:0:0:
271,72,237258,2,0,P|206:93|170:152,1,140,0|8,0:0|0:0,0:0:0:0:
297,269,237658,2,0,L|287:200,1,70,8|0,0:0|0:0,0:0:0:0:
286,199,237925,1,0,0:0:0:0:
140,317,238059,1,8,0:0:0:0:
314,384,238192,1,0,0:0:0:0:
170,151,238325,5,4,0:0:0:0:
155,152,238391,1,4,0:0:0:0:
142,154,238458,2,0,P|118:127|110:94,1,70,4|8,0:0|0:0,0:0:0:0:
140,317,238725,1,4,0:0:0:0:
154,317,238791,1,4,0:0:0:0:
168,315,238858,2,0,P|191:342|199:375,1,70,4|0,0:0|0:0,0:0:0:0:
322,160,239125,1,8,0:0:0:0:
364,334,239258,1,0,0:0:0:0:
451,113,239391,5,4,0:0:0:0:
406,92,239458,1,4,0:0:0:0:
357,85,239525,1,4,0:0:0:0:
309,92,239591,1,4,0:0:0:0:
267,118,239658,1,8,0:0:0:0:
220,134,239725,1,4,0:0:0:0:
172,126,239791,1,8,0:0:0:0:
138,90,239858,1,4,0:0:0:0:
130,41,239925,1,4,0:0:0:0:
309,92,240058,1,4,0:0:0:0:
258,271,240191,1,8,0:0:0:0:
79,220,240325,1,4,0:0:0:0:
322,160,240458,6,0,P|356:157|388:170,1,70,8|0,0:0|0:0,0:0:0:0:
280,352,240725,2,0,P|246:355|214:342,1,70,8|0,0:0|0:0,0:0:0:0:
111,150,240991,1,8,0:0:0:0:
258,271,241125,1,0,0:0:0:0:
79,337,241258,1,8,0:0:0:0:
79,337,241391,1,0,0:0:0:0:
252,149,241525,2,0,L|321:159,1,70,8|0,0:0|0:0,0:0:0:0:
213,341,241791,2,0,L|144:331,1,70,8|0,0:0|0:0,0:0:0:0:
175,143,242058,1,8,0:0:0:0:
322,264,242191,1,0,0:0:0:0:
143,330,242325,1,8,0:0:0:0:
143,330,242458,1,0,0:0:0:0:
365,212,242591,6,0,P|397:151|382:84,1,140,8|8,0:0|0:0,0:0:0:0:
257,245,242991,1,0,0:0:0:0:
131,84,243125,2,0,P|116:150|148:211,1,140,8|8,0:0|0:0,0:0:0:0:
256,23,243525,1,0,0:0:0:0:
322,264,243658,2,0,P|353:278|388:276,1,70,8|0,0:0|0:0,0:0:0:0:
191,263,243925,2,0,P|159:276|124:274,1,70,8|0,0:0|0:0,0:0:0:0:
365,212,244191,1,8,0:0:0:0:
256,23,244325,1,0,0:0:0:0:
148,211,244458,1,8,0:0:0:0:
256,23,244591,1,0,0:0:0:0:
227,318,244725,6,0,P|166:350|98:335,1,140,8|8,0:0|0:0,0:0:0:0:
37,143,245125,2,0,P|71:141|103:155,1,70,0|8,0:0|0:0,0:0:0:0:
20,329,245391,1,0,0:0:0:0:
5,96,245525,1,8,0:0:0:0:
214,199,245658,1,0,0:0:0:0:
407,69,245791,2,0,P|340:54|279:86,1,140,8|8,0:0|0:0,0:0:0:0:
277,296,246191,2,0,P|414:308|412:200,1,280,8|0,0:0|0:0,0:0:0:0:
201,144,246857,5,0,0:0:0:0:
165,166,246924,1,0,0:0:0:0:
144,202,246991,1,0,0:0:0:0:
128,240,247057,1,0,0:0:0:0:
99,271,247124,1,8,0:0:0:0:
56,277,247191,1,0,0:0:0:0:
20,256,247257,1,0,0:0:0:0:
9,216,247324,1,0,0:0:0:0:
24,177,247391,5,8,0:0:0:0:
68,186,247458,1,0,0:0:0:0:
97,221,247525,1,0,0:0:0:0:
102,265,247591,1,0,0:0:0:0:
116,308,247658,1,8,0:0:0:0:
147,340,247725,1,0,0:0:0:0:
192,347,247791,1,0,0:0:0:0:
234,331,247858,1,0,0:0:0:0:
260,295,247925,5,8,0:0:0:0:
265,245,247992,1,0,0:0:0:0:
239,202,248059,1,0,0:0:0:0:
195,181,248125,1,0,0:0:0:0:
146,193,248192,1,8,0:0:0:0:
111,231,248259,1,0,0:0:0:0:
105,279,248325,1,0,0:0:0:0:
131,322,248392,1,0,0:0:0:0:
172,348,248458,5,8,0:0:0:0:
188,300,248525,1,0,0:0:0:0:
175,252,248591,1,0,0:0:0:0:
145,212,248658,1,0,0:0:0:0:
134,162,248725,1,8,0:0:0:0:
155,116,248791,1,0,0:0:0:0:
199,94,248858,1,0,0:0:0:0:
249,104,248925,1,0,0:0:0:0:
288,94,248991,6,0,P|399:175|303:250,1,293.999991027832,8|0,0:0|0:0,0:0:0:0:
230,228,250058,1,4,0:0:0:0:
183,160,250192,1,4,0:0:0:0:
190,79,250325,1,4,0:0:0:0:
248,20,250458,1,4,0:0:0:0:
384,216,250591,1,4,0:0:0:0:
309,250,250724,1,4,0:0:0:0:
230,228,250858,1,4,0:0:0:0:
183,160,250991,1,4,0:0:0:0:
384,216,251125,6,0,P|300:323|230:227,1,293.999991027832,8|0,0:0|0:0,0:0:0:0:
251,150,252191,1,4,0:0:0:0:
319,103,252325,1,4,0:0:0:0:
400,110,252458,1,4,0:0:0:0:
459,168,252591,1,4,0:0:0:0:
229,229,252725,1,4,0:0:0:0:
171,171,252858,1,4,0:0:0:0:
88,164,252991,1,4,0:0:0:0:
19,211,253125,1,4,0:0:0:0:
229,229,253258,6,0,P|186:99|88:165,1,293.999991027832,8|0,0:0|0:0,0:0:0:0:
135,227,254325,1,4,0:0:0:0:
129,309,254458,1,4,0:0:0:0:
62,261,254591,1,4,0:0:0:0:
229,229,254725,1,4,0:0:0:0:
297,275,254858,1,4,0:0:0:0:
221,309,254991,1,4,0:0:0:0:
276,148,255125,1,4,0:0:0:0:
350,112,255258,1,4,0:0:0:0:
342,195,255391,6,0,P|295:67|414:58,1,293.999991027832,8|0,0:0|0:0,0:0:0:0:
459,123,256458,1,8,0:0:0:0:
468,146,256525,1,4,0:0:0:0:
471,173,256591,1,4,0:0:0:0:
463,199,256658,1,4,0:0:0:0:
448,222,256725,1,4,0:0:0:0:
428,240,256791,1,4,0:0:0:0:
401,249,256858,2,0,P|383:253|360:252,1,35,8|4,0:0|0:0,0:0:0:0:
305,325,256991,1,4,0:0:0:0:
278,317,257058,1,4,0:0:0:0:
251,322,257125,1,4,0:0:0:0:
229,338,257191,1,4,0:0:0:0:
214,361,257258,2,0,P|209:343|210:320,1,35,8|4,0:0|0:0,0:0:0:0:
229,247,257391,1,4,0:0:0:0:
229,247,257458,1,4,0:0:0:0:
229,247,257525,6,0,P|357:200|366:319,1,293.999991027832,8|0,0:0|0:0,0:0:0:0:
307,372,258591,1,4,0:0:0:0:
251,310,258725,1,4,0:0:0:0:
313,254,258858,1,4,0:0:0:0:
369,316,258991,1,4,0:0:0:0:
168,304,259125,1,4,0:0:0:0:
111,242,259258,1,4,0:0:0:0:
173,186,259392,1,4,0:0:0:0:
229,247,259525,1,4,0:0:0:0:
27,234,259658,6,0,P|155:187|166:306,1,293.999991027832,8|0,0:0|0:0,0:0:0:0:
111,242,260725,1,4,0:0:0:0:
108,159,260859,1,4,0:0:0:0:
158,95,260992,1,4,0:0:0:0:
239,76,261125,1,4,0:0:0:0:
250,316,261258,1,4,0:0:0:0:
167,304,261392,1,4,0:0:0:0:
113,244,261525,1,4,0:0:0:0:
108,161,261658,1,4,0:0:0:0:
342,183,261791,6,0,P|377:306|249:316,1,293.999991027832,8|0,0:0|0:0,0:0:0:0:
192,253,262858,1,4,0:0:0:0:
189,170,262992,1,4,0:0:0:0:
239,106,263125,1,4,0:0:0:0:
320,87,263258,1,4,0:0:0:0:
248,315,263391,1,4,0:0:0:0:
166,332,263525,1,4,0:0:0:0:
95,294,263658,1,4,0:0:0:0:
62,217,263791,1,4,0:0:0:0:
239,106,263925,6,0,P|266:160|326:170,1,125.999996154785,12|0,0:0|0:0,0:0:0:0:
320,87,264458,2,0,P|292:32|232:22,1,125.999996154785,12|0,0:0|0:0,0:0:0:0:
261,187,264991,6,0,P|258:220|241:251,1,62.9999980773926,8|0,0:0|0:0,0:0:0:0:
44,269,265258,1,4,0:0:0:0:
73,104,265391,1,4,0:0:0:0:
232,22,265525,1,4,0:0:0:0:
261,187,265658,1,4,0:0:0:0:
420,269,265791,1,4,0:0:0:0:
449,104,265924,1,4,0:0:0:0:
232,22,266058,6,0,B|184:36|156:76|150:135|195:168|241:190|241:190|302:221|335:278|291:374|211:374|142:344|142:260|142:260,1,560,12|0,0:0|0:0,0:0:0:0:
222,265,271338,5,4,0:0:0:0:
240,169,271498,1,0,0:0:0:0:
165,105,271658,1,0,0:0:0:0:
222,265,271818,2,0,L|277:259,1,46.6666666666667,8|0,0:0|0:0,0:0:0:0:
347,250,272138,1,0,0:0:0:0:
147,201,272298,5,4,0:0:0:0:
129,297,272458,1,0,0:0:0:0:
204,361,272618,1,0,0:0:0:0:
147,201,272778,2,0,L|92:207,1,46.6666666666667,8|0,0:0|0:0,0:0:0:0:
22,216,273098,1,0,0:0:0:0:
165,105,273258,5,4,0:0:0:0:
240,169,273418,1,0,0:0:0:0:
147,201,273578,1,0,0:0:0:0:
258,73,273738,2,0,L|313:79,1,46.6666666666667,8|0,0:0|0:0,0:0:0:0:
381,88,274058,1,0,0:0:0:0:
165,105,274218,5,4,0:0:0:0:
258,73,274378,1,0,0:0:0:0:
258,73,274458,1,0,0:0:0:0:
258,73,274538,1,0,0:0:0:0:
222,265,274698,1,8,0:0:0:0:
147,201,274858,1,0,0:0:0:0:
240,169,275018,1,0,0:0:0:0:
367,337,275178,5,4,0:0:0:0:
431,262,275338,1,0,0:0:0:0:
270,319,275498,1,0,0:0:0:0:
487,314,275658,2,0,P|506:273|495:221,1,93.3333333333333,8|0,0:0|0:0,0:0:0:0:
366,116,276138,5,4,0:0:0:0:
430,191,276298,1,0,0:0:0:0:
430,191,276378,1,0,0:0:0:0:
430,191,276458,1,0,0:0:0:0:
269,134,276618,1,8,0:0:0:0:
366,116,276778,1,0,0:0:0:0:
333,209,276938,1,0,0:0:0:0:
173,152,277098,5,4,0:0:0:0:
205,58,277258,1,0,0:0:0:0:
269,134,277418,1,0,0:0:0:0:
72,233,277578,2,0,P|115:212|173:219,1,93.3333333333333,8|0,0:0|0:0,0:0:0:0:
160,214,277978,1,0,0:0:0:0:
160,214,278058,5,8,0:0:0:0:
245,303,278218,1,4,0:0:0:0:
279,186,278378,1,4,0:0:0:0:
406,180,278538,5,8,0:0:0:0:
408,56,278698,1,4,0:0:0:0:
301,116,278858,1,4,0:0:0:0:
408,311,279018,6,0,P|380:313|355:306,1,51.3333348999024,4|0,0:0|0:0,0:0:0:0:
290,269,279338,1,0,0:0:0:0:
79,224,279498,2,0,P|106:226|131:219,1,51.3333348999024,8|0,0:0|0:0,0:0:0:0:
197,182,279818,1,0,0:0:0:0:
408,137,279978,6,0,P|380:139|355:132,1,51.3333348999024,4|0,0:0|0:0,0:0:0:0:
290,95,280298,1,0,0:0:0:0:
79,50,280458,2,0,P|106:52|131:45,1,51.3333348999024,8|0,0:0|0:0,0:0:0:0:
197,8,280778,1,0,0:0:0:0:
408,137,280938,5,4,0:0:0:0:
442,228,281098,1,0,0:0:0:0:
379,304,281258,1,0,0:0:0:0:
186,272,281418,1,8,0:0:0:0:
247,197,281578,1,0,0:0:0:0:
345,213,281738,1,0,0:0:0:0:
205,370,281898,5,4,0:0:0:0:
186,272,282058,1,0,0:0:0:0:
186,272,282138,1,0,0:0:0:0:
186,272,282218,1,0,0:0:0:0:
279,304,282378,1,8,0:0:0:0:
205,370,282538,1,0,0:0:0:0:
111,339,282698,1,0,0:0:0:0:
247,197,282858,5,4,0:0:0:0:
151,181,283018,1,0,0:0:0:0:
151,181,283098,1,0,0:0:0:0:
151,181,283178,1,0,0:0:0:0:
279,304,283338,2,0,L|334:298,1,51.3333348999024,8|0,0:0|0:0,0:0:0:0:
406,288,283658,1,0,0:0:0:0:
454,83,283818,5,4,0:0:0:0:
363,117,283978,1,0,0:0:0:0:
287,54,284138,1,0,0:0:0:0:
454,83,284298,1,8,0:0:0:0:
437,178,284458,1,0,0:0:0:0:
345,213,284618,1,0,0:0:0:0:
287,54,284778,5,4,0:0:0:0:
270,151,284938,1,0,0:0:0:0:
270,151,285018,1,0,0:0:0:0:
270,151,285098,1,0,0:0:0:0:
363,117,285258,1,8,0:0:0:0:
287,54,285418,1,0,0:0:0:0:
195,89,285578,1,0,0:0:0:0:
183,288,285738,5,4,0:0:0:0:
279,304,285898,1,0,0:0:0:0:
279,304,285978,1,0,0:0:0:0:
279,304,286058,1,0,0:0:0:0:
151,181,286218,2,0,L|96:187,1,51.3333348999024,8|0,0:0|0:0,0:0:0:0:
24,197,286538,1,0,0:0:0:0:
287,54,286698,6,0,P|293:81|291:107,1,51.3333348999024,4|0,0:0|0:0,0:0:0:0:
266,177,287018,1,0,0:0:0:0:
429,268,287178,2,0,P|422:240|424:214,1,51.3333348999024,8|0,0:0|0:0,0:0:0:0:
450,145,287498,1,0,0:0:0:0:
266,177,287658,5,4,0:0:0:0:
361,190,287818,1,0,0:0:0:0:
361,190,287898,1,0,0:0:0:0:
361,190,287978,1,0,0:0:0:0:
230,87,288138,1,8,0:0:0:0:
170,163,288298,1,0,0:0:0:0:
266,177,288458,1,0,0:0:0:0:
89,131,288618,6,0,P|83:158|85:184,1,51.3333348999024,4|0,0:0|0:0,0:0:0:0:
110,254,288938,1,0,0:0:0:0:
287,300,289098,2,0,P|293:273|291:247,1,51.3333348999024,8|0,0:0|0:0,0:0:0:0:
266,177,289418,1,0,0:0:0:0:
145,363,289578,6,0,L|255:351,1,102.666669799805,4|0,0:0|0:0,0:0:0:0:
170,178,290058,1,8,0:0:0:0:
110,254,290218,1,0,0:0:0:0:
206,268,290378,1,0,0:0:0:0:
327,124,290538,6,0,P|354:118|380:120,1,51.3333348999024,4|0,0:0|0:0,0:0:0:0:
450,145,290858,1,0,0:0:0:0:
410,321,291018,2,0,P|383:327|357:325,1,51.3333348999024,8|0,0:0|0:0,0:0:0:0:
287,300,291338,1,0,0:0:0:0:
460,239,291498,5,4,0:0:0:0:
410,321,291658,1,0,0:0:0:0:
410,321,291738,1,0,0:0:0:0:
410,321,291818,1,0,0:0:0:0:
450,145,291978,1,8,0:0:0:0:
373,200,292138,1,0,0:0:0:0:
460,239,292298,1,8,0:0:0:0:
255,207,292458,5,8,0:0:0:0:
363,106,292618,1,4,0:0:0:0:
363,106,292698,1,0,0:0:0:0:
363,106,292778,1,4,0:0:0:0:
367,301,292938,5,8,0:0:0:0:
255,207,293098,1,4,0:0:0:0:
280,67,293258,1,4,0:0:0:0:
463,168,293418,5,8,0:0:0:0:
367,301,293578,1,4,0:0:0:0:
392,311,293658,1,0,0:0:0:0:
419,313,293738,1,4,0:0:0:0:
446,308,293818,1,0,0:0:0:0:
471,295,293898,5,8,0:0:0:0:
297,156,294058,1,4,0:0:0:0:
89,237,294218,1,4,0:0:0:0:
367,301,294378,6,0,P|393:255|383:197,1,102.666669799805,2|0,0:0|0:0,0:0:0:0:
215,125,294858,2,0,P|210:175|236:218,1,102.666669799805,10|0,0:0|0:0,0:0:0:0:
409,136,295338,1,2,0:0:0:0:
409,136,295498,2,0,L|403:81,1,51.3333348999024
216,22,295818,1,10,0:0:0:0:
215,125,295978,1,4,0:0:0:0:
306,72,296138,1,4,0:0:0:0:
105,101,296298,6,0,P|100:151|126:194,1,102.666669799805,2|0,0:0|0:0,0:0:0:0:
318,187,296778,2,0,P|322:237|296:280,1,102.666669799805,10|0,0:0|0:0,0:0:0:0:
215,125,297258,1,2,0:0:0:0:
215,125,297418,2,0,L|270:131,1,51.3333348999024
143,296,297738,1,10,0:0:0:0:
45,262,297898,1,4,0:0:0:0:
126,194,298058,1,4,0:0:0:0:
264,354,298218,6,0,P|314:358|357:332,1,102.666669799805,2|0,0:0|0:0,0:0:0:0:
360,108,298698,2,0,P|309:104|266:130,1,102.666669799805,10|0,0:0|0:0,0:0:0:0:
357,332,299178,2,0,L|369:222,1,102.666669799805,2|0,0:0|0:0,0:0:0:0:
185,376,299658,1,10,0:0:0:0:
82,359,299818,1,4,0:0:0:0:
45,262,299978,1,4,0:0:0:0:
266,130,300138,6,0,L|321:136,1,51.3333348999024,2|0,0:0|0:0,0:0:0:0:
126,194,300458,2,0,L|71:188,1,51.3333348999024,2|8,0:0|0:0,0:0:0:0:
245,51,300778,2,0,L|300:57,1,51.3333348999024,2|0,0:0|0:0,0:0:0:0:
147,273,301098,2,0,L|37:261,1,102.666669799805,2|0,0:0|0:0,0:0:0:0:
245,51,301578,1,10,0:0:0:0:
310,226,301738,1,4,0:0:0:0:
126,194,301898,1,4,0:0:0:0:
429,83,302058,5,10,0:0:0:0:
458,302,302213,1,4,0:0:0:0:
239,332,302368,1,4,0:0:0:0:
210,113,302523,1,10,0:0:0:0:
414,197,302678,1,4,0:0:0:0:
239,332,302833,1,4,0:0:0:0:
34,247,302988,1,10,0:0:0:0:
245,51,303980,5,10,0:0:0:0:
321,256,304135,1,4,0:0:0:0:
103,221,304290,1,4,0:0:0:0:
342,132,304445,1,10,0:0:0:0:
202,300,304600,1,4,0:0:0:0:
124,94,304755,1,4,0:0:0:0:
321,256,304910,1,10,0:0:0:0:
429,83,305887,5,6,0:0:0:0:
464,305,306212,1,6,0:0:0:0:
239,332,306537,1,6,0:0:0:0:
210,113,306862,1,6,0:0:0:0:
490,185,307187,1,6,0:0:0:0:
179,227,307513,1,6,0:0:0:0:
429,83,307818,5,10,0:0:0:0:
406,244,307973,1,4,0:0:0:0:
406,244,308050,1,4,0:0:0:0:
406,244,308128,1,4,0:0:0:0:
242,224,308283,1,10,0:0:0:0:
268,62,308438,1,4,0:0:0:0:
268,62,308516,1,4,0:0:0:0:
268,62,308593,1,4,0:0:0:0:
327,258,308760,5,14,0:0:0:0:
172,305,308920,1,4,0:0:0:0:
29,229,309080,1,4,0:0:0:0:
350,178,309240,5,14,0:0:0:0:
273,320,309400,1,4,0:0:0:0:
118,368,309560,1,4,0:0:0:0:
268,62,309738,6,0,P|295:44|324:39,1,55.9999982910157,2|0,0:0|0:0,0:0:0:0:
221,282,310058,2,0,P|198:297|171:304,1,55.9999982910157,2|8,0:0|0:0,0:0:0:0:
318,38,310377,2,0,P|345:40|372:49,1,55.9999982910157,2|0,0:0|0:0,0:0:0:0:
172,305,310698,2,0,L|59:293,1,111.999996582031,2|0,0:0|0:0,0:0:0:0:
31,52,311178,1,8,0:0:0:0:
31,52,311338,1,10,0:0:0:0:
203,219,311498,1,10,0:0:0:0:
428,136,311658,6,0,L|433:81,1,55.9999982910157,2|0,0:0|0:0,0:0:0:0:
203,219,311978,2,0,L|198:164,1,55.9999982910157,2|8,0:0|0:0,0:0:0:0:
428,302,312298,2,0,P|455:300|482:291,1,55.9999982910157,2|0,0:0|0:0,0:0:0:0:
203,219,312618,2,0,P|149:209|102:238,1,111.999996582031,2|0,0:0|0:0,0:0:0:0:
294,373,313098,1,8,0:0:0:0:
315,137,313258,1,8,0:0:0:0:
102,238,313418,1,8,0:0:0:0:
428,136,313578,6,0,P|425:108|414:82,1,55.9999982910157,2|0,0:0|0:0,0:0:0:0:
203,219,313898,2,0,P|205:246|216:272,1,55.9999982910157,2|8,0:0|0:0,0:0:0:0:
360,47,314218,2,0,L|305:52,1,55.9999982910157,2|0,0:0|0:0,0:0:0:0:
271,308,314538,2,0,L|384:296,1,111.999996582031,2|0,0:0|0:0,0:0:0:0:
482,76,315018,1,8,0:0:0:0:
360,47,315178,1,8,0:0:0:0:
274,139,315338,1,10,0:0:0:0:
386,361,315498,6,0,P|417:349|439:329,1,55.9999982910157,2|4,0:0|0:0,0:0:0:0:
483,259,315818,1,4,0:0:0:0:
203,219,315978,2,0,P|171:230|149:250,1,55.9999982910157,2|4,0:0|0:0,0:0:0:0:
106,321,316298,1,4,0:0:0:0:
382,296,316458,5,10,0:0:0:0:
422,153,316618,1,4,0:0:0:0:
346,25,316778,1,4,0:0:0:0:
495,283,316938,5,10,0:0:0:0:
422,153,317098,1,4,0:0:0:0:
277,116,317258,1,4,0:0:0:0:
106,321,317418,6,0,L|112:266,1,55.9999982910157,2|0,0:0|0:0,0:0:0:0:
270,60,317738,2,0,L|276:115,1,55.9999982910157,2|8,0:0|0:0,0:0:0:0:
300,334,318058,2,0,L|295:279,1,55.9999982910157,2|0,0:0|0:0,0:0:0:0:
135,73,318378,2,0,L|123:186,1,111.999996582031,2|0,0:0|0:0,0:0:0:0:
423,165,318858,1,8,0:0:0:0:
423,165,319018,1,10,0:0:0:0:
232,20,319178,1,10,0:0:0:0:
10,113,319338,6,0,P|9:146|18:174,1,55.9999982910157,2|0,0:0|0:0,0:0:0:0:
232,250,319658,2,0,P|233:217|224:189,1,55.9999982910157,2|8,0:0|0:0,0:0:0:0:
59,23,319978,2,0,P|58:56|67:84,1,55.9999982910157,2|0,0:0|0:0,0:0:0:0:
183,340,320298,2,0,L|296:328,1,111.999996582031,2|0,0:0|0:0,0:0:0:0:
352,138,320778,1,8,0:0:0:0:
228,114,320938,1,8,0:0:0:0:
123,184,321098,1,8,0:0:0:0:
434,335,321258,6,0,L|439:280,1,55.9999982910157,2|0,0:0|0:0,0:0:0:0:
301,34,321578,2,0,L|306:89,1,55.9999982910157,2|8,0:0|0:0,0:0:0:0:
183,340,321898,2,0,L|188:285,1,55.9999982910157,2|0,0:0|0:0,0:0:0:0:
59,23,322218,2,0,L|71:136,1,111.999996582031,2|0,0:0|0:0,0:0:0:0:
316,274,322698,1,8,0:0:0:0:
316,274,322858,1,8,0:0:0:0:
301,34,323018,1,10,0:0:0:0:
249,300,323178,6,0,P|286:338|355:334,1,111.999996582031,2|2,0:0|0:0,0:0:0:0:
326,128,323658,2,0,L|322:194,1,55.9999982910157,8|2,0:0|0:0,0:0:0:0:
316,274,323978,1,0,0:0:0:0:
458,109,324138,1,10,0:0:0:0:
245,63,324298,1,4,0:0:0:0:
245,63,324378,1,4,0:0:0:0:
245,63,324458,1,2,0:0:0:0:
432,231,324618,1,8,0:0:0:0:
366,24,324778,1,10,0:0:0:0:
218,185,324938,1,10,0:0:0:0:
458,109,325098,6,0,L|345:121,1,111.999996582031,6|0,0:0|0:0,0:0:0:0:
193,308,325578,1,10,0:0:0:0:
432,231,325738,1,8,0:0:0:0:
245,63,325898,1,8,0:0:0:0:
334,338,326058,2,0,L|447:326,1,111.999996582031,2|0,0:0|0:0,0:0:0:0:
458,109,326538,1,8,0:0:0:0:
458,109,326698,1,10,0:0:0:0:
267,254,326858,1,10,0:0:0:0:
45,161,327018,6,0,P|44:128|53:100,1,55.9999982910157,2|0,0:0|0:0,0:0:0:0:
267,254,327338,2,0,P|268:221|259:193,1,55.9999982910157,2|8,0:0|0:0,0:0:0:0:
56,363,327658,2,0,L|-10:359,1,55.9999982910157,2|0,0:0|0:0,0:0:0:0:
169,117,327978,2,0,L|282:129,1,111.999996582031,2|0,0:0|0:0,0:0:0:0:
332,373,328458,1,8,0:0:0:0:
93,296,328618,1,8,0:0:0:0:
280,128,328778,1,8,0:0:0:0:
111,366,328938,6,0,L|45:362,1,55.9999982910157,2|0,0:0|0:0,0:0:0:0:
261,199,329258,2,0,L|327:195,1,55.9999982910157,2|8,0:0|0:0,0:0:0:0:
55,362,329578,2,0,P|48:334|49:307,1,55.9999982910157,2|0,0:0|0:0,0:0:0:0:
349,98,329898,2,0,P|351:153|316:195,1,111.999996582031,2|0,0:0|0:0,0:0:0:0:
72,65,330378,1,8,0:0:0:0:
194,36,330538,1,8,0:0:0:0:
280,128,330698,1,10,0:0:0:0:
111,366,330858,6,0,L|115:300,1,55.9999982910157,2|4,0:0|0:0,0:0:0:0:
121,220,331178,1,4,0:0:0:0:
349,98,331338,2,0,L|353:164,1,55.9999982910157,2|4,0:0|0:0,0:0:0:0:
359,244,331658,1,4,0:0:0:0:
44,163,331818,2,0,P|39:108|71:64,1,111.999996582031,2|4,0:0|0:0,0:0:0:0:
267,254,332298,1,8,0:0:0:0:
425,52,332458,1,2,0:0:0:0:
386,18,332538,1,4,0:0:0:0:
337,11,332618,1,4,0:0:0:0:
291,32,332698,1,4,0:0:0:0:
263,75,332778,6,0,L|275:188,1,111.999996582031,2|0,0:0|0:0,0:0:0:0:
491,364,333258,1,10,0:0:0:0:
352,153,333418,1,8,0:0:0:0:
239,376,333578,1,8,0:0:0:0:
483,217,333738,2,0,L|471:104,1,111.999996582031,2|0,0:0|0:0,0:0:0:0:
415,371,334218,1,8,0:0:0:0:
415,371,334378,1,10,0:0:0:0:
224,226,334538,1,10,0:0:0:0:
2,319,334698,6,0,P|1:352|10:380,1,55.9999982910157,2|0,0:0|0:0,0:0:0:0:
224,226,335018,2,0,P|225:193|216:165,1,55.9999982910157,2|8,0:0|0:0,0:0:0:0:
1,23,335338,2,0,P|0:56|9:84,1,55.9999982910157,2|0,0:0|0:0,0:0:0:0:
224,226,335658,2,0,L|337:214,1,111.999996582031,2|0,0:0|0:0,0:0:0:0:
149,45,336138,1,8,0:0:0:0:
98,292,336298,1,8,0:0:0:0:
335,214,336458,1,8,0:0:0:0:
51,153,336618,6,0,L|54:219,1,55.9999982910157,2|0,0:0|0:0,0:0:0:0:
335,214,336938,2,0,L|338:148,1,55.9999982910157,2|8,0:0|0:0,0:0:0:0:
98,292,337258,2,0,P|120:316|146:329,1,55.9999982910157,2|0,0:0|0:0,0:0:0:0:
303,68,337578,2,0,P|267:25|213:17,1,111.999996582031,2|0,0:0|0:0,0:0:0:0:
98,292,338058,1,8,0:0:0:0:
98,292,338218,1,8,0:0:0:0:
335,214,338378,1,10,0:0:0:0:
149,45,338538,6,0,L|161:158,1,111.999996582031,2|2,0:0|0:0,0:0:0:0:
345,360,339018,2,0,L|341:294,1,55.9999982910157,8|2,0:0|0:0,0:0:0:0:
335,214,339338,1,0,0:0:0:0:
95,355,339498,1,2,0:0:0:0:
345,360,339658,1,4,0:0:0:0:
345,360,339738,1,4,0:0:0:0:
345,360,339818,1,2,0:0:0:0:
105,222,339978,1,8,0:0:0:0:
183,361,340138,1,10,0:0:0:0:
345,360,340298,1,10,0:0:0:0:
259,129,340458,6,0,P|204:123|159:155,1,111.999996582031,2|2,0:0|0:0,0:0:0:0:
413,282,340938,2,0,L|409:216,1,55.9999982910157,8|2,0:0|0:0,0:0:0:0:
403,136,341258,1,0,0:0:0:0:
105,222,341418,5,10,0:0:0:0:
277,267,341578,1,4,0:0:0:0:
403,136,341738,1,4,0:0:0:0:
69,133,341898,5,10,0:0:0:0:
158,286,342058,1,4,0:0:0:0:
340,282,342218,1,4,0:0:0:0:
88,38,342378,6,0,P|55:37|27:46,1,55.9999982910157,10|0,0:0|0:0,0:0:0:0:
139,381,342698,2,0,P|172:382|200:373,1,55.9999982910157,2|8,0:0|0:0,0:0:0:0:
381,104,343018,1,6,0:0:0:0:
376,90,343098,1,4,0:0:0:0:
362,90,343178,1,4,0:0:0:0:
358,104,343258,1,4,0:0:0:0:
369,111,343338,5,14,0:0:0:0:
266,349,343658,1,10,0:0:0:0:
111,140,343978,1,10,0:0:0:0:
441,157,344298,2,0,P|372:25|286:131,1,335.999989746094,10|2,0:0|0:0,0:0:0:0:
322,377,345738,5,12,0:0:0:0:
369,111,345898,1,12,0:0:0:0:
104,65,346058,1,12,0:0:0:0:
59,330,346218,1,12,0:0:0:0:
