osu file format v14

[General]
AudioFilename: audio.mp3
AudioLeadIn: 0
PreviewTime: 156017
Countdown: 0
SampleSet: Drum
StackLeniency: 0.5
Mode: 0
LetterboxInBreaks: 0
WidescreenStoryboard: 0

[Editor]
DistanceSpacing: 0.7
BeatDivisor: 6
GridSize: 32
TimelineZoom: 5.299998

[Metadata]
Title:Three Hammers
TitleUnicode:Three Hammers
Artist:DragonForce
ArtistUnicode:DragonForce
Creator:SinHay
Version:In The Burning Red Sky
Source:
Tags:powermetal itswinter silence player deathstream stream power metal rock firetongue8 Maximum Overload speed legend Sam Totman Frédéric Frederic Leclercq Vadim Pruzhanov Dave Mackintosh Herman Li Marc Hudson English 09kami
BeatmapID:2349497
BeatmapSetID:1013356

[Difficulty]
HPDrainRate:5
CircleSize:4.4
OverallDifficulty:9.3
ApproachRate:9.7
SliderMultiplier:1.9
SliderTickRate:1

[Events]
//Background and Video events
0,0,"bg.jpg",0,0
//Break Periods
2,33206,48028
//Storyboard Layer 0 (Background)
//Storyboard Layer 1 (Fail)
//Storyboard Layer 2 (Pass)
//Storyboard Layer 3 (Foreground)
//Storyboard Layer 4 (Overlay)
//Storyboard Sound Samples

[TimingPoints]
353,468.75,4,2,10,60,1,0
353,-81.967213114754,4,2,10,60,0,0
704,-81.9672131147541,4,2,10,5,0,0
821,487.80487804878,4,2,10,30,1,0
821,-81.967213114754,4,2,10,30,0,0
1308,480,4,2,10,30,1,0
1308,-81.967213114754,4,2,10,30,0,0
1788,-81.967213114754,4,2,10,60,0,0
2148,-81.9672131147541,4,2,10,5,0,0
2268,481.927710843374,4,2,10,60,1,0
2268,-81.967213114754,4,2,10,60,0,0
2393,-81.967213114754,4,2,10,5,0,0
3231,-81.967213114754,4,2,10,60,0,0
3351,-81.967213114754,4,2,10,5,0,0
3954,-81.9672131147541,4,2,10,50,0,0
4195,465.116279069767,4,2,10,60,1,0
4195,-81.967213114754,4,2,10,60,0,0
4543,-81.9672131147541,4,2,10,5,0,0
4660,491.803278688525,4,2,10,30,1,0
4660,-81.967213114754,4,2,10,30,0,0
5151,480,4,2,10,30,1,0
5151,-81.967213114754,4,2,10,30,0,0
5631,487.80487804878,4,2,10,60,1,0
5631,-81.967213114754,4,2,10,60,0,0
5996,-81.9672131147541,4,2,10,5,0,0
6118,478.08764940239,4,2,10,60,1,0
6118,-81.967213114754,4,2,10,60,0,0
6238,-81.967213114754,4,2,10,5,0,0
7074,-81.967213114754,4,2,10,60,0,0
7313,-81.967213114754,4,2,10,5,0,0
7432,-75.7575757575758,4,2,10,50,0,0
7671,-75.7575757575758,4,2,10,5,0,0
7791,-70.4225352112676,4,2,10,50,0,0
7910,-70.4225352112676,4,2,10,5,0,0
8030,472.44094488189,4,2,10,60,1,0
8030,-81.9672131147541,4,2,10,60,0,0
8390,-81.9672131147541,4,2,10,5,0,0
8502,487.80487804878,4,2,10,30,1,0
8502,-81.9672131147541,4,2,10,30,0,0
8989,480,4,2,10,30,1,0
8989,-81.9672131147541,4,2,10,30,0,0
9469,491.803278688525,4,2,10,60,1,0
9469,-81.9672131147541,4,2,10,60,0,0
9837,-81.9672131147541,4,2,10,5,0,0
9960,479.041916167665,4,2,10,60,1,0
9960,-81.9672131147541,4,2,10,60,0,0
10079,-81.9672131147541,4,2,10,5,0,0
10918,-81.9672131147541,4,2,10,60,0,0
11038,-81.9672131147541,4,2,10,5,0,0
11636,-81.9672131147541,4,2,10,50,0,0
11876,468.75,4,2,10,60,1,0
11876,-81.9672131147541,4,2,10,60,0,0
12227,-81.9672131147541,4,2,10,5,0,0
12344,487.80487804878,4,2,10,30,1,0
12344,-81.9672131147541,4,2,10,30,0,0
12831,481.347773766546,4,2,10,30,1,0
12831,-81.9672131147541,4,2,10,30,0,0
13312,-81.9672131147541,4,2,10,60,0,0
13673,-81.9672131147541,4,2,10,5,0,0
13793,480,4,2,10,60,1,0
13793,-81.9672131147541,4,2,10,60,0,0
13913,-81.9672131147541,4,2,10,5,0,0
14633,-81.9672131147541,4,2,10,5,0,0
14753,-81.9672131147541,4,2,10,60,0,0
14993,-81.9672131147541,4,2,10,5,0,0
15113,-89.2857142857143,4,2,10,50,0,0
15353,-89.2857142857143,4,2,10,5,0,0
15473,-98.0392156862745,4,2,10,50,0,0
15593,-98.0392156862745,4,2,10,5,0,0
15713,-80,4,2,10,60,0,0
16073,-80,4,2,10,5,0,0
16193,-80,4,3,10,50,0,0
17633,-80,4,3,10,50,0,0
17993,-80,4,3,10,5,0,0
18113,-80,4,3,10,50,0,0
18593,-80,4,3,10,50,0,0
18953,-80,4,3,10,5,0,0
19073,-80,4,3,10,50,0,0
19553,-80,4,3,10,50,0,0
19913,-80,4,3,10,5,0,0
20033,-80,4,3,10,50,0,0
21473,-80,4,3,10,50,0,0
21833,-80,4,3,10,5,0,0
21953,-80,4,3,10,50,0,0
22433,-80,4,3,10,50,0,0
22793,-80,4,3,10,5,0,0
22913,-80,4,3,10,50,0,0
23393,-80,4,3,10,50,0,0
23753,-80,4,3,10,5,0,0
23873,-80,4,3,10,50,0,0
25313,-80,4,3,10,50,0,0
25673,-80,4,3,10,5,0,0
25793,-80,4,3,10,50,0,0
26273,-80,4,3,10,50,0,0
26633,-80,4,3,10,5,0,0
26753,-80,4,3,10,50,0,0
27233,-80,4,3,10,50,0,0
27593,-80,4,3,10,5,0,0
27713,-80,4,3,10,50,0,0
28833,495.867768595041,4,2,1,60,1,0
28833,-80,4,3,10,50,0,0
29163,479.65464865297,4,2,1,60,1,0
29163,-92.5925925925926,4,3,10,60,0,0
29243,-92.5925925925926,4,3,10,5,0,0
31081,-121.951219512195,4,2,9,50,0,0
31201,-121.951219512195,4,2,9,5,0,0
33000,485.82995951417,4,2,9,5,1,0
48060,463.320463320463,4,2,9,60,1,0
48523,480,4,2,9,40,1,0
48523,-111.111111111111,4,2,9,40,0,0
55723,484.261501210654,4,2,9,40,1,0
56207,468.75,4,2,1,60,1,0
56207,-104.166666666667,4,3,10,30,0,0
57144,480,4,2,1,60,1,0
57144,-99.009900990099,4,3,10,33,0,0
58104,480,4,2,1,60,1,0
58104,-95.2380952380952,4,3,10,37,0,0
59064,-91.743119266055,4,3,10,40,0,0
60024,-89.2857142857143,4,3,10,43,0,0
60984,-86.2068965517241,4,3,10,47,0,0
61944,-84.7457627118644,4,3,10,51,0,0
62904,-82.6446280991736,4,3,10,53,0,0
63864,-74.0740740740741,4,3,10,60,0,0
64184,-74.0740740740741,4,3,10,50,0,0
66744,-74.0740740740741,4,3,10,60,0,0
67064,-74.0740740740741,4,3,10,50,0,0
67384,-74.0740740740741,4,3,11,50,0,0
67704,-74.0740740740741,4,3,10,60,0,0
68024,-74.0740740740741,4,3,10,50,0,0
69624,-74.0740740740741,4,3,10,60,0,0
69784,-74.0740740740741,4,3,10,50,0,0
70584,-74.0740740740741,4,3,10,60,0,0
70744,-74.0740740740741,4,3,11,50,0,0
70824,-74.0740740740741,4,3,10,50,0,0
71544,-74.0740740740741,4,3,10,60,0,0
71864,-74.0740740740741,4,3,10,50,0,0
73464,-74.0740740740741,4,3,10,60,0,0
73784,-74.0740740740741,4,3,10,50,0,0
74504,-74.0740740740741,4,3,10,5,0,0
74584,-74.0740740740741,4,3,10,50,0,0
74664,-74.0740740740741,4,3,10,5,0,0
74744,-74.0740740740741,4,3,10,50,0,0
74824,-74.0740740740741,4,3,10,5,0,0
74904,-74.0740740740741,4,3,10,50,0,0
74984,-74.0740740740741,4,3,10,5,0,0
75064,-74.0740740740741,4,3,10,50,0,0
75144,-74.0740740740741,4,3,10,5,0,0
75224,-74.0740740740741,4,3,10,50,0,0
75304,-74.0740740740741,4,3,10,5,0,0
75384,-74.0740740740741,4,3,10,60,0,0
75704,-74.0740740740741,4,3,10,50,0,0
77304,-74.0740740740741,4,3,10,60,0,0
77464,-74.0740740740741,4,3,11,50,0,0
78264,-74.0740740740741,4,3,10,60,0,0
78424,-74.0740740740741,4,3,12,50,0,0
79224,-117.647058823529,4,3,10,60,0,0
79344,-117.647058823529,4,3,10,5,0,0
80904,-117.647058823529,4,3,10,25,0,0
81144,-74.0740740740741,4,3,10,50,0,0
81304,-74.0740740740741,4,3,11,50,0,0
81624,-74.0740740740741,4,3,10,50,0,0
82744,-74.0740740740741,4,3,11,50,0,0
83064,-74.0740740740741,4,3,10,55,0,0
85944,-74.0740740740741,4,3,10,60,0,0
86184,-74.0740740740741,4,3,10,5,0,0
86424,-74.0740740740741,4,3,10,60,0,0
86664,-74.0740740740741,4,3,10,5,0,0
86904,-74.0740740740741,4,3,10,60,0,0
87224,-74.0740740740741,4,3,10,50,0,0
88824,-74.0740740740741,4,3,10,60,0,0
88984,-74.0740740740741,4,3,10,50,0,0
89784,-74.0740740740741,4,3,10,60,0,0
90104,-74.0740740740741,4,3,10,50,0,0
90264,-74.0740740740741,4,3,11,50,0,0
90744,-74.0740740740741,4,3,10,60,0,0
90904,-74.0740740740741,4,3,10,50,0,0
92184,-74.0740740740741,4,3,10,50,0,0
92344,-74.0740740740741,4,3,11,50,0,0
92504,-74.0740740740741,4,3,12,50,0,0
92664,-74.0740740740741,4,3,10,60,0,0
92904,-74.0740740740741,4,3,10,5,0,0
92984,-74.0740740740741,4,3,10,50,0,0
94584,-74.0740740740741,4,3,10,60,0,0
94984,-74.0740740740741,4,3,10,5,0,0
95064,-74.0740740740741,4,3,10,50,0,0
96344,-74.0740740740741,4,3,11,50,0,0
96504,-66.6666666666667,4,3,10,55,0,0
97944,-66.6666666666667,4,3,10,25,0,0
98424,-62.5,4,3,10,60,0,1
98664,-62.5,4,3,10,5,0,1
98744,-62.5,4,3,10,60,0,1
99064,-62.5,4,3,11,55,0,1
99384,-62.5,4,3,10,60,0,1
99704,-62.5,4,3,10,60,0,1
100024,-62.5,4,3,11,55,0,1
100344,-62.5,4,3,10,60,0,1
100984,-62.5,4,3,11,55,0,1
101304,-62.5,4,3,10,60,0,1
101624,-62.5,4,3,10,60,0,1
101944,-62.5,4,3,11,55,0,1
102104,-62.5,4,3,12,55,0,1
102264,-62.5,4,3,10,60,0,1
102504,-62.5,4,3,10,5,0,1
102584,-62.5,4,3,10,60,0,1
102904,-62.5,4,3,11,55,0,1
103224,-62.5,4,3,10,60,0,1
103704,-62.5,4,3,10,60,0,1
103864,-62.5,4,3,11,55,0,1
104184,-62.5,4,3,10,60,0,1
104424,-62.5,4,3,10,5,0,1
104504,-62.5,4,3,10,60,0,1
104824,-62.5,4,3,11,55,0,1
105144,-62.5,4,3,10,60,0,1
106104,-62.5,4,3,10,60,0,1
106344,-62.5,4,3,10,5,0,1
106424,-62.5,4,3,10,60,0,1
106744,-62.5,4,3,11,55,0,1
107064,-62.5,4,3,10,60,0,1
107384,-62.5,4,3,10,60,0,1
107704,-62.5,4,3,11,55,0,1
108024,-62.5,4,3,10,60,0,1
108264,-62.5,4,3,10,5,0,1
108344,-62.5,4,3,10,60,0,1
108664,-62.5,4,3,11,55,0,1
108984,-62.5,4,3,10,60,0,1
109304,-62.5,4,3,10,55,0,1
109624,-62.5,4,3,11,55,0,1
109784,-62.5,4,3,12,55,0,1
109944,-62.5,4,3,10,60,0,1
110184,-62.5,4,3,10,5,0,1
110264,-62.5,4,3,10,60,0,1
110584,-62.5,4,3,11,55,0,1
110904,-62.5,4,3,10,60,0,1
111384,-62.5,4,3,10,60,0,1
111544,-62.5,4,3,11,55,0,1
111784,-62.5,4,3,10,5,0,1
111864,-62.5,4,3,10,60,0,1
112104,-62.5,4,3,10,5,0,1
112184,-62.5,4,3,10,60,0,1
112504,-62.5,4,3,12,55,0,1
112664,-62.5,4,3,10,60,0,1
112984,-62.5,4,3,11,55,0,1
113064,-62.5,4,3,12,55,0,1
113304,-62.5,4,3,10,60,0,1
113464,-62.5,4,3,11,55,0,1
113624,-62.5,4,3,12,55,0,1
113784,-65.7894736842105,4,3,10,60,0,1
114424,-65.7894736842105,4,3,11,55,0,1
114744,-68.9655172413793,4,3,11,50,0,0
114824,-68.9655172413793,4,3,10,50,0,0
114904,-68.9655172413793,4,3,11,50,0,0
114984,-68.9655172413793,4,3,10,50,0,0
115064,-68.9655172413793,4,3,11,50,0,0
115144,-68.9655172413793,4,3,10,5,0,0
115224,-68.9655172413793,4,3,10,50,0,0
115704,-68.9655172413793,4,3,11,50,0,0
115784,-68.9655172413793,4,3,10,5,0,0
115864,-68.9655172413793,4,3,11,50,0,0
115944,-68.9655172413793,4,3,10,5,0,0
116024,-68.9655172413793,4,3,11,50,0,0
116104,-68.9655172413793,4,3,10,5,0,0
116184,-68.9655172413793,4,3,10,50,0,0
116424,-68.9655172413793,4,3,10,5,0,0
116504,-68.9655172413793,4,3,11,50,0,0
116584,-68.9655172413793,4,3,10,5,0,0
116664,-68.9655172413793,4,3,10,50,0,0
116824,-68.9655172413793,4,3,11,50,0,0
117224,-68.9655172413793,4,3,10,5,0,0
117304,-68.9655172413793,4,3,11,50,0,0
117384,-68.9655172413793,4,3,10,5,0,0
117464,-68.9655172413793,4,3,11,50,0,0
117544,-68.9655172413793,4,3,10,5,0,0
117624,-68.9655172413793,4,3,10,50,0,0
117784,-68.9655172413793,4,3,11,50,0,0
118584,-68.9655172413793,4,3,10,50,0,0
118744,-68.9655172413793,4,3,12,50,0,0
119544,-68.9655172413793,4,3,10,55,0,0
119624,-68.9655172413793,4,3,10,55,0,0
119704,-68.9655172413793,4,3,11,50,0,0
120184,-68.9655172413793,4,3,12,50,0,0
120504,-62.5,4,3,10,60,0,0
120864,-62.5,4,3,10,5,0,0
120984,-86.9565217391304,4,3,10,60,0,0
121344,-86.9565217391304,4,3,10,5,0,0
121464,-74.0740740740741,4,3,10,60,0,0
121704,-74.0740740740741,4,3,10,5,0,0
121784,-74.0740740740741,4,3,10,50,0,0
122664,-74.0740740740741,4,3,10,5,0,0
122744,-74.0740740740741,4,3,10,50,0,0
123624,-74.0740740740741,4,3,10,5,0,0
123704,-74.0740740740741,4,3,10,50,0,0
124824,-74.0740740740741,4,3,11,50,0,0
125304,-74.0740740740741,4,3,10,50,0,0
125544,-74.0740740740741,4,3,10,5,0,0
125624,-74.0740740740741,4,3,10,50,0,0
128184,-74.0740740740741,4,3,11,50,0,0
128344,-74.0740740740741,4,3,12,50,0,0
128664,-66.6666666666667,4,3,10,50,0,0
129144,-74.0740740740741,4,3,10,60,0,0
129304,-74.0740740740741,4,3,10,50,0,0
131304,-74.0740740740741,4,3,10,5,0,0
131384,-74.0740740740741,4,3,10,50,0,0
132184,-74.0740740740741,4,3,11,50,0,0
132504,-74.0740740740741,4,3,10,50,0,0
132984,-74.0740740740741,4,3,10,60,0,0
133224,-74.0740740740741,4,3,10,5,0,0
133304,-74.0740740740741,4,3,10,50,0,0
134184,-74.0740740740741,4,3,10,5,0,0
134264,-74.0740740740741,4,3,10,50,0,0
134904,-68.9655172413793,4,3,10,50,0,0
135064,-68.9655172413793,4,3,11,50,0,0
135224,-68.9655172413793,4,3,10,50,0,0
135304,-68.9655172413793,4,3,10,5,0,0
135384,-68.9655172413793,4,3,10,50,0,0
135464,-68.9655172413793,4,3,10,5,0,0
135544,-68.9655172413793,4,3,11,50,0,0
135864,-68.9655172413793,4,3,10,50,0,0
136504,-74.0740740740741,4,3,11,50,0,0
136824,-117.647058823529,4,3,10,60,0,0
136944,-117.647058823529,4,3,10,5,0,0
138744,-74.0740740740741,4,3,10,50,0,0
138904,-74.0740740740741,4,3,11,50,0,0
139224,-74.0740740740741,4,3,10,50,0,0
140344,-74.0740740740741,4,3,11,50,0,0
140664,-74.0740740740741,4,3,10,50,0,0
143784,-74.0740740740741,4,3,10,5,0,0
144024,-74.0740740740741,4,3,10,50,0,0
144264,-74.0740740740741,4,3,10,5,0,0
144504,-74.0740740740741,4,3,10,50,0,0
144744,-74.0740740740741,4,3,10,5,0,0
144824,-74.0740740740741,4,3,10,50,0,0
146664,-74.0740740740741,4,3,10,5,0,0
146744,-74.0740740740741,4,3,10,50,0,0
148024,-74.0740740740741,4,3,11,50,0,0
148344,-74.0740740740741,4,3,10,50,0,0
149544,-74.0740740740741,4,3,10,5,0,0
149624,-74.0740740740741,4,3,10,50,0,0
149784,-74.0740740740741,4,3,10,50,0,0
149944,-74.0740740740741,4,3,11,50,0,0
150264,-74.0740740740741,4,3,10,50,0,0
150904,-74.0740740740741,4,3,11,50,0,0
151224,-74.0740740740741,4,3,10,50,0,0
151464,-74.0740740740741,4,3,10,5,0,0
151544,-74.0740740740741,4,3,10,50,0,0
152664,491.803278688525,4,2,1,60,1,0
152664,-74.0740740740741,4,3,10,50,0,0
153155,474.683544303797,4,2,1,60,1,0
153155,-74.0740740740741,4,3,10,50,0,0
154104,476.190476190476,4,2,1,60,1,0
154104,-66.6666666666667,4,3,10,55,0,0
154580,480,4,2,10,60,1,0
154580,-66.6666666666667,4,3,10,55,0,0
155060,482.315112540193,4,2,10,60,1,0
155060,-66.6666666666667,4,3,10,55,0,0
155542,-66.6666666666667,4,3,10,25,0,0
156024,480,4,2,1,60,1,0
156024,-62.5,4,3,10,60,0,1
156264,-62.5,4,3,10,5,0,1
156344,-62.5,4,3,10,60,0,1
156664,-62.5,4,3,11,55,0,1
156984,-62.5,4,3,10,60,0,1
157304,-62.5,4,3,10,60,0,1
157624,-62.5,4,3,11,55,0,1
157944,-62.5,4,3,10,60,0,1
158584,-62.5,4,3,11,55,0,1
158904,-62.5,4,3,10,60,0,1
159224,-62.5,4,3,10,60,0,1
159544,-62.5,4,3,11,55,0,1
159704,-62.5,4,3,12,55,0,1
159864,-62.5,4,3,10,60,0,1
160104,-62.5,4,3,10,5,0,1
160184,-62.5,4,3,10,60,0,1
160264,-62.5,4,3,10,5,0,1
160344,-62.5,4,3,10,60,0,1
160504,-62.5,4,3,11,55,0,1
160824,-62.5,4,3,10,60,0,1
161304,-62.5,4,3,10,60,0,1
161464,-62.5,4,3,11,55,0,1
161704,-62.5,4,3,10,5,0,1
161784,-62.5,4,3,10,60,0,1
162024,-62.5,4,3,10,5,0,1
162104,-62.5,4,3,10,60,0,1
162424,-62.5,4,3,11,55,0,1
162744,-62.5,4,3,10,60,0,1
163704,-62.5,4,3,10,60,0,1
163944,-62.5,4,3,10,5,0,1
164024,-62.5,4,3,10,60,0,1
164344,-62.5,4,3,11,55,0,1
164664,-62.5,4,3,10,60,0,1
164984,-62.5,4,3,10,60,0,1
165304,-62.5,4,3,11,55,0,1
165624,-62.5,4,3,10,60,0,1
165864,-62.5,4,3,10,5,0,1
165944,-62.5,4,3,10,60,0,1
166264,-62.5,4,3,11,55,0,1
166584,-62.5,4,3,10,60,0,1
166904,-62.5,4,3,10,55,0,1
167224,-62.5,4,3,11,55,0,1
167384,-62.5,4,3,12,55,0,1
167544,-62.5,4,3,10,60,0,1
167784,-62.5,4,3,10,5,0,1
167864,-62.5,4,3,10,60,0,1
168184,-62.5,4,3,11,55,0,1
168504,-62.5,4,3,10,60,0,1
168984,-62.5,4,3,10,60,0,1
169144,-62.5,4,3,11,55,0,1
169384,-62.5,4,3,10,5,0,1
169464,-62.5,4,3,10,60,0,1
169704,-62.5,4,3,10,5,0,1
169784,-62.5,4,3,10,60,0,1
169864,-62.5,4,3,10,5,0,1
169944,-62.5,4,3,10,60,0,1
170024,-62.5,4,3,10,5,0,1
170104,-62.5,4,3,12,55,0,1
170184,-62.5,4,3,12,5,0,1
170264,-62.5,4,3,10,60,0,1
170344,-62.5,4,3,10,5,0,1
170424,-62.5,4,3,10,60,0,1
170584,-62.5,4,3,11,55,0,1
170664,-62.5,4,3,12,55,0,1
170904,-62.5,4,3,10,60,0,1
171064,-62.5,4,3,11,55,0,1
171224,-62.5,4,3,12,55,0,1
171384,-65.7894736842105,4,3,10,60,0,1
171864,477.326968973747,4,3,10,55,1,1
171864,-65.7894736842105,4,3,10,55,0,1
172024,-100,4,3,11,55,0,1
172341,487.80487804878,4,3,10,55,1,1
172341,-68.9655172413793,4,3,10,55,0,1
172422,-100,4,3,10,50,0,1
172503,-100,4,3,11,50,0,1
172584,-100,4,3,10,50,0,1
172666,-100,4,3,11,50,0,1
172747,-100,4,3,10,5,0,1
172828,483.870967741935,4,3,10,50,1,1
172828,-68.9655172413793,4,3,10,50,0,1
173311,-68.9655172413793,4,3,10,50,0,1
173473,-68.9655172413793,4,3,11,50,0,1
173795,480,4,2,11,50,1,1
173795,-68.9655172413793,4,3,11,50,0,1
173955,-100,4,3,12,50,0,1
174275,530.973451327434,4,1,1,60,1,1
174275,-83.3333333333333,4,3,10,50,0,1
174673,-83.3333333333333,4,3,10,5,0,0
174805,722.89156626506,4,1,1,60,1,1
174805,-71.4285714285714,4,3,10,55,0,1
175407,-71.4285714285714,4,3,10,5,0,0
175527,888.888888888889,4,1,1,60,1,1
175527,-71.4285714285714,4,3,10,60,0,1
175675,-71.4285714285714,4,3,10,5,0,0
179082,266.666666666667,4,3,10,55,1,0
179082,-74.0740740740741,4,3,10,55,0,0
183348,-200,4,3,10,50,0,0
183415,-200,4,3,10,5,0,0
185348,-74.0740740740741,4,3,10,55,0,0
186548,-86.9565217391304,4,3,10,55,0,0
186615,-86.9565217391304,4,3,11,55,0,0
186682,-86.9565217391304,4,3,12,55,0,0
186748,-86.9565217391304,4,3,11,55,0,0
186815,-86.9565217391304,4,3,10,55,0,0
186882,-86.9565217391304,4,3,11,55,0,0
187082,-86.9565217391304,4,3,10,55,0,0
187148,-86.9565217391304,4,3,11,55,0,0
187215,-86.9565217391304,4,3,12,55,0,0
187348,-86.9565217391304,4,3,10,55,0,0
187415,-86.9565217391304,4,3,10,5,0,0
187482,260.869565217391,4,3,10,55,1,0
187482,-117.647058823529,4,3,10,55,0,0
187742,266.666666666667,4,3,10,55,1,0
187742,-76.9230769230769,4,3,10,55,0,0
187875,266.666666666667,4,3,10,55,1,0
187875,-76.9230769230769,4,3,10,55,0,0
188675,266.666666666667,4,3,10,55,1,0
188675,-76.9230769230769,4,3,10,55,0,0
189208,-100,4,3,11,55,0,0
189608,-117.647058823529,4,3,10,60,0,0
189875,-76.9230769230769,4,3,10,55,0,0
191208,-76.9230769230769,4,3,11,55,0,0
191741,-117.647058823529,4,3,10,60,0,0
192008,-76.9230769230769,4,3,10,55,0,0
193475,-76.9230769230769,4,3,11,55,0,0
193875,-117.647058823529,4,3,10,60,0,0
194141,-76.9230769230769,4,3,10,55,0,0
195075,-76.9230769230769,4,3,10,50,0,0
195341,-76.9230769230769,4,3,11,55,0,0
195608,-76.9230769230769,4,3,10,55,0,0
195675,-76.9230769230769,4,3,11,55,0,0
195741,-76.9230769230769,4,3,10,55,0,0
195808,-76.9230769230769,4,3,11,55,0,0
195875,-76.9230769230769,4,3,10,55,0,0
196008,260.869565217391,4,3,10,55,1,0
196008,-90.9090909090909,4,3,10,55,0,0
196268,266.666666666667,4,3,10,55,1,0
196268,-90.9090909090909,4,3,10,55,0,0
196401,266.666666666667,4,3,10,55,1,0
196401,-90.9090909090909,4,3,10,55,0,0
197201,266.666666666667,4,3,10,55,1,0
197201,-90.9090909090909,4,3,10,55,0,0
198134,-90.9090909090909,4,3,10,60,0,0
198400,-90.9090909090909,4,3,10,55,0,0
199400,-90.9090909090909,4,3,10,5,0,0
199467,-90.9090909090909,4,3,10,55,0,0
199800,-90.9090909090909,4,3,10,5,0,0
199867,-90.9090909090909,4,3,10,55,0,0
200667,-90.9090909090909,4,3,10,55,0,0
202200,-90.9090909090909,4,3,10,5,0,0
202267,-90.9090909090909,4,3,10,55,0,0
202400,-90.9090909090909,4,3,10,55,0,0
202667,-90.9090909090909,4,3,10,55,0,0
203800,-90.9090909090909,4,3,12,45,0,0
204134,-90.9090909090909,4,3,10,55,0,0
204200,-90.9090909090909,4,3,10,5,0,0
204267,-90.9090909090909,4,3,10,55,0,0
204534,-90.9090909090909,4,3,10,55,0,0
206667,-90.9090909090909,4,3,10,60,0,0
206934,-90.9090909090909,4,3,10,55,0,0
207601,300,4,3,10,55,1,0
207601,-90.9090909090909,4,3,11,55,0,0
207751,250,4,3,10,55,1,0
207751,-90.9090909090909,4,3,10,55,0,0
208001,266.666666666667,4,3,10,55,1,0
208001,-90.9090909090909,4,3,10,55,0,0
208134,266.666666666667,4,3,10,55,1,0
208134,-90.9090909090909,4,3,10,55,0,0
208400,-90.9090909090909,4,3,11,55,0,0
208667,-90.9090909090909,4,3,12,55,0,0
208934,266.666666666667,4,3,10,55,1,0
208934,-90.9090909090909,4,3,10,55,0,0
210000,264.31718061674,4,3,10,55,1,0
210000,-90.9090909090909,4,3,10,55,0,0
210528,272.727272727273,4,3,10,55,1,0
210528,-90.9090909090909,4,3,10,55,0,0
210937,248.96265560166,4,3,10,55,1,0
210937,-90.9090909090909,4,3,10,55,0,0
211061,266.666666666667,4,3,10,55,1,0
211061,-111.111111111111,4,3,10,55,0,0
211194,-111.111111111111,4,3,12,50,0,0
211328,-111.111111111111,4,3,11,50,0,0
211461,-111.111111111111,4,3,10,55,0,0
211594,-111.111111111111,4,3,12,50,0,0
211727,260.869565217391,4,2,1,60,1,0
211727,-111.111111111111,4,3,11,50,0,0
211857,287.081339712919,4,3,10,55,1,0
211857,-111.111111111111,4,3,10,55,0,0
212000,300,4,3,10,55,1,0
212000,-111.111111111111,4,3,10,55,0,0
212150,240,4,3,10,55,1,0
212150,-111.111111111111,4,3,10,55,0,0
212390,258.620689655172,4,3,10,55,1,0
212390,-111.111111111111,4,3,10,55,0,0
212519,279.72027972028,4,3,10,55,1,0
212519,-111.111111111111,4,3,10,55,0,0
212658,266.666666666667,4,3,10,55,1,0
212658,-111.111111111111,4,3,10,55,0,0
213124,333.333333333333,4,3,10,55,1,0
213124,-111.111111111111,4,3,10,55,0,0
213207,266.666666666667,4,3,10,55,1,1
213207,-80,4,3,10,55,0,1
214073,-80,4,3,10,25,0,1
214140,-80,4,3,10,55,0,1
214873,-80,4,3,10,25,0,1
214940,-80,4,3,10,55,0,1
215273,-80,4,3,10,5,0,1
215340,-80,4,3,10,55,0,1
216873,-80,4,3,10,25,0,1
216940,-80,4,3,10,55,0,1
219673,-80,4,3,10,25,0,1
219740,-80,4,3,10,55,0,1
225007,-80,4,3,10,25,0,1
225073,-80,4,3,10,55,0,1
225140,-80,4,3,10,25,0,1
225207,-80,4,3,10,55,0,1
225273,-80,4,3,10,25,0,1
225340,-80,4,3,10,55,0,1
225540,-80,4,3,10,25,0,1
225607,-80,4,3,10,55,0,1
225673,-80,4,3,10,25,0,1
225740,-80,4,3,10,55,0,1
225940,-80,4,3,10,5,0,1
226007,-80,4,3,10,55,0,1
226073,-80,4,3,10,25,0,1
226140,-80,4,3,10,55,0,1
226207,-80,4,3,10,25,0,1
226273,-80,4,3,10,55,0,1
226473,-80,4,3,10,25,0,1
226540,-80,4,3,10,55,0,1
226607,-80,4,3,10,25,0,1
226673,-80,4,3,10,55,0,1
226740,-80,4,3,10,25,0,1
226807,-80,4,3,10,55,0,1
227007,-80,4,3,10,25,0,1
227073,-80,4,3,10,55,0,1
227673,-80,4,3,10,25,0,1
227740,-80,4,3,10,55,0,1
227806,-80,4,3,10,25,0,1
227873,-80,4,3,10,55,0,1
227940,-80,4,3,10,25,0,1
228007,-80,4,3,10,55,0,1
228073,-80,4,3,10,25,0,1
228140,-80,4,3,10,55,0,1
229207,-80,4,3,10,40,0,1
229473,-80,4,3,11,45,0,1
229740,-80,4,3,12,50,0,1
230007,-80,4,3,10,55,0,1
230273,-95.2380952380952,4,3,10,55,0,0
232407,-86.9565217391304,4,3,10,55,0,0
234407,-95.2380952380952,4,3,10,55,0,0
236673,-95.2380952380952,4,3,10,55,0,0
237007,-95.2380952380952,4,3,10,25,0,0
237073,-95.2380952380952,4,3,10,55,0,0
237540,-95.2380952380952,4,3,10,25,0,0
237607,-95.2380952380952,4,3,10,55,0,0
237673,-95.2380952380952,4,3,10,25,0,0
237740,-95.2380952380952,4,3,10,55,0,0
238273,-95.2380952380952,4,3,11,50,0,0
238807,-71.4285714285714,4,3,10,55,0,0
239073,-83.3333333333333,4,3,10,55,0,0
243140,-83.3333333333333,4,3,10,5,0,0
243207,-83.3333333333333,4,3,10,55,0,0
243807,-83.3333333333333,4,3,10,5,0,0
243873,-83.3333333333333,4,3,10,55,0,0
243940,-83.3333333333333,4,3,10,5,0,0
244007,-83.3333333333333,4,3,10,55,0,0
244073,-83.3333333333333,4,3,10,5,0,0
244140,-83.3333333333333,4,3,10,55,0,0
244473,-83.3333333333333,4,3,10,5,0,0
244540,-83.3333333333333,4,3,10,55,0,0
244673,-83.3333333333333,4,3,10,55,0,0
246273,-83.3333333333333,4,3,11,55,0,0
246807,-83.3333333333333,4,3,12,55,0,0
247340,264.31718061674,4,2,10,60,1,0
247340,-133.333333333333,4,2,10,60,0,0
247407,-133.333333333333,4,2,10,5,0,0
248397,268.156424581006,4,2,10,60,1,0
248397,-111.111111111111,4,2,10,50,0,0
248933,265.721877767936,4,2,10,60,1,0
248933,-111.111111111111,4,2,10,50,0,0
249464,269.058295964126,4,2,10,55,1,0
249464,-133.333333333333,4,2,10,60,0,0
249531,-133.333333333333,4,2,10,5,0,0
250540,262.008733624454,4,2,10,55,1,0
250540,-111.111111111111,4,2,10,55,0,0
251326,265.486725663717,4,2,10,60,1,0
251326,-111.111111111111,4,2,10,55,0,0
251591,269.058295964126,4,2,10,55,1,0
251591,-133.333333333333,4,2,10,55,0,0
251657,-133.333333333333,4,2,10,5,0,0
252667,266.075388026608,4,2,10,55,1,0
252667,-111.111111111111,4,2,10,55,0,0
253199,265.486725663717,4,3,10,55,1,0
253199,-111.111111111111,4,2,10,55,0,0
253464,259.74025974026,4,2,10,60,1,0
253464,-111.111111111111,4,2,10,55,0,0
253723,271.186440677966,4,3,10,55,1,0
253723,-133.333333333333,4,2,10,55,0,0
253790,-133.333333333333,4,2,10,5,0,0
254807,266.666666666667,4,3,10,55,1,0
254807,-111.111111111111,4,3,10,50,0,0
254873,-111.111111111111,4,3,10,5,0,0
254940,-111.111111111111,4,3,11,50,0,0
255073,-111.111111111111,4,3,12,50,0,0
255207,-111.111111111111,4,3,10,50,0,0
255273,-111.111111111111,4,3,10,5,0,0
255340,-111.111111111111,4,3,11,50,0,0
255473,-111.111111111111,4,3,12,50,0,0
255607,-111.111111111111,4,3,10,50,0,0
255673,-111.111111111111,4,3,10,5,0,0
255740,-111.111111111111,4,3,11,50,0,0
255873,267.260579064588,4,2,10,55,1,0
255873,-133.333333333333,4,2,10,55,0,0
255940,-133.333333333333,4,2,10,5,0,0
256942,266.666666666667,4,2,10,55,1,0
256942,-111.111111111111,4,2,10,55,0,0
257475,260.869565217391,4,2,10,55,1,0
257475,-111.111111111111,4,2,10,55,0,0
257866,269.662921348315,4,2,10,60,1,0
257866,-111.111111111111,4,2,10,55,0,0
258000,266.666666666667,4,2,10,55,1,0
258000,-133.333333333333,4,2,10,55,0,0
258066,-133.333333333333,4,2,10,5,0,0
259066,268.156424581006,4,2,10,55,1,0
259066,-111.111111111111,4,2,10,55,0,0
259602,265.486725663717,4,2,10,60,1,0
259602,-111.111111111111,4,2,10,55,0,0
259867,257.510729613734,4,2,10,60,1,0
259867,-111.111111111111,4,2,10,55,0,0
259995,270.27027027027,4,2,10,60,1,0
259995,-111.111111111111,4,2,10,55,0,0
260130,266.666666666667,4,2,10,55,1,0
260130,-133.333333333333,4,2,10,55,0,0
260197,-133.333333333333,4,2,10,5,0,0
261196,-111.111111111111,4,2,10,55,0,0
261729,-111.111111111111,4,2,10,55,0,0
261730,268.817204301075,4,2,10,60,1,0
262267,266.963292547275,4,2,10,60,1,0
262267,-90.9090909090908,4,2,10,60,0,0
262333,-90.9090909090908,4,2,10,25,0,0
262800,-117.647058823529,4,2,10,55,0,0
262867,-117.647058823529,4,2,10,5,0,0
263334,265.486725663717,4,2,10,60,1,0
263334,-117.647058823529,4,3,10,55,0,0
263400,-117.647058823529,4,3,11,55,0,0
263599,-117.647058823529,4,3,12,55,0,0
263864,266.666666666667,4,2,10,60,1,0
263864,-117.647058823529,4,3,12,55,0,0
264264,283.018867924528,4,2,10,60,1,0
264264,-117.647058823529,4,3,12,55,0,0
264405,659.340659340659,4,2,10,55,1,0
264405,-142.857142857143,4,2,10,55,0,0
264569,-100,4,2,10,5,0,0
269679,480.384307445957,4,3,10,55,1,0
269679,-90.9090909090909,4,3,10,55,0,0
275443,-90.9090909090909,4,3,10,55,0,0
276884,-90.9090909090909,4,3,11,55,0,0
277365,-80,4,3,10,55,0,0
277765,-80,4,3,10,5,0,0
277845,-80,4,3,10,55,0,0
279286,480,4,3,10,55,1,0
279286,-80,4,3,10,55,0,0
281206,487.80487804878,4,3,10,55,1,0
281206,-80,4,3,10,55,0,0
281693,475.247524752475,4,3,10,55,1,0
281693,-80,4,3,10,55,0,0
282168,480,4,3,10,55,1,0
282168,-80,4,3,10,55,0,0
283128,480,4,3,10,55,1,0
283128,-80,4,3,10,55,0,0
286008,472.44094488189,4,3,10,55,1,0
286008,-80,4,3,10,55,0,0
286480,480,4,3,10,55,1,0
286480,-80,4,3,10,55,0,0
286960,487.80487804878,4,3,10,55,1,0
286960,-80,4,3,10,55,0,0
287935,465.116279069767,4,3,10,55,1,0
287935,-80,4,3,10,55,0,0
288400,480,4,3,10,55,1,0
288400,-80,4,3,10,55,0,0
288880,483.870967741935,4,3,10,55,1,0
288880,-80,4,3,10,55,0,0
289847,465.116279069767,4,3,10,55,1,0
289847,-80,4,3,10,55,0,0
290312,487.80487804878,4,2,10,60,1,0
290312,-80,4,3,10,55,0,0
290799,480,4,3,10,55,1,0
290799,-80,4,3,11,55,0,0
290959,-80,4,3,10,55,0,0
291279,-80,4,3,11,55,0,0
291439,468.75,4,2,10,60,1,0
291439,-80,4,3,10,55,0,0
291759,-80,4,3,10,55,0,0
291907,480,4,2,10,60,1,0
291907,-80,4,3,12,55,0,0
292227,-80,4,3,11,55,0,0
292547,542.986425339367,4,2,10,60,1,0
292547,-80,4,3,11,55,0,0
292727,476.190476190476,4,3,10,55,1,0
292727,-68.9655172413793,4,3,10,55,0,0
293679,480,4,3,10,55,1,0
293679,-68.9655172413793,4,3,10,55,0,0
294639,480,4,3,10,55,1,0
294639,-68.9655172413793,4,3,10,55,0,0
294879,-68.9655172413793,4,3,10,5,0,0
294959,-68.9655172413793,4,3,10,55,0,0
296559,489.795918367347,4,3,10,55,1,0
296559,-74.0740740740741,4,3,10,55,0,0
297048,480,4,3,10,55,1,0
297048,-74.0740740740741,4,3,10,55,0,0
297848,451.127819548872,4,3,10,55,1,0
297848,-74.0740740740741,4,3,10,55,0,0
297998,480,4,3,10,55,1,0
297998,-74.0740740740741,4,3,10,55,0,0
298478,487.80487804878,4,3,10,55,1,0
298478,-74.0740740740741,4,3,10,55,0,0
298721,-74.0740740740741,4,3,10,5,0,0
298803,-74.0740740740741,4,3,10,55,0,0
298965,480,4,3,10,55,1,0
298965,-74.0740740740741,4,3,10,55,0,0
299685,-74.0740740740741,4,3,10,5,0,0
299765,461.538461538462,4,3,10,55,1,0
299765,-74.0740740740741,4,3,10,55,0,0
299918,475.247524752475,4,3,10,55,1,0
299918,-74.0740740740741,4,3,10,55,0,0
300393,472.44094488189,4,3,10,55,1,0
300393,-66.6666666666667,4,3,10,55,0,0
300865,461.538461538462,4,3,10,55,1,0
300865,-66.6666666666667,4,3,10,55,0,0
301172,502.092050209205,4,3,10,55,1,0
301172,-66.6666666666667,4,3,10,55,0,0
301345,483.870967741935,4,3,10,55,1,0
301345,-66.6666666666667,4,3,10,55,0,0
302312,480,4,3,10,55,1,0
302312,-66.6666666666667,4,3,10,55,0,0
302632,458.015267175573,4,3,10,55,1,0
302632,-66.6666666666667,4,3,10,55,0,0
302784,458.015267175573,4,3,10,55,1,0
302784,-66.6666666666667,4,3,10,55,0,0
303089,526.315789473684,4,3,10,55,1,0
303089,-66.6666666666667,4,3,10,55,0,0
303264,489.795918367347,4,3,10,55,1,0
303264,-66.6666666666667,4,3,10,55,0,0
304243,480,4,3,10,55,1,0
304243,-74.0740740740741,4,3,10,50,0,0
306163,-66.6666666666667,4,3,10,55,0,0
306323,458.015267175573,4,3,10,55,1,0
306323,-66.6666666666667,4,3,10,55,0,0
306628,458.015267175573,4,3,10,55,1,0
306628,-66.6666666666667,4,3,10,55,0,0
306780,-100,4,3,11,55,0,0
306938,461.538461538462,4,3,11,55,1,0
306938,-66.6666666666667,4,3,11,55,0,0
307091,487.80487804878,4,3,10,55,1,0
307091,-66.6666666666667,4,3,10,55,0,0
307253,-100,4,3,12,55,0,0
307578,495.867768595041,4,3,11,55,1,0
307578,-66.6666666666667,4,3,11,55,0,0
307908,530.973451327434,4,3,11,55,1,0
307908,-66.6666666666667,4,3,11,55,0,0
308084,480,4,3,10,60,1,1
308084,-62.5,4,3,10,60,0,1
308324,-62.5,4,3,10,5,0,1
308404,-62.5,4,3,10,60,0,1
308724,-62.5,4,3,11,55,0,1
309044,-62.5,4,3,10,60,0,1
309364,-62.5,4,3,10,60,0,1
309684,-62.5,4,3,11,55,0,1
310004,-62.5,4,3,10,60,0,1
310644,-62.5,4,3,11,55,0,1
310964,-62.5,4,3,10,60,0,1
311284,-62.5,4,3,10,60,0,1
311604,-62.5,4,3,11,55,0,1
311764,-62.5,4,3,12,55,0,1
311924,-62.5,4,3,10,60,0,1
312164,-62.5,4,3,10,5,0,1
312244,-62.5,4,3,10,60,0,1
312324,-62.5,4,3,10,5,0,1
312404,-62.5,4,3,10,60,0,1
312564,-62.5,4,3,11,55,0,1
312884,-62.5,4,3,10,60,0,1
313364,-62.5,4,3,10,60,0,1
313524,-62.5,4,3,11,55,0,1
313764,-62.5,4,3,10,5,0,1
313844,-62.5,4,3,10,60,0,1
314084,-62.5,4,3,10,5,0,1
314164,-62.5,4,3,10,60,0,1
314484,-62.5,4,3,11,55,0,1
314804,-62.5,4,3,10,60,0,1
314964,-62.5,4,3,11,55,0,1
315124,-62.5,4,3,12,55,0,1
315284,-62.5,4,3,10,55,0,1
315444,-62.5,4,3,11,55,0,1
315604,-62.5,4,3,12,55,0,1
315764,-62.5,4,3,10,60,0,1
316004,-62.5,4,3,10,5,0,1
316084,-62.5,4,3,10,60,0,1
316404,-62.5,4,3,11,55,0,1
316724,-62.5,4,3,10,60,0,1
317044,-62.5,4,3,10,60,0,1
317364,-62.5,4,3,11,55,0,1
317684,-62.5,4,3,10,60,0,1
317924,-62.5,4,3,10,5,0,1
318004,-62.5,4,3,10,60,0,1
318324,-62.5,4,3,11,55,0,1
318644,-62.5,4,3,10,60,0,1
318964,-62.5,4,3,10,55,0,1
319284,-62.5,4,3,11,55,0,1
319444,-62.5,4,3,12,55,0,1
319604,-62.5,4,3,10,60,0,1
319844,-62.5,4,3,10,5,0,1
319924,-62.5,4,3,10,60,0,1
320004,-62.5,4,3,10,60,0,1
320084,-62.5,4,3,10,60,0,1
320244,-62.5,4,3,11,55,0,1
320564,-62.5,4,3,10,60,0,1
321044,-62.5,4,3,10,60,0,1
321204,-62.5,4,3,11,55,0,1
321444,-62.5,4,3,10,5,0,1
321524,-62.5,4,3,10,60,0,1
321764,-62.5,4,3,10,5,0,1
321844,-62.5,4,3,10,60,0,1
322164,-62.5,4,3,12,55,0,1
322324,-62.5,4,3,10,60,0,1
322644,-62.5,4,3,11,55,0,1
322724,-62.5,4,3,12,55,0,1
322964,-62.5,4,3,10,60,0,1
323124,-62.5,4,3,11,55,0,1
323284,-62.5,4,3,12,55,0,1
323444,-65.7894736842105,4,3,10,60,0,1
323764,-65.7894736842105,4,3,10,50,0,1
324083,-65.7894736842105,4,3,11,50,0,1
324404,-68.9655172413793,4,3,10,50,0,1
324644,-68.9655172413793,4,3,10,5,0,1
324724,-68.9655172413793,4,3,10,50,0,1
325044,-68.9655172413793,4,3,11,50,0,1
325364,-68.9655172413793,4,3,10,50,0,1
325604,-68.9655172413793,4,3,10,5,0,1
325684,-68.9655172413793,4,3,10,50,0,1
325764,-68.9655172413793,4,3,10,5,0,1
325844,-68.9655172413793,4,3,10,50,0,1
326004,-68.9655172413793,4,3,11,50,0,1
326324,-68.9655172413793,4,3,10,50,0,1
326564,-68.9655172413793,4,3,10,5,0,1
326644,-68.9655172413793,4,3,10,50,0,1
326964,-68.9655172413793,4,3,11,50,0,1
327124,-68.9655172413793,4,3,12,50,0,1
327284,-68.9655172413793,4,3,10,50,0,1
328084,-68.9655172413793,4,3,12,50,0,1
328244,-68.9655172413793,4,3,10,50,0,1
328724,-68.9655172413793,4,3,10,50,0,1
328884,-68.9655172413793,4,3,11,50,0,1
329124,-68.9655172413793,4,3,10,5,0,1
329204,-68.9655172413793,4,3,10,50,0,1
329844,-68.9655172413793,4,3,11,50,0,1
330164,-68.9655172413793,4,3,10,50,0,1
330484,-68.9655172413793,4,3,12,50,0,1
330644,-68.9655172413793,4,3,10,50,0,1
330724,-68.9655172413793,4,3,10,5,0,1
330804,-68.9655172413793,4,3,10,50,0,1
331124,-62.5,4,3,10,50,0,1
331604,-68.9655172413793,4,3,10,50,0,1
331764,-68.9655172413793,4,3,11,50,0,1
332084,-68.9655172413793,4,3,10,50,0,1
332724,-68.9655172413793,4,3,11,50,0,1
333044,-62.5,4,3,10,50,0,1
333284,-62.5,4,3,10,5,0,1
333364,-68.9655172413793,4,3,10,50,0,1
333684,-68.9655172413793,4,3,11,50,0,1
334004,-68.9655172413793,4,3,10,50,0,1
334484,-68.9655172413793,4,3,10,50,0,1
334644,-68.9655172413793,4,3,11,50,0,1
334964,-62.5,4,3,10,50,0,1
335204,-62.5,4,3,10,5,0,1
335284,-62.5,4,3,10,50,0,1
335444,-62.5,4,3,10,50,0,1
335604,-62.5,4,3,11,50,0,1
335924,-62.5,4,3,10,50,0,1
336404,-62.5,4,3,10,50,0,1
336564,-62.5,4,3,11,50,0,1
336804,-62.5,4,3,10,5,0,1
336884,-62.5,4,3,10,50,0,1
337124,-62.5,4,3,10,5,0,1
337204,-62.5,4,3,10,50,0,1
337524,-62.5,4,3,11,50,0,1
337844,-62.5,4,3,10,50,0,1
338004,-62.5,4,3,11,50,0,1
338324,-62.5,4,3,10,50,0,1
338484,-62.5,4,3,11,50,0,1
338804,-65.7894736842105,4,3,10,50,0,1
339444,-65.7894736842105,4,3,11,50,0,1
339764,-65.7894736842105,4,3,11,50,0,1
340244,-65.7894736842105,4,3,10,50,0,1
340404,-65.7894736842105,4,3,11,50,0,1
340724,-65.7894736842105,4,3,10,50,0,1
340804,-65.7894736842105,4,3,11,50,0,1
341044,-65.7894736842105,4,3,10,50,0,1
341364,-65.7894736842105,4,3,12,50,0,1
341444,-65.7894736842105,4,3,12,50,0,1
341684,-65.7894736842105,4,3,10,50,0,1
341924,-65.7894736842105,4,3,10,5,0,1
342004,-65.7894736842105,4,3,10,50,0,1
342164,-65.7894736842105,4,3,10,5,0,1
342324,-65.7894736842105,4,3,10,50,0,1
342564,-65.7894736842105,4,3,10,5,0,1
342644,-62.5,4,3,10,60,0,1
344564,-80,4,3,10,60,0,0

[Colours]
Combo1 : 168,0,0
Combo2 : 255,153,153
Combo3 : 255,0,0

[HitObjects]
16,32,353,6,0,L|234:43,1,173.849992837601,6|0,0:0|0:0,0:0:0:0:
267,118,821,1,4,0:0:0:0:
154,231,983,1,4,0:0:0:0:
268,344,1146,1,4,0:0:0:0:
380,231,1308,1,4,0:0:0:0:
16,32,1788,6,0,L|25:250,1,173.849992837601,6|0,0:0|0:0,0:0:0:0:
97,131,2268,2,0,P|152:143|12:285,1,405.649983287736,6|0,0:0|0:0,0:0:0:0:
109,234,3231,2,0,L|405:220,1,289.749988062668,6|0,0:0|0:0,0:0:0:0:
459,158,3954,1,2,0:0:0:0:
458,129,4075,1,2,0:0:0:0:
440,108,4195,6,0,L|222:97,1,173.849992837601,6|0,0:0|0:0,0:0:0:0:
172,158,4660,1,4,0:0:0:0:
284,270,4823,1,4,0:0:0:0:
170,383,4987,1,4,0:0:0:0:
58,270,5151,1,4,0:0:0:0:
440,108,5631,6,0,L|431:326,1,173.849992837601,6|0,0:0|0:0,0:0:0:0:
358,207,6118,2,0,B|314:162|314:162|280:164|280:164|247:114|182:119|155:155|155:155|119:209|15:205|7:113,1,405.649983287736,6|0,0:0|0:0,0:0:0:0:
88,107,7074,6,0,P|120:74|188:45,1,115.899995225067,6|0,0:0|0:0,0:0:0:0:
296,278,7432,2,0,P|251:269|215:192,1,125.39999961731,2|0,0:0|0:0,0:0:0:0:
305,95,7791,2,0,P|276:121|232:128,1,67.4499966036226,2|0,0:0|0:0,0:0:0:0:
13,143,8030,6,0,P|71:189|169:118,1,173.849992837601,6|0,0:0|0:0,0:0:0:0:
223,10,8502,1,4,0:0:0:0:
364,71,8664,1,4,0:0:0:0:
300,218,8827,1,4,0:0:0:0:
155,154,8989,1,4,0:0:0:0:
499,1,9469,6,0,P|413:5|361:98,1,173.849992837601,6|0,0:0|0:0,0:0:0:0:
442,154,9960,2,0,B|461:191|500:211|500:211|483:234|483:234|512:278|503:344|456:384|398:390|340:371|319:308,1,405.649983287736,6|0,0:0|0:0,0:0:0:0:
386,211,10918,2,0,L|85:218,1,289.749988062668,6|0,0:0|0:0,0:0:0:0:
34,156,11636,1,2,0:0:0:0:
35,127,11756,1,2,0:0:0:0:
53,106,11876,6,0,L|271:95,1,173.849992837601,6|0,0:0|0:0,0:0:0:0:
304,175,12344,1,4,0:0:0:0:
254,319,12506,1,4,0:0:0:0:
102,269,12669,1,4,0:0:0:0:
153,119,12831,1,4,0:0:0:0:
346,344,13312,6,0,L|357:125,1,173.849992837601,6|0,0:0|0:0,0:0:0:0:
385,16,13793,2,0,B|405:50|456:52|473:14|473:14|501:42|497:122|424:67|420:214|511:154|503:236|449:290,1,405.649983287736,6|0,0:0|0:0,0:0:0:0:
313,384,14753,6,0,P|318:339|283:272,1,115.899995225067,6|0,0:0|0:0,0:0:0:0:
139,299,15113,2,0,P|167:334|228:343,1,106.400001298828,2|0,0:0|0:0,0:0:0:0:
207,183,15473,2,0,P|204:222|224:257,1,48.4500002957153,2|0,0:0|0:0,0:0:0:0:
288,276,15713,6,0,B|327:193|327:193|246:100,1,178.125,6|0,0:0|0:0,0:0:0:0:
197,44,16193,1,8,0:0:0:0:
96,144,16353,1,8,0:0:0:0:
196,244,16513,1,8,0:0:0:0:
95,344,16673,5,8,0:0:0:0:
95,27,16993,1,8,0:0:0:0:
318,250,17313,1,8,0:0:0:0:
41,181,17633,6,0,B|93:201|127:170|127:170|148:181|148:181|184:154|249:180,1,178.125,14|0,3:2|0:0,0:0:0:0:
318,250,18113,1,8,0:0:0:0:
77,115,18273,1,8,0:0:0:0:
319,57,18433,1,8,0:0:0:0:
207,168,18593,6,0,L|129:4,1,178.125,14|0,3:2|0:0,0:0:0:0:
77,115,19073,1,8,0:0:0:0:
319,57,19233,1,8,0:0:0:0:
199,246,19393,1,8,0:0:0:0:
130,7,19553,6,0,L|207:168,1,178.125,14|0,3:2|0:0,0:0:0:0:
320,281,20033,1,8,0:0:0:0:
431,169,20193,1,8,0:0:0:0:
319,57,20353,1,8,0:0:0:0:
207,168,20513,5,8,0:0:0:0:
430,384,20833,1,8,0:0:0:0:
430,67,21153,1,8,0:0:0:0:
207,168,21473,6,0,B|163:208|109:177|109:177|75:159|32:176,1,178.125,14|0,3:2|0:0,0:0:0:0:
155,109,21953,1,8,0:0:0:0:
0,310,22113,1,8,0:0:0:0:
207,168,22273,1,8,0:0:0:0:
95,279,22433,6,0,B|139:319|193:288|193:288|227:270|270:287,1,178.125,14|0,3:2|0:0,0:0:0:0:
207,168,22913,1,8,0:0:0:0:
386,347,23073,1,8,0:0:0:0:
148,231,23233,1,8,0:0:0:0:
310,36,23393,6,0,P|379:50|406:178,1,178.125,14|0,3:2|0:0,0:0:0:0:
340,261,23873,1,8,0:0:0:0:
228,149,24033,1,8,0:0:0:0:
116,260,24193,1,8,0:0:0:0:
4,148,24353,5,8,0:0:0:0:
320,148,24673,1,8,0:0:0:0:
114,343,24993,1,8,0:0:0:0:
174,58,25313,6,0,B|182:106|154:134|154:134|174:133|174:133|150:166|166:218,1,178.125,14|0,3:2|0:0,0:0:0:0:
247,290,25793,1,8,0:0:0:0:
104,80,25953,1,8,0:0:0:0:
320,148,26113,1,8,0:0:0:0:
162,205,26273,6,0,B|149:165|173:132|173:132|153:133|153:133|181:105|173:57,1,178.125,14|0,3:2|0:0,0:0:0:0:
235,180,26753,1,8,0:0:0:0:
55,0,26913,1,8,0:0:0:0:
116,260,27073,1,8,0:0:0:0:
295,80,27233,6,0,B|332:56|413:66|349:113|436:117|476:69,1,178.125,14|0,3:2|0:0,0:0:0:0:
367,176,27713,1,8,0:0:0:0:
506,315,27873,1,8,0:0:0:0:
308,315,28033,1,8,0:0:0:0:
447,175,28193,5,8,0:0:0:0:
145,365,28513,1,8,0:0:0:0:
241,16,28833,1,8,0:0:0:0:
343,239,29163,6,0,B|303:206|249:216|214:294|289:333|324:311|324:311|327:346|260:381|209:354|178:283|178:283|201:243|195:195|195:195|161:160|98:160|98:160|132:146|209:156|147:174|233:192|280:146,1,769.500018786621,14|0,3:2|0:0,0:0:0:0:
351,97,31081,2,0,B|412:67|419:113|464:94|490:64|490:64|457:116|454:209|522:145|515:245|476:310|476:310|463:257|429:227|429:227|440:294|392:331,1,623.200009509277,2|4,0:0|0:0,0:0:0:0:
87,283,48523,6,0,P|106:241|100:189,1,56.9999982604981,2|0,0:0|0:0,0:0:0:0:
158,141,48843,2,0,P|182:154|201:174,1,56.9999982604981,2|0,0:0|0:0,0:0:0:0:
254,83,49163,1,2,0:0:0:0:
254,83,49483,2,0,P|293:109|329:108,1,56.9999982604981,2|0,0:0|0:0,0:0:0:0:
414,53,49803,2,0,P|375:27|339:28,1,56.9999982604981,2|0,0:0|0:0,0:0:0:0:
250,130,50123,2,0,P|294:116|317:88,1,56.9999982604981,2|0,0:0|0:0,0:0:0:0:
414,53,50443,6,0,L|432:160,1,56.9999982604981,2|0,0:0|0:0,0:0:0:0:
350,181,50763,2,0,L|332:288,1,56.9999982604981,2|0,0:0|0:0,0:0:0:0:
441,337,51083,1,2,0:0:0:0:
441,337,51403,2,0,B|406:323|354:329|391:376|300:376|275:339,1,170.999994781494,2|0,0:0|0:0,0:0:0:0:
198,92,52363,6,0,P|216:128|206:197,1,56.9999982604981,2|0,0:0|0:0,0:0:0:0:
117,244,52683,2,0,P|129:205|185:164,1,56.9999982604981,2|0,0:0|0:0,0:0:0:0:
212,265,53003,1,2,0:0:0:0:
212,265,53323,2,0,L|288:256,1,56.9999982604981,2|0,0:0|0:0,0:0:0:0:
357,169,53643,2,0,L|281:160,1,56.9999982604981,2|0,0:0|0:0,0:0:0:0:
198,92,53963,1,2,0:0:0:0:
395,66,54283,6,0,P|360:39|361:-19,1,56.9999982604981,2|0,0:0|0:0,0:0:0:0:
481,28,54603,2,0,P|486:71|444:112,1,56.9999982604981,2|0,0:0|0:0,0:0:0:0:
365,178,54923,1,2,0:0:0:0:
365,178,55243,2,0,B|330:192|278:186|315:139|224:139|199:176,1,170.999994781494,2|2,0:0|0:0,0:0:0:0:
355,28,56207,5,10,0:0:0:0:
232,270,56675,1,10,0:0:0:0:
176,112,56832,1,2,0:0:0:0:
146,316,56988,1,2,0:0:0:0:
292,109,57144,1,10,0:0:0:0:
146,316,57624,5,10,0:0:0:0:
352,309,57784,1,2,0:0:0:0:
106,218,57944,1,2,0:0:0:0:
250,370,58104,1,10,0:0:0:0:
106,218,58584,5,10,0:0:0:0:
31,42,58744,1,2,0:0:0:0:
197,279,58904,1,2,0:0:0:0:
313,18,59064,1,10,0:0:0:0:
197,279,59544,5,10,0:0:0:0:
435,226,59704,1,2,0:0:0:0:
372,374,59864,1,2,0:0:0:0:
250,86,60024,1,10,0:0:0:0:
372,374,60504,5,10,0:0:0:0:
432,85,60664,1,2,0:0:0:0:
298,296,60824,1,2,0:0:0:0:
512,159,60984,1,10,0:0:0:0:
298,296,61464,5,10,0:0:0:0:
244,23,61624,1,2,0:0:0:0:
177,264,61784,1,2,0:0:0:0:
82,2,61944,1,10,0:0:0:0:
177,264,62424,5,10,0:0:0:0:
412,364,62584,1,2,0:0:0:0:
131,375,62744,1,2,0:0:0:0:
418,149,62904,1,10,0:0:0:0:
131,375,63384,5,10,0:0:0:0:
115,95,63544,1,10,0:0:0:0:
415,262,63704,1,10,0:0:0:0:
256,16,63864,6,0,B|216:52|216:52|167:51|167:51|104:105,1,171.000000652313,6|0,3:2|0:0,0:0:0:0:
248,226,64344,2,0,P|225:193|219:147,1,85.5000003261566,12|0,0:0|0:0,0:0:0:0:
256,16,64664,1,0,0:0:0:0:
68,203,64824,2,0,P|106:257|178:267,1,85.5000003261566,4|0,0:0|0:0,0:0:0:0:
248,226,65144,2,0,P|314:213|368:258,1,85.5000003261566,0|12,0:0|0:0,0:0:0:0:
207,341,65464,1,0,0:0:0:0:
207,341,65624,1,0,0:0:0:0:
167,44,65784,6,0,B|178:96|178:96|153:138|153:138|166:214,1,171.000000652313,6|0,3:2|0:0,0:0:0:0:
60,97,66264,2,0,L|40:9,1,85.5000003261566,12|0,0:0|0:0,0:0:0:0:
240,153,66584,1,0,0:0:0:0:
84,315,66744,2,0,L|261:307,1,171.000000652313,6|0,3:2|0:0,0:0:0:0:
347,327,67224,5,12,0:0:0:0:
240,153,67384,1,8,0:0:0:0:
84,315,67544,1,8,0:0:0:0:
328,179,67704,6,0,P|327:107|228:62,1,171.000000652313,6|0,3:2|0:0,0:0:0:0:
171,198,68184,2,0,B|217:182|217:182|245:145,1,85.5000003261566,12|0,0:0|0:0,0:0:0:0:
82,157,68504,1,0,0:0:0:0:
329,262,68664,2,0,P|336:219|305:143,1,85.5000003261566,4|0,0:0|0:0,0:0:0:0:
167,119,68984,2,0,P|160:162|190:237,1,85.5000003261566,0|12,0:0|0:0,0:0:0:0:
248,59,69304,1,0,0:0:0:0:
248,59,69464,1,0,0:0:0:0:
82,157,69624,6,0,B|68:180|68:180|74:267,1,85.5000003261566,6|0,3:2|0:0,0:0:0:0:
90,365,69944,1,0,0:0:0:0:
167,119,70104,1,12,0:0:0:0:
329,262,70264,1,0,0:0:0:0:
248,59,70424,1,8,0:0:0:0:
450,127,70584,6,0,L|335:152,1,85.5000003261566,6|8,3:2|0:0,0:0:0:0:
355,154,70824,1,8,0:0:0:0:
345,163,70904,1,8,0:0:0:0:
228,39,71064,1,12,0:0:0:0:
402,60,71224,2,0,P|435:88|449:142,1,85.5000003261566,0|8,0:0|0:0,0:0:0:0:
329,352,71544,6,0,P|294:347|251:216,1,171.000000652313,6|0,3:2|0:0,0:0:0:0:
479,197,72024,2,0,P|463:232|472:301,2,85.5000003261566,12|0|0,0:0|0:0|0:0,0:0:0:0:
254,142,72504,2,0,P|203:138|162:158,1,85.5000003261566,4|0,0:0|0:0,0:0:0:0:
334,78,72824,2,0,P|385:82|426:62,1,85.5000003261566,0|12,0:0|0:0,0:0:0:0:
209,8,73144,1,0,0:0:0:0:
209,8,73304,1,0,0:0:0:0:
255,231,73464,6,0,P|252:312|181:351,1,171.000000652313,6|0,3:2|0:0,0:0:0:0:
337,248,73944,2,0,P|338:200|332:141,1,85.5000003261566,12|0,0:0|0:0,0:0:0:0:
182,269,74264,1,0,0:0:0:0:
85,172,74424,6,0,P|117:186|139:207,1,42.7500001630783,6|0,0:0|0:0,0:0:0:0:
41,108,74584,2,0,P|9:94|-13:73,1,42.7500001630783,2|0,0:0|0:0,0:0:0:0:
91,162,74744,2,0,P|118:183|134:209,1,42.7500001630783,2|0,0:0|0:0,0:0:0:0:
213,64,74904,2,0,P|198:31|177:10,1,42.7500001630783,14|0,0:0|0:0,0:0:0:0:
99,154,75064,2,0,P|119:181|128:210,1,42.7500001630783,2|0,0:0|0:0,0:0:0:0:
34,117,75224,2,0,P|6:95|-9:69,1,42.7500001630783,2|0,0:0|0:0,0:0:0:0:
215,146,75384,6,0,P|267:128|283:22,1,171.000000652313,6|0,3:2|0:0,0:0:0:0:
409,153,75864,2,0,P|452:172|504:155,1,85.5000003261566,12|0,0:0|0:0,0:0:0:0:
397,73,76184,1,0,0:0:0:0:
211,231,76344,2,0,L|216:107,1,85.5000003261566,4|0,0:0|0:0,0:0:0:0:
336,267,76664,2,0,L|341:391,1,85.5000003261566,0|12,0:0|0:0,0:0:0:0:
488,165,76984,1,0,0:0:0:0:
488,165,77144,1,0,0:0:0:0:
199,33,77304,6,0,P|225:22|293:31,1,85.5000003261566,6|8,3:2|0:0,0:0:0:0:
293,37,77544,1,8,0:0:0:0:
305,49,77624,1,8,0:0:0:0:
225,129,77784,1,8,0:0:0:0:
385,129,77944,1,8,0:0:0:0:
305,209,78104,1,8,0:0:0:0:
199,33,78264,6,0,P|173:44|105:35,1,85.5000003261566,6|8,3:2|0:0,0:0:0:0:
105,29,78504,1,8,0:0:0:0:
93,17,78584,1,8,0:0:0:0:
225,129,78744,1,8,0:0:0:0:
305,49,78904,1,8,0:0:0:0:
385,129,79064,1,8,0:0:0:0:
214,297,79224,6,0,B|168:311|115:296|76:256|65:173|116:131|151:116|195:120|195:120|155:111|128:42|152:14|152:14|185:48|240:61|286:34,1,565.250010781288,6|0,0:0|0:0,0:0:0:0:
410,81,81144,6,0,P|358:88|327:149,1,85.5000003261566,12|8,0:0|0:0,0:0:0:0:
333,127,81384,1,8,0:0:0:0:
337,143,81464,1,8,0:0:0:0:
257,46,81624,5,12,0:0:0:0:
402,178,81784,1,0,0:0:0:0:
188,211,81944,1,0,0:0:0:0:
451,6,82104,5,12,0:0:0:0:
257,46,82264,1,0,0:0:0:0:
402,178,82424,1,0,0:0:0:0:
155,17,82584,6,0,P|194:44|270:39,1,85.5000003261566,12|8,0:0|0:0,0:0:0:0:
257,46,82824,1,8,0:0:0:0:
280,35,82904,1,8,0:0:0:0:
162,137,83064,5,14,0:0:0:0:
330,305,83224,1,10,0:0:0:0:
353,85,83384,1,10,0:0:0:0:
206,355,83544,1,10,0:0:0:0:
353,85,84024,5,10,0:0:0:0:
289,384,84184,1,10,0:0:0:0:
98,196,84344,1,10,0:0:0:0:
424,279,84504,1,10,0:0:0:0:
98,196,84984,5,10,0:0:0:0:
221,105,85144,1,10,0:0:0:0:
182,360,85304,1,10,0:0:0:0:
204,229,85464,1,10,0:0:0:0:
395,384,85624,1,10,0:0:0:0:
294,302,85784,1,10,0:0:0:0:
445,150,85944,6,0,L|283:140,1,128.250000489235,6|0,3:2|0:0,0:0:0:0:
353,178,86424,2,0,L|481:185,1,128.250000489235,6|0,3:2|0:0,0:0:0:0:
257,46,86904,6,0,B|178:43|178:43|96:120,1,171.000000652313,6|0,3:2|0:0,0:0:0:0:
273,170,87384,1,12,0:0:0:0:
257,46,87544,1,0,0:0:0:0:
171,173,87704,1,0,0:0:0:0:
402,67,87864,6,0,P|450:77|491:129,1,85.5000003261566,4|0,0:0|0:0,0:0:0:0:
347,203,88184,2,0,P|299:193|258:141,1,85.5000003261566,0|12,0:0|0:0,0:0:0:0:
410,144,88504,1,0,0:0:0:0:
257,46,88664,1,0,0:0:0:0:
205,235,88824,6,0,L|109:219,1,85.5000003261566,6|0,3:2|0:0,0:0:0:0:
11,111,89144,2,0,L|107:95,1,85.5000003261566,0|12,0:0|0:0,0:0:0:0:
4,5,89464,1,0,0:0:0:0:
149,150,89624,1,0,0:0:0:0:
257,46,89784,2,0,P|312:27|397:100,1,171.000000652313,6|0,3:2|0:0,0:0:0:0:
272,169,90264,5,12,0:0:0:0:
174,49,90424,1,8,0:0:0:0:
385,203,90584,1,8,0:0:0:0:
95,96,90744,6,0,P|96:161|114:198,1,85.5000003261566,6|0,3:2|0:0,0:0:0:0:
280,252,91064,2,0,P|279:187|261:150,1,85.5000003261566,0|12,0:0|0:0,0:0:0:0:
196,354,91384,2,0,P|264:385|302:370,1,85.5000003261566
159,231,91704,2,0,P|103:260|80:301,1,85.5000003261566,4|0,0:0|0:0,0:0:0:0:
161,107,92024,1,0,0:0:0:0:
365,208,92184,5,12,0:0:0:0:
258,307,92344,1,8,0:0:0:0:
255,285,92424,1,8,0:0:0:0:
253,264,92504,1,8,0:0:0:0:
250,243,92584,1,8,0:0:0:0:
247,226,92664,6,0,B|240:185|240:185|178:113,1,128.250000489235,6|0,3:2|0:0,0:0:0:0:
161,107,92984,1,0,0:0:0:0:
330,192,93144,5,12,0:0:0:0:
270,37,93304,1,0,0:0:0:0:
159,231,93464,1,0,0:0:0:0:
270,37,93624,6,0,P|312:35|351:53,1,85.5000003261566,4|0,0:0|0:0,0:0:0:0:
330,192,93944,2,0,P|303:159|298:117,1,85.5000003261566,0|12,0:0|0:0,0:0:0:0:
434,62,94264,2,0,P|413:99|372:130,1,85.5000003261566
239,196,94584,6,0,B|206:162|95:155|158:220|70:227|11:163,1,213.750000815392,6|0,3:2|0:0,0:0:0:0:
24,171,95064,2,0,P|18:128|36:76,1,85.5000003261566,12|0,0:0|0:0,0:0:0:0:
107,9,95384,1,0,0:0:0:0:
239,196,95544,1,0,0:0:0:0:
239,196,95864,5,0,0:0:0:0:
99,335,96024,2,0,L|193:336,1,85.5000003261566,12|0,0:0|0:0,0:0:0:0:
286,340,96344,5,8,0:0:0:0:
286,340,96424,1,8,0:0:0:0:
286,340,96504,1,10,0:0:0:0:
53,78,96664,1,10,0:0:0:0:
353,290,96824,1,10,0:0:0:0:
308,33,96984,1,10,0:0:0:0:
99,335,97144,1,10,0:0:0:0:
53,78,97304,1,10,0:0:0:0:
344,167,97464,2,0,B|418:161|408:98|412:98|416:98|400:21|478:20|478:20|452:55|462:103,1,285.000010871888,10|0,0:0|0:0,0:0:0:0:
211,21,98424,6,0,P|197:65|197:188,1,152,6|0,0:0|0:0,0:0:0:0:
211,187,98744,1,2,0:0:0:0:
82,58,98904,1,8,0:0:0:0:
328,11,99064,1,10,0:0:0:0:
211,187,99224,1,8,0:0:0:0:
469,150,99384,2,0,P|447:108|323:10,1,202.666666666667,6|0,0:0|0:0,0:0:0:0:
512,65,99864,5,8,0:0:0:0:
211,21,100024,1,10,0:0:0:0:
469,150,100184,1,10,0:0:0:0:
211,187,100344,6,0,P|137:168|50:77,1,202.666666666667,6|2,0:0|0:0,0:0:0:0:
162,262,100824,2,0,P|106:261|68:290,1,101.333333333333,8|10,0:0|0:0,0:0:0:0:
136,344,101144,1,8,0:0:0:0:
190,92,101304,2,0,P|254:52|381:55,1,202.666666666667,6|0,0:0|0:0,0:0:0:0:
211,187,101784,5,8,0:0:0:0:
70,286,101944,1,8,0:0:0:0:
190,92,102104,1,8,0:0:0:0:
327,313,102264,6,0,P|345:243|324:154,1,152,6|0,0:0|0:0,0:0:0:0:
312,148,102584,2,0,P|296:119|314:38,1,101.333333333333,2|8,0:0|0:0,0:0:0:0:
465,0,102904,1,10,0:0:0:0:
410,241,103064,1,2,0:0:0:0:
190,92,103224,6,0,P|141:176|186:263,1,202.666666666667,6|0,0:0|0:0,0:0:0:0:
312,148,103704,1,8,0:0:0:0:
243,384,103864,1,10,0:0:0:0:
312,148,104024,1,10,0:0:0:0:
414,334,104184,6,0,P|436:266|376:159,1,152,6|0,0:0|0:0,0:0:0:0:
388,182,104504,1,2,0:0:0:0:
243,384,104664,1,8,0:0:0:0:
160,143,104824,2,0,P|205:168|230:218,1,101.333333333333,10|8,0:0|0:0,0:0:0:0:
64,31,105144,6,0,P|15:94|40:243,1,202.666666666667,14|0,0:0|0:0,0:0:0:0:
180,20,105624,2,0,L|425:6,1,202.666666666667,14|0,0:0|0:0,0:0:0:0:
197,211,106104,6,0,P|183:255|183:378,1,152,6|0,0:0|0:0,0:0:0:0:
194,374,106424,1,2,0:0:0:0:
19,212,106584,1,8,0:0:0:0:
323,149,106744,1,10,0:0:0:0:
253,294,106904,1,8,0:0:0:0:
323,149,107064,2,0,P|405:189|410:294,1,202.666666666667,6|0,0:0|0:0,0:0:0:0:
197,211,107544,5,8,0:0:0:0:
358,37,107704,1,10,0:0:0:0:
327,245,107864,1,10,0:0:0:0:
166,90,108024,6,0,P|84:130|73:216,1,152,6|0,0:0|0:0,0:0:0:0:
69,208,108344,2,0,P|63:228|-21:261,1,101.333333333333,2|8,0:0|0:0,0:0:0:0:
33,51,108664,1,10,0:0:0:0:
197,211,108824,1,8,0:0:0:0:
0,265,108984,2,0,P|30:312|175:312,1,202.666666666667,6|0,0:0|0:0,0:0:0:0:
67,183,109464,5,8,0:0:0:0:
246,362,109624,1,8,0:0:0:0:
67,183,109784,1,8,0:0:0:0:
250,99,109944,6,0,P|268:139|262:248,1,152,6|0,0:0|0:0,0:0:0:0:
245,263,110264,2,0,P|236:305|250:371,1,101.333333333333,2|8,0:0|0:0,0:0:0:0:
348,98,110584,2,0,P|306:89|240:103,1,101.333333333333,10|8,0:0|0:0,0:0:0:0:
464,313,110904,2,0,B|498:276|499:190|444:242|441:166|470:121,1,202.666666666667,6|0,0:0|0:0,0:0:0:0:
346,259,111384,5,8,0:0:0:0:
250,99,111544,1,10,0:0:0:0:
287,379,111704,2,0,P|306:365|320:320,1,50.6666666666667,10|0,0:0|0:0,0:0:0:0:
346,259,111864,6,0,P|289:211|169:217,1,152,6|0,0:0|0:0,0:0:0:0:
191,213,112184,2,0,P|218:183|295:168,1,101.333333333333,2|8,0:0|0:0,0:0:0:0:
467,124,112504,2,0,P|441:92|364:70,1,101.333333333333,10|10,0:0|0:0,0:0:0:0:
346,259,112824,6,0,P|372:291|449:313,1,101.333333333333,6|8,0:0|0:0,0:0:0:0:
441,310,113064,1,8,0:0:0:0:
454,302,113144,1,8,0:0:0:0:
274,165,113304,1,8,0:0:0:0:
467,124,113464,1,8,0:0:0:0:
346,259,113624,1,8,0:0:0:0:
404,0,113784,6,0,L|200:16,1,192.533330983073,6|0,0:0|0:0,0:0:0:0:
370,130,114264,2,0,L|503:121,1,96.2666654915365,10|8,0:0|0:0,0:0:0:0:
507,46,114584,1,8,0:0:0:0:
346,259,114744,5,8,0:0:0:0:
317,281,114824,1,0,0:0:0:0:
283,294,114904,1,8,0:0:0:0:
246,292,114984,1,0,0:0:0:0:
214,276,115064,2,0,P|188:255|174:210,1,45.9166680679322,8|0,0:0|0:0,0:0:0:0:
165,95,115224,1,10,0:0:0:0:
364,38,115384,2,0,L|372:170,1,91.8333361358643,2|2,0:0|0:0,0:0:0:0:
268,203,115704,6,0,L|272:116,1,45.9166680679322,12|0,0:0|0:0,0:0:0:0:
165,95,115864,2,0,L|169:182,1,45.9166680679322,10|0,0:0|0:0,0:0:0:0:
273,53,116024,2,0,L|277:-34,1,45.9166680679322,10|0,0:0|0:0,0:0:0:0:
156,0,116184,1,10,0:0:0:0:
296,135,116344,2,0,L|300:222,1,45.9166680679322,2|0,0:0|0:0,0:0:0:0:
388,65,116504,2,0,L|392:-22,1,45.9166680679322,10|0,0:0|0:0,0:0:0:0:
491,107,116664,6,0,P|472:144|416:173,1,91.8333361358643,6|8,0:0|0:0,0:0:0:0:
416,167,116904,1,8,0:0:0:0:
404,159,116984,1,10,0:0:0:0:
500,312,117144,2,0,L|420:318,1,45.9166680679322,6|0,0:0|0:0,0:0:0:0:
336,253,117304,2,0,L|416:259,1,45.9166680679322,10|0,0:0|0:0,0:0:0:0:
299,338,117464,2,0,L|219:344,1,45.9166680679322,10|0,0:0|0:0,0:0:0:0:
146,234,117624,5,12,0:0:0:0:
298,129,117784,1,8,0:0:0:0:
298,129,117864,1,8,0:0:0:0:
298,129,117944,1,8,0:0:0:0:
253,341,118104,1,8,0:0:0:0:
167,106,118264,1,8,0:0:0:0:
381,256,118424,1,8,0:0:0:0:
146,234,118584,5,12,0:0:0:0:
314,36,118744,1,8,0:0:0:0:
314,36,118824,1,8,0:0:0:0:
314,36,118904,1,8,0:0:0:0:
343,340,119064,1,8,0:0:0:0:
167,106,119224,1,8,0:0:0:0:
476,139,119384,1,8,0:0:0:0:
146,234,119544,5,12,0:0:0:0:
187,216,119624,1,8,0:0:0:0:
231,224,119704,1,8,0:0:0:0:
258,255,119784,1,8,0:0:0:0:
297,265,119864,1,8,0:0:0:0:
336,253,119944,1,8,0:0:0:0:
361,229,120024,2,0,P|377:196|382:144,1,45.9166680679322,8|8,0:0|0:0,0:0:0:0:
449,17,120184,5,8,0:0:0:0:
428,46,120264,1,8,0:0:0:0:
427,83,120344,1,8,0:0:0:0:
447,112,120424,1,8,0:0:0:0:
476,139,120504,6,0,B|459:180|481:223|481:223|465:213|465:213|491:248|486:294|455:330|423:326,1,228,6|0,2:3|0:0,0:0:0:0:
301,125,120984,2,0,B|246:135|246:135|226:134|226:134|230:140|230:140|201:131|201:131|134:141,1,163.875003125668,6|0,0:0|0:0,0:0:0:0:
50,239,121464,6,0,P|85:258|107:368,1,128.250000489235,6|0,2:3|0:0,0:0:0:0:
109,357,121784,2,0,P|139:332|191:326,1,85.5000003261566,0|12,0:0|0:0,0:0:0:0:
302,374,122104,1,0,0:0:0:0:
173,245,122264,1,0,0:0:0:0:
301,125,122424,6,0,P|292:177|346:247,1,128.250000489235,6|0,0:0|0:0,0:0:0:0:
352,238,122744,1,0,0:0:0:0:
173,245,122904,1,12,0:0:0:0:
378,57,123064,1,0,0:0:0:0:
219,108,123224,1,0,0:0:0:0:
378,57,123384,6,0,P|418:72|464:175,1,128.250000489235,6|0,3:2|0:0,0:0:0:0:
455,160,123704,2,0,L|360:171,1,85.5000003261566,0|12,0:0|0:0,0:0:0:0:
219,108,124024,2,0,L|314:119,1,85.5000003261566
130,295,124344,6,0,B|154:210|94:220|127:113,1,171.000000652313,4|0,0:0|0:0,0:0:0:0:
256,261,124824,1,8,0:0:0:0:
61,46,124984,1,8,0:0:0:0:
304,118,125144,1,8,0:0:0:0:
54,297,125304,6,0,P|82:347|174:361,1,128.250000489235,6|0,2:3|0:0,0:0:0:0:
167,362,125624,2,0,P|205:338|273:349,1,85.5000003261566,0|12,0:0|0:0,0:0:0:0:
362,174,125944,2,0,P|324:199|257:183,1,85.5000003261566
458,25,126264,6,0,L|467:201,1,171.000000652313,6|0,3:2|0:0,0:0:0:0:
304,118,126744,2,0,L|299:8,1,85.5000003261566,12|0,0:0|0:0,0:0:0:0:
362,174,127064,1,0,0:0:0:0:
160,320,127224,5,6,3:2:0:0:
235,244,127384,2,0,P|267:242|325:269,1,85.5000003261566
176,336,127704,1,12,0:0:0:0:
63,215,127864,2,0,P|37:249|31:302,1,85.5000003261566
193,129,128184,5,10,0:0:0:0:
112,283,128344,1,8,0:0:0:0:
261,326,128504,1,8,0:0:0:0:
121,11,128664,2,0,B|137:47|114:76|114:76|136:69|136:69|107:95|99:157|132:198,1,190.000007247925,12|0,0:0|0:0,0:0:0:0:
293,38,129144,6,0,P|243:34|199:48,1,85.5000003261566,6|0,3:2|0:0,0:0:0:0:
342,176,129464,2,0,P|392:180|435:166,1,85.5000003261566,0|12,0:0|0:0,0:0:0:0:
469,22,129784,1,0,0:0:0:0:
379,82,129944,1,0,0:0:0:0:
209,43,130104,6,0,P|191:93|63:104,1,171.000000652313,6|0,3:2|0:0,0:0:0:0:
104,5,130584,1,12,0:0:0:0:
217,194,130744,2,0,P|231:240|220:302,1,85.5000003261566
85,119,131064,6,0,P|127:87|225:87,1,128.250000489235,6|0,3:2|0:0,0:0:0:0:
216,93,131384,2,0,P|262:111|317:94,1,85.5000003261566,0|12,0:0|0:0,0:0:0:0:
387,14,131704,1,0,0:0:0:0:
363,225,131864,1,0,0:0:0:0:
263,30,132024,1,8,0:0:0:0:
439,150,132184,1,8,0:0:0:0:
439,150,132264,1,8,0:0:0:0:
439,150,132344,1,8,0:0:0:0:
277,222,132504,6,0,L|364:225,1,85.5000003261566,12|0,0:0|0:0,0:0:0:0:
235,352,132824,1,0,0:0:0:0:
235,352,132984,6,0,P|200:324|90:344,1,128.250000489235,6|0,3:2|0:0,0:0:0:0:
104,338,133304,2,0,P|99:286|115:226,1,85.5000003261566,0|12,0:0|0:0,0:0:0:0:
232,125,133624,2,0,P|236:176|220:236,1,85.5000003261566
66,45,133944,6,0,B|120:24|115:58|179:64|215:24,1,128.250000489235,6|0,3:2|0:0,0:0:0:0:
204,31,134264,1,0,0:0:0:0:
159,161,134424,1,12,0:0:0:0:
311,11,134584,2,0,P|354:27|377:83,1,85.5000003261566
277,156,134904,6,0,P|271:183|270:213,1,45.9166680679322,8|8,0:0|0:0,0:0:0:0:
327,302,135064,1,8,0:0:0:0:
327,302,135144,1,8,0:0:0:0:
327,302,135224,6,0,P|334:283|339:255,1,45.9166680679322,8|0,0:0|0:0,0:0:0:0:
158,160,135384,2,0,P|159:183|169:204,1,45.9166680679322,8|0,0:0|0:0,0:0:0:0:
223,280,135544,1,8,0:0:0:0:
167,63,135704,1,8,0:0:0:0:
10,233,135864,5,8,0:0:0:0:
68,98,136024,1,0,0:0:0:0:
68,98,136104,1,0,0:0:0:0:
68,98,136184,1,0,0:0:0:0:
120,268,136344,1,0,0:0:0:0:
167,63,136504,5,8,0:0:0:0:
172,94,136584,1,8,0:0:0:0:
177,126,136664,1,8,0:0:0:0:
183,158,136744,1,8,0:0:0:0:
188,189,136824,6,0,B|220:222|223:278|223:278|230:183|316:150|392:176|421:230|424:273|414:313|414:313|432:280|455:269|455:269|438:228|454:185,1,565.250010781288,6|0,0:0|0:0,0:0:0:0:
471,18,138744,6,0,P|502:59|481:124,1,85.5000003261566,12|8,0:0|0:0,0:0:0:0:
492,104,138984,1,8,0:0:0:0:
478,113,139064,1,8,0:0:0:0:
304,3,139224,5,12,0:0:0:0:
321,271,139384,1,0,0:0:0:0:
398,79,139544,1,0,0:0:0:0:
188,189,139704,5,12,0:0:0:0:
478,113,139864,1,0,0:0:0:0:
169,45,140024,1,0,0:0:0:0:
396,238,140184,6,0,P|357:265|281:260,1,85.5000003261566,12|8,0:0|0:0,0:0:0:0:
295,269,140424,1,8,0:0:0:0:
269,253,140504,1,8,0:0:0:0:
267,79,140664,5,14,0:0:0:0:
76,147,140824,1,10,0:0:0:0:
320,270,140984,1,10,0:0:0:0:
55,365,141144,1,10,0:0:0:0:
320,270,141624,5,10,0:0:0:0:
134,91,141784,1,10,0:0:0:0:
237,359,141944,1,10,0:0:0:0:
346,75,142104,1,10,0:0:0:0:
116,173,142584,5,10,0:0:0:0:
433,265,142744,1,10,0:0:0:0:
169,45,142904,1,10,0:0:0:0:
491,133,143064,1,10,0:0:0:0:
206,286,143224,1,10,0:0:0:0:
406,23,143384,1,10,0:0:0:0:
303,210,143544,6,0,L|323:344,1,128.250000489235,6|0,3:2|0:0,0:0:0:0:
285,300,144024,2,0,L|265:166,1,128.250000489235,6|0,3:2|0:0,0:0:0:0:
407,321,144504,6,0,B|371:373|371:373|268:392,1,128.250000489235,6|0,3:2|0:0,0:0:0:0:
291,377,144824,1,0,0:0:0:0:
397,181,144984,1,12,0:0:0:0:
460,375,145144,2,0,P|484:333|462:278,1,85.5000003261566
203,214,145464,6,0,P|253:236|305:220,1,85.5000003261566,6|0,3:2|0:0,0:0:0:0:
454,120,145784,2,0,P|404:98|352:114,1,85.5000003261566,0|12,0:0|0:0,0:0:0:0:
258,153,146104,1,0,0:0:0:0:
194,14,146264,1,0,0:0:0:0:
282,232,146424,6,0,P|275:291|191:325,1,128.250000489235,6|0,3:2|0:0,0:0:0:0:
203,326,146744,1,0,0:0:0:0:
410,297,146904,1,12,0:0:0:0:
194,237,147064,1,0,0:0:0:0:
318,383,147224,1,0,0:0:0:0:
350,145,147384,6,0,L|159:58,1,171.000000652313,6|0,3:2|0:0,0:0:0:0:
121,147,147864,5,12,0:0:0:0:
282,8,148024,1,8,0:0:0:0:
306,216,148184,1,8,0:0:0:0:
418,97,148344,6,0,P|428:144|421:185,1,85.5000003261566,6|0,3:2|0:0,0:0:0:0:
148,320,148664,2,0,P|145:272|195:206,1,85.5000003261566,0|12,0:0|0:0,0:0:0:0:
281,96,148984,1,0,0:0:0:0:
281,96,149144,1,0,0:0:0:0:
511,171,149304,6,0,P|512:215|419:258,1,128.250000489235,6|0,3:2|0:0,0:0:0:0:
428,257,149624,1,0,0:0:0:0:
326,125,149784,1,12,0:0:0:0:
310,299,149944,1,8,0:0:0:0:
310,299,150024,1,8,0:0:0:0:
310,299,150104,1,8,0:0:0:0:
164,379,150264,6,0,P|135:341|139:283,1,85.5000003261566,6|0,3:2|0:0,0:0:0:0:
257,156,150584,2,0,P|221:182|160:180,1,85.5000003261566,0|12,0:0|0:0,0:0:0:0:
71,48,150904,2,0,L|87:160,1,85.5000003261566,8|8,0:0|0:0,0:0:0:0:
164,379,151224,6,0,P|206:373|255:303,1,128.250000489235,6|0,3:2|0:0,0:0:0:0:
251,291,151544,1,0,0:0:0:0:
104,145,151704,1,12,0:0:0:0:
173,297,151864,1,0,0:0:0:0:
294,137,152024,1,0,0:0:0:0:
362,349,152184,6,0,L|272:358,1,85.5000003261566,12|0,0:0|0:0,0:0:0:0:
304,214,152504,1,0,0:0:0:0:
250,60,152664,2,0,L|340:69,1,85.5000003261566,12|0,0:0|0:0,0:0:0:0:
227,175,152991,1,0,0:0:0:0:
106,295,153155,2,0,L|16:304,1,85.5000003261566,12|0,0:0|0:0,0:0:0:0:
146,136,153471,1,0,0:0:0:0:
25,15,153629,2,0,L|115:24,1,85.5000003261566,12|0,0:0|0:0,0:0:0:0:
1,132,153946,1,0,0:0:0:0:
224,47,154104,5,10,0:0:0:0:
20,303,154262,1,10,0:0:0:0:
110,23,154421,1,10,0:0:0:0:
196,335,154580,1,10,0:0:0:0:
335,68,154740,1,10,0:0:0:0:
362,349,154900,1,10,0:0:0:0:
496,98,155060,2,0,B|525:158|462:201|417:195|417:195|422:237|457:252|457:252|432:291|452:371,1,285.000010871888,10|0,0:0|0:0,0:0:0:0:
20,303,156024,6,0,P|57:274|168:248,1,152,6|0,0:0|0:0,0:0:0:0:
174,258,156344,1,2,0:0:0:0:
45,129,156504,1,8,0:0:0:0:
126,368,156664,1,10,0:0:0:0:
45,129,156824,1,8,0:0:0:0:
287,264,156984,6,0,P|262:303|122:367,1,202.666666666667,6|0,0:0|0:0,0:0:0:0:
367,333,157464,1,8,0:0:0:0:
157,247,157624,1,10,0:0:0:0:
425,156,157784,1,10,0:0:0:0:
239,69,157944,6,0,P|262:118|286:278,1,202.666666666667,6|2,0:0|0:0,0:0:0:0:
344,101,158424,2,0,P|382:141|442:156,1,101.333333333333,8|10,0:0|0:0,0:0:0:0:
435,57,158744,1,8,0:0:0:0:
184,172,158904,2,0,P|130:152|77:1,1,202.666666666667,6|0,0:0|0:0,0:0:0:0:
151,248,159384,5,8,0:0:0:0:
239,69,159544,1,8,0:0:0:0:
9,185,159704,1,8,0:0:0:0:
193,340,159864,6,0,P|240:288|223:172,1,152,6|0,0:0|0:0,0:0:0:0:
226,191,160184,2,0,P|217:170|220:119,1,50.6666666666667,2|0,0:0|0:0,0:0:0:0:
239,69,160344,1,8,0:0:0:0:
151,248,160504,1,10,0:0:0:0:
71,27,160664,1,8,0:0:0:0:
244,209,160824,6,0,P|334:227|430:144,1,202.666666666667,6|0,0:0|0:0,0:0:0:0:
304,37,161304,1,8,0:0:0:0:
487,226,161464,1,8,0:0:0:0:
220,132,161624,2,0,P|191:147|158:193,1,50.6666666666667,10|0,0:0|0:0,0:0:0:0:
103,236,161784,6,0,P|108:175|79:79,1,152,6|0,0:0|0:0,0:0:0:0:
62,66,162104,1,2,0:0:0:0:
244,209,162264,1,8,0:0:0:0:
304,37,162424,2,0,P|313:70|300:142,1,101.333333333333,10|8,0:0|0:0,0:0:0:0:
54,348,162744,6,0,P|106:309|246:364,1,202.666666666667,14|0,0:0|0:0,0:0:0:0:
512,311,163224,2,0,L|310:331,1,202.666666666667,14|0,0:0|0:0,0:0:0:0:
156,89,163704,6,0,P|200:127|247:222,1,152,6|0,0:0|0:0,0:0:0:0:
243,229,164024,1,2,0:0:0:0:
301,56,164184,1,8,0:0:0:0:
125,215,164344,1,10,0:0:0:0:
301,56,164504,1,8,0:0:0:0:
169,306,164664,6,0,P|86:293|39:158,1,202.666666666667,6|0,0:0|0:0,0:0:0:0:
123,384,165144,1,8,0:0:0:0:
156,89,165304,1,10,0:0:0:0:
309,324,165464,1,10,0:0:0:0:
439,117,165624,6,0,P|430:166|346:252,1,152,6|0,0:0|0:0,0:0:0:0:
342,249,165944,2,0,P|287:244|245:272,1,101.333333333333,2|8,0:0|0:0,0:0:0:0:
330,127,166264,1,10,0:0:0:0:
309,324,166424,1,8,0:0:0:0:
193,92,166584,6,0,P|180:141|261:273,1,202.666666666667,6|0,0:0|0:0,0:0:0:0:
330,127,167064,1,8,0:0:0:0:
89,162,167224,1,8,0:0:0:0:
342,249,167384,1,8,0:0:0:0:
117,338,167544,6,0,P|148:286|247:260,1,152,6|0,0:0|0:0,0:0:0:0:
248,267,167864,2,0,P|259:239|254:159,1,101.333333333333,2|8,0:0|0:0,0:0:0:0:
99,64,168184,2,0,P|88:92|93:172,1,101.333333333333,10|8,0:0|0:0,0:0:0:0:
210,350,168504,6,0,B|252:381|334:370|281:330|365:327|402:356,1,202.666666666667,6|0,0:0|0:0,0:0:0:0:
248,267,168984,1,8,0:0:0:0:
427,87,169144,1,10,0:0:0:0:
245,169,169304,2,0,P|203:169|155:142,1,50.6666666666667,10|0,0:0|0:0,0:0:0:0:
142,110,169464,6,0,P|156:153|125:261,1,152,6|0,0:0|0:0,0:0:0:0:
116,268,169784,2,0,P|100:294|107:349,1,50.6666666666667,2|0,0:0|0:0,0:0:0:0:
276,384,169944,2,0,P|282:354|256:304,1,50.6666666666667,8|0,0:0|0:0,0:0:0:0:
115,155,170104,2,0,P|122:183|143:202,1,50.6666666666667,10|0,0:0|0:0,0:0:0:0:
330,273,170264,2,0,P|344:248|342:215,1,50.6666666666667,8|0,0:0|0:0,0:0:0:0:
305,14,170424,6,0,P|310:55|271:125,1,101.333333333333,6|8,0:0|0:0,0:0:0:0:
274,117,170664,1,8,0:0:0:0:
260,120,170744,1,8,0:0:0:0:
166,17,170904,1,8,0:0:0:0:
130,253,171064,1,8,0:0:0:0:
260,120,171224,1,8,0:0:0:0:
210,350,171384,6,0,L|414:366,1,192.533330983073,6|0,0:0|0:0,0:0:0:0:
224,262,171864,2,0,L|109:252,1,96.2666654915365,10|8,0:0|0:0,0:0:0:0:
46,335,172182,1,8,0:0:0:0:
407,159,172341,5,8,0:0:0:0:
382,133,172422,1,0,0:0:0:0:
347,120,172503,1,8,0:0:0:0:
311,118,172584,1,0,0:0:0:0:
276,127,172666,2,0,P|252:136|224:134,1,31.6666666666667,8|0,0:0|0:0,0:0:0:0:
153,80,172828,1,10,0:0:0:0:
231,352,172989,2,0,L|224:253,1,91.8333361358643,2|2,0:0|0:0,0:0:0:0:
153,80,173311,5,10,0:0:0:0:
326,217,173473,1,8,0:0:0:0:
326,217,173553,1,8,0:0:0:0:
326,217,173634,1,8,0:0:0:0:
253,30,173795,1,8,0:0:0:0:
224,260,173955,1,8,0:0:0:0:
224,260,174035,1,8,0:0:0:0:
224,260,174115,1,8,0:0:0:0:
41,119,174275,6,0,B|18:158|30:194|30:194|20:210|20:210|45:241|30:304,1,170.999994781494,12|0,0:0|0:0,0:0:0:0:
7,363,174805,2,0,B|-8:382|-8:382|201:364,1,221.666659901937,12|0,0:0|0:0,0:0:0:0:
348,284,175527,6,0,B|359:252|345:228|283:216|228:254|228:254|265:212|281:157|263:110|263:110|247:69|208:29|127:46|123:132|168:161|240:155|264:117|264:117|298:70|362:58|406:79|428:131|428:131|420:77|463:16|463:16|521:65|489:129,1,1019.66663554891,14|0,0:0|0:0,0:0:0:0:
347,154,179082,5,4,0:0:0:0:
145,211,180815,5,2,0:0:0:0:
347,154,180948,1,0,0:0:0:0:
82,51,181082,1,2,0:0:0:0:
490,82,183082,5,0,0:0:0:0:
481,184,183215,1,0,0:0:0:0:
473,286,183348,2,0,B|453:240|396:234|392:304|426:347|426:347|383:306|339:318|339:318|348:281|327:238|281:229|281:229|233:209|247:131|323:111|376:183|329:250|279:228|279:228|245:253|204:245,1,688.75,6|0,0:0|0:0,0:0:0:0:
196,232,185348,5,2,0:0:0:0:
490,82,185615,1,4,0:0:0:0:
490,82,186548,5,10,0:0:0:0:
442,122,186615,1,8,0:0:0:0:
385,119,186682,1,8,0:0:0:0:
348,85,186748,1,8,0:0:0:0:
338,36,186815,2,0,L|401:48,1,54.6250010418892,10|8,0:0|0:0,0:0:0:0:
511,182,186948,5,8,0:0:0:0:
511,182,187015,1,8,0:0:0:0:
511,182,187082,2,0,L|449:193,1,54.6250010418892,10|8,0:0|0:0,0:0:0:0:
340,307,187215,1,8,0:0:0:0:
356,273,187282,1,8,0:0:0:0:
354,235,187348,2,0,P|338:206|279:189,1,54.6250010418892,10|0,0:0|0:0,0:0:0:0:
235,86,187482,6,0,L|224:270,1,161.500003080368,14|0,3:2|0:0,0:0:0:0:
168,40,187875,6,0,P|221:7|284:22,1,123.499994346619,10|0,0:0|0:0,0:0:0:0:
151,168,188141,2,0,P|97:204|34:190,1,123.499994346619,10|0,0:0|0:0,0:0:0:0:
235,86,188408,2,0,P|267:139|266:201,1,123.499994346619,10|0,0:0|0:0,0:0:0:0:
83,125,188675,2,0,P|62:63|92:6,1,123.499994346619,10|0,0:0|0:0,0:0:0:0:
390,198,188941,2,0,L|264:199,1,123.499994346619,10|0,0:0|0:0,0:0:0:0:
137,273,189208,5,10,0:0:0:0:
235,86,189341,1,8,0:0:0:0:
42,195,189475,1,10,0:0:0:0:
266,198,189608,6,0,L|447:199,1,161.500003080368,14|0,3:2|0:0,0:0:0:0:
235,86,190008,2,0,P|195:132|188:192,1,123.499994346619,10|0,0:0|0:0,0:0:0:0:
381,306,190275,2,0,P|420:259|427:199,1,123.499994346619,10|0,0:0|0:0,0:0:0:0:
306,343,190541,2,0,P|352:382|420:376,1,123.499994346619,10|0,0:0|0:0,0:0:0:0:
333,222,190808,5,10,0:0:0:0:
184,373,190941,1,0,0:0:0:0:
280,168,191075,1,10,0:0:0:0:
412,379,191208,5,8,0:0:0:0:
190,267,191341,1,10,0:0:0:0:
333,222,191475,1,8,0:0:0:0:
183,117,191608,1,10,0:0:0:0:
415,106,191741,6,0,L|249:85,1,161.500003080368,14|0,3:2|0:0,0:0:0:0:
254,85,192141,2,0,P|261:138|193:194,1,123.499994346619,10|0,0:0|0:0,0:0:0:0:
0,235,192408,2,0,P|32:192|120:201,1,123.499994346619,10|0,0:0|0:0,0:0:0:0:
230,319,192675,2,0,P|197:361|109:352,1,123.499994346619,10|0,0:0|0:0,0:0:0:0:
264,236,192941,2,0,P|305:265|312:355,1,123.499994346619,10|0,0:0|0:0,0:0:0:0:
189,205,193208,2,0,P|222:167|309:171,1,123.499994346619,10|0,0:0|0:0,0:0:0:0:
389,266,193475,5,10,0:0:0:0:
325,53,193608,1,8,0:0:0:0:
264,236,193741,1,10,0:0:0:0:
465,38,193875,6,0,L|465:206,1,161.500003080368,14|0,3:2|0:0,0:0:0:0:
264,236,194275,2,0,P|239:200|252:109,1,123.499994346619,10|0,0:0|0:0,0:0:0:0:
325,53,194541,2,0,P|350:89|337:180,1,123.499994346619,10|0,0:0|0:0,0:0:0:0:
214,34,194808,1,10,0:0:0:0:
389,266,194941,1,2,0:0:0:0:
262,124,195075,5,10,0:0:0:0:
171,256,195208,1,10,0:0:0:0:
150,299,195275,1,8,0:0:0:0:
157,347,195341,6,0,P|190:346|234:309,1,61.7499971733095,10|8,0:0|0:0,0:0:0:0:
219,149,195475,2,0,P|186:151|144:191,1,61.7499971733095,10|8,0:0|0:0,0:0:0:0:
216,373,195608,2,0,P|232:344|222:287,1,61.7499971733095,10|8,0:0|0:0,0:0:0:0:
140,124,195741,2,0,P|125:153|139:209,1,61.7499971733095,10|8,0:0|0:0,0:0:0:0:
283,332,195875,1,10,0:0:0:0:
283,332,196008,6,0,B|347:286|347:286|396:139,1,209.000006378174,6|0,0:0|0:0,0:0:0:0:
314,21,196401,2,0,L|279:134,1,104.500003189087,10|0,0:0|0:0,0:0:0:0:
446,284,196667,2,0,L|479:170,1,104.500003189087,2|0,0:0|0:0,0:0:0:0:
418,49,196934,1,10,0:0:0:0:
209,51,197067,2,0,P|245:69|287:138,1,104.500003189087,0|2,0:0|0:0,0:0:0:0:
283,322,197334,2,0,P|247:304|205:235,1,104.500003189087,0|10,0:0|0:0,0:0:0:0:
347,71,197601,2,0,P|359:109|340:187,1,104.500003189087,0|2,0:0|0:0,0:0:0:0:
147,297,197867,2,0,P|134:258|153:180,1,104.500003189087,0|10,0:0|0:0,0:0:0:0:
266,125,198134,6,0,B|186:101|186:101|56:119,1,209.000006378174,14|0,3:2|0:0,0:0:0:0:
209,253,198534,2,0,L|325:237,1,104.500003189087,10|0,0:0|0:0,0:0:0:0:
163,17,198801,2,0,L|47:33,1,104.500003189087,2|0,0:0|0:0,0:0:0:0:
266,125,199067,1,10,0:0:0:0:
59,31,199201,2,0,L|241:64,1,156.750004783631,4|0,0:0|0:0,0:0:0:0:
166,143,199467,2,0,L|62:157,1,104.500003189087,0|10,0:0|0:0,0:0:0:0:
209,253,199734,2,0,L|266:246,1,52.2500015945435
338,206,199867,5,2,0:0:0:0:
120,288,200001,1,2,0:0:0:0:
253,351,200134,1,10,0:0:0:0:
282,130,200267,1,2,0:0:0:0:
282,130,200334,1,2,0:0:0:0:
282,130,200401,2,0,P|251:172|252:243,1,104.500003189087,2|0,0:0|0:0,0:0:0:0:
419,200,200667,5,10,0:0:0:0:
431,165,200734,1,0,0:0:0:0:
427,129,200801,1,0,0:0:0:0:
290,59,200934,5,10,0:0:0:0:
278,94,201001,1,0,0:0:0:0:
282,130,201067,1,0,0:0:0:0:
391,273,201201,5,10,0:0:0:0:
428,276,201267,1,0,0:0:0:0:
462,263,201334,1,0,0:0:0:0:
282,130,201467,5,10,0:0:0:0:
245,127,201534,1,0,0:0:0:0:
211,140,201601,1,0,0:0:0:0:
82,268,201734,5,10,0:0:0:0:
118,274,201801,1,0,0:0:0:0:
155,270,201867,1,0,0:0:0:0:
323,218,202001,5,10,0:0:0:0:
323,218,202067,1,0,0:0:0:0:
321,218,202134,2,0,P|298:230|280:249,1,52.2500015945435
269,352,202267,1,10,0:0:0:0:
25,214,202401,6,0,P|2:270|117:340,1,209.000006378174,6|0,0:0|0:0,0:0:0:0:
211,140,202801,1,10,0:0:0:0:
210,181,202867,1,0,0:0:0:0:
210,223,202934,1,0,0:0:0:0:
378,355,203067,5,10,0:0:0:0:
384,314,203134,1,0,0:0:0:0:
391,273,203201,1,0,0:0:0:0:
293,127,203334,5,10,0:0:0:0:
252,133,203401,1,0,0:0:0:0:
211,140,203467,1,0,0:0:0:0:
391,273,203601,5,10,0:0:0:0:
411,272,203667,1,0,0:0:0:0:
431,269,203734,1,0,0:0:0:0:
445,247,203801,1,8,0:0:0:0:
455,223,203867,1,10,0:0:0:0:
459,197,203934,1,8,0:0:0:0:
460,171,204001,1,8,0:0:0:0:
455,145,204067,1,8,0:0:0:0:
445,120,204134,6,0,P|432:152|392:174,1,52.2500015945435,10|0,0:0|0:0,0:0:0:0:
306,219,204267,1,0,0:0:0:0:
137,130,204401,1,10,0:0:0:0:
330,25,204534,6,0,B|298:55|298:55|126:26,1,209.000006378174,6|0,0:0|0:0,0:0:0:0:
13,140,204934,2,0,P|64:168|86:244,1,104.500003189087,10|0,0:0|0:0,0:0:0:0:
52,340,205201,1,0,0:0:0:0:
199,192,205334,1,0,0:0:0:0:
4,222,205467,1,10,0:0:0:0:
163,381,205601,2,0,L|266:368,1,104.500003189087
415,219,205867,2,0,P|364:247|342:323,1,104.500003189087,0|10,0:0|0:0,0:0:0:0:
503,206,206134,2,0,P|475:155|399:133,1,104.500003189087
264,303,206401,2,0,P|292:354|368:376,1,104.500003189087,0|8,0:0|0:0,0:0:0:0:
179,291,206667,6,0,B|166:214|166:214|246:57,1,209.000006378174,14|0,3:2|0:0,0:0:0:0:
102,127,207067,2,0,L|50:234,1,104.500003189087,12|0,0:0|0:0,0:0:0:0:
311,130,207334,1,0,0:0:0:0:
177,0,207467,1,0,0:0:0:0:
266,218,207601,5,8,0:0:0:0:
266,218,207676,1,8,0:0:0:0:
266,218,207751,2,0,P|300:180|309:123,1,104.500003189087,4|0,0:0|0:0,0:0:0:0:
144,217,208001,5,8,0:0:0:0:
162,254,208067,1,8,0:0:0:0:
179,291,208134,1,8,0:0:0:0:
197,328,208200,1,8,0:0:0:0:
215,366,208267,5,8,0:0:0:0:
244,323,208334,1,8,0:0:0:0:
293,309,208400,1,8,0:0:0:0:
343,318,208467,1,8,0:0:0:0:
388,294,208534,1,8,0:0:0:0:
408,246,208600,1,8,0:0:0:0:
393,197,208667,5,8,0:0:0:0:
345,158,208734,1,8,0:0:0:0:
343,98,208800,1,8,0:0:0:0:
387,56,208867,1,8,0:0:0:0:
448,63,208934,6,0,P|503:93|418:118,1,209.000006378174,6|10,0:0|0:0,0:0:0:0:
308,17,209334,1,0,0:0:0:0:
308,17,209400,1,0,0:0:0:0:
308,17,209467,1,10,0:0:0:0:
325,236,209600,5,0,0:0:0:0:
448,63,209734,1,10,0:0:0:0:
211,102,209867,5,0,0:0:0:0:
211,102,209934,1,0,0:0:0:0:
211,102,210000,1,10,0:0:0:0:
475,33,210132,1,0,0:0:0:0:
301,267,210264,5,10,0:0:0:0:
293,0,210396,1,0,0:0:0:0:
488,233,210528,5,10,0:0:0:0:
191,89,210664,1,0,0:0:0:0:
502,1,210800,5,10,0:0:0:0:
412,314,210937,1,0,0:0:0:0:
191,89,211061,5,8,0:0:0:0:
186,104,211127,1,8,0:0:0:0:
182,119,211194,1,8,0:0:0:0:
194,247,211327,1,0,0:0:0:0:
327,103,211461,1,8,0:0:0:0:
322,88,211527,1,8,0:0:0:0:
318,73,211594,1,8,0:0:0:0:
252,180,211727,1,8,0:0:0:0:
486,189,211857,5,8,0:0:0:0:
500,229,211928,1,8,0:0:0:0:
495,270,212000,2,0,P|472:299|457:307,1,42.7499986953736,8|8,0:0|0:0,0:0:0:0:
352,289,212150,5,8,0:0:0:0:
327,284,212210,1,8,0:0:0:0:
301,286,212270,1,8,0:0:0:0:
277,296,212330,1,8,0:0:0:0:
255,310,212390,2,0,L|258:354,1,42.7499986953736,8|8,0:0|0:0,0:0:0:0:
403,222,212519,2,0,L|406:178,1,42.7499986953736,8|8,0:0|0:0,0:0:0:0:
414,23,212658,5,8,0:0:0:0:
366,22,212724,1,8,0:0:0:0:
319,22,212791,1,8,0:0:0:0:
272,21,212858,1,8,0:0:0:0:
225,21,212924,2,0,L|160:20,1,42.7499986953736,8|8,0:0|0:0,0:0:0:0:
21,184,213058,2,0,L|85:183,1,42.7499986953736,8|8,0:0|0:0,0:0:0:0:
279,185,213207,5,14,0:0:0:0:
283,173,213273,1,0,0:0:0:0:
287,161,213340,1,10,0:0:0:0:
269,119,213407,1,0,0:0:0:0:
230,93,213473,1,2,0:0:0:0:
184,93,213540,1,0,0:0:0:0:
144,118,213607,1,10,0:0:0:0:
125,160,213673,1,0,0:0:0:0:
131,206,213740,5,2,0:0:0:0:
147,249,213807,1,0,0:0:0:0:
138,295,213873,1,10,0:0:0:0:
106,328,213940,1,0,0:0:0:0:
60,338,214007,2,0,P|51:305|58:267,1,59.375,2|0,0:0|0:0,0:0:0:0:
207,183,214140,1,14,0:0:0:0:
203,171,214207,1,0,0:0:0:0:
199,159,214273,5,2,0:0:0:0:
218,102,214340,1,0,0:0:0:0:
267,70,214407,1,10,0:0:0:0:
326,72,214473,1,0,0:0:0:0:
370,110,214540,1,2,0:0:0:0:
386,165,214607,1,0,0:0:0:0:
365,220,214673,1,10,0:0:0:0:
316,252,214740,1,0,0:0:0:0:
258,248,214807,6,0,P|223:224|207:176,1,59.375,2|0,0:0|0:0,0:0:0:0:
115,0,214940,6,8,B|136:48|102:83|102:83|115:89|115:89|124:78|124:78|99:100|76:178|130:136|129:226|89:284,1,296.875,10|0,0:0|0:0,0:0:0:0:
48,345,215340,5,2,0:0:0:0:
68,333,215407,1,0,0:0:0:0:
92,328,215473,1,10,0:0:0:0:
130,333,215540,1,0,0:0:0:0:
166,353,215607,1,2,0:0:0:0:
211,363,215673,1,0,0:0:0:0:
255,347,215740,1,10,0:0:0:0:
283,310,215807,1,0,0:0:0:0:
287,263,215873,5,2,0:0:0:0:
270,226,215940,1,0,0:0:0:0:
273,185,216007,1,10,0:0:0:0:
295,150,216073,1,0,0:0:0:0:
331,131,216140,1,2,0:0:0:0:
346,149,216207,1,0,0:0:0:0:
366,163,216273,1,10,0:0:0:0:
388,171,216340,1,0,0:0:0:0:
428,164,216407,5,2,0:0:0:0:
460,138,216473,1,0,0:0:0:0:
473,99,216540,1,10,0:0:0:0:
459,49,216607,1,0,0:0:0:0:
425,25,216673,1,2,0:0:0:0:
390,24,216740,1,2,0:0:0:0:
358,38,216807,2,0,P|328:55|270:61,1,59.375,10|0,0:0|0:0,0:0:0:0:
115,0,216940,6,0,B|119:34|90:73|53:77|53:77|63:89|63:89|25:126|28:184|77:256|147:237|191:210|196:172,1,356.25,2|8,0:0|0:0,0:0:0:0:
224,72,217473,5,6,0:0:0:0:
262,58,217540,1,0,0:0:0:0:
304,61,217607,1,10,0:0:0:0:
340,80,217673,1,0,0:0:0:0:
366,112,217740,1,2,0:0:0:0:
376,152,217807,1,0,0:0:0:0:
370,193,217873,1,10,0:0:0:0:
348,228,217940,1,0,0:0:0:0:
314,251,218007,5,2,0:0:0:0:
307,203,218073,1,0,0:0:0:0:
271,173,218140,1,10,0:0:0:0:
226,169,218207,1,0,0:0:0:0:
188,201,218273,1,2,0:0:0:0:
182,247,218340,1,0,0:0:0:0:
209,286,218407,1,10,0:0:0:0:
207,333,218473,1,0,0:0:0:0:
170,373,218540,5,2,0:0:0:0:
117,384,218607,1,0,0:0:0:0:
71,362,218673,1,10,0:0:0:0:
48,315,218740,1,0,0:0:0:0:
59,262,218807,1,2,0:0:0:0:
101,231,218873,1,0,0:0:0:0:
154,230,218940,6,0,P|191:249|235:295,1,59.375,10|0,0:0|0:0,0:0:0:0:
398,369,219073,5,2,0:0:0:0:
439,346,219140,1,0,0:0:0:0:
469,310,219207,1,10,0:0:0:0:
475,263,219273,1,0,0:0:0:0:
458,220,219340,1,2,0:0:0:0:
419,193,219407,1,0,0:0:0:0:
373,189,219473,1,10,0:0:0:0:
331,211,219540,1,0,0:0:0:0:
302,255,219607,6,0,P|342:242|393:204,1,59.375,6|0,0:0|0:0,0:0:0:0:
399,103,219740,1,10,0:0:0:0:
370,73,219807,1,0,0:0:0:0:
330,63,219873,1,2,0:0:0:0:
292,76,219940,1,0,0:0:0:0:
265,107,220007,6,0,L|186:102,1,59.375,10|0,0:0|0:0,0:0:0:0:
67,79,220140,1,6,0:0:0:0:
27,107,220207,1,0,0:0:0:0:
12,156,220273,1,10,0:0:0:0:
28,203,220340,1,0,0:0:0:0:
70,229,220407,1,2,0:0:0:0:
120,227,220473,1,0,0:0:0:0:
180,207,220540,2,0,P|211:215|251:256,1,59.375,10|0,0:0|0:0,0:0:0:0:
344,384,220673,5,6,0:0:0:0:
290,350,220740,1,0,0:0:0:0:
282,286,220807,1,10,0:0:0:0:
312,230,220873,1,0,0:0:0:0:
368,198,220940,1,10,0:0:0:0:
434,197,221007,1,2,0:0:0:0:
483,159,221073,1,10,0:0:0:0:
500,96,221140,1,0,0:0:0:0:
477,37,221207,5,14,0:0:0:0:
417,1,221273,1,0,0:0:0:0:
348,10,221340,1,10,0:0:0:0:
301,62,221407,1,2,0:0:0:0:
297,132,221473,2,0,P|321:166|358:184,1,59.375,2|0,0:0|0:0,0:0:0:0:
512,44,221607,2,0,P|488:10|451:-8,1,59.375,10|0,0:0|0:0,0:0:0:0:
232,15,221740,5,2,0:0:0:0:
186,27,221807,1,0,0:0:0:0:
159,68,221873,1,8,0:0:0:0:
158,113,221940,1,0,0:0:0:0:
187,152,222007,1,0,0:0:0:0:
231,162,222073,1,0,0:0:0:0:
275,147,222140,1,8,0:0:0:0:
300,107,222207,1,0,0:0:0:0:
301,62,222273,5,2,0:0:0:0:
249,77,222340,1,0,0:0:0:0:
217,118,222407,1,8,0:0:0:0:
214,171,222473,1,0,0:0:0:0:
241,215,222540,1,0,0:0:0:0:
282,249,222607,1,0,0:0:0:0:
293,301,222673,1,8,0:0:0:0:
274,349,222740,1,0,0:0:0:0:
228,376,222807,5,2,0:0:0:0:
183,362,222873,1,0,0:0:0:0:
155,325,222940,1,8,0:0:0:0:
154,278,223007,1,0,0:0:0:0:
180,240,223073,1,0,0:0:0:0:
224,224,223140,1,0,0:0:0:0:
269,236,223207,1,8,0:0:0:0:
314,248,223273,1,0,0:0:0:0:
358,232,223340,5,2,0:0:0:0:
387,188,223407,1,0,0:0:0:0:
389,135,223473,1,8,0:0:0:0:
355,88,223540,1,0,0:0:0:0:
299,70,223607,1,0,0:0:0:0:
239,91,223673,1,0,0:0:0:0:
207,146,223740,1,8,0:0:0:0:
219,209,223807,1,0,0:0:0:0:
266,252,223873,5,2,0:0:0:0:
282,301,223940,1,0,0:0:0:0:
263,350,224007,1,8,0:0:0:0:
216,374,224073,1,0,0:0:0:0:
165,363,224140,1,0,0:0:0:0:
135,320,224207,1,0,0:0:0:0:
137,267,224273,1,8,0:0:0:0:
169,226,224340,1,0,0:0:0:0:
196,181,224407,5,2,0:0:0:0:
192,128,224473,1,0,0:0:0:0:
158,88,224540,1,8,0:0:0:0:
107,76,224607,1,0,0:0:0:0:
59,97,224673,1,0,0:0:0:0:
33,143,224740,1,0,0:0:0:0:
40,195,224807,1,8,0:0:0:0:
76,233,224873,1,0,0:0:0:0:
128,243,224940,6,0,P|162:231|189:199,1,59.375,6|0,0:0|0:0,0:0:0:0:
248,4,225073,2,0,P|231:35|230:76,1,59.375,10|0,0:0|0:0,0:0:0:0:
326,173,225207,2,0,P|343:204|344:245,1,59.375,2|0,0:0|0:0,0:0:0:0:
204,373,225340,1,10,0:0:0:0:
204,373,225407,1,2,0:0:0:0:
204,373,225473,2,0,P|188:347|185:302,1,59.375,2|0,0:0|0:0,0:0:0:0:
314,202,225607,2,0,P|329:176|332:131,1,59.375,10|0,0:0|0:0,0:0:0:0:
205,7,225740,6,0,B|161:23|157:72|157:72|145:64|145:64|149:122|96:162,1,178.125,2|0,0:0|0:0,0:0:0:0:
78,158,226007,6,0,L|167:145,1,59.375,2|0,0:0|0:0,0:0:0:0:
295,88,226140,2,0,L|206:75,1,59.375,10|0,0:0|0:0,0:0:0:0:
47,62,226273,1,2,0:0:0:0:
43,85,226340,1,2,0:0:0:0:
46,109,226407,2,0,P|60:141|91:164,1,59.375,10|0,0:0|0:0,0:0:0:0:
189,214,226540,2,0,P|211:187|219:149,1,59.375,2|0,0:0|0:0,0:0:0:0:
205,7,226673,2,0,P|168:6|134:24,1,59.375,10|0,0:0|0:0,0:0:0:0:
122,271,226807,5,2,0:0:0:0:
138,287,226873,1,2,0:0:0:0:
159,298,226940,2,0,P|193:305|230:292,1,59.375,10|0,0:0|0:0,0:0:0:0:
310,235,227073,5,2,0:0:0:0:
346,215,227140,1,0,0:0:0:0:
387,215,227207,1,10,0:0:0:0:
422,235,227273,1,0,0:0:0:0:
444,270,227340,1,2,0:0:0:0:
445,311,227407,1,0,0:0:0:0:
426,348,227473,1,10,0:0:0:0:
391,370,227540,1,0,0:0:0:0:
351,373,227607,6,0,P|322:364|297:331,1,59.375,2|0,0:0|0:0,0:0:0:0:
213,334,227740,2,0,P|198:307|204:267,1,59.375,10|0,0:0|0:0,0:0:0:0:
404,154,227873,6,0,P|395:182|362:207,1,59.375,10|0,0:0|0:0,0:0:0:0:
365,292,228007,2,0,P|338:306|298:300,1,59.375,10|0,0:0|0:0,0:0:0:0:
193,109,228140,6,0,L|269:116,1,59.375,2|0,0:0|0:0,0:0:0:0:
402,27,228273,2,0,L|326:20,1,59.375,10|0,0:0|0:0,0:0:0:0:
182,134,228407,2,0,L|258:127,1,59.375,6|0,0:0|0:0,0:0:0:0:
393,44,228540,2,0,L|317:51,1,59.375,10|0,0:0|0:0,0:0:0:0:
93,125,228673,6,0,L|98:65,1,59.375,2|0,0:0|0:0,0:0:0:0:
363,134,228807,2,0,L|357:193,1,59.375,10|0,0:0|0:0,0:0:0:0:
78,136,228940,2,0,L|72:76,1,59.375,6|0,0:0|0:0,0:0:0:0:
335,143,229073,2,0,L|340:202,1,59.375,10|0,0:0|0:0,0:0:0:0:
132,206,229207,5,10,0:0:0:0:
64,220,229273,1,10,0:0:0:0:
30,280,229340,1,8,0:0:0:0:
52,346,229407,1,8,0:0:0:0:
118,367,229473,1,10,0:0:0:0:
181,337,229540,1,8,0:0:0:0:
210,274,229607,1,8,0:0:0:0:
210,197,229673,1,8,0:0:0:0:
248,132,229740,5,8,0:0:0:0:
319,90,229807,1,8,0:0:0:0:
400,95,229873,1,8,0:0:0:0:
465,145,229940,1,8,0:0:0:0:
489,223,230007,1,8,0:0:0:0:
465,301,230073,1,8,0:0:0:0:
401,352,230140,1,8,0:0:0:0:
320,358,230207,1,8,0:0:0:0:
249,316,230273,5,10,0:0:0:0:
377,189,230407,1,2,0:0:0:0:
160,284,230540,2,0,P|158:340|196:397,1,99.7499969558717,10|2,0:0|0:0,0:0:0:0:
303,245,230807,5,2,0:0:0:0:
252,62,230940,1,2,0:0:0:0:
469,201,231073,2,0,P|446:252|376:281,1,99.7499969558717,10|2,0:0|0:0,0:0:0:0:
227,194,231340,5,0,0:0:0:0:
332,36,231473,1,2,0:0:0:0:
125,155,231607,2,0,P|118:210|159:273,1,99.7499969558717,10|2,0:0|0:0,0:0:0:0:
191,69,231873,2,0,P|139:46|64:64,1,99.7499969558717,2|2,0:0|0:0,0:0:0:0:
229,172,232140,2,0,P|270:145|294:102,1,99.7499969558717,10|2,0:0|0:0,0:0:0:0:
49,124,232407,5,6,0:0:0:0:
134,249,232540,1,2,0:0:0:0:
294,101,232673,2,0,P|338:94|400:138,1,109.250002083778,10|2,0:0|0:0,0:0:0:0:
246,269,232940,5,2,0:0:0:0:
191,69,233073,1,2,0:0:0:0:
331,230,233207,2,0,P|338:285|294:351,1,109.250002083778,10|2,0:0|0:0,0:0:0:0:
75,207,233473,2,0,P|68:152|112:86,1,109.250002083778,2|2,0:0|0:0,0:0:0:0:
141,293,233740,2,0,P|89:316|10:297,1,109.250002083778,10|2,0:0|0:0,0:0:0:0:
179,190,234007,2,0,P|225:219|246:279,1,109.250002083778,2|2,0:0|0:0,0:0:0:0:
199,382,234273,5,10,0:0:0:0:
362,260,234407,1,8,0:0:0:0:
380,219,234473,1,8,0:0:0:0:
383,174,234540,1,10,0:0:0:0:
356,22,234673,1,2,0:0:0:0:
233,130,234807,6,0,P|164:132|122:115,1,99.7499969558717,10|2,0:0|0:0,0:0:0:0:
125,111,235007,1,2,0:0:0:0:
116,98,235073,1,2,0:0:0:0:
36,223,235207,1,2,0:0:0:0:
161,324,235340,2,0,P|96:349|51:347,1,99.7499969558717,10|2,0:0|0:0,0:0:0:0:
178,225,235607,5,2,0:0:0:0:
272,341,235740,1,2,0:0:0:0:
273,149,235873,1,10,0:0:0:0:
72,290,236007,2,0,P|120:294|176:351,1,99.7499969558717,2|2,0:0|0:0,0:0:0:0:
37,376,236273,1,2,0:0:0:0:
123,152,236407,1,10,0:0:0:0:
206,384,236540,1,2,0:0:0:0:
353,224,236673,5,2,0:0:0:0:
388,197,236740,1,2,0:0:0:0:
404,156,236807,1,2,0:0:0:0:
395,112,236873,1,2,0:0:0:0:
364,81,236940,2,0,P|358:57|364:32,1,49.8749984779358,10|0,0:0|0:0,0:0:0:0:
318,146,237073,5,2,0:0:0:0:
278,146,237140,1,2,0:0:0:0:
242,131,237207,1,2,0:0:0:0:
215,101,237273,1,2,0:0:0:0:
179,83,237340,1,2,0:0:0:0:
140,81,237407,1,2,0:0:0:0:
103,97,237473,2,0,P|97:120|102:145,1,49.8749984779358,10|0,0:0|0:0,0:0:0:0:
236,276,237607,2,0,P|240:254|236:227,1,49.8749984779358,2|0,0:0|0:0,0:0:0:0:
149,300,237740,5,10,0:0:0:0:
180,350,237807,1,8,0:0:0:0:
234,372,237873,1,8,0:0:0:0:
296,356,237940,1,8,0:0:0:0:
332,305,238007,1,8,0:0:0:0:
329,232,238073,1,8,0:0:0:0:
382,183,238140,1,8,0:0:0:0:
454,191,238207,1,8,0:0:0:0:
498,256,238273,5,8,0:0:0:0:
448,252,238340,1,8,0:0:0:0:
406,225,238407,1,8,0:0:0:0:
382,183,238473,1,8,0:0:0:0:
340,148,238540,1,8,0:0:0:0:
286,144,238607,1,8,0:0:0:0:
241,174,238673,1,8,0:0:0:0:
221,224,238740,1,8,0:0:0:0:
236,276,238807,6,0,B|266:302|266:302|376:296,1,132.999995941162,12|0,0:0|0:0,0:0:0:0:
467,164,239073,5,10,0:0:0:0:
453,335,239207,1,0,0:0:0:0:
309,227,239340,5,10,0:0:0:0:
378,384,239473,1,0,0:0:0:0:
376,121,239607,5,10,0:0:0:0:
295,325,239740,1,0,0:0:0:0:
221,87,239873,5,10,0:0:0:0:
309,227,240007,1,0,0:0:0:0:
237,65,240140,5,10,0:0:0:0:
220,199,240273,1,0,0:0:0:0:
85,81,240407,5,10,0:0:0:0:
248,92,240540,1,0,0:0:0:0:
187,234,240673,5,10,0:0:0:0:
176,106,240807,1,0,0:0:0:0:
15,50,240940,6,0,B|-2:73|3:105|15:120|15:120|8:124|8:124|29:136|46:165,1,113.999996520996,12|0,0:0|0:0,0:0:0:0:
45,258,241207,1,10,0:0:0:0:
164,90,241340,1,0,0:0:0:0:
187,234,241473,6,0,B|216:249|226:273|226:273|234:272|234:272|247:300|315:292,1,113.999996520996,12|0,0:0|0:0,0:0:0:0:
397,171,241740,1,10,0:0:0:0:
320,374,241873,6,0,P|365:321|348:238,1,113.999996520996,0|10,0:0|0:0,0:0:0:0:
256,145,242140,1,0,0:0:0:0:
276,293,242273,5,10,0:0:0:0:
332,97,242407,1,0,0:0:0:0:
276,293,242540,5,10,0:0:0:0:
230,73,242673,1,0,0:0:0:0:
276,293,242807,5,10,0:0:0:0:
340,15,242940,1,0,0:0:0:0:
276,293,243073,6,0,P|211:281|189:255,1,56.9999982604981,12|0,0:0|0:0,0:0:0:0:
171,215,243207,1,2,0:0:0:0:
353,156,243340,1,10,0:0:0:0:
121,297,243473,2,0,P|82:251|83:182,1,113.999996520996,2|8,0:0|0:0,0:0:0:0:
389,235,243740,6,0,P|415:213|433:168,1,56.9999982604981,2|0,0:0|0:0,0:0:0:0:
423,28,243873,2,0,P|397:49|373:91,1,56.9999982604981,10|0,0:0|0:0,0:0:0:0:
358,251,244007,2,0,P|334:219|294:200,1,56.9999982604981,2|0,0:0|0:0,0:0:0:0:
172,96,244140,6,0,P|189:123|293:137,1,113.999996520996,12|0,0:0|0:0,0:0:0:0:
460,96,244407,2,0,P|442:124|435:166,1,56.9999982604981,10|0,0:0|0:0,0:0:0:0:
447,328,244540,1,2,0:0:0:0:
291,269,244673,2,0,P|248:239|222:174,1,113.999996520996,10|0,0:0|0:0,0:0:0:0:
231,8,244940,1,8,0:0:0:0:
49,219,245073,1,0,0:0:0:0:
216,104,245207,5,10,0:0:0:0:
270,117,245273,1,8,0:0:0:0:
302,163,245340,1,8,0:0:0:0:
298,218,245407,1,8,0:0:0:0:
259,258,245473,1,8,0:0:0:0:
203,264,245540,1,8,0:0:0:0:
157,232,245607,1,8,0:0:0:0:
142,178,245673,1,8,0:0:0:0:
162,126,245740,5,10,0:0:0:0:
216,104,245807,1,8,0:0:0:0:
270,117,245873,1,8,0:0:0:0:
314,157,245940,1,8,0:0:0:0:
361,193,246007,1,8,0:0:0:0:
421,188,246073,1,8,0:0:0:0:
466,145,246140,1,8,0:0:0:0:
468,83,246207,1,8,0:0:0:0:
438,40,246273,5,10,0:0:0:0:
389,56,246340,1,8,0:0:0:0:
357,95,246407,1,8,0:0:0:0:
345,145,246473,1,8,0:0:0:0:
361,193,246540,1,8,0:0:0:0:
376,242,246607,1,8,0:0:0:0:
363,292,246673,1,8,0:0:0:0:
331,330,246740,1,8,0:0:0:0:
279,334,246807,5,10,0:0:0:0:
246,295,246873,1,10,0:0:0:0:
238,245,246940,1,10,0:0:0:0:
277,203,247007,1,10,0:0:0:0:
332,194,247073,1,8,0:0:0:0:
397,217,247140,1,8,0:0:0:0:
464,201,247207,1,8,0:0:0:0:
503,143,247273,1,8,0:0:0:0:
492,77,247340,6,0,B|457:53|406:44|368:66|368:66|326:78|291:69|275:17|303:-20|363:-23|400:8|383:58|368:65|368:65|339:92|297:118|231:109|201:52,1,534.375020384789,6|0,0:0|0:0,0:0:0:0:
90,8,248397,5,0,0:0:0:0:
90,8,248531,1,0,0:0:0:0:
8,105,248665,1,0,0:0:0:0:
8,105,248799,1,0,0:0:0:0:
106,187,248933,1,0,0:0:0:0:
106,187,249065,1,0,0:0:0:0:
24,284,249198,1,0,0:0:0:0:
24,284,249331,1,0,0:0:0:0:
144,355,249464,6,0,B|183:361|231:339|248:298|248:298|317:316|359:282|359:282|353:209|289:189|289:189|296:131|353:79|426:95,1,546.250020837785,6|0,0:0|0:0,0:0:0:0:
466,187,250540,5,0,0:0:0:0:
454,199,250671,1,0,0:0:0:0:
422,323,250802,1,0,0:0:0:0:
434,335,250933,1,0,0:0:0:0:
285,198,251064,1,0,0:0:0:0:
273,210,251195,1,0,0:0:0:0:
164,319,251326,1,0,0:0:0:0:
176,331,251458,1,0,0:0:0:0:
160,103,251591,6,0,B|159:61|197:16|249:14|249:14|229:59|254:114|294:131|338:127|338:127|385:117|444:115|481:158|492:229|468:258,1,534.375020384789,6|0,0:0|0:0,0:0:0:0:
383,218,252667,5,0,0:0:0:0:
372,249,252800,1,0,0:0:0:0:
281,339,252933,1,0,0:0:0:0:
270,308,253066,1,0,0:0:0:0:
175,218,253199,1,0,0:0:0:0:
164,249,253331,1,0,0:0:0:0:
74,338,253464,1,0,0:0:0:0:
63,307,253593,1,0,0:0:0:0:
74,157,253723,6,0,B|120:157|149:149|177:112|177:112|212:79|203:22|170:9|111:2|89:57|115:111|178:111|178:111|214:66|289:52|341:85,1,534.375020384789,6|0,0:0|0:0,0:0:0:0:
393,127,254807,6,0,P|411:148|426:192,1,42.7499986953736,10|0,0:0|0:0,0:0:0:0:
418,289,254940,1,8,0:0:0:0:
401,290,255007,1,8,0:0:0:0:
384,291,255073,1,8,0:0:0:0:
367,292,255140,1,8,0:0:0:0:
348,292,255207,6,0,L|274:287,1,42.7499986953736,10|0,0:0|0:0,0:0:0:0:
188,187,255340,1,8,0:0:0:0:
205,188,255407,1,8,0:0:0:0:
222,189,255473,1,8,0:0:0:0:
239,190,255540,1,8,0:0:0:0:
258,190,255607,6,0,L|327:184,1,42.7499986953736,10|0,0:0|0:0,0:0:0:0:
375,112,255740,1,8,0:0:0:0:
360,103,255807,1,8,0:0:0:0:
348,97,255873,6,0,B|312:63|263:73|243:87|243:87|180:97|166:30|181:-15|262:-13|275:33|269:63|243:88|243:88|216:113|151:141|181:88|126:85|79:100|57:135,1,534.375020384789,6|0,0:0|0:0,0:0:0:0:
38,220,256942,5,0,0:0:0:0:
168,268,257075,1,0,0:0:0:0:
80,310,257208,1,0,0:0:0:0:
126,178,257342,1,0,0:0:0:0:
44,234,257475,1,0,0:0:0:0:
183,260,257605,1,0,0:0:0:0:
102,317,257735,1,0,0:0:0:0:
126,178,257866,1,0,0:0:0:0:
242,320,258000,6,0,B|275:343|329:329|292:301|352:306|385:321|385:321|356:301|345:251|361:218|361:218|383:171|378:140|347:119|347:119|298:163|215:143|196:74,1,534.375020384789,6|0,0:0|0:0,0:0:0:0:
178,2,259066,5,0,0:0:0:0:
98,134,259200,1,0,0:0:0:0:
154,13,259334,1,0,0:0:0:0:
121,157,259468,1,0,0:0:0:0:
138,20,259602,1,0,0:0:0:0:
145,181,259734,1,0,0:0:0:0:
121,25,259867,1,0,0:0:0:0:
169,205,259995,1,0,0:0:0:0:
248,73,260130,6,0,B|286:100|347:96|385:72|385:72|373:136|336:168|336:168|378:144|424:140|476:169|506:216|508:278|475:323,1,534.375020384789,6|0,0:0|0:0,0:0:0:0:
306,360,261196,5,0,0:0:0:0:
388,261,261329,1,0,0:0:0:0:
286,256,261462,1,0,0:0:0:0:
393,352,261596,1,0,0:0:0:0:
283,382,261729,1,0,0:0:0:0:
399,248,261863,1,0,0:0:0:0:
274,247,261998,1,0,0:0:0:0:
406,360,262132,1,0,0:0:0:0:
132,287,262267,6,0,L|110:63,1,209.000006378174,14|0,0:0|0:0,0:0:0:0:
56,310,262800,2,0,P|115:365|194:336,1,161.500003080368,14|0,0:0|0:0,0:0:0:0:
327,193,263334,6,0,P|285:204|224:191,1,80.750001540184,10|8,0:0|0:0,0:0:0:0:
170,143,263599,1,8,0:0:0:0:
282,91,263732,1,8,0:0:0:0:
248,200,263864,1,8,0:0:0:0:
137,123,263997,1,8,0:0:0:0:
294,61,264130,1,8,0:0:0:0:
236,230,264264,1,8,0:0:0:0:
27,165,264405,6,0,B|47:148|50:123|50:123|50:40|149:-10|228:53|226:125|226:125|231:94|246:54|285:49|298:60|298:60|262:92|271:134|271:134|285:203|397:222|439:151|413:93|345:78|288:102|273:134|273:134|274:159|267:204|234:233,1,930.999971588136,6|0,2:3|0:0,0:0:0:0:
69,229,269679,6,0,L|157:233,1,69.6666687927247,4|0,0:0|0:0,0:0:0:0:
150,244,269919,1,0,0:0:0:0:
150,244,269999,1,0,0:0:0:0:
50,141,270159,6,0,L|48:64,1,69.6666687927247,8|0,0:0|0:0,0:0:0:0:
164,24,270479,1,0,0:0:0:0:
272,132,270639,6,0,L|184:136,1,69.6666687927247,2|0,0:0|0:0,0:0:0:0:
192,143,270879,1,0,0:0:0:0:
192,143,270960,1,0,0:0:0:0:
352,32,271120,6,0,L|354:109,1,69.6666687927247,12|0,0:0|0:0,0:0:0:0:
259,60,271440,1,0,0:0:0:0:
386,197,271600,6,0,P|420:175|445:131,1,69.6666687927247,2|0,0:0|0:0,0:0:0:0:
434,132,271840,1,0,0:0:0:0:
434,132,271920,1,0,0:0:0:0:
270,283,272080,6,0,L|272:206,1,69.6666687927247,8|0,0:0|0:0,0:0:0:0:
370,311,272401,1,0,0:0:0:0:
192,143,272561,6,0,P|157:164|132:208,1,69.6666687927247,2|0,0:0|0:0,0:0:0:0:
144,208,272801,1,0,0:0:0:0:
144,208,272881,1,0,0:0:0:0:
45,109,273041,6,0,L|47:186,1,69.6666687927247,8|0,0:0|0:0,0:0:0:0:
144,34,273361,1,0,0:0:0:0:
85,304,273522,6,0,B|122:314|122:314|174:304,1,69.6666687927247,6|0,0:0|0:0,0:0:0:0:
176,293,273762,1,0,0:0:0:0:
176,293,273842,1,0,0:0:0:0:
259,60,274002,6,0,L|261:137,1,69.6666687927247,8|0,0:0|0:0,0:0:0:0:
349,218,274322,1,0,0:0:0:0:
144,208,274482,6,0,B|107:198|107:198|55:208,1,69.6666687927247,2|0,0:0|0:0,0:0:0:0:
53,219,274723,1,0,0:0:0:0:
53,219,274803,1,0,0:0:0:0:
218,94,274963,6,0,L|220:17,1,69.6666687927247,8|0,0:0|0:0,0:0:0:0:
118,119,275283,1,0,0:0:0:0:
336,26,275443,6,0,L|424:30,1,69.6666687927247,2|0,0:0|0:0,0:0:0:0:
420,43,275683,1,0,0:0:0:0:
420,43,275763,1,0,0:0:0:0:
264,200,275923,2,0,L|266:277,1,69.6666687927247,12|0,0:0|0:0,0:0:0:0:
362,124,276244,5,8,0:0:0:0:
362,124,276324,1,8,0:0:0:0:
362,124,276404,1,8,0:0:0:0:
273,283,276564,1,8,0:0:0:0:
218,94,276724,1,8,0:0:0:0:
264,200,276884,5,8,0:0:0:0:
186,223,277044,1,8,0:0:0:0:
115,183,277205,1,8,0:0:0:0:
95,105,277365,6,0,B|102:157|70:218|47:160|9:238|26:300,1,197.916666666667,4|0,0:0|0:0,0:0:0:0:
161,307,277845,2,0,L|89:253,1,79.1666666666667,10|0,0:0|0:0,0:0:0:0:
53,370,278165,1,0,0:0:0:0:
237,250,278325,6,0,P|277:241|339:264,1,79.1666666666667,2|0,0:0|0:0,0:0:0:0:
325,259,278566,1,0,0:0:0:0:
333,272,278646,1,0,0:0:0:0:
194,138,278806,2,0,L|266:84,1,79.1666666666667,10|0,0:0|0:0,0:0:0:0:
156,26,279126,1,0,0:0:0:0:
90,156,279286,6,0,P|111:190|172:218,1,79.1666666666667,2|0,0:0|0:0,0:0:0:0:
158,211,279526,1,0,0:0:0:0:
173,208,279606,1,0,0:0:0:0:
334,38,279767,2,0,L|328:137,1,79.1666666666667,10|0,0:0|0:0,0:0:0:0:
413,201,280087,1,0,0:0:0:0:
237,250,280247,6,0,P|227:289|251:352,1,79.1666666666667,2|0,0:0|0:0,0:0:0:0:
246,336,280487,1,0,0:0:0:0:
258,345,280567,1,0,0:0:0:0:
413,201,280726,2,0,L|407:102,1,79.1666666666667,10|0,0:0|0:0,0:0:0:0:
312,284,281046,1,0,0:0:0:0:
502,239,281206,6,0,L|489:325,1,79.1666666666667,6|0,0:0|0:0,0:0:0:0:
483,331,281449,1,0,0:0:0:0:
471,340,281531,1,0,0:0:0:0:
249,167,281693,2,0,P|297:187|319:235,1,79.1666666666667,10|0,0:0|0:0,0:0:0:0:
246,336,282009,1,0,0:0:0:0:
78,234,282168,6,0,L|91:148,1,79.1666666666667,2|0,0:0|0:0,0:0:0:0:
97,142,282408,1,0,0:0:0:0:
109,133,282488,1,0,0:0:0:0:
132,295,282648,2,0,P|82:315|33:296,1,79.1666666666667,10|0,0:0|0:0,0:0:0:0:
240,247,282968,1,0,0:0:0:0:
27,34,283128,6,0,L|113:47,1,79.1666666666667,2|0,0:0|0:0,0:0:0:0:
119,52,283368,1,0,0:0:0:0:
128,65,283448,1,0,0:0:0:0:
294,14,283608,2,0,P|274:64|293:113,1,79.1666666666667,10|0,0:0|0:0,0:0:0:0:
362,171,283928,1,0,0:0:0:0:
455,29,284088,6,0,L|369:42,1,79.1666666666667,2|0,0:0|0:0,0:0:0:0:
363,47,284328,1,0,0:0:0:0:
354,60,284408,1,0,0:0:0:0:
437,188,284568,2,0,P|411:235|361:252,1,79.1666666666667,10|0,0:0|0:0,0:0:0:0:
423,109,284888,1,0,0:0:0:0:
253,245,285048,6,0,P|290:262|325:313,1,79.1666666666667,6|0,0:0|0:0,0:0:0:0:
320,305,285288,1,0,0:0:0:0:
319,320,285368,1,0,0:0:0:0:
184,140,285528,2,0,L|177:242,1,79.1666666666667,10|0,0:0|0:0,0:0:0:0:
278,87,285848,1,0,0:0:0:0:
87,184,286008,6,0,P|72:145|84:85,1,79.1666666666667,2|0,0:0|0:0,0:0:0:0:
82,94,286244,1,0,0:0:0:0:
93,84,286322,1,0,0:0:0:0:
211,266,286480,2,0,L|204:164,1,79.1666666666667,10|0,0:0|0:0,0:0:0:0:
109,282,286800,1,0,0:0:0:0:
222,95,286960,6,0,P|259:112|294:162,1,79.1666666666667,2|0,0:0|0:0,0:0:0:0:
289,155,287203,1,0,0:0:0:0:
288,169,287285,1,0,0:0:0:0:
411,45,287447,2,0,L|418:147,1,79.1666666666667,10|0,0:0|0:0,0:0:0:0:
319,50,287773,1,0,0:0:0:0:
498,229,287935,6,0,P|461:246|426:296,1,79.1666666666667,2|0,0:0|0:0,0:0:0:0:
431,289,288167,1,0,0:0:0:0:
432,303,288245,1,0,0:0:0:0:
282,247,288400,2,0,L|289:145,1,79.1666666666667,10|0,0:0|0:0,0:0:0:0:
186,269,288720,1,0,0:0:0:0:
124,105,288880,6,0,P|119:142|120:194,1,79.1666666666667,6|0,0:0|0:0,0:0:0:0:
125,198,289121,1,0,0:0:0:0:
132,211,289202,1,0,0:0:0:0:
102,12,289363,2,0,L|0:16,1,79.1666666666667,10|0,0:0|0:0,0:0:0:0:
203,156,289686,1,0,0:0:0:0:
326,32,289847,6,0,P|331:69|330:121,1,79.1666666666667,2|0,0:0|0:0,0:0:0:0:
325,125,290079,1,0,0:0:0:0:
318,138,290157,1,0,0:0:0:0:
44,101,290312,2,0,L|146:105,1,79.1666666666667,10|0,0:0|0:0,0:0:0:0:
22,204,290637,5,8,0:0:0:0:
123,104,290799,1,8,0:0:0:0:
168,275,290959,1,8,0:0:0:0:
168,275,291039,1,8,0:0:0:0:
168,275,291119,1,8,0:0:0:0:
44,101,291279,5,8,0:0:0:0:
197,12,291439,1,10,0:0:0:0:
307,166,291595,1,10,0:0:0:0:
444,0,291751,1,10,0:0:0:0:
317,54,291907,5,8,0:0:0:0:
317,54,291987,1,8,0:0:0:0:
317,54,292067,1,8,0:0:0:0:
209,161,292227,1,8,0:0:0:0:
235,0,292387,1,8,0:0:0:0:
112,164,292547,1,8,0:0:0:0:
54,19,292727,6,0,P|100:42|126:116,1,91.8333361358643,6|0,0:0|0:0,0:0:0:0:
89,259,293044,2,0,P|43:236|17:162,1,91.8333361358643,2|8,0:0|0:0,0:0:0:0:
199,288,293361,2,0,P|176:334|102:360,1,91.8333361358643,2|0,0:0|0:0,0:0:0:0:
297,220,293679,6,0,B|311:175|293:136|293:136|271:90|287:42,1,183.666672271729,6|0,0:0|0:0,0:0:0:0:
206,199,294159,1,8,0:0:0:0:
382,82,294319,1,0,0:0:0:0:
199,103,294479,1,2,0:0:0:0:
464,83,294639,6,0,P|436:149|348:158,1,137.750004203797,6|0,0:0|0:0,0:0:0:0:
199,103,294959,2,0,P|240:89|308:112,1,91.8333361358643,2|8,0:0|0:0,0:0:0:0:
450,261,295279,2,0,P|409:275|341:252,1,91.8333361358643,2|0,0:0|0:0,0:0:0:0:
503,199,295599,2,0,P|532:248|463:342,1,183.666672271729,6|0,0:0|0:0,0:0:0:0:
248,172,296079,1,8,0:0:0:0:
382,82,296239,1,0,0:0:0:0:
362,266,296399,1,0,0:0:0:0:
281,76,296559,6,0,P|234:70|177:101,1,85.5000003261566,4|0,0:0|0:0,0:0:0:0:
84,198,296885,2,0,P|79:244|98:302,1,85.5000003261566,2|8,0:0|0:0,0:0:0:0:
252,255,297208,2,0,P|256:208|237:150,1,85.5000003261566,2|0,0:0|0:0,0:0:0:0:
49,377,297528,2,0,P|95:382|153:352,1,85.5000003261566,6|0,0:0|0:0,0:0:0:0:
252,255,297848,2,0,P|205:249|148:280,1,85.5000003261566,2|8,0:0|0:0,0:0:0:0:
48,121,298158,2,0,P|94:115|152:146,1,85.5000003261566,2|0,0:0|0:0,0:0:0:0:
247,171,298478,6,0,P|293:163|335:74,1,128.250000489235,6|0,0:0|0:0,0:0:0:0:
362,16,298803,2,0,P|367:64|402:109,1,85.5000003261566,2|8,0:0|0:0,0:0:0:0:
333,238,299125,2,0,P|328:286|288:329,1,85.5000003261566,2|0,0:0|0:0,0:0:0:0:
253,89,299445,2,0,P|190:72|118:100,1,128.250000489235,6|0,0:0|0:0,0:0:0:0:
176,284,299765,2,0,P|224:276|255:247,1,85.5000003261566,2|8,0:0|0:0,0:0:0:0:
332,116,300076,2,0,P|304:156|263:172,1,85.5000003261566,2|0,0:0|0:0,0:0:0:0:
62,53,300393,5,8,0:0:0:0:
187,202,300550,1,8,0:0:0:0:
0,110,300707,1,8,0:0:0:0:
259,140,300865,1,8,0:0:0:0:
7,255,301018,1,8,0:0:0:0:
200,34,301172,1,8,0:0:0:0:
116,362,301345,1,8,0:0:0:0:
200,34,302312,5,8,0:0:0:0:
7,255,302472,1,8,0:0:0:0:
279,280,302632,1,8,0:0:0:0:
108,22,302784,1,8,0:0:0:0:
218,354,302936,1,8,0:0:0:0:
287,14,303089,1,8,0:0:0:0:
101,384,303264,1,8,0:0:0:0:
23,312,304243,6,0,L|133:302,1,85.5000003261566,6|0,3:2|0:0,0:0:0:0:
217,194,304563,2,0,L|107:184,1,85.5000003261566,6|0,3:2|0:0,0:0:0:0:
314,117,304883,6,0,L|324:227,1,85.5000003261566,6|0,3:2|0:0,0:0:0:0:
184,116,305203,2,0,L|194:6,1,85.5000003261566,6|0,3:2|0:0,0:0:0:0:
131,186,305523,6,0,P|184:202|246:179,1,85.5000003261566,6|0,3:2|0:0,0:0:0:0:
364,59,305843,2,0,P|311:43|249:66,1,85.5000003261566,6|0,3:2|0:0,0:0:0:0:
417,165,306163,5,10,0:0:0:0:
448,50,306323,1,0,0:0:0:0:
448,50,306399,1,0,0:0:0:0:
448,50,306475,1,0,0:0:0:0:
314,117,306628,5,10,0:0:0:0:
373,300,306780,1,8,0:0:0:0:
373,300,306857,1,8,0:0:0:0:
373,300,306938,1,8,0:0:0:0:
354,19,307091,5,10,0:0:0:0:
240,132,307253,1,8,0:0:0:0:
214,142,307334,1,8,0:0:0:0:
185,143,307416,1,8,0:0:0:0:
63,73,307578,2,0,P|46:111|62:184,2,95.0000036239625,8|8|8,0:0|0:0|0:0,0:0:0:0:
215,11,308084,6,0,P|268:38|315:129,1,152,6|0,0:0|0:0,0:0:0:0:
311,136,308404,1,2,0:0:0:0:
448,50,308564,1,8,0:0:0:0:
400,273,308724,1,10,0:0:0:0:
448,50,308884,1,8,0:0:0:0:
222,188,309044,6,0,P|313:255|416:272,1,202.666666666667,6|0,0:0|0:0,0:0:0:0:
311,136,309524,1,8,0:0:0:0:
183,321,309684,1,10,0:0:0:0:
88,127,309844,1,10,0:0:0:0:
311,136,310004,6,0,P|243:118|153:4,1,202.666666666667,6|2,0:0|0:0,0:0:0:0:
165,162,310484,2,0,P|124:203|61:209,1,101.333333333333,8|10,0:0|0:0,0:0:0:0:
53,53,310804,1,8,0:0:0:0:
3,275,310964,2,0,P|58:304|193:254,1,202.666666666667,6|0,0:0|0:0,0:0:0:0:
88,127,311444,5,8,0:0:0:0:
184,264,311604,1,8,0:0:0:0:
158,21,311764,1,8,0:0:0:0:
320,83,311924,6,0,P|301:142|208:185,1,152,6|0,0:0|0:0,0:0:0:0:
202,186,312244,2,0,P|153:192|118:212,1,50.6666666666667,2|0,0:0|0:0,0:0:0:0:
99,247,312404,1,8,0:0:0:0:
221,84,312564,1,10,0:0:0:0:
238,348,312724,1,8,0:0:0:0:
351,205,312884,6,0,P|343:238|465:352,1,202.666666666667,6|0,0:0|0:0,0:0:0:0:
238,348,313364,1,8,0:0:0:0:
459,239,313524,1,8,0:0:0:0:
226,185,313684,2,0,P|213:154|214:93,1,50.6666666666667,10|0,0:0|0:0,0:0:0:0:
216,44,313844,6,0,P|254:10|346:57,1,152,6|0,0:0|0:0,0:0:0:0:
347,60,314164,1,2,0:0:0:0:
126,169,314324,1,8,0:0:0:0:
294,234,314484,2,0,P|231:268|186:257,1,101.333333333333,10|8,0:0|0:0,0:0:0:0:
386,124,314804,6,0,P|399:184|391:259,1,101.333333333333,14|10,0:0|0:0,0:0:0:0:
226,185,315124,1,8,0:0:0:0:
362,335,315284,6,0,L|237:347,1,101.333333333333,14|8,0:0|0:0,0:0:0:0:
398,223,315604,1,8,0:0:0:0:
180,350,315764,6,0,P|124:307|121:195,1,152,6|0,0:0|0:0,0:0:0:0:
118,212,316084,1,2,0:0:0:0:
76,378,316244,1,8,0:0:0:0:
226,185,316404,1,10,0:0:0:0:
76,378,316564,1,8,0:0:0:0:
10,197,316724,6,0,P|30:133|168:111,1,202.666666666667,6|0,0:0|0:0,0:0:0:0:
16,12,317204,1,8,0:0:0:0:
118,212,317364,1,10,0:0:0:0:
232,71,317524,1,10,0:0:0:0:
184,299,317684,6,8,P|227:234|296:187,1,152,6|0,0:0|0:0,0:0:0:0:
307,190,318004,2,0,P|359:190|408:148,1,101.333333333333,2|8,0:0|0:0,0:0:0:0:
313,318,318324,1,8,0:0:0:0:
327,94,318484,1,8,0:0:0:0:
486,299,318644,2,0,P|418:280|407:150,1,202.666666666667,6|0,0:0|0:0,0:0:0:0:
313,318,319124,5,8,0:0:0:0:
492,192,319284,1,8,0:0:0:0:
234,144,319444,1,8,0:0:0:0:
313,318,319604,6,0,P|257:301|156:333,1,152,6|0,0:0|0:0,0:0:0:0:
151,343,319924,2,0,P|100:358|35:338,1,101.333333333333,2|8,0:0|0:0,0:0:0:0:
136,149,320244,2,0,P|187:134|252:154,1,101.333333333333,10|8,0:0|0:0,0:0:0:0:
47,70,320564,2,0,B|23:107|15:179|65:142|68:211|41:262,1,202.666666666667,6|0,0:0|0:0,0:0:0:0:
136,149,321044,1,8,0:0:0:0:
247,384,321204,1,10,0:0:0:0:
369,270,321364,2,0,P|405:276|458:254,1,50.6666666666667,10|0,0:0|0:0,0:0:0:0:
492,192,321524,6,0,P|452:151|340:143,1,152,6|0,0:0|0:0,0:0:0:0:
340,150,321844,2,0,P|278:147|239:96,1,101.333333333333,2|8,0:0|0:0,0:0:0:0:
369,270,322164,2,0,P|410:315|402:379,1,101.333333333333,10|8,0:0|0:0,0:0:0:0:
167,290,322484,2,0,P|212:248|276:256,1,101.333333333333,2|8,0:0|0:0,0:0:0:0:
264,252,322724,1,8,0:0:0:0:
276,261,322804,1,8,0:0:0:0:
81,181,322964,1,8,0:0:0:0:
240,327,323124,1,8,0:0:0:0:
315,75,323284,1,8,0:0:0:0:
167,290,323444,6,0,L|151:86,1,192.533330983073,6|2,0:0|0:0,0:0:0:0:
269,164,323924,2,0,L|278:297,1,96.2666654915365,10|10,0:0|0:0,0:0:0:0:
275,260,324244,1,8,0:0:0:0:
151,98,324404,6,0,P|180:47|283:47,1,137.750004203797,6|0,0:0|0:0,0:0:0:0:
267,43,324724,1,0,0:0:0:0:
43,38,324884,2,0,L|37:165,1,91.8333361358643,8|10,0:0|0:0,0:0:0:0:
234,112,325204,1,10,0:0:0:0:
35,224,325364,6,0,P|73:263|186:273,1,137.750004203797,6|0,0:0|0:0,0:0:0:0:
170,283,325684,2,0,P|196:290|229:316,1,45.9166680679322,2|0,0:0|0:0,0:0:0:0:
258,369,325844,1,8,0:0:0:0:
138,166,326004,1,10,0:0:0:0:
164,366,326164,1,8,0:0:0:0:
332,255,326324,6,0,P|367:200|353:111,1,137.750004203797,6|0,0:0|0:0,0:0:0:0:
350,116,326644,1,0,0:0:0:0:
443,294,326804,1,8,0:0:0:0:
271,171,326964,1,8,0:0:0:0:
455,116,327124,1,8,0:0:0:0:
455,116,327204,1,8,0:0:0:0:
455,116,327284,6,0,P|436:60|311:22,1,183.666672271729,6|2,0:0|0:0,0:0:0:0:
189,134,327764,1,8,0:0:0:0:
350,116,327924,1,2,0:0:0:0:
151,280,328084,1,8,0:0:0:0:
151,280,328164,1,8,0:0:0:0:
151,280,328244,2,0,P|143:212|43:169,1,183.666672271729,6|0,0:0|0:0,0:0:0:0:
189,134,328724,5,8,0:0:0:0:
61,265,328884,1,8,0:0:0:0:
129,77,329044,2,0,P|169:53|206:57,1,45.9166680679322,10|0,0:0|0:0,0:0:0:0:
244,56,329204,6,0,P|308:96|409:47,1,183.666672271729,6|2,0:0|0:0,0:0:0:0:
294,173,329684,1,8,0:0:0:0:
402,59,329844,2,0,P|418:121|400:174,1,91.8333361358643,10|8,0:0|0:0,0:0:0:0:
225,227,330164,6,0,P|209:165|227:112,1,91.8333361358643,6|0,0:0|0:0,0:0:0:0:
304,271,330484,1,10,0:0:0:0:
304,271,330564,1,8,0:0:0:0:
304,271,330644,6,0,P|266:306|243:314,1,45.9166680679322,10|0,0:0|0:0,0:0:0:0:
427,172,330804,1,10,0:0:0:0:
428,208,330884,1,8,0:0:0:0:
430,244,330964,1,8,0:0:0:0:
432,281,331044,1,8,0:0:0:0:
432,317,331124,6,0,B|405:370|405:370|230:384,1,202.666666666667,6|0,0:0|0:0,0:0:0:0:
115,249,331604,1,8,0:0:0:0:
294,173,331764,1,10,0:0:0:0:
183,341,331924,1,8,0:0:0:0:
53,100,332084,2,0,P|43:166|122:251,1,183.666672271729,6|0,0:0|0:0,0:0:0:0:
131,37,332564,2,0,P|87:7|36:3,1,91.8333361358643,8|10,0:0|0:0,0:0:0:0:
233,57,332884,1,10,0:0:0:0:
116,249,333044,6,0,P|170:276|278:251,1,152,6|0,0:0|0:0,0:0:0:0:
276,249,333364,2,0,P|317:238|386:257,1,91.8333361358643,2|8,0:0|0:0,0:0:0:0:
468,349,333684,2,0,P|427:360|358:341,1,91.8333361358643,8|8,0:0|0:0,0:0:0:0:
233,57,334004,2,0,P|272:71|345:192,1,183.666672271729,6|0,0:0|0:0,0:0:0:0:
201,199,334484,5,8,0:0:0:0:
405,118,334644,1,8,0:0:0:0:
155,30,334804,1,8,0:0:0:0:
345,185,334964,6,0,P|320:127|360:41,1,152,6|0,0:0|0:0,0:0:0:0:
370,42,335284,2,0,P|425:49|474:28,1,101.333333333333,2|8,0:0|0:0,0:0:0:0:
244,132,335604,2,0,P|189:125|140:146,1,101.333333333333,10|8,0:0|0:0,0:0:0:0:
405,118,335924,6,0,B|439:179|425:239|379:218|382:283|408:318,1,202.666666666667,6|0,0:0|0:0,0:0:0:0:
345,185,336404,1,8,0:0:0:0:
279,355,336564,1,10,0:0:0:0:
168,247,336724,2,0,P|130:227|79:232,1,50.6666666666667,10|0,0:0|0:0,0:0:0:0:
51,244,336884,6,0,P|92:198|84:105,1,152,6|0,0:0|0:0,0:0:0:0:
70,93,337204,2,0,P|32:47|39:-8,1,101.333333333333,2|8,0:0|0:0,0:0:0:0:
246,228,337524,2,0,P|245:280|204:321,1,101.333333333333,10|8,0:0|0:0,0:0:0:0:
184,149,337844,2,0,P|223:130|295:144,1,101.333333333333,6|8,0:0|0:0,0:0:0:0:
289,147,338084,1,8,0:0:0:0:
297,159,338164,1,8,0:0:0:0:
168,247,338324,1,8,0:0:0:0:
272,41,338484,1,8,0:0:0:0:
346,278,338644,1,8,0:0:0:0:
184,149,338804,6,0,L|-3:223,1,192.533330983073,6|0,0:0|0:0,0:0:0:0:
8,76,339284,2,0,L|99:37,1,96.2666654915365,8|8,0:0|0:0,0:0:0:0:
272,41,339604,1,0,0:0:0:0:
184,149,339764,1,8,0:0:0:0:
281,25,339924,1,8,0:0:0:0:
310,205,340084,1,8,0:0:0:0:
449,25,340244,2,0,L|311:22,1,96.2666654915365,10|8,0:0|0:0,0:0:0:0:
262,112,340564,1,8,0:0:0:0:
423,107,340724,5,10,0:0:0:0:
437,125,340804,1,8,0:0:0:0:
448,147,340884,1,8,0:0:0:0:
453,170,340964,1,8,0:0:0:0:
452,193,341044,5,10,0:0:0:0:
262,112,341204,1,8,0:0:0:0:
425,275,341364,5,10,0:0:0:0:
401,278,341444,1,8,0:0:0:0:
377,281,341524,1,8,0:0:0:0:
353,284,341604,1,8,0:0:0:0:
328,286,341684,6,0,B|297:300|241:300|287:262|228:262|176:273,1,144.399998237305,6|0,0:0|0:0,0:0:0:0:
128,332,342004,6,0,P|150:287|123:220,1,96.2666654915365,6|0,0:0|0:0,0:0:0:0:
23,67,342324,6,0,P|1:112|47:207,1,144.399998237305,6|0,0:0|0:0,0:0:0:0:
100,126,342644,6,0,B|158:89|259:104|205:171|338:172|390:109,1,304,6|4,0:0|0:0,0:0:0:0:
162,209,343604,1,4,0:0:0:0:
297,60,344084,5,4,0:2:0:0:
445,191,344244,1,4,0:2:0:0:
315,344,344404,1,4,0:2:0:0:
162,209,344564,1,4,0:2:0:0:
