osu file format v14

[General]
AudioFilename: three_hammers.mp3
AudioLeadIn: 0
PreviewTime: 156008
Countdown: 0
SampleSet: Normal
StackLeniency: 0.4
Mode: 0
LetterboxInBreaks: 0
WidescreenStoryboard: 1

[Editor]
Bookmarks: 293,15653,32933,48453,63813,79173,86853,98373,121413,136773,144453,155973,179013,187413,196293,213146,228079,230212,247279,262212,269679,277298,284978,292652,308012,323372,344492
DistanceSpacing: 1.1
BeatDivisor: 4
GridSize: 4
TimelineZoom: 2.900001

[Metadata]
Title:Three Hammers
TitleUnicode:Three Hammers
Artist:DragonForce
ArtistUnicode:DragonForce
Creator:Jenny
Version:Legend Alpha
Source:
Tags:dragon force maximum overload legend insane stream deathstream speedmetal power speed metal powermetal cry thunder english
BeatmapID:2778643
BeatmapSetID:956144

[Difficulty]
HPDrainRate:4.1
CircleSize:5
OverallDifficulty:9.4
ApproachRate:9.7
SliderMultiplier:2.1
SliderTickRate:1

[Events]
//Background and Video events
0,0,"BG.png",0,0
//Break Periods
2,33186,48014
2,179268,186039
//Storyboard Layer 0 (Background)
//Storyboard Layer 1 (Fail)
//Storyboard Layer 2 (Pass)
//Storyboard Layer 3 (Foreground)
//Storyboard Layer 4 (Overlay)
//Storyboard Sound Samples

[TimingPoints]
339,468.75,4,2,1,60,1,0
339,-83.3333333333333,4,2,1,60,0,0
807,487.80487804878,4,2,1,60,1,0
1294,480,4,2,1,60,1,0
1859,-100,4,2,1,30,0,0
2254,481.927710843374,4,2,1,60,1,0
2339,-100,4,2,1,30,0,0
3217,-83.3333333333333,4,2,1,60,0,0
3299,-83.3333333333333,4,2,1,30,0,0
4181,465.116279069767,4,2,1,60,1,0
4181,-83.3333333333333,4,2,1,60,0,0
4259,-83.3333333333333,4,2,1,30,0,0
4646,491.803278688525,4,2,1,60,1,0
5137,480,4,2,1,60,1,0
5617,487.80487804878,4,2,1,60,1,0
5699,-100,4,2,1,30,0,0
6104,478.08764940239,4,2,1,60,1,0
6104,-83.3333333333333,4,2,1,60,0,0
6179,-83.3333333333333,4,2,1,45,0,0
7060,-83.3333333333333,4,2,1,60,0,0
8016,472.44094488189,4,2,1,60,1,0
8099,-100,4,2,1,30,0,0
8488,487.80487804878,4,2,1,60,1,0
8975,480,4,2,1,60,1,0
9455,491.803278688525,4,2,1,60,1,0
9455,-83.5421888053467,4,2,1,60,0,0
9539,-100,4,2,1,30,0,0
9939,-100,4,2,1,60,0,0
9946,479.041916167665,4,2,1,60,1,0
9946,-85.8369098712446,4,2,1,60,0,0
10099,-58.8235294117647,4,2,1,45,0,0
10904,-83.3333333333333,4,2,1,60,0,0
11059,-83.3333333333333,4,2,1,45,0,0
11622,-83.3333333333333,4,2,1,60,0,0
11862,468.75,4,2,1,60,1,0
11862,-85.4700854700855,4,2,1,60,0,0
12330,487.80487804878,4,2,1,60,1,0
12817,481.347773766546,4,2,1,60,1,0
13779,480,4,2,1,60,1,0
15859,-100,4,2,1,30,0,0
16179,-100,4,2,1,60,0,0
16659,-125,4,1,1,60,0,0
16739,-125,4,2,1,30,0,0
16979,-100,4,1,1,70,0,0
17059,-100,4,2,1,30,0,0
17299,-83.3333333333333,4,1,1,80,0,0
17379,-83.3333333333333,4,2,1,30,0,0
17619,-83.3333333333333,4,2,1,60,0,0
20819,-83.3333333333333,4,2,1,70,0,0
21139,-83.3333333333333,4,2,1,80,0,0
21459,-83.3333333333333,4,2,1,60,0,0
21619,-83.3333333333333,4,2,1,30,0,0
21939,-83.3333333333333,4,2,1,60,0,0
23539,-83.3333333333333,4,2,1,30,0,0
23859,-83.3333333333333,4,2,1,60,0,0
24339,-125,4,1,1,60,0,0
24419,-125,4,2,1,30,0,0
24659,-100,4,1,1,70,0,0
24739,-100,4,2,1,30,0,0
24979,-83.3333333333333,4,1,1,80,0,0
25059,-83.3333333333333,4,2,1,30,0,0
25299,-83.3333333333333,4,2,1,60,0,0
25459,-83.3333333333333,4,2,1,30,0,0
25779,-83.3333333333333,4,2,1,60,0,0
27379,-83.3333333333333,4,2,1,30,0,0
27699,-83.3333333333333,4,2,1,60,0,0
28499,-83.3333333333333,4,2,1,70,0,0
28819,495.867768595041,4,2,1,80,1,0
29149,479.65464865297,4,2,1,60,1,0
29628,-100,4,2,1,55,0,0
30108,-100,4,2,1,50,0,0
30587,-100,4,2,1,45,0,0
31067,-100,4,2,1,40,0,0
31547,-100,4,2,1,35,0,0
32026,-100,4,2,1,30,0,0
32506,-100,4,2,1,25,0,0
32906,-100,4,2,1,5,0,0
32986,485.82995951417,4,2,1,5,1,0
48046,463.320463320463,4,2,1,5,1,0
48509,480,4,2,1,40,1,0
48509,-125,4,2,1,40,0,0
48749,-125,4,2,1,20,0,0
48989,-125,4,2,1,40,0,0
49069,-125,4,2,1,20,0,0
49469,-125,4,2,1,40,0,0
49549,-125,4,2,1,20,0,0
49949,-125,4,2,1,40,0,0
50029,-125,4,2,1,20,0,0
50429,-125,4,2,1,40,0,0
50669,-125,4,2,1,30,0,0
50909,-125,4,2,1,40,0,0
51149,-125,4,2,1,30,0,0
51389,-125,4,2,1,40,0,0
51629,-125,4,2,1,30,0,0
51869,-125,4,2,1,40,0,0
52109,-125,4,2,1,30,0,0
52349,-125,4,2,1,40,0,0
52669,-125,4,2,1,30,0,0
52829,-125,4,2,1,40,0,0
53149,-125,4,2,1,30,0,0
53309,-125,4,2,1,40,0,0
53629,-125,4,2,1,30,0,0
53789,-125,4,2,1,40,0,0
54109,-125,4,2,1,30,0,0
54269,-125,4,2,1,40,0,0
54349,-125,4,2,1,20,0,0
54589,-125,4,2,1,30,0,0
54749,-125,4,2,1,40,0,0
54829,-125,4,2,1,20,0,0
55069,-125,4,2,1,30,0,0
55229,-125,4,2,1,40,0,0
55309,-125,4,2,1,20,0,0
55549,-125,4,2,1,30,0,0
55709,484.261501210654,4,2,1,60,1,0
55709,-125,4,2,1,60,0,0
55789,-125,4,2,1,20,0,0
56031,-125,4,2,1,30,0,0
56193,468.75,4,1,1,60,1,0
56661,-125,4,1,1,45,0,0
56747,-125,4,1,1,34,0,0
56974,-125,4,1,1,45,0,0
57130,480,4,1,1,60,1,0
57130,-125,4,1,1,60,0,0
57370,-125,4,1,1,23,0,0
57610,-125,4,1,1,50,0,0
58090,480,4,1,1,60,1,0
58570,-125,4,1,1,55,0,0
58650,-125,4,1,1,41,0,0
58890,-125,4,1,1,55,0,0
59290,-125,4,1,1,27,0,0
59530,-125,4,1,1,55,0,0
60490,-125,4,1,1,65,0,0
60570,-125,4,1,1,49,0,0
60810,-125,4,1,1,65,0,0
61210,-125,4,1,1,33,0,0
61450,-125,4,1,1,65,0,0
62410,-125,4,1,1,75,0,0
63370,-125,4,1,1,85,0,0
63850,-125,4,1,1,100,0,0
64010,-125,4,1,1,45,0,0
64330,-125,4,1,1,60,0,0
65050,-125,4,1,1,45,0,0
65290,-125,4,1,1,60,0,0
66010,-125,4,1,1,45,0,0
66250,-125,4,1,1,60,0,0
66970,-125,4,1,1,45,0,0
67210,-125,4,1,1,60,0,0
67930,-125,4,1,1,45,0,0
68170,-125,4,1,1,60,0,0
68890,-125,4,1,1,45,0,0
69130,-125,4,1,1,60,0,0
71770,-125,4,1,1,45,0,0
72010,-125,4,1,1,60,0,0
72730,-125,4,1,1,45,0,0
72970,-125,4,1,1,60,0,0
73690,-125,4,1,1,45,0,0
73930,-125,4,1,1,60,0,0
74650,-125,4,1,1,45,0,0
74890,-125,4,1,1,60,0,0
75610,-125,4,1,1,45,0,0
75850,-125,4,1,1,60,0,0
76570,-125,4,1,1,45,0,0
76810,-125,4,1,1,60,0,0
79290,-125,4,2,1,5,0,0
81130,-125,4,1,1,60,0,0
82090,-83.3333333333333,4,1,1,60,0,0
82170,-83.3333333333333,4,1,1,45,0,0
82410,-83.3333333333333,4,1,1,60,0,0
82650,-83.3333333333333,4,1,1,45,0,0
82890,-83.3333333333333,4,1,1,60,0,0
83050,-83.3333333333333,4,1,1,70,0,0
83210,-83.3333333333333,4,1,1,60,0,0
83530,-83.3333333333333,4,1,1,70,0,0
84010,-83.3333333333333,4,1,1,80,0,0
84170,-83.3333333333333,4,1,1,70,0,0
84490,-83.3333333333333,4,1,1,80,0,0
84970,-83.3333333333333,4,1,1,90,0,0
85130,-83.3333333333333,4,1,1,80,0,0
85450,-83.3333333333333,4,1,1,90,0,0
85610,-83.3333333333333,4,1,1,80,0,0
85930,-83.3333333333333,4,1,1,90,0,0
86410,-83.3333333333333,4,1,1,75,0,0
86890,-100,4,1,1,60,0,0
87130,-100,4,1,1,45,0,0
87370,-100,4,1,1,60,0,0
88090,-100,4,1,1,45,0,0
88330,-100,4,1,1,60,0,0
89050,-100,4,1,1,45,0,0
89290,-100,4,1,1,60,0,0
89930,-100,4,1,1,45,0,0
90090,-100,4,1,1,60,0,0
90970,-100,4,1,1,45,0,0
91210,-100,4,1,1,60,0,0
91930,-100,4,1,1,45,0,0
92170,-100,4,1,1,60,0,0
92890,-100,4,1,1,45,0,0
93130,-100,4,1,1,60,0,0
93850,-100,4,1,1,45,0,0
94090,-100,4,1,1,60,0,0
98410,-100,4,1,1,60,0,1
98490,-100,4,1,1,45,0,1
98890,-100,4,1,1,60,0,1
98970,-100,4,1,1,45,0,1
99210,-100,4,1,1,60,0,1
99450,-100,4,1,1,45,0,1
99850,-100,4,1,1,60,0,1
99930,-100,4,1,1,45,0,1
100170,-100,4,1,1,60,0,1
100410,-100,4,1,1,45,0,1
100650,-100,4,1,1,60,0,1
101050,-100,4,1,1,45,0,1
101290,-100,4,1,1,60,0,1
101370,-100,4,1,1,45,0,1
101770,-100,4,1,1,60,0,1
102330,-100,4,1,1,45,0,1
102730,-100,4,1,1,60,0,1
102810,-100,4,1,1,45,0,1
103050,-100,4,1,1,60,0,1
103290,-100,4,1,1,45,0,1
103690,-100,4,1,1,60,0,1
104250,-100,4,1,1,45,0,1
104490,-100,4,1,1,60,0,1
104890,-100,4,1,1,45,0,1
105130,-100,4,1,1,60,0,1
106170,-100,4,1,1,45,0,1
106570,-100,4,1,1,60,0,1
106650,-100,4,1,1,45,0,1
106890,-100,4,1,1,60,0,1
107130,-100,4,1,1,45,0,1
107530,-100,4,1,1,60,0,1
107610,-100,4,1,1,45,0,1
107850,-100,4,1,1,60,0,1
108090,-100,4,1,1,45,0,1
108330,-100,4,1,1,60,0,1
108730,-100,4,1,1,45,0,1
108970,-100,4,1,1,60,0,1
109050,-100,4,1,1,45,0,1
109450,-100,4,1,1,60,0,1
110010,-100,4,1,1,45,0,1
110410,-100,4,1,1,60,0,1
110490,-100,4,1,1,45,0,1
110730,-100,4,1,1,60,0,1
110970,-100,4,1,1,45,0,1
111370,-100,4,1,1,60,0,1
111450,-100,4,1,1,45,0,1
111690,-100,4,1,1,60,0,1
111930,-100,4,1,1,45,0,1
112170,-100,4,1,1,60,0,1
112250,-100,4,1,1,45,0,1
112490,-100,4,1,1,60,0,1
112570,-100,4,1,1,45,0,1
112810,-100,4,1,1,60,0,1
118250,-100,4,1,1,67,0,1
118410,-100,4,1,1,75,0,1
118570,-100,4,1,1,60,0,1
119210,-100,4,1,1,67,0,1
119370,-100,4,1,1,75,0,1
119530,-100,4,1,1,60,0,1
120570,-100,4,1,1,30,0,1
120970,-100,4,1,1,60,0,1
121050,-100,4,1,1,30,0,1
121450,-100,4,1,1,60,0,0
121530,-100,4,1,1,45,0,0
121930,-100,4,1,1,60,0,0
122490,-100,4,1,1,45,0,0
122890,-100,4,1,1,60,0,0
123450,-100,4,1,1,45,0,0
123850,-100,4,1,1,60,0,0
124410,-100,4,1,1,45,0,0
124810,-100,4,1,1,60,0,0
125370,-100,4,1,1,45,0,0
125770,-100,4,1,1,60,0,0
126330,-100,4,1,1,45,0,0
126730,-100,4,1,1,60,0,0
127290,-100,4,1,1,45,0,0
127530,-100,4,1,1,60,0,0
127690,-66.6666666666667,4,1,1,60,0,0
127770,-66.6666666666667,4,1,1,45,0,0
128010,-66.6666666666667,4,1,1,60,0,0
128170,-100,4,1,1,60,0,0
128250,-100,4,1,1,45,0,0
128490,-100,4,1,1,60,0,0
128650,-66.6666666666667,4,1,1,60,0,0
128730,-66.6666666666667,4,1,1,30,0,0
129130,-100,4,1,1,60,0,0
129210,-100,4,1,1,45,0,0
129610,-100,4,1,1,60,0,0
130170,-100,4,1,1,45,0,0
130570,-100,4,1,1,60,0,0
131130,-100,4,1,1,45,0,0
131530,-100,4,1,1,60,0,0
132090,-100,4,1,1,45,0,0
132490,-100,4,1,1,60,0,0
133050,-100,4,1,1,45,0,0
133450,-100,4,1,1,60,0,0
134010,-100,4,1,1,45,0,0
134410,-100,4,1,1,60,0,0
134890,-100,4,1,1,75,0,0
134970,-100,4,1,1,60,0,0
135210,-100,4,1,1,75,0,0
135290,-100,4,1,1,30,0,0
135370,-100,4,1,1,75,0,0
135690,-100,4,1,1,60,0,0
135850,-100,4,1,1,90,0,0
136010,-100,4,1,1,60,0,0
136330,-100,4,1,1,75,0,0
136490,-100,4,1,1,60,0,0
136810,-125,4,1,1,60,0,0
138650,-125,4,1,1,5,0,0
138730,-125,4,1,1,60,0,0
140570,-125,4,1,1,70,0,0
140730,-125,4,1,1,60,0,0
141050,-125,4,1,1,70,0,0
141530,-125,4,1,1,80,0,0
141690,-125,4,1,1,70,0,0
142010,-125,4,1,1,80,0,0
142490,-125,4,1,1,90,0,0
142650,-125,4,1,1,80,0,0
142970,-125,4,1,1,90,0,0
143130,-125,4,1,1,80,0,0
143450,-125,4,1,1,90,0,0
143770,-125,4,1,1,75,0,0
144490,-100,4,1,1,60,0,0
144570,-100,4,1,1,45,0,0
144970,-100,4,1,1,60,0,0
145530,-100,4,1,1,45,0,0
145930,-100,4,1,1,60,0,0
146490,-100,4,1,1,45,0,0
146890,-100,4,1,1,60,0,0
147450,-100,4,1,1,45,0,0
147850,-100,4,1,1,60,0,0
148410,-100,4,1,1,45,0,0
148810,-100,4,1,1,60,0,0
149370,-100,4,1,1,45,0,0
149770,-100,4,1,1,60,0,0
149930,-100,4,1,1,45,0,0
150250,-100,4,1,1,60,0,0
150330,-100,4,1,1,45,0,0
150570,-100,4,1,1,60,0,0
151290,-100,4,1,1,45,0,0
151690,-100,4,1,1,60,0,0
152170,-100,4,1,2,60,0,0
152650,491.803278688525,4,1,2,60,1,0
153141,474.683544303797,4,1,2,60,1,0
154090,476.190476190476,4,1,2,60,1,0
154566,480,4,1,2,60,1,0
155046,482.315112540193,4,1,2,60,1,0
156010,480,4,1,1,60,1,1
156090,-100,4,1,1,45,0,1
156490,-100,4,1,1,60,0,1
156570,-100,4,1,1,45,0,1
156810,-100,4,1,1,60,0,1
157050,-100,4,1,1,45,0,1
157450,-100,4,1,1,60,0,1
157530,-100,4,1,1,45,0,1
157770,-100,4,1,1,60,0,1
158010,-100,4,1,1,45,0,1
158250,-100,4,1,1,60,0,1
158650,-100,4,1,1,45,0,1
158890,-100,4,1,1,60,0,1
158970,-100,4,1,1,45,0,1
159370,-100,4,1,1,60,0,1
159930,-100,4,1,1,45,0,1
160330,-100,4,1,1,60,0,1
160410,-100,4,1,1,45,0,1
160650,-100,4,1,1,60,0,1
160890,-100,4,1,1,45,0,1
161290,-100,4,1,1,60,0,1
161850,-100,4,1,1,45,0,1
162090,-100,4,1,1,60,0,1
162490,-100,4,1,1,45,0,1
162730,-100,4,1,1,60,0,1
163770,-100,4,1,1,45,0,1
164170,-100,4,1,1,60,0,1
164250,-100,4,1,1,45,0,1
164490,-100,4,1,1,60,0,1
164730,-100,4,1,1,45,0,1
165130,-100,4,1,1,60,0,1
165210,-100,4,1,1,45,0,1
165450,-100,4,1,1,60,0,1
165690,-100,4,1,1,45,0,1
165930,-100,4,1,1,60,0,1
166330,-100,4,1,1,45,0,1
166570,-100,4,1,1,60,0,1
166650,-100,4,1,1,45,0,1
167050,-100,4,1,1,60,0,1
167610,-100,4,1,1,45,0,1
168010,-100,4,1,1,60,0,1
168090,-100,4,1,1,45,0,1
168330,-100,4,1,1,60,0,1
168570,-100,4,1,1,45,0,1
168970,-100,4,1,1,60,0,1
169050,-100,4,1,1,45,0,1
169290,-100,4,1,1,60,0,1
169530,-100,4,1,1,45,0,1
169770,-100,4,1,1,60,0,1
169850,-100,4,1,1,45,0,1
170090,-100,4,1,1,60,0,1
170170,-100,4,1,1,45,0,1
170410,-100,4,1,1,60,0,1
171850,477.326968973747,4,1,1,60,1,1
172327,487.80487804878,4,1,1,60,1,1
172814,483.870967741935,4,1,1,60,1,1
173781,480,4,1,1,60,1,1
174261,530.973451327434,4,1,1,60,1,1
174791,722.89156626506,4,1,1,60,1,1
175513,888.888888888889,4,1,4,67,1,1
175661,-100,4,1,1,20,0,0
179068,266.666666666667,4,1,2,80,1,0
186534,-100,4,1,2,60,0,0
187468,260.869565217391,4,1,2,80,1,0
187598,-100,4,1,2,60,0,0
187728,266.666666666667,4,1,2,60,1,0
187861,266.666666666667,4,1,2,80,1,0
188661,266.666666666667,4,1,2,80,1,0
188727,-100,4,1,2,60,0,0
188927,-100,4,1,2,80,0,0
188994,-100,4,1,2,60,0,0
189194,-100,4,1,2,80,0,0
189727,-100,4,1,2,60,0,0
189994,-100,4,1,2,80,0,0
190860,-100,4,1,2,40,0,0
190927,-100,4,1,2,80,0,0
191861,-100,4,1,2,60,0,0
192127,-100,4,1,2,80,0,0
192994,-100,4,1,2,60,0,0
193194,-100,4,1,2,80,0,0
193261,-100,4,1,2,60,0,0
193461,-100,4,1,2,80,0,0
193994,-100,4,1,2,60,0,0
194261,-100,4,1,2,80,0,0
195127,-100,4,1,2,40,0,0
195194,-100,4,1,2,60,0,0
195594,-100,4,1,2,80,0,0
195994,260.869565217391,4,1,2,80,1,0
196124,-100,4,1,2,60,0,0
196254,266.666666666667,4,1,2,60,1,0
196387,266.666666666667,4,1,2,80,1,0
196453,-100,4,1,2,60,0,0
196653,-100,4,1,2,80,0,0
196720,-100,4,1,2,60,0,0
196920,-100,4,1,2,80,0,0
197120,-100,4,1,2,60,0,0
197187,266.666666666667,4,1,2,60,1,0
197320,-100,4,1,2,80,0,0
197653,-100,4,1,2,60,0,0
197853,-100,4,1,2,80,0,0
198253,-100,4,1,2,60,0,0
198520,-100,4,1,2,80,0,0
198587,-100,4,1,2,60,0,0
198787,-100,4,1,2,80,0,0
198853,-100,4,1,2,60,0,0
199053,-100,4,1,2,80,0,0
199187,-100,4,1,2,60,0,0
199453,-100,4,1,2,80,0,0
199787,-100,4,1,2,60,0,0
199987,-100,4,1,2,80,0,0
200387,-100,4,1,2,60,0,0
200653,-100,4,1,2,80,0,0
202520,-100,4,1,2,60,0,0
202787,-100,4,1,2,80,0,0
203786,-100,4,1,2,40,0,0
203853,-100,4,1,2,80,0,0
204186,-100,4,1,2,40,0,0
204253,-100,4,1,2,80,0,0
204319,-100,4,1,2,40,0,0
204387,-100,4,1,2,80,0,0
204520,-83.3333333333333,4,1,2,80,0,0
204587,-83.3333333333333,4,1,2,40,0,0
204920,-100,4,1,2,80,0,0
204987,-100,4,1,2,60,0,0
205187,-100,4,1,2,80,0,0
205253,-100,4,1,2,60,0,0
205453,-100,4,1,2,80,0,0
205653,-100,4,1,2,60,0,0
205853,-100,4,1,2,80,0,0
206187,-100,4,1,2,60,0,0
206387,-100,4,1,2,80,0,0
206653,-83.3333333333333,4,1,2,80,0,0
206720,-83.3333333333333,4,1,2,40,0,0
207053,-100,4,1,2,80,0,0
207120,-100,4,1,2,60,0,0
207320,-100,4,1,2,80,0,0
207387,-100,4,1,2,60,0,0
207587,300,4,1,2,80,1,0
207737,250,4,1,2,80,1,0
207799,-100,4,1,2,60,0,0
207987,266.666666666667,4,1,2,60,1,0
208120,266.666666666667,4,1,2,70,1,0
208386,-100,4,1,2,80,0,0
208586,-100,4,1,2,70,0,0
208653,-100,4,1,2,80,0,0
208853,-100,4,1,2,70,0,0
208920,266.666666666667,4,1,2,80,1,0
209453,-100,4,1,2,85,0,0
209986,264.31718061674,4,1,2,90,1,0
210514,272.727272727273,4,1,2,95,1,0
210923,248.96265560166,4,1,2,95,1,0
211047,266.666666666667,4,1,2,80,1,0
211713,260.869565217391,4,1,2,80,1,0
211843,287.081339712919,4,1,2,60,1,0
211986,300,4,1,1,60,1,0
212136,240,4,1,1,60,1,0
212376,258.620689655172,4,1,1,60,1,0
212505,279.72027972028,4,1,1,60,1,0
212644,266.666666666667,4,1,1,60,1,0
213110,333.333333333333,4,1,1,60,1,0
213193,266.666666666667,4,1,1,80,1,1
213259,-100,4,1,1,60,0,1
213326,-100,4,1,1,80,0,1
214059,-100,4,1,1,60,0,1
214126,-100,4,1,1,80,0,1
214192,-100,4,1,1,60,0,1
214259,-100,4,1,1,80,0,1
214325,-100,4,1,1,60,0,1
214393,-100,4,1,1,80,0,1
215126,-100,4,2,1,5,0,1
215326,-100,4,2,1,80,0,1
216059,-100,4,2,1,60,0,1
216126,-100,4,2,1,80,0,1
216192,-100,4,2,1,60,0,1
216259,-100,4,2,1,80,0,1
216325,-100,4,2,1,60,0,1
216393,-100,4,2,1,80,0,1
216459,-100,4,2,1,60,0,1
216526,-100,4,2,1,80,0,1
216859,-100,4,2,1,60,0,1
216926,-83.3333333333333,4,2,1,80,0,1
217126,-83.3333333333333,4,1,1,40,0,1
217459,-83.3333333333333,4,1,1,80,0,1
218393,-100,4,1,1,80,0,1
218459,-100,4,1,1,60,0,1
218526,-100,4,1,1,80,0,1
218725,-100,4,1,1,60,0,1
218793,-100,4,1,1,80,0,1
218859,-100,4,1,1,60,0,1
218926,-100,4,1,1,80,0,1
219392,-100,4,1,1,60,0,1
219459,-100,4,1,1,80,0,1
219525,-100,4,1,1,60,0,1
219593,-100,4,1,1,80,0,1
220459,-100,4,1,1,60,0,1
220526,-100,4,1,1,80,0,1
220592,-100,4,1,1,60,0,1
220659,-100,4,1,1,80,0,1
220926,-100,4,1,1,85,0,1
220993,-100,4,1,1,80,0,1
221193,-100,4,1,1,90,0,1
221259,-100,4,1,1,80,0,1
221459,-100,4,1,1,95,0,1
221526,-100,4,1,1,80,0,1
221792,-100,4,1,1,60,0,1
221859,-100,4,1,1,80,0,1
222059,-100,4,1,1,60,0,1
222126,-100,4,1,1,80,0,1
222192,-100,4,1,1,60,0,1
222259,-100,4,1,1,80,0,1
222592,-100,4,1,1,60,0,1
222659,-100,4,1,1,80,0,1
222725,-100,4,1,1,60,0,1
222793,-100,4,1,1,80,0,1
223659,-100,4,1,1,60,0,1
223726,-100,4,1,1,80,0,1
223792,-100,4,1,1,60,0,1
223859,-100,4,1,1,80,0,1
223925,-100,4,1,1,60,0,1
223993,-100,4,1,1,80,0,1
224725,-100,4,1,1,60,0,1
224793,-100,4,1,1,80,0,1
224859,-100,4,1,1,60,0,1
224926,-100,4,1,1,80,0,1
225392,-100,4,1,1,60,0,1
225459,-100,4,1,1,80,0,1
225525,-100,4,1,1,60,0,1
225593,-100,4,1,1,80,0,1
225659,-100,4,1,1,60,0,1
225726,-58.8235294117647,4,1,1,80,0,1
225926,-58.8235294117647,4,1,1,5,0,1
225993,-58.8235294117647,4,1,1,80,0,1
227326,-100,4,1,1,80,0,1
227392,-100,4,1,1,60,0,1
227459,-100,4,1,1,80,0,1
227525,-100,4,1,1,60,0,1
227593,-100,4,1,1,80,0,1
228992,-100,4,1,1,60,0,1
229059,-100,4,1,1,80,0,1
229125,-100,4,1,1,60,0,1
229193,-100,4,1,1,80,0,1
229259,-100,4,1,1,60,0,1
229326,-100,4,1,1,80,0,1
229726,-100,4,1,1,60,0,1
229859,-100,4,1,1,80,0,1
230259,-100,4,1,1,60,0,0
231259,-100,4,1,1,45,0,0
231459,-100,4,1,1,60,0,0
231926,-100,4,1,1,45,0,0
232126,-100,4,1,1,60,0,0
232193,-100,4,1,1,45,0,0
232393,-100,4,1,1,60,0,0
233459,-100,4,1,1,45,0,0
233726,-100,4,1,1,60,0,0
233925,-100,4,1,1,30,0,0
233993,-100,4,1,1,60,0,0
234593,-100,4,1,1,45,0,0
234793,-100,4,1,1,60,0,0
235059,-100,4,1,1,45,0,0
235326,-100,4,1,1,60,0,0
235659,-100,4,1,1,45,0,0
235859,-100,4,1,1,60,0,0
236126,-100,4,1,1,45,0,0
236393,-100,4,1,1,60,0,0
236992,-100,4,1,1,45,0,0
237059,-100,4,1,1,60,0,0
237392,-100,4,1,1,45,0,0
237459,-100,4,1,1,60,0,0
237525,-100,4,1,1,30,0,0
237593,-100,4,1,1,60,0,0
237659,-100,4,1,1,30,0,0
237726,-100,4,1,1,60,0,0
237792,-100,4,1,1,45,0,0
237859,-100,4,1,1,60,0,0
237993,-100,4,1,1,63,0,0
238193,-100,4,1,1,60,0,0
238259,-100,4,1,1,65,0,0
238526,-100,4,1,1,70,0,0
238793,-100,4,1,1,60,0,0
239926,-100,4,1,1,45,0,0
240126,-100,4,1,1,60,0,0
240193,-100,4,1,1,45,0,0
240393,-100,4,1,1,60,0,0
240459,-100,4,1,1,45,0,0
240659,-100,4,1,1,60,0,0
240726,-100,4,1,1,45,0,0
240926,-100,4,1,1,60,0,0
245193,-100,4,1,1,60,0,1
246192,-100,4,1,1,45,0,1
246259,-100,4,1,1,60,0,1
246526,-100,4,1,1,67,0,1
246793,-100,4,1,1,75,0,1
247193,-100,4,1,1,75,0,0
247326,264.31718061674,4,1,1,60,1,1
248317,-100,4,1,1,20,0,1
248383,268.156424581006,4,1,1,60,1,0
248919,265.721877767936,4,1,1,60,1,0
249450,269.058295964126,4,1,1,60,1,1
250458,-100,4,1,1,20,0,1
250526,262.008733624454,4,1,1,60,1,0
251312,265.486725663717,4,1,1,60,1,0
251577,269.058295964126,4,1,1,60,1,1
252585,-100,4,1,1,20,0,1
252653,266.075388026608,4,1,1,60,1,0
253185,265.486725663717,4,1,1,60,1,0
253450,259.74025974026,4,1,1,60,1,0
253709,271.186440677966,4,1,1,60,1,1
254725,-100,4,1,1,20,0,1
254793,266.666666666667,4,1,1,60,1,0
255859,267.260579064588,4,1,1,60,1,1
256861,-100,4,1,1,20,0,1
256928,266.666666666667,4,1,1,60,1,0
257461,260.869565217391,4,1,1,60,1,0
257852,269.662921348315,4,1,1,60,1,0
257986,266.666666666667,4,1,1,60,1,1
258986,-100,4,1,1,20,0,1
259052,268.156424581006,4,1,1,60,1,0
259588,265.486725663717,4,1,1,60,1,0
259853,257.510729613734,4,1,1,60,1,0
259981,270.27027027027,4,1,1,60,1,0
260116,266.666666666667,4,1,1,60,1,1
261116,-100,4,1,1,20,0,1
261182,-100,4,1,1,60,0,0
261716,268.817204301075,4,1,1,60,1,0
262253,266.963292547275,4,1,1,75,1,0
263320,265.486725663717,4,1,1,75,1,0
263452,-100,4,1,1,60,0,0
263850,266.666666666667,4,1,1,75,1,0
263983,-100,4,1,1,67,0,0
264116,-100,4,1,1,75,0,0
264250,283.018867924528,4,1,1,75,1,0
264391,659.340659340659,4,1,4,80,1,0
264391,-263.157894736842,4,1,4,80,0,0
264457,-263.157894736842,4,2,1,5,0,0
269665,480.384307445957,4,2,2,60,1,0
270225,-100,4,1,2,45,0,0
270465,-100,4,1,2,60,0,0
271186,-100,4,1,2,45,0,0
271426,-100,4,1,2,60,0,0
272146,-100,4,1,2,45,0,0
272387,-100,4,1,2,60,0,0
273107,-100,4,1,2,45,0,0
273347,-100,4,1,2,60,0,0
274068,-100,4,1,2,45,0,0
274308,-100,4,1,2,60,0,0
275029,-100,4,1,2,45,0,0
275269,-100,4,1,2,60,0,0
275909,-100,4,1,2,67,0,0
276390,-100,4,1,2,75,0,0
277431,-100,4,1,2,60,0,0
277671,-100,4,1,2,75,0,0
277911,-100,4,1,2,60,0,0
278151,-100,4,1,2,75,0,0
278391,-100,4,1,2,60,0,0
278632,-100,4,1,2,75,0,0
278872,-100,4,1,2,60,0,0
279112,-100,4,1,2,75,0,0
279272,480,4,1,2,75,1,0
279352,-100,4,1,2,60,0,0
279592,-100,4,1,2,75,0,0
279833,-100,4,1,2,60,0,0
280072,-100,4,1,2,75,0,0
280552,-100,4,1,2,60,0,0
280712,-100,4,1,2,75,0,0
280872,-100,4,1,2,60,0,0
281192,487.80487804878,4,1,2,75,1,0
281274,-100,4,1,2,60,0,0
281517,-100,4,1,2,75,0,0
281679,475.247524752475,4,1,2,75,1,0
281754,-100,4,1,2,60,0,0
281995,-100,4,1,2,75,0,0
282154,480,4,1,2,75,1,0
282234,-100,4,1,2,60,0,0
282474,-100,4,1,2,75,0,0
282714,-100,4,1,2,60,0,0
282954,-100,4,1,2,75,0,0
283114,480,4,1,2,75,1,0
283194,-100,4,1,2,60,0,0
283434,-100,4,1,2,75,0,0
283674,-100,4,1,2,60,0,0
283914,-100,4,1,2,75,0,0
284394,-100,4,1,2,60,0,0
284554,-100,4,1,2,75,0,0
284714,-100,4,1,2,60,0,0
285034,-100,4,1,2,75,0,0
285114,-100,4,1,2,60,0,0
285354,-100,4,1,2,75,0,0
285594,-100,4,1,2,60,0,0
285834,-100,4,1,2,75,0,0
285994,472.44094488189,4,1,2,75,1,0
286072,-100,4,1,2,60,0,0
286308,-100,4,1,2,75,0,0
286466,480,4,1,2,75,1,0
286546,-100,4,1,2,60,0,0
286786,-100,4,1,2,75,0,0
286946,487.80487804878,4,1,2,75,1,0
287027,-100,4,1,2,60,0,0
287271,-100,4,1,2,75,0,0
287515,-100,4,1,2,60,0,0
287759,-100,4,1,2,75,0,0
287921,465.116279069767,4,1,2,75,1,0
287998,-100,4,1,2,60,0,0
288231,-100,4,1,2,75,0,0
288386,480,4,1,2,75,1,0
288466,-100,4,1,2,60,0,0
288706,-100,4,1,2,75,0,0
288866,483.870967741935,4,1,2,75,1,0
289188,-100,4,1,2,60,0,0
289349,-100,4,1,2,75,0,0
289430,-100,4,1,2,60,0,0
289672,-100,4,1,2,75,0,0
289833,465.116279069767,4,1,2,75,1,0
289913,-100,4,1,2,60,0,0
290143,-100,4,1,2,75,0,0
290298,487.80487804878,4,1,2,75,1,0
290393,-100,4,1,2,60,0,0
290623,-100,4,1,2,75,0,0
290785,480,4,1,2,75,1,0
291425,468.75,4,1,2,80,1,0
291581,-100,4,1,2,85,0,0
291737,-100,4,1,2,75,0,0
291893,480,4,1,2,75,1,0
292373,-100,4,1,2,80,0,0
292533,542.986425339367,4,1,2,85,1,0
292713,476.190476190476,4,1,2,60,1,0
292713,-71.4285714285714,4,1,2,60,0,0
292871,-71.4285714285714,4,1,2,45,0,0
293189,-71.4285714285714,4,1,2,60,0,0
293665,480,4,1,2,60,1,0
293825,-100,4,1,2,45,0,0
294145,-100,4,1,2,60,0,0
294625,480,4,1,2,60,1,0
294705,-100,4,1,2,45,0,0
294945,-100,4,1,2,60,0,0
295585,-71.4285714285714,4,1,2,60,0,0
295745,-71.4285714285714,4,1,2,45,0,0
296065,-62.5,4,1,2,60,0,0
296225,-62.5,4,1,2,45,0,0
296545,489.795918367347,4,1,2,60,1,0
296708,-100,4,1,2,45,0,0
297034,480,4,1,2,60,1,0
297674,-100,4,1,2,45,0,0
297834,451.127819548872,4,1,2,60,1,0
297984,480,4,1,2,60,1,0
298464,487.80487804878,4,1,2,60,1,0
298545,-100,4,1,2,45,0,0
298789,-100,4,1,2,60,0,0
298951,480,4,1,2,60,1,0
299511,-100,4,1,2,45,0,0
299751,461.538461538462,4,1,2,60,1,0
299904,475.247524752475,4,1,2,60,1,0
300141,-100,4,1,2,45,0,0
300379,472.44094488189,4,1,2,60,1,0
300851,461.538461538462,4,1,2,60,1,0
301158,502.092050209205,4,1,2,60,1,0
301331,483.870967741935,4,1,2,60,1,0
302298,480,4,1,2,60,1,0
302618,458.015267175573,4,1,2,60,1,0
302770,458.015267175573,4,1,2,60,1,0
303075,526.315789473684,4,1,2,60,1,0
303250,489.795918367347,4,1,2,60,1,0
304229,480,4,1,2,60,1,0
306309,458.015267175573,4,1,2,60,1,0
306614,458.015267175573,4,1,2,60,1,0
306924,461.538461538462,4,1,2,60,1,0
307077,487.80487804878,4,1,2,60,1,0
307564,495.867768595041,4,1,2,60,1,0
307894,530.973451327434,4,1,2,60,1,0
308070,480,4,1,2,60,1,1
308150,-100,4,1,1,45,0,1
308550,-100,4,1,1,60,0,1
309110,-100,4,1,1,45,0,1
309510,-100,4,1,1,60,0,1
310070,-100,4,1,1,45,0,1
310310,-100,4,1,1,60,0,1
310710,-100,4,1,1,45,0,1
310950,-100,4,1,1,60,0,1
311030,-100,4,1,1,45,0,1
311430,-100,4,1,1,60,0,1
311990,-100,4,1,1,45,0,1
312390,-100,4,1,1,60,0,1
312950,-100,4,1,1,45,0,1
313350,-100,4,1,1,60,0,1
313910,-100,4,1,1,45,0,1
314150,-100,4,1,1,60,0,1
314550,-100,4,1,1,45,0,1
314790,-100,4,1,1,67,0,1
315270,-100,4,1,1,75,0,1
315750,-100,4,1,1,60,0,1
315830,-100,4,1,1,45,0,1
316230,-100,4,1,1,60,0,1
316790,-100,4,1,1,45,0,1
317190,-100,4,1,1,60,0,1
317750,-100,4,1,1,45,0,1
317990,-100,4,1,1,60,0,1
318390,-100,4,1,1,45,0,1
318630,-100,4,1,1,60,0,1
318710,-100,4,1,1,45,0,1
319110,-100,4,1,1,60,0,1
319670,-100,4,1,1,45,0,1
320070,-100,4,1,1,60,0,1
320630,-100,4,1,1,45,0,1
321030,-100,4,1,1,60,0,1
321590,-100,4,1,1,45,0,1
321830,-100,4,1,1,60,0,1
322230,-100,4,1,1,45,0,1
322470,-100,4,1,1,60,0,1
323110,-100,4,1,1,67,0,1
323270,-100,4,1,1,75,0,1
323430,-100,4,1,2,60,0,1
323510,-100,4,1,2,45,0,1
323750,-100,4,1,2,60,0,1
324150,-100,4,1,2,45,0,1
324390,-100,4,1,2,60,0,1
324470,-100,4,1,2,45,0,1
324870,-100,4,1,2,60,0,1
325430,-100,4,1,2,45,0,1
325670,-100,4,1,2,60,0,1
326070,-100,4,1,2,45,0,1
326310,-100,4,1,2,60,0,1
326390,-100,4,1,2,45,0,1
326790,-100,4,1,2,60,0,1
327350,-100,4,1,2,45,0,1
327590,-100,4,1,2,60,0,1
327990,-100,4,1,2,45,0,1
328230,-100,4,1,2,60,0,1
328310,-100,4,1,2,45,0,1
328710,-100,4,1,2,60,0,1
329270,-100,4,1,2,45,0,1
329510,-100,4,1,2,60,0,1
329910,-100,4,1,2,45,0,1
330150,-100,4,1,2,60,0,1
330230,-100,4,1,2,45,0,1
330470,-100,4,1,2,60,0,1
331190,-100,4,1,2,45,0,1
331590,-100,4,1,2,60,0,1
332150,-100,4,1,2,45,0,1
332550,-100,4,1,2,60,0,1
333110,-100,4,1,2,45,0,1
333350,-100,4,1,2,60,0,1
333750,-100,4,1,2,45,0,1
333990,-100,4,1,2,60,0,1
334070,-100,4,1,2,45,0,1
334470,-100,4,1,2,60,0,1
335030,-100,4,1,2,45,0,1
335430,-100,4,1,2,60,0,1
335990,-100,4,1,2,45,0,1
336390,-100,4,1,2,60,0,1
336470,-100,4,1,2,45,0,1
336710,-100,4,1,2,60,0,1
336950,-100,4,1,2,45,0,1
337350,-100,4,1,2,60,0,1
338790,-83.3333333333333,4,1,2,60,0,1
338870,-83.3333333333333,4,1,2,30,0,1
340150,-83.3333333333333,4,1,2,60,0,1
340230,-100,4,1,2,60,0,1
340310,-100,4,1,2,45,0,1
340550,-100,4,1,2,60,0,1
340710,-100,4,1,1,60,0,0
342630,-100,4,1,1,60,0,1
343110,-200,4,1,1,75,0,1
343510,-200,4,1,1,5,0,1
343590,-200,4,1,1,75,0,1
343990,-200,4,1,1,5,0,1
344070,-200,4,1,1,60,0,0
344390,-200,4,1,1,45,0,0
344550,-200,4,1,1,30,0,0

[Colours]
Combo1 : 63,63,63
Combo2 : 234,0,0
Combo3 : 255,136,136
Combo4 : 192,192,192
Combo5 : 250,36,5

[HitObjects]
324,102,339,6,0,P|429:76|369:158,1,251.999992309571,4|4,2:1|2:3,2:0:0:0:
351,223,969,1,0,2:0:0:0:
280,196,1132,1,0,2:0:0:0:
211,227,1294,1,0,2:0:0:0:
70,17,1774,2,0,P|93:92|24:164,1,175,4|0,2:1|2:0,2:0:0:0:
74,337,2254,6,0,P|25:210|133:285,1,350,4|0,2:1|2:0,2:0:0:0:
412,202,3217,2,0,P|427:349|332:239,1,377.999988464356,4|0,2:1|2:0,2:0:0:0:
477,10,4181,6,0,P|378:75|324:53,1,167.999994873047,4|0,2:1|2:0,2:0:0:0:
273,32,4646,1,4,2:3:0:0:
273,32,4809,1,0,2:0:0:0:
225,90,4973,1,0,2:0:0:0:
257,158,5137,1,0,2:0:0:0:
10,302,5617,2,0,P|90:289|151:343,1,175,4|0,2:1|2:0,2:0:0:0:
404,212,6104,6,0,P|403:313|324:249,1,251.999992309571,4|0,2:1|2:0,2:0:0:0:
376,28,7060,1,4,2:1:0:0:
103,124,7378,1,0,2:0:0:0:
448,197,7777,1,0,2:0:0:0:
295,315,8016,6,0,P|186:268|136:299,1,175,4|0,2:1|2:0,2:0:0:0:
88,329,8488,1,4,2:3:0:0:
88,329,8650,1,0,2:0:0:0:
41,269,8813,1,0,2:0:0:0:
71,199,8975,1,0,2:0:0:0:
0,19,9455,2,0,P|56:82|49:-4,1,209.999993591309,4|0,2:1|2:0,2:0:0:0:
155,92,9946,6,0,P|240:38|382:76,1,245.461077844311,4|0,2:1|2:0,2:0:0:0:
480,308,10904,2,0,P|395:362|253:324,1,252,4|0,2:1|2:0,2:0:0:0:
45,240,11622,5,0,2:0:0:0:
45,240,11742,1,0,2:0:0:0:
45,240,11862,2,0,P|150:266|92:183,1,246.213442309571,4|4,2:1|2:3,2:0:0:0:
61,127,12492,1,0,2:0:0:0:
102,63,12655,1,0,2:0:0:0:
60,0,12817,1,0,2:0:0:0:
259,101,13298,5,4,2:1:0:0:
472,25,13779,1,4,2:1:0:0:
41,149,14739,1,4,2:1:0:0:
482,332,15699,6,0,P|404:307|341:362,1,175,4|0,2:1|2:0,2:0:0:0:
249,373,16179,1,0,1:0:0:0:
184,306,16339,1,0,1:0:0:0:
222,221,16499,1,0,1:0:0:0:
222,221,16659,2,0,L|294:229,1,56,0|0,1:0|2:0,0:0:0:0:
479,139,16979,2,0,L|384:151,1,70,0|0,1:0|2:0,0:0:0:0:
150,70,17299,2,0,L|245:80,1,84,0|0,1:0|2:0,0:0:0:0:
470,1,17619,5,4,2:1:0:0:
470,1,18099,1,0,1:0:0:0:
509,189,18259,1,0,1:0:0:0:
327,128,18419,1,0,1:0:0:0:
436,106,18579,5,4,2:1:0:0:
436,106,19059,1,0,1:0:0:0:
375,323,19219,1,0,1:0:0:0:
217,161,19379,1,0,1:0:0:0:
342,197,19539,5,4,2:1:0:0:
342,197,20019,1,0,1:0:0:0:
167,384,20179,1,0,1:0:0:0:
90,138,20339,1,0,1:0:0:0:
199,239,20499,5,0,1:0:0:0:
483,178,20819,1,0,1:0:0:0:
72,106,21139,1,0,1:0:0:0:
308,6,21459,6,0,P|386:-3|478:62,1,168,4|0,2:1|2:0,2:0:0:0:
497,105,21939,1,0,1:0:0:0:
497,105,22099,1,0,1:0:0:0:
416,316,22259,1,0,1:0:0:0:
361,128,22419,5,4,2:1:0:0:
364,131,22899,1,0,1:0:0:0:
364,131,23059,1,0,1:0:0:0:
280,339,23219,1,0,1:0:0:0:
173,35,23379,6,0,P|147:111|198:174,1,168,4|0,2:1|2:0,2:0:0:0:
271,195,23859,1,0,1:0:0:0:
325,142,24019,1,0,1:0:0:0:
393,173,24179,1,0,1:0:0:0:
393,173,24339,2,0,L|383:252,1,56,0|0,1:0|2:0,0:0:0:0:
512,84,24659,2,0,L|501:-2,1,70,0|0,1:0|2:0,0:0:0:0:
376,160,24979,2,0,L|363:263,1,84,0|0,1:0|2:0,0:0:0:0:
512,383,25299,6,0,P|538:307|487:244,1,168,4|0,2:1|2:0,2:0:0:0:
426,289,25779,1,0,1:0:0:0:
273,242,25939,1,0,1:0:0:0:
390,132,26099,1,0,1:0:0:0:
363,220,26259,5,4,2:1:0:0:
363,220,26739,1,0,1:0:0:0:
188,144,26899,1,0,1:0:0:0:
157,368,27059,1,0,1:0:0:0:
90,306,27219,2,0,P|140:351|138:257,1,209.999993591309,4|0,2:1|2:0,2:0:0:0:
204,191,27699,5,0,1:0:0:0:
204,191,27859,1,0,1:0:0:0:
149,10,28019,1,0,1:0:0:0:
19,230,28179,1,0,1:0:0:0:
459,149,28499,1,0,1:0:0:0:
114,85,28819,1,0,1:0:0:0:
273,284,29149,1,4,2:1:0:0:
256,192,29228,12,0,32986,2:0:0:0:
279,282,48509,6,0,P|225:264|162:275,1,112,0|0,2:0|2:0,2:0:0:0:
91,324,48989,2,0,L|110:380,2,56,2|0|0,2:0|2:0|2:0,2:0:0:0:
17,220,49469,2,0,L|-2:276,2,56,2|0|0,2:0|2:0|2:0,2:0:0:0:
117,138,49949,2,0,L|136:194,2,56,2|0|0,2:0|2:0|2:0,2:0:0:0:
56,71,50429,6,0,P|110:89|173:78,1,112,0|0,2:0|2:0,2:0:0:0:
248,34,50909,2,0,P|303:27|355:44,1,112,2|0,2:0|2:0,2:0:0:0:
143,115,51389,2,0,P|87:117|36:94,1,112,2|0,2:0|2:0,2:0:0:0:
268,0,51869,2,0,P|323:-2|374:20,1,112,2|0,2:0|2:0,2:0:0:0:
491,119,52349,5,0,2:0:0:0:
491,119,52669,1,0,2:0:0:0:
415,179,52829,1,2,2:0:0:0:
415,179,53149,1,0,2:0:0:0:
290,147,53309,1,2,2:0:0:0:
290,147,53629,1,0,2:0:0:0:
143,210,53789,1,2,2:0:0:0:
143,210,54109,1,0,2:0:0:0:
2,138,54269,6,0,P|-1:100|6:57,1,56,0|0,2:0|2:0,2:0:0:0:
37,20,54589,1,0,2:0:0:0:
135,101,54749,2,0,P|138:139|131:182,1,56,2|0,2:0|2:0,2:0:0:0:
100,219,55069,1,0,2:0:0:0:
268,129,55229,2,0,P|265:91|272:48,1,56,0|0,2:0|2:0,2:0:0:0:
303,11,55549,1,0,2:0:0:0:
465,110,55709,2,0,P|468:148|461:191,1,56,2|0,2:0|2:0,2:0:0:0:
430,228,56031,1,0,2:0:0:0:
249,275,56193,5,0,1:0:0:0:
249,275,56661,2,0,L|241:201,1,56,2|0,1:2|1:0,1:0:0:0:
227,124,56974,1,0,1:0:0:0:
346,236,57130,2,0,L|334:347,1,112,0|0,0:0|1:0,0:0:0:0:
455,308,57610,1,2,1:2:0:0:
455,308,57770,1,0,1:0:0:0:
242,236,57930,1,0,1:0:0:0:
349,166,58090,5,0,1:0:0:0:
349,166,58570,2,0,L|416:180,1,56,2|0,1:2|1:0,1:0:0:0:
496,198,58890,1,0,1:0:0:0:
355,67,59050,2,0,L|244:79,1,112,0|0,1:0|1:0,1:0:0:0:
187,158,59530,1,2,1:2:0:0:
187,158,59690,1,0,1:0:0:0:
363,80,59850,1,0,1:0:0:0:
442,180,60010,5,0,1:0:0:0:
442,180,60490,2,0,L|429:249,1,56,2|0,1:2|1:0,1:0:0:0:
411,328,60810,1,0,1:0:0:0:
318,159,60970,2,0,L|341:44,1,112,0|0,1:0|1:0,1:0:0:0:
255,5,61450,1,2,1:2:0:0:
255,5,61610,1,0,1:0:0:0:
154,84,61770,1,0,1:0:0:0:
368,53,61930,5,0,1:0:0:0:
371,56,62410,1,2,1:2:0:0:
371,56,62570,1,0,1:0:0:0:
445,162,62730,1,0,1:0:0:0:
160,126,62890,1,0,1:0:0:0:
163,129,63370,1,2,1:2:0:0:
163,129,63530,1,0,1:0:0:0:
86,268,63690,1,0,1:0:0:0:
431,215,63850,6,0,P|377:201|321:235,1,112,4|0,1:0|1:0,1:0:0:0:
265,369,64330,1,2,1:2:0:0:
477,306,64490,1,0,1:0:0:0:
196,241,64650,1,0,1:0:0:0:
428,353,64810,2,0,P|452:303|438:250,1,112,4|0,1:0|1:0,1:0:0:0:
495,137,65290,1,2,1:2:0:0:
317,208,65450,1,0,1:0:0:0:
344,18,65610,1,0,1:0:0:0:
261,260,65770,6,0,P|310:284|363:270,1,112,4|0,1:0|1:0,1:0:0:0:
490,255,66250,1,2,1:2:0:0:
334,365,66410,1,0,1:0:0:0:
154,304,66570,1,0,1:0:0:0:
312,142,66730,2,0,P|336:191|322:244,1,112,4|0,1:0|1:0,1:0:0:0:
269,285,67210,1,2,1:2:0:0:
269,285,67370,1,0,1:0:0:0:
476,190,67530,1,0,1:0:0:0:
242,8,67690,6,0,L|253:132,1,112,4|0,1:0|1:0,1:0:0:0:
257,186,68170,1,2,1:2:0:0:
404,116,68330,1,0,1:0:0:0:
93,40,68490,1,0,1:0:0:0:
257,195,68650,2,0,L|381:184,1,112,4|0,1:0|1:0,1:0:0:0:
435,180,69130,1,2,1:2:0:0:
371,66,69290,1,0,1:0:0:0:
275,270,69450,1,0,1:0:0:0:
58,98,69610,5,0,1:0:0:0:
40,223,69770,1,0,1:0:0:0:
158,176,69930,1,0,1:0:0:0:
3,153,70090,5,2,1:2:0:0:
153,271,70250,1,0,1:0:0:0:
180,80,70410,1,0,1:0:0:0:
32,271,70570,5,0,1:0:0:0:
32,271,70810,1,0,1:0:0:0:
32,271,70890,1,0,1:0:0:0:
270,175,71050,1,2,1:2:0:0:
65,15,71210,1,0,1:0:0:0:
234,106,71370,1,0,1:0:0:0:
446,32,71530,6,0,P|397:8|344:22,1,112,4|0,1:0|1:0,1:0:0:0:
302,75,72010,1,2,1:2:0:0:
382,174,72170,1,0,1:0:0:0:
434,21,72330,1,0,1:0:0:0:
282,230,72490,2,0,P|331:254|384:240,1,112,4|0,1:0|1:0,1:0:0:0:
426,187,72970,1,2,1:2:0:0:
205,150,73130,1,0,1:0:0:0:
355,96,73290,1,0,1:0:0:0:
163,295,73450,6,0,P|138:245|153:192,1,112,4|0,1:0|1:0,1:0:0:0:
205,150,73930,1,2,1:2:0:0:
283,327,74090,1,0,1:0:0:0:
32,276,74250,1,0,1:0:0:0:
258,93,74410,2,0,P|282:142|267:195,1,112,4|0,1:0|1:0,1:0:0:0:
216,238,74890,1,2,1:2:0:0:
65,191,75050,1,0,1:0:0:0:
65,191,75130,1,0,1:0:0:0:
65,191,75210,1,0,1:0:0:0:
223,79,75370,6,0,L|356:89,1,112,4|0,1:0|1:0,1:0:0:0:
401,93,75850,1,2,1:2:0:0:
153,28,76010,1,0,1:0:0:0:
371,31,76170,1,0,1:0:0:0:
220,238,76330,2,0,L|87:248,1,112,4|0,1:0|1:0,1:0:0:0:
42,252,76810,1,2,1:2:0:0:
290,187,76970,1,0,1:0:0:0:
72,190,77130,1,0,1:0:0:0:
314,346,77290,5,4,1:0:0:0:
480,151,77450,1,4,2:3:0:0:
480,151,77530,1,8,2:3:0:0:
480,151,77610,1,8,2:3:0:0:
349,243,77770,1,4,2:3:0:0:
103,166,77930,1,8,2:3:0:0:
284,119,78090,1,8,2:3:0:0:
66,354,78250,5,4,1:0:0:0:
140,178,78410,1,8,2:3:0:0:
17,32,78570,1,4,2:3:0:0:
51,160,78730,5,4,1:3:0:0:
227,234,78890,1,8,2:3:0:0:
373,111,79050,1,4,2:3:0:0:
447,154,79210,6,0,B|478:100|468:15|386:-24|310:-6|256:39|233:108|259:182|325:196|382:206|395:285|357:366|282:382|226:344,1,644,4|0,1:0|2:0,0:0:0:0:
83,376,81130,5,4,1:0:0:0:
115,188,81290,1,0,1:0:0:0:
115,188,81450,1,0,1:0:0:0:
391,274,81610,5,4,1:0:0:0:
359,86,81770,1,0,1:0:0:0:
359,86,81930,1,0,1:0:0:0:
112,267,82090,6,0,P|71:251|36:210,1,84,4|0,1:0|1:0,1:0:0:0:
67,65,82410,1,0,1:0:0:0:
378,155,82570,6,0,P|384:112|366:61,1,84,4|0,1:0|1:0,1:0:0:0:
225,15,82890,1,0,1:0:0:0:
84,338,83050,5,4,1:0:0:0:
306,211,83210,1,0,1:0:0:0:
149,243,83370,1,0,1:0:0:0:
451,339,83530,1,0,1:0:0:0:
451,339,84010,5,4,1:0:0:0:
193,209,84170,1,0,1:0:0:0:
380,169,84330,1,0,1:0:0:0:
85,363,84490,1,0,1:0:0:0:
85,363,84970,5,4,1:0:0:0:
360,187,85130,1,0,1:0:0:0:
176,133,85290,1,0,1:0:0:0:
402,358,85450,1,4,1:0:0:0:
484,50,85610,1,0,1:0:0:0:
256,229,85770,1,0,1:0:0:0:
1,92,85930,1,0,1:0:0:0:
499,211,86410,1,0,1:0:0:0:
214,360,86890,6,0,L|237:200,1,140,4|0,1:0|1:0,1:0:0:0:
254,94,87370,1,2,1:2:0:0:
196,378,87530,1,0,1:0:0:0:
315,229,87690,1,0,1:0:0:0:
0,175,87850,2,0,P|67:165|127:201,1,140,4|0,1:0|1:0,1:0:0:0:
199,307,88330,1,2,1:2:0:0:
2,142,88490,1,0,1:0:0:0:
48,264,88650,1,0,1:0:0:0:
417,70,88810,6,0,L|274:88,1,140,4|0,1:0|1:0,1:0:0:0:
151,104,89290,1,2,1:2:0:0:
433,42,89450,1,0,1:0:0:0:
337,171,89610,1,0,1:0:0:0:
106,3,89770,2,0,P|50:44|33:106,1,105,4|0,1:0|1:0,1:0:0:0:
50,90,90090,1,0,1:2:0:0:
332,20,90250,1,2,1:2:0:0:
332,20,90410,1,4,1:3:0:0:
249,116,90570,1,4,1:3:0:0:
506,325,90730,6,0,L|478:185,1,140,4|0,1:0|1:0,1:0:0:0:
454,62,91210,1,2,1:2:0:0:
272,126,91370,1,0,1:0:0:0:
512,215,91530,1,0,1:0:0:0:
189,349,91690,2,0,P|256:358|316:323,1,140,4|0,1:0|1:0,1:0:0:0:
408,352,92170,1,2,1:2:0:0:
291,157,92330,1,4,1:3:0:0:
481,35,92490,1,8,1:3:0:0:
238,86,92650,6,0,L|266:226,1,140,4|0,1:0|1:0,1:0:0:0:
290,349,93130,1,2,1:2:0:0:
145,282,93290,1,0,1:0:0:0:
379,180,93450,1,0,1:0:0:0:
23,32,93610,2,0,P|90:22|150:57,1,140,4|0,1:0|1:0,1:0:0:0:
242,29,94090,1,2,1:2:0:0:
143,300,94250,1,0,1:3:0:0:
497,201,94570,5,4,1:0:0:0:
89,123,95050,1,2,1:3:0:0:
466,44,95530,1,0,1:3:0:0:
56,352,96010,1,2,1:3:0:0:
56,352,96490,5,4,1:0:0:0:
145,183,96650,1,2,1:0:0:0:
50,16,96810,1,2,1:0:0:0:
8,197,96970,5,4,1:0:0:0:
251,280,97130,1,2,1:0:0:0:
440,106,97290,1,2,1:0:0:0:
383,50,97450,5,0,1:0:0:0:
383,50,98410,6,0,P|314:35|266:81,1,140,4|0,1:0|1:0,1:0:0:0:
190,68,98890,2,0,L|206:147,1,70,2|0,1:2|1:0,1:0:0:0:
240,293,99210,1,0,1:0:0:0:
414,153,99370,2,0,L|385:5,1,140,4|0,1:0|1:0,1:0:0:0:
505,205,99850,2,0,L|494:287,1,70,2|0,1:2|1:0,1:0:0:0:
482,343,100170,1,0,1:0:0:0:
199,285,100330,6,0,P|163:284|130:299,1,70,4|0,1:0|1:0,1:0:0:0:
360,181,100650,2,0,P|391:194|426:193,1,70,0|2,1:0|1:2,1:0:0:0:
183,37,100970,2,0,P|147:45|119:68,1,70,0|0,1:0|1:0,1:0:0:0:
316,235,101290,2,0,P|336:167|295:115,1,140,4|0,1:0|1:0,1:0:0:0:
230,94,101770,1,2,1:2:0:0:
124,168,101930,1,0,1:3:0:0:
5,58,102090,1,0,1:3:0:0:
50,248,102250,6,0,P|104:287|168:266,1,140,4|0,1:0|1:0,1:0:0:0:
245,267,102730,2,0,L|233:185,1,70,2|0,1:2|1:0,1:0:0:0:
211,71,103050,1,0,1:0:0:0:
364,236,103210,2,0,L|342:379,1,140,4|0,1:0|1:0,1:0:0:0:
262,322,103690,1,2,1:2:0:0:
479,270,103850,1,0,1:0:0:0:
237,189,104010,1,0,1:0:0:0:
35,262,104170,6,0,P|66:275|101:274,1,70,4|0,1:0|1:0,1:0:0:0:
330,96,104490,2,0,P|298:82|263:83,1,70,0|2,1:0|1:2,1:0:0:0:
395,301,104810,2,0,P|426:314|461:313,1,70,0|0,1:0|1:0,1:0:0:0:
510,263,105130,1,4,1:0:0:0:
462,79,105290,1,0,1:0:0:0:
462,79,105450,1,0,1:0:0:0:
338,180,105610,1,4,1:0:0:0:
386,364,105770,1,0,1:0:0:0:
386,364,105930,1,0,1:0:0:0:
216,262,106090,6,0,P|147:247|99:293,1,140,4|0,1:0|1:0,1:0:0:0:
39,338,106570,2,0,L|26:258,1,70,2|0,1:2|1:0,1:0:0:0:
2,108,106890,1,0,1:0:0:0:
210,193,107050,2,0,L|186:339,1,140,4|0,1:0|1:0,1:0:0:0:
318,150,107530,2,0,L|305:70,1,70,2|0,1:2|1:0,1:0:0:0:
291,14,107850,1,0,1:0:0:0:
380,213,108010,6,0,P|350:235|287:229,1,70,4|0,1:0|1:0,1:0:0:0:
100,102,108330,2,0,P|130:80|193:86,1,70,0|2,1:0|1:2,1:0:0:0:
118,329,108650,2,0,P|88:351|25:345,1,70,0|0,1:0|1:0,1:0:0:0:
106,39,108970,2,0,P|152:92|137:156,1,140,4|0,1:0|1:0,1:0:0:0:
85,200,109450,1,2,1:2:0:0:
296,119,109610,1,0,1:0:0:0:
434,298,109770,1,0,1:0:0:0:
512,159,109930,6,0,P|507:88|451:53,1,140,4|0,1:0|1:0,1:0:0:0:
379,34,110410,2,0,L|365:115,1,70,2|0,1:2|1:0,1:0:0:0:
339,260,110730,1,0,1:0:0:0:
173,165,110890,2,0,L|201:2,1,140,4|0,1:0|1:0,1:0:0:0:
36,184,111370,2,0,L|50:265,1,70,2|0,1:2|1:0,1:0:0:0:
63,321,111690,1,0,1:0:0:0:
366,339,111850,6,0,P|399:334|429:316,1,70,4|0,1:0|1:3,1:3:0:0:
210,181,112170,2,0,P|196:212|197:247,1,70,0|2,1:0|1:2,1:3:0:0:
424,125,112490,2,0,P|403:98|372:81,1,70,0|0,1:0|1:3,1:3:0:0:
302,84,112810,1,4,1:0:0:0:
202,167,112970,1,0,1:0:0:0:
202,167,113050,1,0,1:0:0:0:
202,167,113130,1,0,1:0:0:0:
116,29,113290,1,4,1:3:0:0:
302,84,113450,1,4,1:3:0:0:
477,0,113610,1,8,1:3:0:0:
421,249,113770,5,4,1:0:0:0:
470,165,113930,1,0,1:0:0:0:
469,126,114010,1,0,1:0:0:0:
445,95,114090,1,0,1:0:0:0:
330,40,114250,1,2,1:2:0:0:
180,163,114410,1,0,1:0:0:0:
7,79,114570,1,0,1:0:0:0:
98,312,114730,5,4,1:0:0:0:
192,287,114890,1,0,1:0:0:0:
218,258,114970,1,0,1:0:0:0:
223,220,115050,1,0,1:0:0:0:
181,99,115210,1,2,1:2:0:0:
32,159,115370,1,0,1:0:0:0:
243,15,115530,1,0,1:0:0:0:
469,134,115690,5,4,1:0:0:0:
310,164,115850,1,0,1:0:0:0:
362,11,116010,1,0,1:0:0:0:
411,263,116170,5,2,1:2:0:0:
258,210,116330,1,0,1:0:0:0:
379,104,116490,1,0,1:0:0:0:
295,346,116650,5,4,1:0:0:0:
190,223,116810,1,0,1:0:0:0:
348,191,116970,1,0,1:0:0:0:
154,358,117130,5,2,1:2:0:0:
124,199,117290,1,0,1:0:0:0:
277,250,117450,1,0,1:0:0:0:
25,297,117610,5,4,1:0:0:0:
8,228,117770,1,0,1:0:0:0:
8,228,117850,1,0,1:0:0:0:
8,228,117930,1,0,1:0:0:0:
166,338,118090,1,4,1:3:0:0:
348,277,118250,1,4,1:3:0:0:
409,95,118410,1,8,1:3:0:0:
60,360,118570,5,4,1:0:0:0:
25,297,118730,1,0,1:0:0:0:
25,297,118810,1,0,1:0:0:0:
25,297,118890,1,0,1:0:0:0:
236,373,119050,1,4,1:3:0:0:
423,250,119210,1,4,1:3:0:0:
437,25,119370,1,8,1:3:0:0:
85,240,119530,5,0,1:3:0:0:
88,253,119610,1,4,1:3:0:0:
91,267,119690,1,4,1:3:0:0:
148,153,119850,1,0,1:0:0:0:
289,287,120010,1,0,1:0:0:0:
286,301,120090,1,4,1:3:0:0:
283,314,120170,1,4,1:3:0:0:
368,218,120330,1,0,1:0:0:0:
208,17,120490,2,0,P|141:13|61:54,1,140,4|0,1:0|1:0,1:0:0:0:
373,154,120970,2,2,P|442:157|505:129,1,140,0|0,1:0|1:0,1:0:0:0:
201,113,121450,6,0,L|225:257,1,140,4|0,1:0|1:0,1:0:0:0:
235,320,121930,1,2,1:2:0:0:
114,270,122090,1,0,1:0:0:0:
323,185,122250,1,0,1:0:0:0:
483,345,122410,2,0,P|413:346|364:294,1,140,4|0,1:0|1:0,1:0:0:0:
376,229,122890,1,2,1:2:0:0:
489,168,123050,1,0,1:0:0:0:
415,350,123210,1,0,1:0:0:0:
132,278,123370,6,0,L|275:251,1,140,4|0,1:0|1:0,1:0:0:0:
338,241,123850,1,2,1:2:0:0:
212,142,124010,1,0,1:0:0:0:
171,364,124170,1,0,1:0:0:0:
132,107,124330,2,0,P|180:59|249:61,1,140,4|0,1:0|1:0,1:0:0:0:
299,110,124810,1,2,1:2:0:0:
179,262,124970,1,0,1:0:0:0:
0,187,125130,1,0,1:0:0:0:
234,26,125290,6,0,L|210:170,1,140,4|0,1:0|1:0,1:0:0:0:
200,233,125770,1,2,1:2:0:0:
318,183,125930,1,0,1:0:0:0:
110,97,126090,1,0,1:0:0:0:
0,329,126250,2,0,P|65:346|124:310,1,140,4|0,1:0|1:0,1:0:0:0:
143,242,126730,1,2,1:2:0:0:
7,156,126890,1,0,1:0:0:0:
77,370,127050,1,0,1:0:0:0:
300,333,127210,6,0,L|284:250,1,70,4|0,1:0|1:0,1:0:0:0:
254,140,127530,1,0,1:0:0:0:
471,192,127690,2,0,P|484:233|456:303,1,105,2|0,1:2|1:0,1:0:0:0:
396,351,128010,1,0,1:0:0:0:
266,168,128170,2,0,P|264:125|286:86,1,70,4|0,1:0|1:0,1:0:0:0:
333,26,128490,1,0,1:0:0:0:
487,153,128650,2,0,P|446:201|455:111,1,210,2|0,1:2|1:0,1:0:0:0:
506,336,129130,6,0,L|357:306,1,140,4|0,1:0|1:0,1:0:0:0:
300,293,129610,1,2,1:2:0:0:
446,227,129770,1,0,1:0:0:0:
275,375,129930,1,0,1:0:0:0:
75,269,130090,2,0,P|127:225|195:233,1,140,4|0,1:0|1:0,1:0:0:0:
241,287,130570,1,2,1:2:0:0:
139,368,130730,1,0,1:0:0:0:
9,184,130890,1,0,1:0:0:0:
172,28,131050,6,0,L|142:177,1,140,4|0,1:0|1:0,1:0:0:0:
129,234,131530,1,2,1:2:0:0:
28,150,131690,1,0,1:0:0:0:
274,75,131850,1,0,1:0:0:0:
462,249,132010,2,0,P|409:292|341:284,1,140,4|0,1:0|1:0,1:0:0:0:
296,231,132490,1,2,1:2:0:0:
397,104,132650,1,0,1:0:0:0:
458,355,132810,1,0,1:0:0:0:
112,306,132970,6,0,L|261:276,1,140,4|0,1:0|1:0,1:0:0:0:
318,263,133450,1,2,1:2:0:0:
250,377,133610,1,0,1:0:0:0:
142,179,133770,1,0,1:0:0:0:
375,10,133930,2,0,P|392:75|356:134,1,140,4|0,1:0|1:0,1:0:0:0:
288,152,134410,1,2,1:2:0:0:
104,89,134570,1,0,1:0:0:0:
11,260,134730,1,0,1:0:0:0:
73,327,134890,5,0,1:0:0:0:
96,321,134970,1,0,1:0:0:0:
119,315,135050,1,4,1:3:0:0:
170,232,135210,2,0,L|163:195,1,35,4|0,1:3|1:0,1:0:0:0:
151,129,135370,1,4,1:3:0:0:
261,246,135530,1,0,1:0:0:0:
161,371,135690,1,8,1:3:0:0:
73,327,135850,5,0,1:0:0:0:
216,151,136010,1,8,1:3:0:0:
437,202,136170,1,4,1:3:0:0:
498,360,136330,5,0,1:0:0:0:
355,223,136490,1,8,1:3:0:0:
417,40,136650,1,4,1:3:0:0:
500,17,136810,6,0,B|516:76|480:139|415:150|355:132|339:78|330:56|330:56|341:91|353:133|343:213|268:257|188:243|164:194|164:194|186:190|206:200,1,616,4|0,1:0|2:0,1:0:0:0:
55,324,138730,5,4,1:0:0:0:
18,200,138890,1,0,1:0:0:0:
18,200,138970,1,0,1:0:0:0:
18,200,139050,1,0,1:0:0:0:
167,259,139210,5,4,1:0:0:0:
353,308,139370,1,0,1:0:0:0:
467,150,139530,1,0,1:0:0:0:
241,325,139690,5,4,1:0:0:0:
407,228,139850,1,0,1:0:0:0:
376,35,140010,1,0,1:0:0:0:
339,318,140170,5,4,1:0:0:0:
388,132,140330,1,0,1:0:0:0:
230,18,140490,1,0,1:0:0:0:
160,82,140650,5,4,1:0:0:0:
412,38,140810,1,0,1:0:0:0:
93,9,140970,1,0,1:0:0:0:
485,152,141130,1,0,1:0:0:0:
485,152,141610,5,4,1:0:0:0:
154,26,141770,1,0,1:0:0:0:
378,7,141930,1,0,1:0:0:0:
82,199,142090,1,0,1:0:0:0:
82,199,142570,5,4,1:0:0:0:
447,78,142730,1,0,1:0:0:0:
195,21,142890,1,0,1:0:0:0:
341,195,143050,1,4,1:0:0:0:
402,11,143210,1,0,1:0:0:0:
467,353,143370,1,0,1:0:0:0:
28,256,143530,1,0,1:0:0:0:
503,175,144010,1,0,1:0:0:0:
163,84,144490,6,0,L|180:233,1,140,4|0,1:0|1:0,1:0:0:0:
190,292,144970,1,2,1:2:0:0:
76,230,145130,1,0,1:0:0:0:
262,101,145290,1,0,1:0:0:0:
465,268,145450,2,0,P|397:278|342:237,1,140,4|0,1:0|1:0,1:0:0:0:
330,169,145930,1,2,1:2:0:0:
428,87,146090,1,0,1:0:0:0:
308,312,146250,1,0,1:0:0:0:
59,258,146410,6,0,L|190:205,1,140,4|0,1:0|1:0,1:0:0:0:
253,179,146890,1,2,1:2:0:0:
140,118,147050,1,0,1:0:0:0:
100,340,147210,1,0,1:0:0:0:
63,79,147370,2,0,P|116:36|184:44,1,140,4|0,1:0|1:0,1:0:0:0:
233,100,147850,1,2,1:2:0:0:
233,100,148010,1,0,1:0:0:0:
198,257,148170,1,0,1:0:0:0:
389,204,148330,6,0,L|353:42,1,140,4|0,1:0|1:0,1:0:0:0:
339,0,148810,1,2,1:2:0:0:
259,103,148970,1,0,1:0:0:0:
480,143,149130,1,0,1:0:0:0:
321,302,149290,2,0,P|253:312|198:271,1,140,4|0,1:0|1:0,1:0:0:0:
184,198,149770,1,2,1:2:0:0:
274,66,149930,1,8,1:3:0:0:
274,66,150010,1,0,1:3:0:0:
274,66,150090,1,8,1:3:0:0:
374,141,150250,6,0,L|356:234,1,70,4|0,1:0|1:0,1:0:0:0:
345,278,150570,1,0,1:0:0:0:
246,195,150730,1,2,1:2:0:0:
495,137,150890,1,2,1:2:0:0:
420,381,151050,1,0,1:0:0:0:
296,131,151210,2,0,P|352:92|419:106,1,140,4|0,1:0|1:0,1:0:0:0:
463,166,151690,1,2,1:2:0:0:
82,113,151850,1,0,1:0:0:0:
82,113,152170,5,12,1:0:0:0:
124,27,152330,1,0,1:0:0:0:
124,27,152490,1,0,1:0:0:0:
239,252,152650,5,12,1:0:0:0:
217,126,152813,1,0,1:0:0:0:
217,126,152977,1,0,1:0:0:0:
367,184,153141,5,12,1:0:0:0:
402,28,153299,1,0,1:0:0:0:
402,28,153457,1,0,1:0:0:0:
506,336,153615,5,12,1:0:0:0:
475,144,153773,1,0,1:0:0:0:
475,144,153932,1,0,1:0:0:0:
338,361,154090,5,0,1:0:0:0:
500,252,154248,1,2,1:0:0:0:
238,122,154407,1,2,1:0:0:0:
81,366,154566,1,0,1:0:0:0:
12,152,154726,1,2,1:0:0:0:
247,369,154886,1,2,1:0:0:0:
129,50,155046,5,0,1:0:0:0:
129,50,156010,6,0,P|198:35|246:81,1,140,4|0,1:0|1:0,1:0:0:0:
322,68,156490,2,0,L|306:147,1,70,2|0,1:2|1:0,1:0:0:0:
272,293,156810,1,0,1:0:0:0:
98,153,156970,2,0,L|127:5,1,140,4|0,1:0|1:0,1:0:0:0:
7,205,157450,2,0,L|18:287,1,70,2|0,1:2|1:0,1:0:0:0:
30,343,157770,1,0,1:0:0:0:
313,285,157930,6,0,P|349:284|382:299,1,70,4|0,1:0|1:0,1:0:0:0:
152,181,158250,2,0,P|121:194|86:193,1,70,0|2,1:0|1:2,1:0:0:0:
329,37,158570,2,0,P|365:45|393:68,1,70,0|0,1:0|1:0,1:0:0:0:
196,235,158890,2,0,P|176:167|217:115,1,140,4|0,1:0|1:0,1:0:0:0:
282,94,159370,1,2,1:2:0:0:
388,168,159530,1,0,1:3:0:0:
507,58,159690,1,0,1:3:0:0:
462,248,159850,6,0,P|408:287|344:266,1,140,4|0,1:0|1:0,1:0:0:0:
267,267,160330,2,0,L|279:185,1,70,2|0,1:2|1:0,1:0:0:0:
301,71,160650,1,0,1:0:0:0:
148,236,160810,2,0,L|170:379,1,140,4|0,1:0|1:0,1:0:0:0:
250,322,161290,1,2,1:2:0:0:
33,270,161450,1,0,1:0:0:0:
275,189,161610,1,0,1:0:0:0:
477,262,161770,6,0,P|446:275|411:274,1,70,4|0,1:0|1:0,1:0:0:0:
182,96,162090,2,0,P|214:82|249:83,1,70,0|2,1:0|1:2,1:0:0:0:
117,301,162410,2,0,P|86:314|51:313,1,70,0|0,1:0|1:0,1:0:0:0:
2,263,162730,1,4,1:0:0:0:
50,79,162890,1,0,1:0:0:0:
50,79,163050,1,0,1:0:0:0:
174,180,163210,1,4,1:0:0:0:
126,364,163370,1,0,1:0:0:0:
126,364,163530,1,0,1:0:0:0:
296,262,163690,6,0,P|365:247|413:293,1,140,4|0,1:0|1:0,1:0:0:0:
473,338,164170,2,0,L|486:258,1,70,2|0,1:2|1:0,1:0:0:0:
510,108,164490,1,0,1:0:0:0:
302,193,164650,2,0,L|326:339,1,140,4|0,1:0|1:0,1:0:0:0:
194,150,165130,2,0,L|207:70,1,70,2|0,1:2|1:0,1:0:0:0:
221,14,165450,1,0,1:0:0:0:
132,213,165610,6,0,P|162:235|225:229,1,70,4|0,1:0|1:0,1:0:0:0:
412,102,165930,2,0,P|382:80|319:86,1,70,0|2,1:0|1:2,1:0:0:0:
394,329,166250,2,0,P|424:351|487:345,1,70,0|0,1:0|1:0,1:0:0:0:
406,39,166570,2,0,P|360:92|375:156,1,140,4|0,1:0|1:0,1:0:0:0:
427,200,167050,1,2,1:2:0:0:
216,119,167210,1,0,1:0:0:0:
78,298,167370,1,0,1:0:0:0:
0,159,167530,6,0,P|5:88|61:53,1,140,4|0,1:0|1:0,1:0:0:0:
133,34,168010,2,0,L|147:115,1,70,2|0,1:2|1:0,1:0:0:0:
173,260,168330,1,0,1:0:0:0:
339,165,168490,2,0,L|311:2,1,140,4|0,1:0|1:0,1:0:0:0:
476,184,168970,2,0,L|462:265,1,70,2|0,1:2|1:0,1:0:0:0:
449,321,169290,1,0,1:0:0:0:
146,339,169450,6,0,P|113:334|83:316,1,70,4|0,1:0|1:3,1:3:0:0:
302,181,169770,2,0,P|316:212|315:247,1,70,0|2,1:0|1:2,1:3:0:0:
88,125,170090,2,0,P|109:98|140:81,1,70,0|0,1:0|1:3,1:3:0:0:
210,84,170410,1,4,1:0:0:0:
310,167,170570,1,0,1:0:0:0:
310,167,170650,1,0,1:0:0:0:
310,167,170730,1,0,1:0:0:0:
396,29,170890,1,4,1:3:0:0:
210,84,171050,1,4,1:3:0:0:
35,0,171210,1,8,1:3:0:0:
91,249,171370,5,4,1:0:0:0:
42,165,171530,1,0,1:0:0:0:
43,126,171610,1,0,1:0:0:0:
67,95,171690,1,0,1:0:0:0:
182,40,171850,1,2,1:2:0:0:
332,163,172009,1,0,1:0:0:0:
505,79,172168,1,0,1:0:0:0:
414,312,172327,5,4,1:0:0:0:
320,287,172489,1,0,1:0:0:0:
294,258,172570,1,0,1:0:0:0:
289,220,172652,1,0,1:0:0:0:
331,99,172814,1,2,1:2:0:0:
480,159,172975,1,4,1:3:0:0:
269,15,173136,1,8,1:3:0:0:
43,134,173297,5,4,1:0:0:0:
202,164,173459,1,4,1:3:0:0:
150,11,173620,1,4,1:3:0:0:
101,263,173781,5,0,1:2:0:0:
133,104,173941,1,4,1:3:0:0:
133,104,174021,1,0,0:0:0:0:
133,104,174101,1,0,0:0:0:0:
217,346,174261,5,4,1:0:0:0:
504,139,174791,1,4,1:0:0:0:
65,22,175513,2,0,B|102:26|140:58|142:91|137:138|104:162|61:173|20:160|-4:114|-6:59|30:26|74:5|149:27|165:42|179:78|188:102|208:129|248:156|329:159|395:133|429:99|452:51|452:51|441:143|480:193,1,840,6|0,1:0|1:0,1:0:0:0:
471,180,186534,5,4,1:3:0:0:
419,239,186668,1,0,1:0:0:0:
424,258,186734,1,0,1:0:0:0:
429,278,186801,1,4,1:3:0:0:
326,154,186934,1,0,1:0:0:0:
315,189,187001,1,0,1:0:0:0:
304,224,187068,1,4,1:3:0:0:
134,311,187201,1,0,1:0:0:0:
134,311,187468,6,0,P|64:252|99:140,1,210,4|0,1:0|1:0,1:0:0:0:
171,91,187861,1,8,1:0:0:0:
171,91,187994,1,0,1:0:0:0:
289,154,188127,1,8,1:0:0:0:
289,154,188261,1,0,1:0:0:0:
416,100,188394,1,8,1:0:0:0:
416,100,188527,1,0,1:0:0:0:
471,179,188661,6,0,L|449:297,1,105,8|0,1:0|1:0,1:0:0:0:
284,135,188927,2,0,L|306:17,1,105,8|0,1:0|1:0,1:0:0:0:
377,5,189194,1,8,1:0:0:0:
456,145,189327,1,0,1:0:0:0:
260,252,189461,1,8,1:0:0:0:
85,115,189594,6,0,P|155:174|120:286,1,210,4|0,1:0|1:0,1:0:0:0:
49,331,189994,1,8,1:0:0:0:
49,331,190127,1,0,1:0:0:0:
239,367,190261,1,8,1:0:0:0:
239,367,190394,1,0,1:0:0:0:
356,214,190527,1,8,1:0:0:0:
356,214,190661,1,0,1:0:0:0:
311,129,190794,6,0,L|246:121,1,52.5,8|0,1:0|1:0,1:0:0:0:
190,111,190927,1,0,1:0:0:0:
328,26,191061,1,8,1:0:0:0:
220,222,191194,1,0,1:0:0:0:
385,374,191327,1,8,1:0:0:0:
299,240,191461,1,0,1:0:0:0:
162,324,191594,1,8,1:0:0:0:
477,310,191727,6,0,P|418:240|306:275,1,210,4|0,1:0|1:0,1:0:0:0:
253,346,192127,1,8,1:0:0:0:
253,346,192261,1,0,1:0:0:0:
202,160,192394,1,8,1:0:0:0:
202,160,192527,1,0,1:0:0:0:
52,218,192661,1,8,1:0:0:0:
52,218,192794,1,0,1:0:0:0:
103,32,192927,6,0,L|117:150,1,105,8|0,1:0|1:0,1:0:0:0:
11,332,193194,2,0,L|25:213,1,105,8|0,1:0|1:0,1:0:0:0:
180,98,193461,1,8,1:0:0:0:
26,65,193594,1,0,1:0:0:0:
197,207,193727,1,8,1:0:0:0:
407,123,193861,6,0,P|348:53|236:88,1,210,4|0,1:0|1:0,1:0:0:0:
192,164,194261,1,8,1:0:0:0:
192,164,194394,1,0,1:0:0:0:
263,315,194527,1,8,1:0:0:0:
263,315,194661,1,0,1:0:0:0:
421,267,194794,1,8,1:0:0:0:
421,267,194927,1,0,1:0:0:0:
347,213,195061,6,0,L|282:231,1,52.5,0|0,1:0|1:0,1:0:0:0:
227,196,195194,1,8,1:0:0:0:
231,175,195261,1,8,1:0:0:0:
235,154,195327,1,0,1:0:0:0:
239,133,195394,1,0,1:0:0:0:
244,112,195461,1,8,1:0:0:0:
249,91,195527,1,0,1:0:0:0:
262,29,195594,5,0,1:0:0:0:
148,89,195727,1,0,1:0:0:0:
299,209,195861,1,8,1:0:0:0:
464,112,195994,2,0,B|419:85|419:85|253:106,1,210,4|0,1:0|1:0,1:0:0:0:
178,216,196387,6,0,L|288:202,1,105,8|0,1:0|1:0,1:0:0:0:
408,7,196653,2,0,L|297:20,1,105,0|0,1:0|1:0,1:0:0:0:
116,44,196920,1,8,1:0:0:0:
245,137,197053,2,0,P|309:109|372:124,1,105.7875,0|0,1:0|1:0,1:0:0:0:
444,276,197320,2,0,P|380:304|317:289,1,105,0|8,1:0|1:0,1:0:0:0:
226,113,197587,2,0,P|290:85|353:100,1,105,0|0,1:0|1:0,1:0:0:0:
447,123,197853,1,0,1:0:0:0:
394,276,197987,1,8,1:0:0:0:
397,7,198120,6,0,B|424:52|424:52|403:218,1,210,4|0,1:0|1:0,1:0:0:0:
293,293,198520,6,0,L|306:182,1,105,8|0,1:0|1:0,1:0:0:0:
502,63,198787,2,0,L|488:173,1,105,0|0,1:0|1:0,1:0:0:0:
461,354,199053,1,8,1:0:0:0:
306,188,199187,2,0,P|242:160|179:175,1,105,4|0,1:0|1:0,1:0:0:0:
107,327,199453,2,0,P|171:355|235:340,1,105,0|8,1:0|1:0,1:0:0:0:
320,164,199720,2,0,P|256:136|193:151,1,105,0|0,1:0|1:0,1:0:0:0:
99,174,199987,1,0,1:0:0:0:
157,327,200120,1,8,1:0:0:0:
436,209,200253,6,0,P|349:177|270:264,1,210,4|0,1:0|1:0,1:0:0:0:
256,349,200653,1,8,1:0:0:0:
256,349,200787,1,0,1:0:0:0:
40,284,200920,1,8,1:0:0:0:
40,284,201053,1,0,1:0:0:0:
212,203,201187,1,8,1:0:0:0:
212,203,201320,1,0,1:0:0:0:
109,123,201453,1,8,1:0:0:0:
109,123,201587,1,0,1:0:0:0:
170,48,201720,1,8,1:0:0:0:
170,48,201853,1,0,1:0:0:0:
236,84,201987,5,8,1:0:0:0:
177,234,202120,1,0,1:0:0:0:
36,158,202253,1,8,1:0:0:0:
95,8,202387,2,0,P|155:87|110:176,1,210,4|0,1:0|1:0,1:0:0:0:
30,230,202787,5,8,1:0:0:0:
30,230,202920,1,0,1:0:0:0:
177,357,203053,1,8,1:0:0:0:
177,357,203187,1,0,1:0:0:0:
303,252,203320,1,8,1:0:0:0:
303,252,203453,1,0,1:0:0:0:
415,330,203587,5,8,1:0:0:0:
421,338,203653,1,0,1:0:0:0:
426,346,203720,2,0,L|413:277,1,52.5,0|0,1:0|1:0,1:0:0:0:
363,167,203853,5,8,1:0:0:0:
357,176,203920,1,0,1:0:0:0:
351,185,203987,1,0,1:0:0:0:
345,193,204053,1,0,1:0:0:0:
339,202,204120,2,0,L|348:253,1,52.5,8|0,1:0|1:0,1:0:0:0:
490,176,204253,6,0,L|480:124,1,52.5,4|0,1:3|1:0,1:0:0:0:
462,55,204387,1,8,1:0:0:0:
339,202,204520,2,0,P|239:226|182:86,1,252,4|0,1:0|1:0,1:0:0:0:
287,24,204920,6,0,L|271:128,1,105,8|0,1:0|1:0,1:0:0:0:
464,270,205187,2,0,L|447:166,1,105,0|0,1:0|1:0,1:0:0:0:
428,72,205453,1,8,1:0:0:0:
339,242,205587,2,0,L|355:345,1,105,0|0,1:0|1:0,1:0:0:0:
444,378,205853,1,0,1:0:0:0:
510,267,205987,1,8,1:0:0:0:
261,194,206120,2,0,P|196:191|143:227,1,105,0|0,1:0|1:0,1:0:0:0:
325,55,206387,2,0,P|372:75|424:69,1,105,0|8,1:0|1:0,1:0:0:0:
76,80,206653,6,0,P|156:119|112:20,1,252,4|0,1:0|1:0,1:0:0:0:
2,225,207053,6,0,L|114:210,1,105,8|0,1:0|1:0,1:0:0:0:
350,347,207320,2,0,L|238:332,1,105,0|0,1:0|1:0,1:0:0:0:
154,316,207587,1,8,1:0:0:0:
367,246,207737,2,0,L|479:261,1,105,0|0,1:0|1:0,1:0:0:0:
499,331,207987,1,0,1:0:0:0:
493,339,208053,1,0,1:0:0:0:
449,337,208120,5,8,1:0:0:0:
408,302,208186,1,0,1:0:0:0:
391,252,208253,1,0,1:0:0:0:
402,200,208320,1,0,1:0:0:0:
438,161,208386,5,8,1:3:0:0:
453,158,208453,1,8,1:3:0:0:
484,129,208520,1,8,1:3:0:0:
494,88,208586,1,0,1:0:0:0:
476,50,208653,5,4,1:3:0:0:
460,45,208720,1,12,1:3:0:0:
418,35,208786,1,12,1:3:0:0:
382,55,208853,1,0,1:0:0:0:
369,95,208920,5,8,1:0:0:0:
483,152,209053,1,0,1:0:0:0:
246,258,209186,5,8,1:0:0:0:
402,225,209320,1,0,1:0:0:0:
160,56,209453,5,8,1:0:0:0:
347,102,209586,1,0,1:0:0:0:
54,272,209720,5,8,1:0:0:0:
272,227,209853,1,0,1:0:0:0:
19,29,209986,5,8,1:0:0:0:
251,137,210118,1,0,1:0:0:0:
79,254,210250,5,8,1:0:0:0:
319,166,210382,1,0,1:0:0:0:
280,370,210514,5,8,1:0:0:0:
387,138,210650,1,0,1:0:0:0:
504,310,210786,5,8,1:0:0:0:
416,70,210923,1,0,1:0:0:0:
3,197,211047,5,0,1:0:0:0:
124,234,211447,1,0,1:0:0:0:
275,180,211843,1,0,1:0:0:0:
275,180,211986,1,0,1:0:0:0:
458,238,212136,1,0,1:0:0:0:
447,244,212196,1,0,1:0:0:0:
436,251,212256,1,0,1:0:0:0:
275,180,212376,5,0,1:0:0:0:
286,186,212440,1,0,1:0:0:0:
297,193,212505,1,0,1:0:0:0:
146,221,212644,5,0,1:0:0:0:
135,227,212710,1,0,1:0:0:0:
124,234,212777,1,0,1:0:0:0:
114,241,212844,1,0,1:0:0:0:
102,285,212910,5,4,2:3:0:0:
64,303,212977,1,4,2:3:0:0:
22,297,213044,1,4,2:3:0:0:
0,261,213110,1,4,2:3:0:0:
3,197,213193,6,0,L|57:187,1,52.5,0|0,1:0|1:0,1:0:0:0:
106,239,213326,5,2,1:0:0:0:
123,207,213393,1,0,1:0:0:0:
156,189,213459,1,2,1:0:0:0:
193,186,213526,1,0,1:0:0:0:
229,195,213593,1,0,1:0:0:0:
257,220,213659,1,0,1:0:0:0:
285,245,213726,1,0,1:0:0:0:
321,254,213793,1,0,1:0:0:0:
358,251,213859,1,2,1:0:0:0:
391,233,213926,1,0,1:0:0:0:
408,201,213993,2,0,L|388:138,1,52.5,0|0,1:0|1:0,1:0:0:0:
466,288,214126,2,0,L|446:351,1,52.5,2|0,1:0|1:0,1:0:0:0:
324,276,214259,6,0,L|270:266,1,52.5,0|0,1:0|1:0,1:0:0:0:
188,346,214393,5,2,1:0:0:0:
204,313,214459,1,0,1:0:0:0:
204,276,214526,1,0,1:0:0:0:
184,244,214593,1,0,1:0:0:0:
153,224,214659,1,2,1:0:0:0:
116,225,214726,1,0,1:0:0:0:
85,245,214793,1,0,1:0:0:0:
8,71,214926,2,2,P|104:135|127:21,1,262.5,2|0,1:0|2:0,0:0:0:0:
71,62,215326,5,0,1:0:0:0:
74,66,215393,1,0,1:0:0:0:
77,70,215459,1,2,1:0:0:0:
85,119,215526,1,0,1:0:0:0:
125,143,215593,1,2,1:0:0:0:
171,147,215659,1,0,1:0:0:0:
211,123,215726,1,0,1:0:0:0:
251,99,215793,1,0,1:0:0:0:
297,103,215859,1,2,1:0:0:0:
337,127,215926,1,0,1:0:0:0:
348,173,215993,2,0,L|341:240,1,52.5,0|0,1:0|1:0,1:0:0:0:
420,328,216126,2,0,L|413:261,1,52.5,2|0,1:0|1:0,1:0:0:0:
488,117,216259,2,0,L|481:184,1,52.5,2|0,1:0|1:0,1:0:0:0:
342,225,216393,6,0,L|288:215,1,52.5,0|0,1:0|1:0,1:0:0:0:
48,160,216526,5,0,1:0:0:0:
87,186,216593,1,0,1:0:0:0:
133,186,216659,1,2,1:0:0:0:
177,168,216726,1,0,1:0:0:0:
199,126,216793,2,0,L|190:65,1,52.5,0|0,1:0|1:0,1:0:0:0:
357,307,216926,2,2,P|367:154|267:254,1,378,2|0,1:0|1:0,1:0:0:0:
162,341,217459,5,0,1:0:0:0:
165,346,217526,1,0,1:0:0:0:
168,351,217593,1,0,1:0:0:0:
171,356,217659,1,0,1:0:0:0:
174,360,217726,5,2,1:0:0:0:
203,316,217793,1,0,1:0:0:0:
208,263,217859,1,0,1:0:0:0:
183,216,217926,1,0,1:0:0:0:
136,192,217993,1,0,1:0:0:0:
85,204,218059,1,0,1:0:0:0:
127,258,218126,5,0,1:0:0:0:
188,272,218193,1,0,1:0:0:0:
241,240,218259,1,2,1:0:0:0:
268,182,218326,1,0,1:0:0:0:
263,118,218393,2,0,L|247:61,1,52.5,0|0,1:0|1:0,1:0:0:0:
146,10,218526,5,0,1:0:0:0:
146,10,218593,1,0,1:0:0:0:
146,10,218659,2,0,L|140:67,1,52.5,0|0,1:0|1:0,1:0:0:0:
365,112,218793,6,0,L|418:104,1,52.5,2|0,1:0|1:0,1:0:0:0:
308,217,218926,5,0,1:0:0:0:
280,178,218993,1,0,1:0:0:0:
238,156,219059,1,0,1:0:0:0:
190,154,219126,1,0,1:0:0:0:
148,172,219193,1,0,1:0:0:0:
118,207,219259,1,0,1:0:0:0:
110,253,219326,2,0,L|126:323,1,52.5,2|0,1:0|1:0,1:0:0:0:
4,372,219459,2,0,L|20:302,1,52.5,0|0,1:0|1:0,1:0:0:0:
4,107,219593,5,0,1:0:0:0:
6,143,219659,1,0,1:0:0:0:
29,170,219726,1,0,1:0:0:0:
65,177,219793,1,0,1:0:0:0:
97,161,219859,1,2,1:0:0:0:
113,129,219926,1,0,1:0:0:0:
106,93,219993,1,0,1:0:0:0:
79,70,220059,1,0,1:0:0:0:
57,122,220126,5,0,1:0:0:0:
97,161,220193,1,0,1:0:0:0:
152,171,220259,1,0,1:0:0:0:
202,145,220326,1,0,1:0:0:0:
225,93,220393,2,0,L|212:35,1,52.5,2|0,1:0|1:0,1:0:0:0:
314,202,220526,2,0,L|301:260,1,52.5,0|0,1:0|1:0,1:0:0:0:
436,94,220659,5,0,0:0:0:0:
442,108,220725,1,0,0:0:0:0:
445,123,220792,1,0,0:0:0:0:
445,138,220858,1,0,0:0:0:0:
442,153,220925,5,2,0:0:0:0:
413,128,220993,1,0,0:0:0:0:
408,91,221060,1,0,0:0:0:0:
422,57,221126,1,0,0:0:0:0:
451,34,221193,5,0,0:0:0:0:
493,72,221259,1,0,0:0:0:0:
505,128,221326,1,0,0:0:0:0:
493,184,221393,1,0,0:0:0:0:
451,222,221459,5,2,0:0:0:0:
390,191,221525,1,0,0:0:0:0:
370,125,221592,1,0,0:0:0:0:
390,60,221658,1,0,0:0:0:0:
450,25,221726,2,0,L|512:37,1,52.5,2|0,1:0|1:0,1:0:0:0:
279,207,221859,5,0,1:0:0:0:
279,207,221926,1,0,1:0:0:0:
279,207,221993,2,0,L|285:260,1,52.5,2|0,1:0|1:0,1:0:0:0:
221,108,222126,2,0,L|227:56,1,52.5,0|0,1:0|1:0,1:0:0:0:
143,143,222259,5,2,1:0:0:0:
100,163,222326,1,0,1:0:0:0:
52,160,222393,1,0,1:0:0:0:
17,128,222459,1,0,1:0:0:0:
13,80,222526,2,0,L|32:28,1,52.5,2|0,1:0|1:0,1:0:0:0:
47,251,222659,2,0,L|28:303,1,52.5,0|0,1:0|1:0,1:0:0:0:
134,228,222793,5,2,1:0:0:0:
142,181,222859,1,0,1:0:0:0:
182,157,222926,1,2,1:0:0:0:
228,153,222993,1,0,1:0:0:0:
268,177,223059,1,0,1:0:0:0:
308,201,223126,1,0,1:0:0:0:
354,197,223193,1,2,1:0:0:0:
394,173,223259,1,0,1:0:0:0:
403,127,223326,5,0,1:0:0:0:
346,155,223393,1,0,1:0:0:0:
324,213,223459,1,0,1:0:0:0:
343,273,223526,1,0,1:0:0:0:
393,311,223593,2,0,L|449:321,1,52.5,2|0,1:0|1:0,1:0:0:0:
259,250,223726,2,0,L|207:274,1,52.5,0|0,1:0|1:0,1:0:0:0:
443,151,223859,6,0,L|483:184,1,52.5,0|0,1:0|1:0,1:0:0:0:
380,103,223993,5,0,1:0:0:0:
363,135,224059,1,0,1:0:0:0:
330,153,224126,1,2,1:0:0:0:
293,156,224193,1,0,1:0:0:0:
257,147,224259,1,0,1:0:0:0:
229,122,224326,1,0,1:0:0:0:
201,97,224393,1,0,1:0:0:0:
165,88,224459,1,0,1:0:0:0:
128,91,224526,1,0,1:0:0:0:
95,109,224593,1,0,1:0:0:0:
78,141,224659,2,0,L|98:204,1,52.5,2|0,1:0|1:0,1:0:0:0:
20,54,224793,2,0,L|40:-9,1,52.5,0|0,1:0|1:0,1:0:0:0:
41,236,224926,5,0,1:0:0:0:
77,266,224993,1,0,1:0:0:0:
123,273,225059,1,0,1:0:0:0:
169,258,225126,1,0,1:0:0:0:
204,225,225193,1,2,1:0:0:0:
212,178,225259,1,0,1:0:0:0:
196,133,225326,2,0,L|126:119,1,52.5,0|0,1:0|1:0,1:0:0:0:
270,20,225459,6,0,L|277:80,1,52.5,0|0,1:0|1:0,1:0:0:0:
389,193,225593,2,0,L|396:133,1,52.5,0|0,1:0|1:0,1:0:0:0:
228,304,225726,6,2,P|328:335|273:242,1,267.75,2|0,1:0|2:0,1:0:0:0:
129,333,225993,5,0,1:0:0:0:
445,286,226126,1,0,1:0:0:0:
210,187,226259,1,2,1:0:0:0:
284,298,226393,1,2,1:0:0:0:
34,248,226526,5,0,1:0:0:0:
34,248,226659,1,0,1:0:0:0:
380,174,226793,5,2,1:0:0:0:
380,174,226926,1,0,1:0:0:0:
251,31,227059,5,0,1:0:0:0:
237,65,227126,1,0,1:0:0:0:
205,84,227193,1,2,1:0:0:0:
168,86,227259,1,0,1:0:0:0:
134,70,227326,2,0,L|118:19,1,52.5,0|0,1:0|1:0,1:0:0:0:
284,117,227459,2,0,L|268:168,1,52.5,2|0,1:0|1:0,1:0:0:0:
53,246,227593,5,0,1:0:0:0:
183,16,227726,1,0,1:0:0:0:
35,134,227859,1,2,1:0:0:0:
302,32,227993,1,0,1:0:0:0:
496,239,228126,5,0,1:0:0:0:
461,271,228193,1,0,1:0:0:0:
414,267,228259,1,2,1:0:0:0:
381,232,228326,1,0,1:0:0:0:
384,184,228393,1,0,1:0:0:0:
421,155,228459,1,0,1:0:0:0:
458,126,228526,1,2,1:0:0:0:
461,78,228593,1,0,1:0:0:0:
428,43,228660,1,0,1:0:0:0:
381,39,228726,1,0,1:0:0:0:
346,71,228793,2,0,L|289:78,1,52.5,2|0,1:0|1:0,1:0:0:0:
368,261,228926,2,0,L|375:318,1,52.5,0|0,1:0|1:0,1:0:0:0:
217,201,229059,2,0,L|224:144,1,52.5,0|0,1:0|1:0,1:0:0:0:
399,103,229193,6,0,L|456:110,1,52.5,4|0,1:3|1:0,1:0:0:0:
139,43,229326,5,2,1:0:0:0:
97,79,229393,1,0,1:0:0:0:
86,130,229459,1,2,1:0:0:0:
104,180,229526,1,0,1:0:0:0:
142,216,229593,1,0,1:0:0:0:
194,227,229659,1,0,1:0:0:0:
243,205,229726,2,0,L|292:162,1,52.5,4|0,1:3|1:0,1:0:0:0:
450,129,229859,5,2,1:0:0:0:
499,171,229926,1,0,1:0:0:0:
512,232,229992,1,2,1:0:0:0:
491,291,230059,1,0,1:0:0:0:
446,334,230126,1,0,1:0:0:0:
384,347,230192,1,0,1:0:0:0:
326,321,230259,5,4,1:0:0:0:
209,267,230393,1,0,1:0:0:0:
362,213,230526,1,8,1:0:0:0:
229,347,230659,1,0,1:0:0:0:
43,303,230793,1,0,1:0:0:0:
43,303,230926,1,0,1:0:0:0:
176,169,231059,1,8,1:0:0:0:
213,256,231193,2,0,P|158:255|98:230,1,105,0|0,1:0|1:0,1:0:0:0:
2,140,231459,5,0,1:0:0:0:
149,15,231593,1,8,1:0:0:0:
27,57,231726,1,0,1:0:0:0:
184,253,231859,2,0,P|239:252|299:227,1,105,0|0,1:0|1:0,1:0:0:0:
381,31,232126,2,0,P|326:32|266:57,1,105,8|0,1:0|1:0,1:0:0:0:
404,349,232393,5,0,1:0:0:0:
497,42,232527,1,0,1:0:0:0:
493,275,232659,5,8,1:0:0:0:
425,94,232793,1,0,1:0:0:0:
331,315,232926,5,0,1:0:0:0:
331,315,233059,1,0,1:0:0:0:
36,207,233193,1,8,1:0:0:0:
135,126,233326,2,0,P|162:224|111:315,1,210,0|0,1:0|1:0,1:0:0:0:
26,355,233726,1,8,1:0:0:0:
284,313,233859,2,0,P|246:274|214:265,1,52.5,0|0,1:0|1:0,1:0:0:0:
36,207,233993,1,0,1:0:0:0:
251,46,234126,1,0,1:0:0:0:
66,95,234259,1,8,1:0:0:0:
301,216,234393,1,0,1:0:0:0:
301,216,234437,1,0,1:0:0:0:
301,216,234526,6,0,L|412:198,1,105,0|0,1:0|1:0,1:0:0:0:
509,127,234793,1,8,1:0:0:0:
326,80,234926,2,0,B|296:49|218:60|245:93|161:112|131:72,1,210,0|0,1:0|1:0,1:0:0:0:
30,147,235326,1,8,1:0:0:0:
16,23,235459,1,0,1:0:0:0:
246,150,235593,6,0,L|228:261,1,105,0|0,1:0|1:0,1:0:0:0:
145,347,235859,1,8,1:0:0:0:
146,86,235993,2,0,P|233:34|329:68,1,210
437,137,236393,1,8,1:0:0:0:
441,9,236526,1,0,1:0:0:0:
350,339,236659,5,2,1:0:0:0:
395,326,236726,1,0,1:0:0:0:
418,284,236793,1,0,1:0:0:0:
420,237,236859,1,0,1:0:0:0:
390,199,236926,2,0,L|332:186,1,52.5,2|0,1:0|1:0,1:0:0:0:
214,205,237059,5,2,1:0:0:0:
184,167,237126,1,0,1:0:0:0:
186,120,237193,1,0,1:0:0:0:
209,78,237259,1,0,1:0:0:0:
254,65,237326,2,0,L|312:78,1,52.5,2|0,1:0|1:0,1:0:0:0:
432,102,237459,6,0,L|419:44,1,52.5,0|0,1:0|1:0,1:0:0:0:
316,283,237593,2,0,L|329:341,1,52.5,8|0,1:3|1:0,1:0:0:0:
496,211,237726,6,0,L|438:198,1,52.5,4|0,1:3|1:0,1:0:0:0:
352,217,237859,5,4,1:3:0:0:
307,253,237926,1,0,1:0:0:0:
249,257,237993,1,8,1:3:0:0:
193,242,238059,1,8,1:3:0:0:
151,201,238126,1,8,1:3:0:0:
141,143,238193,1,0,1:0:0:0:
155,87,238259,1,12,1:3:0:0:
147,29,238326,1,8,1:3:0:0:
93,6,238393,1,8,1:3:0:0:
38,23,238459,1,8,1:3:0:0:
19,77,238526,1,4,1:3:0:0:
31,133,238593,1,4,1:3:0:0:
67,177,238659,1,4,1:3:0:0:
80,233,238726,1,4,1:3:0:0:
60,287,238793,5,4,1:0:0:0:
91,73,238926,1,0,1:0:0:0:
236,288,239059,5,8,1:0:0:0:
155,87,239193,1,0,1:0:0:0:
388,200,239326,5,0,1:0:0:0:
217,67,239459,1,0,1:0:0:0:
476,49,239593,5,8,1:0:0:0:
262,19,239726,1,0,1:0:0:0:
496,232,239859,6,0,P|494:283|451:338,1,105,0|0,1:0|1:0,1:0:0:0:
309,125,240126,2,0,P|311:74|354:19,1,105,8|0,1:0|1:0,1:0:0:0:
456,284,240393,6,0,P|418:318|349:327,1,105,0|0,1:0|1:0,1:0:0:0:
109,207,240659,2,0,P|146:172|215:163,1,105,8|0,1:0|1:0,1:0:0:0:
476,209,240926,5,4,1:0:0:0:
352,22,241059,1,0,1:0:0:0:
476,128,241193,5,8,1:0:0:0:
352,315,241326,1,0,1:0:0:0:
476,209,241459,5,0,1:0:0:0:
425,61,241593,1,0,1:0:0:0:
476,128,241726,5,8,1:0:0:0:
422,270,241859,1,0,1:0:0:0:
132,128,241993,5,0,1:0:0:0:
340,47,242126,1,0,1:0:0:0:
420,255,242259,1,8,1:0:0:0:
213,335,242393,1,0,1:0:0:0:
212,23,242526,5,0,1:0:0:0:
446,127,242659,1,0,1:0:0:0:
342,361,242793,1,8,1:0:0:0:
108,257,242926,1,0,1:0:0:0:
497,77,243059,5,0,1:0:0:0:
497,77,243126,1,0,1:0:0:0:
497,77,243193,1,0,1:0:0:0:
445,260,243326,5,8,1:0:0:0:
380,44,243459,1,0,1:0:0:0:
267,159,243593,5,0,1:0:0:0:
332,375,243726,1,0,1:0:0:0:
149,319,243859,5,8,1:0:0:0:
84,103,243993,1,0,1:0:0:0:
343,147,244126,5,0,1:0:0:0:
343,147,244193,1,0,1:0:0:0:
343,147,244259,1,0,1:0:0:0:
226,210,244393,5,8,1:0:0:0:
10,145,244526,1,0,1:0:0:0:
292,76,244659,5,0,1:0:0:0:
508,141,244793,1,0,1:0:0:0:
270,372,244926,5,8,1:0:0:0:
54,307,245059,1,0,1:0:0:0:
234,248,245193,5,4,1:0:0:0:
266,232,245259,1,0,1:0:0:0:
303,233,245326,1,0,1:0:0:0:
336,248,245393,1,0,1:0:0:0:
359,276,245459,1,4,1:3:0:0:
357,223,245526,1,0,1:3:0:0:
379,175,245593,1,0,1:3:0:0:
422,146,245659,1,0,1:0:0:0:
474,149,245726,1,4,1:3:0:0:
421,193,245793,1,0,1:3:0:0:
353,184,245859,1,0,1:3:0:0:
303,136,245926,1,0,1:0:0:0:
300,67,245993,1,4,1:3:0:0:
342,14,246059,1,0,1:3:0:0:
409,2,246126,2,0,L|463:16,1,52.5,0|0,1:3|1:0,1:0:0:0:
501,209,246259,5,4,1:0:0:0:
460,242,246326,1,8,1:3:0:0:
407,247,246393,1,8,1:3:0:0:
360,224,246459,1,8,1:3:0:0:
309,177,246526,1,4,1:3:0:0:
246,148,246593,1,8,1:3:0:0:
178,145,246659,1,4,1:3:0:0:
114,171,246726,1,8,1:3:0:0:
76,240,246793,1,4,1:3:0:0:
91,316,246859,1,8,1:3:0:0:
153,363,246926,1,12,1:3:0:0:
232,364,246993,1,12,1:3:0:0:
292,314,247059,1,12,1:3:0:0:
57,50,247326,5,4,1:0:0:0:
256,192,247392,12,0,248317,1:0:0:0:
144,105,248383,5,0,1:0:0:0:
139,125,248517,1,0,1:0:0:0:
134,145,248651,1,0,1:0:0:0:
129,165,248785,1,0,1:0:0:0:
52,185,248919,5,4,1:3:0:0:
57,205,249051,1,0,1:0:0:0:
62,225,249184,1,0,1:0:0:0:
67,245,249317,1,0,1:0:0:0:
379,103,249450,5,4,1:0:0:0:
256,192,249517,12,0,250458,1:0:0:0:
144,105,250526,5,0,1:0:0:0:
139,125,250657,1,0,1:0:0:0:
52,185,250788,5,4,1:3:0:0:
57,205,250919,1,4,1:3:0:0:
134,145,251050,5,0,1:0:0:0:
129,165,251181,1,0,1:0:0:0:
62,225,251312,5,4,1:3:0:0:
67,245,251444,1,4,1:3:0:0:
379,103,251577,69,4,1:0:0:0:
256,192,251644,12,0,252585,1:0:0:0:
144,105,252653,5,0,1:0:0:0:
129,165,252786,1,4,1:3:0:0:
139,125,252919,1,4,1:3:0:0:
134,145,253052,1,4,1:3:0:0:
52,185,253185,5,0,1:0:0:0:
67,245,253317,1,4,1:3:0:0:
57,205,253450,1,4,1:3:0:0:
62,225,253579,1,0,1:0:0:0:
379,103,253709,5,4,1:0:0:0:
256,192,253776,12,0,254725,1:0:0:0:
144,105,254793,5,4,1:3:0:0:
129,165,254926,1,0,1:0:0:0:
131,155,254993,1,0,1:0:0:0:
134,145,255059,1,0,1:0:0:0:
139,125,255193,1,4,1:3:0:0:
52,185,255326,5,0,1:0:0:0:
54,195,255393,1,0,1:0:0:0:
57,205,255459,1,4,1:3:0:0:
67,245,255593,1,4,1:3:0:0:
62,225,255726,1,0,1:0:0:0:
379,103,255859,5,4,1:0:0:0:
256,192,255925,12,0,256861,1:0:0:0:
144,105,256928,5,0,1:0:0:0:
57,205,257061,1,0,1:0:0:0:
134,145,257194,5,4,1:3:0:0:
129,165,257328,1,4,1:3:0:0:
52,185,257461,5,0,1:0:0:0:
139,125,257591,1,4,1:3:0:0:
62,225,257721,5,4,1:3:0:0:
67,245,257852,1,4,1:3:0:0:
379,103,257986,5,4,1:0:0:0:
256,192,258052,12,0,258986,1:0:0:0:
144,105,259052,5,0,1:0:0:0:
67,245,259186,1,4,1:3:0:0:
129,165,259320,5,4,1:3:0:0:
134,145,259454,1,0,1:0:0:0:
52,185,259588,5,4,1:3:0:0:
57,205,259720,1,4,1:3:0:0:
139,125,259853,5,4,1:3:0:0:
62,225,259981,1,0,1:0:0:0:
379,103,260116,5,4,1:0:0:0:
256,192,260182,12,0,261116,1:0:0:0:
144,105,261182,5,0,1:0:0:0:
52,185,261316,1,4,1:3:0:0:
67,245,261449,5,4,1:3:0:0:
129,165,261582,1,4,1:3:0:0:
139,125,261716,5,0,1:0:0:0:
57,205,261850,1,0,1:0:0:0:
62,225,261984,5,4,1:3:0:0:
134,145,262119,1,0,1:0:0:0:
379,103,262253,5,4,1:0:0:0:
46,218,262786,1,4,1:0:0:0:
46,218,263320,1,0,1:0:0:0:
77,91,263452,1,0,1:0:0:0:
143,162,263585,1,0,1:0:0:0:
90,380,263718,1,4,1:3:0:0:
337,325,263850,1,4,1:3:0:0:
285,173,263983,1,0,1:0:0:0:
441,215,264116,1,4,1:3:0:0:
389,63,264250,1,4,1:3:0:0:
460,47,264391,6,0,B|477:90|451:141|398:172|345:167|310:124|353:87|279:36|207:37|141:73|78:150|107:213|155:271|201:281|242:278|270:259,1,611.799992531738,4|0,1:0|2:0,0:0:0:0:
389,63,269665,5,4,1:0:0:0:
492,152,269825,1,0,1:0:0:0:
492,152,269905,1,0,1:0:0:0:
492,152,269985,1,0,1:0:0:0:
475,279,270145,2,0,P|450:304|419:320,1,70,8|0,1:0|1:0,1:0:0:0:
351,334,270465,1,0,1:0:0:0:
135,180,270625,5,0,1:0:0:0:
77,258,270785,1,0,1:0:0:0:
77,258,270865,1,0,1:0:0:0:
77,258,270946,1,0,1:0:0:0:
144,363,271106,2,0,P|178:373|213:371,1,70,8|0,1:0|1:0,1:0:0:0:
279,349,271426,1,0,1:0:0:0:
304,58,271586,5,0,1:0:0:0:
401,46,271746,1,0,1:0:0:0:
401,46,271826,1,0,1:0:0:0:
401,46,271906,1,0,1:0:0:0:
459,157,272066,2,0,P|450:191|431:220,1,70,8|0,1:0|1:0,1:0:0:0:
379,266,272387,1,0,1:0:0:0:
181,87,272547,5,0,1:0:0:0:
91,125,272707,1,0,1:0:0:0:
91,125,272787,1,0,1:0:0:0:
91,125,272867,1,0,1:0:0:0:
96,250,273027,2,0,P|121:276|152:292,1,70,8|0,1:0|1:0,1:0:0:0:
221,305,273347,1,0,1:0:0:0:
458,174,273508,5,4,1:0:0:0:
406,86,273668,1,0,1:0:0:0:
406,86,273748,1,0,1:0:0:0:
406,86,273828,1,0,1:0:0:0:
314,175,273988,2,0,L|326:243,1,70,8|0,1:0|1:0,1:0:0:0:
344,312,274308,1,0,1:0:0:0:
64,268,274468,5,0,1:0:0:0:
116,356,274628,1,0,1:0:0:0:
116,356,274709,1,0,1:0:0:0:
116,356,274789,1,0,1:0:0:0:
208,267,274949,2,0,L|195:198,1,70,8|0,1:0|1:0,1:0:0:0:
178,130,275269,1,0,1:0:0:0:
470,231,275429,5,0,1:0:0:0:
404,304,275589,1,4,1:3:0:0:
310,275,275749,1,4,1:3:0:0:
59,170,275909,5,8,1:0:0:0:
125,243,276070,1,4,1:3:0:0:
219,214,276230,1,4,1:3:0:0:
219,214,276310,1,0,1:0:0:0:
219,214,276390,1,8,1:0:0:0:
175,28,276550,1,8,1:0:0:0:
175,28,276710,1,4,1:3:0:0:
376,127,276870,1,8,1:0:0:0:
332,313,277030,1,8,1:0:0:0:
332,313,277191,1,4,1:3:0:0:
473,266,277351,6,0,P|468:229|447:194,1,70,4|0,1:0|1:0,1:0:0:0:
393,162,277671,1,0,1:0:0:0:
372,359,277831,6,0,P|394:329|404:289,1,70,8|0,1:0|1:0,1:0:0:0:
388,228,278151,1,0,1:0:0:0:
233,352,278311,6,0,P|270:347|305:326,1,70,0|0,1:0|1:0,1:0:0:0:
337,271,278632,1,0,1:0:0:0:
140,251,278792,6,0,P|169:273|209:283,1,70,8|0,1:0|1:0,1:0:0:0:
271,267,279112,1,0,1:0:0:0:
147,112,279272,6,0,P|152:149|172:184,1,70,0|0,1:0|1:0,1:0:0:0:
228,216,279592,1,0,1:0:0:0:
249,18,279752,6,0,P|226:47|216:87,1,70,8|0,1:0|1:0,1:0:0:0:
233,149,280072,1,0,1:0:0:0:
387,23,280232,5,0,1:0:0:0:
321,43,280392,1,0,1:0:0:0:
294,69,280472,1,0,1:0:0:0:
283,105,280552,1,0,1:0:0:0:
480,124,280712,5,8,1:0:0:0:
420,92,280872,1,0,1:0:0:0:
349,109,281032,1,0,1:0:0:0:
452,200,281192,6,0,P|468:231|473:266,1,70,0|0,1:0|1:0,1:0:0:0:
393,162,281517,1,0,1:0:0:0:
372,359,281679,6,0,P|394:329|404:289,1,70,8|0,1:0|1:0,1:0:0:0:
388,228,281995,1,0,1:0:0:0:
298,331,282154,6,0,P|267:347|233:352,1,70,0|0,1:0|1:0,1:0:0:0:
337,271,282474,1,0,1:0:0:0:
140,251,282634,6,0,P|169:273|209:283,1,70,8|0,1:0|1:0,1:0:0:0:
271,267,282954,1,0,1:0:0:0:
166,177,283114,6,0,P|151:146|147:112,1,70,0|0,1:0|1:0,1:0:0:0:
228,216,283434,1,0,1:0:0:0:
249,18,283594,6,0,P|226:47|216:87,1,70,8|0,1:0|1:0,1:0:0:0:
233,149,283914,1,0,1:0:0:0:
387,23,284074,5,0,1:0:0:0:
283,105,284234,1,0,1:0:0:0:
294,69,284314,1,0,1:0:0:0:
321,43,284394,1,0,1:0:0:0:
349,109,284554,5,8,1:0:0:0:
480,124,284714,1,0,1:0:0:0:
420,92,284874,1,0,1:0:0:0:
473,266,285034,6,0,P|468:229|447:194,1,70,4|0,1:0|1:0,1:0:0:0:
393,162,285354,1,0,1:0:0:0:
259,250,285514,2,0,P|264:287|285:322,1,70,8|0,1:0|1:0,1:0:0:0:
339,354,285834,1,0,1:0:0:0:
512,116,285994,2,0,L|439:133,1,70,0|0,1:0|1:0,1:0:0:0:
377,154,286308,1,0,1:0:0:0:
127,14,286466,2,0,L|200:31,1,70,8|0,1:0|1:0,1:0:0:0:
262,52,286786,1,0,1:0:0:0:
65,272,286946,6,0,P|50:237|51:196,1,70,0|0,1:0|1:0,1:0:0:0:
82,141,287271,1,0,1:0:0:0:
289,230,287433,2,0,P|283:267|263:302,1,70,8|0,1:0|1:0,1:0:0:0:
208,334,287759,1,0,1:0:0:0:
132,56,287921,2,0,P|166:41|207:42,1,70,0|0,1:0|1:0,1:0:0:0:
270,54,288231,1,0,1:0:0:0:
471,216,288386,2,0,P|436:230|395:229,1,70,8|0,1:0|1:0,1:0:0:0:
333,218,288706,1,0,1:0:0:0:
384,32,288866,5,0,1:0:0:0:
480,14,289027,1,0,1:0:0:0:
480,14,289107,1,0,1:0:0:0:
480,14,289188,1,0,1:0:0:0:
376,134,289349,2,0,L|280:120,1,70,8|0,1:0|1:0,1:0:0:0:
234,113,289672,1,0,1:0:0:0:
8,257,289833,2,0,L|104:243,1,70,0|0,1:0|1:0,1:0:0:0:
150,236,290143,1,0,1:0:0:0:
416,375,290298,2,0,L|320:361,1,70,8|0,1:0|1:0,1:0:0:0:
274,354,290623,1,0,1:0:0:0:
394,89,290785,5,0,1:0:0:0:
448,170,290945,1,0,1:0:0:0:
454,204,291025,1,8,1:0:0:0:
440,236,291105,1,0,1:0:0:0:
352,330,291265,1,0,1:0:0:0:
162,377,291425,1,8,1:0:0:0:
37,227,291581,1,8,1:0:0:0:
323,15,291737,5,0,1:0:0:0:
410,58,291893,1,0,1:0:0:0:
432,84,291973,1,8,1:0:0:0:
436,119,292053,1,8,1:0:0:0:
407,244,292213,1,0,1:0:0:0:
266,380,292373,1,8,1:0:0:0:
82,313,292533,1,8,1:0:0:0:
163,31,292713,6,0,P|190:104|97:178,1,196,4|0,1:0|1:0,1:0:0:0:
15,186,293189,1,8,1:0:0:0:
109,96,293347,1,0,1:0:0:0:
57,282,293506,1,0,1:0:0:0:
146,372,293665,2,0,L|299:350,1,140,0|0,1:0|1:0,1:0:0:0:
353,340,294145,1,8,1:0:0:0:
201,289,294305,1,0,1:0:0:0:
409,378,294465,1,0,1:0:0:0:
383,154,294625,6,0,P|361:189|372:245,1,70,0|0,1:0|1:0,1:0:0:0:
394,278,294945,1,0,1:0:0:0:
504,214,295105,1,8,1:0:0:0:
254,159,295265,1,0,1:0:0:0:
447,128,295425,1,0,1:0:0:0:
194,98,295585,2,0,P|170:187|243:245,1,196,0|0,1:0|1:0,1:0:0:0:
451,160,296065,2,0,P|403:80|290:116,1,224,8|0,1:0|1:0,1:0:0:0:
333,367,296545,6,0,L|354:221,1,140,4|0,1:0|1:0,1:0:0:0:
365,159,297034,1,8,1:0:0:0:
254,222,297194,1,0,1:0:0:0:
453,326,297354,1,0,1:0:0:0:
444,102,297514,2,0,P|444:194|498:231,1,140,0|0,1:0|1:0,1:0:0:0:
452,289,297984,1,8,1:0:0:0:
272,363,298144,1,0,1:0:0:0:
251,236,298304,1,8,1:0:0:0:
71,310,298464,6,0,P|99:328|153:320,1,70,0|0,1:0|1:0,1:0:0:0:
202,307,298789,1,0,1:0:0:0:
167,85,298951,1,8,1:0:0:0:
82,226,299111,1,0,1:0:0:0:
47,4,299271,1,8,1:0:0:0:
218,139,299431,6,0,P|190:157|136:149,1,70,0|0,1:0|1:0,1:0:0:0:
331,17,299751,2,0,P|365:17|394:35,1,70,0|8,1:0|1:0,1:0:0:0:
456,257,300062,2,0,P|426:239|409:209,1,70,0|0,1:0|1:0,1:0:0:0:
479,66,300379,5,4,1:0:0:0:
510,322,300536,1,8,1:0:0:0:
272,220,300693,1,8,1:0:0:0:
54,361,300851,1,4,1:0:0:0:
165,201,301004,1,8,1:0:0:0:
28,62,301158,1,8,1:0:0:0:
66,185,301331,1,4,1:0:0:0:
66,185,302298,5,4,1:0:0:0:
211,57,302458,1,8,1:0:0:0:
131,334,302618,1,8,1:0:0:0:
260,243,302770,1,4,1:0:0:0:
448,364,302922,1,8,1:0:0:0:
508,85,303075,1,8,1:0:0:0:
411,166,303250,1,4,1:0:0:0:
411,166,304229,5,4,1:0:0:0:
66,92,304549,1,4,1:0:0:0:
311,19,304869,1,4,1:0:0:0:
22,223,305189,1,4,1:0:0:0:
275,362,305509,1,4,1:0:0:0:
493,173,305829,1,4,1:0:0:0:
406,35,306149,5,4,1:0:0:0:
363,90,306309,1,0,1:0:0:0:
365,103,306385,1,4,1:3:0:0:
367,116,306461,1,8,1:3:0:0:
443,260,306614,5,4,1:0:0:0:
500,218,306766,1,0,1:0:0:0:
502,205,306843,1,4,1:3:0:0:
504,192,306924,1,8,1:3:0:0:
348,210,307077,5,4,1:0:0:0:
305,265,307239,1,0,1:0:0:0:
307,278,307320,1,4,1:3:0:0:
309,291,307402,1,4,1:3:0:0:
361,344,307564,1,0,1:0:0:0:
503,270,307729,1,4,1:3:0:0:
422,97,307894,1,4,1:3:0:0:
474,176,308070,6,0,P|420:138|346:169,1,140,4|0,1:0|1:0,1:0:0:0:
286,179,308550,1,2,1:2:0:0:
244,367,308710,1,0,1:0:0:0:
408,213,308870,1,0,1:0:0:0:
262,3,309030,2,0,P|224:57|255:131,1,140,4|0,1:0|1:0,1:0:0:0:
286,179,309510,1,2,1:2:0:0:
422,93,309670,1,0,1:0:0:0:
72,41,309830,1,0,1:0:0:0:
303,11,309990,6,0,P|302:54|268:89,1,70,4|0,1:0|1:0,1:0:0:0:
61,271,310310,2,0,P|98:250|146:262,1,70,0|2,1:2|1:2,1:0:0:0:
408,350,310630,2,0,P|371:327|357:280,1,70,0|0,1:0|1:0,1:0:0:0:
462,104,310950,2,0,P|500:158|469:232,1,140,4|0,1:0|1:0,1:0:0:0:
431,275,311430,1,2,1:2:0:0:
269,121,311590,1,0,1:0:0:0:
166,357,311750,1,0,1:0:0:0:
0,98,311910,6,0,P|54:60|128:91,1,140,4|0,1:0|1:0,1:0:0:0:
171,128,312390,1,2,1:2:0:0:
132,350,312550,1,0,1:0:0:0:
66,135,312710,1,0,1:0:0:0:
290,17,312870,2,0,P|328:71|297:145,1,140,4|0,1:0|1:0,1:0:0:0:
254,183,313350,1,2,1:2:0:0:
254,183,313510,1,0,1:0:0:0:
104,139,313670,1,0,1:0:0:0:
346,65,313830,6,0,P|393:66|430:85,1,70,4|0,1:0|1:0,1:0:0:0:
129,219,314150,2,0,P|106:177|104:136,1,70,0|2,1:2|1:2,1:0:0:0:
371,330,314470,2,0,P|346:370|311:392,1,70,0|0,1:0|1:0,1:0:0:0:
171,347,314790,5,4,1:0:0:0:
171,347,314950,1,0,1:0:0:0:
233,164,315110,1,0,1:0:0:0:
478,254,315270,5,4,1:0:0:0:
478,254,315430,1,0,1:0:0:0:
416,71,315590,1,0,1:0:0:0:
306,319,315750,6,0,P|370:340|425:302,1,140,4|0,1:0|1:0,1:0:0:0:
478,254,316230,1,2,1:2:0:0:
264,191,316390,1,0,1:0:0:0:
413,142,316550,1,0,1:0:0:0:
190,18,316710,2,0,P|168:82|206:137,1,140,4|0,1:0|1:0,1:0:0:0:
267,173,317190,1,2,1:2:0:0:
347,34,317350,1,0,1:0:0:0:
74,120,317510,1,0,1:0:0:0:
396,86,317670,6,0,P|373:122|326:136,1,70,4|0,1:0|1:0,1:0:0:0:
85,36,317990,2,0,P|128:37|163:71,1,70,0|2,1:2|1:2,1:0:0:0:
198,331,318310,2,0,P|177:293|189:245,1,70,0|0,1:0|1:0,1:0:0:0:
367,144,318630,2,0,P|372:209|309:258,1,140,4|0,1:0|1:0,1:0:0:0:
254,276,319110,1,2,1:2:0:0:
179,97,319270,1,0,1:0:0:0:
92,339,319430,1,0,1:0:0:0:
398,258,319590,6,0,P|334:237|279:275,1,140,4|0,1:0|1:0,1:0:0:0:
248,339,320070,1,2,1:2:0:0:
469,372,320230,1,0,1:0:0:0:
234,204,320390,1,0,1:0:0:0:
7,327,320550,2,0,P|71:348|126:310,1,140,4|0,1:0|1:0,1:0:0:0:
184,270,321030,1,2,1:2:0:0:
114,56,321190,1,0,1:0:0:0:
61,274,321350,1,0,1:0:0:0:
397,336,321510,6,0,P|422:312|438:281,1,70,4|0,1:0|1:0,1:0:0:0:
91,224,321830,2,0,P|98:258|116:287,1,70,0|2,1:2|1:2,1:0:0:0:
340,14,322150,2,0,P|307:3|272:4,1,70,0|0,1:0|1:0,1:0:0:0:
210,37,322470,1,4,1:0:0:0:
316,209,322630,1,0,1:0:0:0:
316,209,322710,1,0,1:0:0:0:
316,209,322790,1,0,1:0:0:0:
389,153,322950,1,4,1:3:0:0:
212,79,323110,1,4,1:3:0:0:
162,297,323270,1,4,1:3:0:0:
12,52,323430,6,0,P|62:33|99:35,1,70,4|0,1:0|1:0,1:0:0:0:
396,94,323750,2,0,P|364:109|330:113,1,70,0|8,1:0|1:0,1:0:0:0:
12,178,324070,2,0,P|62:159|99:161,1,70,0|0,1:0|1:0,1:0:0:0:
373,351,324390,2,0,P|328:288|355:208,1,140,4|0,1:0|1:0,1:0:0:0:
392,185,324870,1,8,1:0:0:0:
202,354,325030,1,0,1:0:0:0:
238,131,325190,1,0,1:0:0:0:
413,273,325350,6,0,P|464:287|501:282,1,70,4|0,1:0|1:0,1:0:0:0:
136,226,325670,2,0,P|101:227|68:239,1,70,0|8,1:0|1:0,1:0:0:0:
360,114,325990,2,0,P|411:128|448:123,1,70,0|0,1:0|1:0,1:0:0:0:
204,9,326310,2,0,P|176:71|201:134,1,140,4|0,1:0|1:0,1:0:0:0:
248,187,326790,1,8,1:0:0:0:
364,34,326950,1,0,1:0:0:0:
55,117,327110,1,0,1:0:0:0:
282,344,327270,6,0,P|296:292|291:255,1,70,4|0,1:0|1:0,1:0:0:0:
84,129,327590,2,0,P|85:163|97:196,1,70,0|8,1:0|1:0,1:0:0:0:
325,74,327910,2,0,P|323:39|311:6,1,70,0|0,1:0|1:0,1:0:0:0:
251,285,328230,2,0,P|313:312|376:287,1,140,4|0,1:0|1:0,1:0:0:0:
430,241,328710,1,8,1:0:0:0:
145,198,328870,1,0,1:0:0:0:
331,146,329030,1,0,0:0:0:0:
93,350,329190,6,0,P|68:302|68:266,1,70,4|0,1:0|1:0,1:0:0:0:
234,111,329510,2,0,P|226:145|207:174,1,70,0|8,1:0|1:0,1:0:0:0:
0,93,329830,2,0,P|48:68|84:68,1,70,0|0,1:0|1:0,1:0:0:0:
209,265,330150,2,0,P|174:257|145:238,1,70,4|0,1:0|1:0,1:0:0:0:
335,25,330470,2,0,P|369:32|398:51,1,70,0|8,1:0|1:0,1:0:0:0:
479,196,330790,1,0,1:0:0:0:
479,196,330870,1,0,1:0:0:0:
479,196,330950,1,0,1:0:0:0:
268,339,331110,6,0,P|234:269|275:195,1,140,4|0,1:0|1:0,1:0:0:0:
313,175,331590,1,8,1:0:0:0:
395,274,331750,1,0,1:0:0:0:
140,312,331910,1,0,1:0:0:0:
265,54,332070,2,0,P|299:124|258:198,1,140,4|0,1:0|1:0,1:0:0:0:
220,218,332550,1,8,1:0:0:0:
106,155,332710,1,0,1:0:0:0:
305,46,332870,1,0,1:0:0:0:
476,193,333030,6,0,P|464:232|427:261,1,70,4|0,1:0|1:0,1:0:0:0:
142,55,333350,2,0,P|178:35|224:41,1,70,0|8,1:0|1:0,1:0:0:0:
271,360,333670,2,0,P|236:338|217:295,1,70,0|0,1:0|1:0,1:0:0:0:
512,62,333990,2,0,P|490:96|389:102,1,140,4|0,1:0|1:0,1:0:0:0:
341,67,334470,1,8,1:0:0:0:
189,234,334630,1,0,1:0:0:0:
13,92,334790,1,0,1:0:0:0:
220,17,334950,6,0,P|239:53|194:143,1,140,4|0,1:0|1:0,1:0:0:0:
136,159,335430,1,8,1:0:0:0:
346,85,335590,1,0,1:0:0:0:
487,257,335750,1,0,1:0:0:0:
273,312,335910,2,0,P|358:313|408:364,1,140,4|0,1:0|1:0,1:0:0:0:
474,359,336390,2,0,L|458:276,1,70,8|0,1:0|1:0,1:0:0:0:
423,103,336710,1,0,1:0:0:0:
205,236,336870,2,0,P|120:235|70:184,1,140,4|0,1:0|1:0,1:0:0:0:
54,136,337350,1,8,1:0:0:0:
168,26,337510,1,0,1:0:0:0:
168,26,337590,1,0,1:0:0:0:
168,26,337670,1,0,1:0:0:0:
214,88,337830,5,4,1:0:0:0:
231,279,337990,1,8,1:0:0:0:
59,364,338150,1,8,1:0:0:0:
15,300,338310,5,4,1:0:0:0:
264,366,338470,1,8,1:0:0:0:
453,191,338630,1,8,1:0:0:0:
426,118,338790,6,0,B|351:38|202:106|242:150|302:224|96:343|-33:240|-33:121|24:33|111:23|159:66,1,672,4|0,1:0|1:0,1:0:0:0:
350,197,340150,5,0,1:0:0:0:
350,197,340230,2,0,L|341:283,1,70,8|0,1:0|1:0,1:0:0:0:
333,343,340550,1,8,1:0:0:0:
502,105,340710,5,4,1:3:0:0:
121,179,340950,1,0,1:0:0:0:
121,179,341030,1,0,1:0:0:0:
100,53,341190,1,4,1:3:0:0:
263,154,341350,1,8,1:3:0:0:
231,345,341510,1,8,1:3:0:0:
22,255,341670,5,4,1:0:0:0:
493,159,341990,1,4,1:0:0:0:
124,41,342310,1,4,1:0:0:0:
315,337,342630,1,4,1:0:0:0:
315,337,343110,6,0,B|343:322|343:322|410:332,1,87.5,2|0,3:0|2:0,2:0:0:0:
191,233,343590,2,0,B|163:248|163:248|96:238,1,87.5,2|0,3:0|2:0,2:0:0:0:
37,228,344070,5,4,1:3:0:0:
263,351,344230,1,4,1:3:0:0:
439,162,344390,1,0,1:3:0:0:
400,101,344550,1,4,1:3:0:0:
