osu file format v14

[General]
AudioFilename: audio.mp3
AudioLeadIn: 0
PreviewTime: 98829
Countdown: 1
SampleSet: Normal
StackLeniency: 0.2
Mode: 0
LetterboxInBreaks: 0
WidescreenStoryboard: 0

[Editor]
DistanceSpacing: 1.3
BeatDivisor: 6
GridSize: 4
TimelineZoom: 1.5

[Metadata]
Title:Three Hammers
TitleUnicode:Three Hammers
Artist:DragonForce
ArtistUnicode:DragonForce
Creator:09kami
Version:Legend
Source:
Tags:deathstream dragonforce
BeatmapID:1557349
BeatmapSetID:737953

[Difficulty]
HPDrainRate:6
CircleSize:4.5
OverallDifficulty:9
ApproachRate:9.4
SliderMultiplier:1.6
SliderTickRate:1

[Events]
//Background and Video events
0,0,"bg.png",0,0
//Break Periods
2,33821,48609
2,265232,269772
//Storyboard Layer 0 (Background)
//Storyboard Layer 1 (Fail)
//Storyboard Layer 2 (Pass)
//Storyboard Layer 3 (Foreground)
//Storyboard Sound Samples

[TimingPoints]
981,480,4,1,1,50,1,0
981,-200,4,1,1,50,0,0
16341,-133.333333333333,4,1,1,50,0,0
29781,-200,4,1,1,50,0,0
31461,-200,4,1,1,5,0,0
31701,-133.333333333333,4,1,1,30,0,0
32661,-133.333333333333,4,1,1,20,0,0
33381,-133.333333333333,4,1,1,15,0,0
33621,485.82995951417,4,1,1,5,1,0
49149,480,4,1,1,25,1,0
49149,-133.333333333333,4,1,1,25,0,0
56829,-133.333333333333,4,1,1,35,0,0
57789,-133.333333333333,4,1,1,45,0,0
58749,-133.333333333333,4,1,1,55,0,0
59709,-133.333333333333,4,1,1,65,0,0
60669,-133.333333333333,4,1,1,75,0,0
62589,-133.333333333333,4,1,1,85,0,0
64509,-133.333333333333,4,1,1,65,0,0
99069,-100,4,1,1,65,0,0
121149,-133.333333333333,4,1,1,65,0,0
156669,-100,4,1,1,65,0,0
172029,-200,4,1,1,65,0,0
174429,-200,4,1,1,5,0,0
174885,545.454545454546,4,1,1,65,1,0
175430,705.882352941176,4,1,1,65,1,0
176144,888.888888888889,4,1,1,65,1,0
176144,-200,4,1,1,50,0,0
179403,-200,4,1,1,5,0,0
179699,266.666666666667,4,1,1,65,1,0
183965,-200,4,1,1,65,0,0
187165,-100,4,1,1,65,0,0
188099,-133.333333333333,4,1,1,65,0,0
188765,-100,4,1,1,65,0,0
190232,-133.333333333333,4,1,1,65,0,0
190899,-100,4,1,1,65,0,0
192365,-133.333333333333,4,1,1,65,0,0
193032,-100,4,1,1,65,0,0
194499,-133.333333333333,4,1,1,65,0,0
195165,-100,4,1,1,65,0,0
213832,-100,4,1,1,65,0,1
229832,-133.333333333333,4,1,1,65,0,1
230832,-133.333333333333,4,1,1,5,0,1
230899,-100,4,1,1,65,0,1
245765,-100,4,1,1,5,0,1
245832,-100,4,1,1,65,0,1
247965,-133.333333333333,4,1,1,65,0,0
252232,-200,4,1,1,65,0,0
256499,-133.333333333333,4,1,1,65,0,0
258632,-400,4,1,1,65,0,0
262899,-200,4,1,1,65,0,0
265032,480,4,1,1,65,1,0
270312,480,4,1,1,65,1,0
270312,-133.333333333333,4,1,1,65,0,0
308712,-100,4,1,1,65,0,0
324072,-100,4,1,1,65,0,0
343272,-200,4,1,1,65,0,0

[HitObjects]
45,332,981,6,0,B|81:312|119:333|164:357|217:336,1,160
201,340,2421,1,0,0:0:0:0:
484,212,2901,6,0,L|353:228,1,120
256,187,3861,2,0,P|242:156|237:98,1,80
475,149,4581,5,0,0:0:0:0:
477,157,4701,1,0,0:0:0:0:
478,164,4821,2,0,B|480:206|462:237|428:274|432:325,1,160
246,375,6261,1,0,0:0:0:0:
49,265,6741,6,0,L|36:132,1,120
106,53,7701,2,0,P|135:54|162:69,2,60
370,105,8661,6,0,P|320:126|275:229,1,160
368,379,10101,1,0,0:0:0:0:
485,188,10581,6,0,B|484:163|487:136|520:103|498:56,1,120
395,5,11541,2,0,L|302:17,1,80
133,148,12261,5,0,0:0:0:0:
136,158,12381,1,0,0:0:0:0:
138,169,12501,2,0,B|136:203|147:240|180:276|164:339,1,160
18,384,13941,1,0,0:0:0:0:
226,210,14421,6,0,P|272:219|337:259,1,120
264,381,15381,2,0,P|253:354|247:316,2,60
445,340,16341,6,0,L|460:195,1,120.000004577637
369,92,16981,1,0,0:0:0:0:
384,181,17141,1,0,0:0:0:0:
455,59,17301,1,0,0:0:0:0:
454,53,17621,1,0,0:0:0:0:
449,45,17941,1,0,0:0:0:0:
442,38,18261,6,0,B|296:18,1,120.000004577637
160,119,18901,1,0,0:0:0:0:
291,94,19061,1,0,0:0:0:0:
112,14,19221,2,0,P|72:40|45:81,1,80.0000030517579
48,84,19701,5,0,0:0:0:0:
66,243,19861,1,0,0:0:0:0:
143,108,20021,1,0,0:0:0:0:
290,188,20181,2,0,P|300:240|296:315,1,120.000004577637
122,363,20821,1,0,0:0:0:0:
238,351,20981,1,0,0:0:0:0:
74,296,21141,1,0,0:0:0:0:
69,288,21461,1,0,0:0:0:0:
66,278,21781,1,0,0:0:0:0:
65,269,22101,6,0,P|76:220|112:151,1,120.000004577637
289,92,22741,1,0,0:0:0:0:
158,78,22901,1,0,0:0:0:0:
350,27,23061,2,0,P|396:34|434:52,1,80.0000030517579
444,65,23541,5,0,0:0:0:0:
383,181,23701,1,0,0:0:0:0:
435,310,23861,1,0,0:0:0:0:
404,157,24021,2,0,P|345:120|291:107,1,120.000004577637
144,202,24661,1,0,0:0:0:0:
210,110,24821,1,0,0:0:0:0:
152,287,24981,1,0,0:0:0:0:
152,297,25301,1,0,0:0:0:0:
155,308,25621,1,0,0:0:0:0:
161,318,25941,6,0,B|196:327|217:303|256:296|294:311,1,120.000004577637
449,354,26581,1,0,0:0:0:0:
346,274,26741,1,0,0:0:0:0:
504,296,26901,2,0,P|515:249|511:209,1,80.0000030517579
498,193,27381,5,0,0:0:0:0:
492,54,27541,1,0,0:0:0:0:
412,218,27701,1,0,0:0:0:0:
344,27,27861,2,0,P|290:9|213:6,1,120.000004577637
56,88,28501,1,0,0:0:0:0:
140,16,28661,1,0,0:0:0:0:
68,182,28821,1,0,0:0:0:0:
71,194,29141,1,0,0:0:0:0:
76,208,29461,1,0,0:0:0:0:
87,226,29781,6,0,B|108:251|144:246|177:231|205:243|234:256|251:284|253:310|249:345|230:367|203:372|180:360,1,280
95,362,31701,6,0,B|80:370|53:365|34:343|30:308|32:282|49:254|78:241|106:229|139:245|175:249|197:224|224:187|218:150|207:112|186:82|154:63|112:61|92:85|78:104,1,480.000018310548
63,138,49149,6,0,B|110:107|172:144|220:185|302:147,1,240.000009155274
439,53,50589,1,0,0:0:0:0:
380,18,50749,1,0,0:0:0:0:
310,19,50909,1,0,0:0:0:0:
251,55,51069,2,0,P|227:89|208:179,1,120.000004577637
310,232,52029,2,0,B|337:251|368:229|400:215|444:251,1,120.000004577637
489,361,52989,6,0,B|460:372|433:359|361:302|312:303|240:343,1,240.000009155274
90,370,54429,1,0,0:0:0:0:
55,315,54589,1,0,0:0:0:0:
41,250,54749,1,0,0:0:0:0:
39,181,54909,2,0,P|48:129|85:72,1,120.000004577637
173,288,55869,2,0,P|158:235|166:163,1,120.000004577637
344,58,56829,5,0,0:0:0:0:
355,64,57309,5,0,0:0:0:0:
223,85,57469,1,0,0:0:0:0:
338,147,57629,1,0,0:0:0:0:
257,11,57789,1,0,0:0:0:0:
246,10,58269,5,0,0:0:0:0:
363,67,58429,1,0,0:0:0:0:
212,113,58589,1,0,0:0:0:0:
317,197,58749,1,0,0:0:0:0:
299,226,59229,5,0,0:0:0:0:
171,111,59389,1,0,0:0:0:0:
257,1,59549,1,0,0:0:0:0:
380,75,59709,1,0,0:0:0:0:
388,70,60189,5,0,0:0:0:0:
223,18,60349,1,0,0:0:0:0:
76,88,60509,1,0,0:0:0:0:
21,237,60669,1,0,0:0:0:0:
34,251,61149,5,0,0:0:0:0:
237,28,61309,1,0,0:0:0:0:
48,86,61469,1,0,0:0:0:0:
316,215,61629,1,0,0:0:0:0:
328,226,62109,5,0,0:0:0:0:
200,28,62269,1,0,0:0:0:0:
447,121,62429,1,0,0:0:0:0:
383,349,62589,1,0,0:0:0:0:
394,361,63069,5,0,0:0:0:0:
394,111,63229,1,0,0:0:0:0:
251,295,63389,1,0,0:0:0:0:
229,59,63549,1,0,0:0:0:0:
218,44,64029,5,0,0:0:0:0:
173,315,64189,1,0,0:0:0:0:
67,32,64349,1,0,0:0:0:0:
277,106,64509,6,0,P|290:158|287:208,1,80.0000030517579
166,321,64989,1,0,0:0:0:0:
79,345,65149,1,0,0:0:0:0:
32,269,65309,1,0,0:0:0:0:
91,202,65469,2,0,P|132:203|171:220,1,80.0000030517579
267,360,65949,6,0,L|189:370,1,40.000001525879
260,158,66269,1,0,0:0:0:0:
366,344,66429,2,0,P|414:361|445:365,1,80.0000030517579
496,231,66909,6,0,P|459:253|410:265,1,80.0000030517579
476,67,67389,2,0,P|482:106|470:158,1,80.0000030517579
332,219,67869,5,0,0:0:0:0:
256,60,68029,1,0,0:0:0:0:
188,191,68189,1,0,0:0:0:0:
94,89,68349,2,0,P|92:50|108:10,1,80.0000030517579
272,59,68829,5,0,0:0:0:0:
341,219,68989,1,0,0:0:0:0:
179,179,69149,1,0,0:0:0:0:
361,80,69309,2,0,P|406:86|443:100,1,80.0000030517579
380,236,69789,6,0,L|309:239,2,40.000001525879
458,312,70269,5,0,0:0:0:0:
344,255,70429,1,0,0:0:0:0:
408,169,70589,1,0,0:0:0:0:
336,329,70749,5,0,0:0:0:0:
201,368,70909,1,0,0:0:0:0:
67,319,71069,1,0,0:0:0:0:
218,201,71229,5,0,0:0:0:0:
269,343,71389,1,0,0:0:0:0:
113,376,71549,1,0,0:0:0:0:
265,272,71709,5,0,0:0:0:0:
49,209,71869,1,0,0:0:0:0:
300,131,72029,1,0,0:0:0:0:
32,78,72189,6,0,P|20:42|16:0,1,80.0000030517579
204,11,72669,1,0,0:0:0:0:
273,68,72829,1,0,0:0:0:0:
237,158,72989,1,0,0:0:0:0:
142,184,73149,2,0,P|128:220|121:271,1,80.0000030517579
342,175,73629,6,0,L|381:173,1,40.000001525879
492,325,73949,1,0,0:0:0:0:
285,237,74109,2,0,P|247:225|189:221,1,80.0000030517579
13,343,74589,6,0,L|59:348,2,40.000001525879
30,191,75069,5,0,0:0:0:0:
218,92,75229,1,0,0:0:0:0:
124,192,75389,1,0,0:0:0:0:
289,53,75549,5,0,0:0:0:0:
507,70,75709,1,0,0:0:0:0:
330,112,75869,1,0,0:0:0:0:
151,47,76029,6,0,P|72:71|36:93,1,120.000004577637
34,240,76669,2,0,P|27:260|22:298,1,40.000001525879
227,125,76989,2,0,P|266:159|290:204,1,80.0000030517579
217,338,77469,6,0,P|214:366|215:385,2,40.000001525879
262,246,77949,5,0,0:0:0:0:
306,334,78109,1,0,0:0:0:0:
306,334,78189,1,0,0:0:0:0:
306,334,78269,1,0,0:0:0:0:
361,205,78429,5,0,0:0:0:0:
178,285,78589,1,0,0:0:0:0:
327,267,78749,1,0,0:0:0:0:
501,277,78909,5,0,0:0:0:0:
366,138,79069,1,0,0:0:0:0:
197,158,79229,1,0,0:0:0:0:
392,124,79389,5,0,0:0:0:0:
178,78,79549,1,0,0:0:0:0:
4,191,79709,1,0,0:0:0:0:
193,0,79869,1,0,0:0:0:0:
180,26,81789,5,0,0:0:0:0:
180,26,81949,1,0,0:0:0:0:
180,26,82109,1,0,0:0:0:0:
84,104,82269,2,0,P|110:113|139:111,2,40.000001525879
4,192,82749,2,0,L|43:187,2,40.000001525879
93,272,83229,5,0,0:0:0:0:
173,244,83389,1,0,0:0:0:0:
264,291,83549,1,0,0:0:0:0:
365,346,83709,5,0,0:0:0:0:
481,302,83869,1,0,0:0:0:0:
354,169,84029,1,0,0:0:0:0:
290,368,84189,1,0,0:0:0:0:
512,320,84669,5,0,0:0:0:0:
363,73,84829,1,0,0:0:0:0:
512,198,84989,1,0,0:0:0:0:
209,74,85149,1,0,0:0:0:0:
229,72,85629,5,0,0:0:0:0:
52,200,85789,1,0,0:0:0:0:
85,94,85949,1,0,0:0:0:0:
340,152,86109,1,0,0:0:0:0:
87,331,86269,1,0,0:0:0:0:
142,190,86429,1,0,0:0:0:0:
344,333,86589,2,0,P|398:353|472:359,1,120.000004577637
453,323,87549,6,0,P|392:320|345:334,1,80.0000030517579
361,334,88029,1,0,0:0:0:0:
152,371,88189,1,0,0:0:0:0:
270,319,88349,1,0,0:0:0:0:
81,329,88509,6,0,P|43:291|15:241,1,80.0000030517579
24,255,88989,1,0,0:0:0:0:
155,90,89149,1,0,0:0:0:0:
114,226,89309,1,0,0:0:0:0:
264,112,89469,2,0,P|327:136|352:157,1,80.0000030517579
277,334,89949,5,0,0:0:0:0:
204,197,90109,1,0,0:0:0:0:
427,312,90269,1,0,0:0:0:0:
482,138,90429,2,0,P|472:93|438:49,1,80.0000030517579
274,6,90909,5,0,0:0:0:0:
133,91,91069,1,0,0:0:0:0:
346,62,91229,1,0,0:0:0:0:
79,18,91389,2,0,P|46:54|24:94,1,80.0000030517579
112,238,91869,5,0,0:0:0:0:
282,287,92029,1,0,0:0:0:0:
282,287,92109,1,0,0:0:0:0:
282,287,92189,1,0,0:0:0:0:
68,298,92349,6,0,P|24:326|-3:363,1,80.0000030517579
201,384,92829,1,0,0:0:0:0:
378,309,92989,1,0,0:0:0:0:
378,309,93069,1,0,0:0:0:0:
378,309,93149,1,0,0:0:0:0:
190,205,93309,6,0,P|193:250|204:292,1,80.0000030517579
466,367,93789,1,0,0:0:0:0:
323,247,93949,1,0,0:0:0:0:
387,13,94109,1,0,0:0:0:0:
153,175,94269,6,0,P|165:224|204:287,1,120.000004577637
382,345,94909,1,0,0:0:0:0:
382,345,94989,1,0,0:0:0:0:
382,345,95069,1,0,0:0:0:0:
491,190,95229,6,0,P|505:143|505:109,1,80.0000030517579
337,8,95709,2,0,L|344:56,2,40.000001525879
126,236,96189,6,0,P|112:189|112:155,1,80.0000030517579
242,69,96669,2,0,L|235:117,2,40.000001525879
362,203,97149,5,0,0:0:0:0:
180,286,97309,1,0,0:0:0:0:
180,286,97469,1,0,0:0:0:0:
432,287,97629,5,0,0:0:0:0:
124,335,97789,1,0,0:0:0:0:
124,335,97949,1,0,0:0:0:0:
487,383,98109,5,0,0:0:0:0:
44,140,99069,6,0,P|108:132|152:112,1,106.666666666667
236,35,99549,1,0,0:0:0:0:
365,31,99709,1,0,0:0:0:0:
475,167,99869,1,0,0:0:0:0:
301,90,100029,2,0,P|252:113|210:151,1,106.666666666667
276,351,100509,5,0,0:0:0:0:
144,225,100669,2,0,L|72:220,1,53.3333333333333
357,185,100989,2,0,P|410:183|460:199,1,106.666666666667
264,28,101469,2,0,P|225:37|205:46,2,53.3333333333333
132,264,101949,6,0,P|183:277|227:306,1,106.666666666667
56,128,102429,2,0,P|16:125|-6:129,2,53.3333333333333
288,4,102909,6,0,P|275:65|276:115,1,106.666666666667
347,344,103389,1,0,0:0:0:0:
389,189,103549,1,0,0:0:0:0:
389,189,103709,1,0,0:0:0:0:
176,96,103869,6,0,P|193:155|217:199,1,106.666666666667
440,100,104349,1,0,0:0:0:0:
377,336,104509,1,0,0:0:0:0:
377,336,104669,1,0,0:0:0:0:
64,312,104829,6,0,P|117:309|168:296,1,106.666666666667
256,104,105309,1,0,0:0:0:0:
287,303,105469,2,0,P|260:325|242:337,1,53.3333333333333
340,156,105789,5,0,0:0:0:0:
380,371,105949,1,0,0:0:0:0:
380,371,106109,1,0,0:0:0:0:
468,52,106269,5,0,0:0:0:0:
430,304,106429,1,0,0:0:0:0:
430,304,106589,1,0,0:0:0:0:
353,90,106749,6,0,P|319:48|277:16,1,106.666666666667
92,56,107229,1,0,0:0:0:0:
252,88,107389,1,0,0:0:0:0:
48,200,107549,1,0,0:0:0:0:
315,158,107709,2,0,P|345:211|356:269,1,106.666666666667
120,160,108189,5,0,0:0:0:0:
302,313,108349,1,0,0:0:0:0:
82,302,108509,1,0,0:0:0:0:
289,322,108669,2,0,P|221:309|178:280,1,106.666666666667
297,148,109149,1,0,0:0:0:0:
477,246,109309,2,0,P|433:260|402:263,1,53.3333333333333
397,20,109629,6,0,P|381:79|382:135,1,106.666666666667
477,354,110109,5,0,0:0:0:0:
344,214,110269,1,0,0:0:0:0:
393,31,110429,1,0,0:0:0:0:
333,221,110589,2,0,P|265:230|201:229,1,106.666666666667
54,164,111069,1,0,0:0:0:0:
151,324,111229,2,0,P|161:294|164:244,1,53.3333333333333
57,41,111549,6,0,P|91:95|137:132,1,106.666666666667
88,318,112029,1,0,0:0:0:0:
204,166,112189,1,0,0:0:0:0:
204,166,112349,1,0,0:0:0:0:
314,288,112509,6,0,P|317:321|315:353,1,53.3333333333333
402,168,112829,2,0,L|343:179,1,53.3333333333333
154,227,113149,6,0,P|112:216|88:204,1,53.3333333333333
49,63,113469,2,0,L|112:63,1,53.3333333333333
322,11,113789,6,0,P|322:43|313:71,1,53.3333333333333
232,182,114109,2,0,P|232:214|241:242,1,53.3333333333333
339,348,114429,5,0,0:0:0:0:
346,353,114589,1,0,0:0:0:0:
353,357,114749,1,0,0:0:0:0:
405,230,114909,5,0,0:0:0:0:
395,230,115069,1,0,0:0:0:0:
388,229,115229,1,0,0:0:0:0:
287,102,115389,5,0,0:0:0:0:
337,50,115549,1,0,0:0:0:0:
403,68,115709,1,0,0:0:0:0:
235,213,115869,5,0,0:0:0:0:
168,171,116029,2,0,P|150:130|148:113,1,53.3333333333333
380,172,116349,5,0,0:0:0:0:
319,364,116509,1,0,0:0:0:0:
319,364,116669,1,0,0:0:0:0:
239,66,116829,5,0,0:0:0:0:
240,296,116989,1,0,0:0:0:0:
240,296,117149,1,0,0:0:0:0:
104,116,117309,5,0,0:0:0:0:
403,68,117469,1,0,0:0:0:0:
236,160,117629,1,0,0:0:0:0:
402,278,117789,5,0,0:0:0:0:
478,243,117949,1,0,0:0:0:0:
406,196,118109,1,0,0:0:0:0:
235,223,118269,5,0,0:0:0:0:
238,215,118429,1,0,0:0:0:0:
240,205,118589,1,0,0:0:0:0:
197,41,118749,5,0,0:0:0:0:
186,29,118909,1,0,0:0:0:0:
173,24,119069,1,0,0:0:0:0:
54,113,119229,6,0,P|62:138|83:165,2,53.3333333333333
198,208,119709,5,0,0:0:0:0:
170,360,119869,1,0,0:0:0:0:
170,360,120029,1,0,0:0:0:0:
157,134,120189,5,0,0:0:0:0:
287,213,120349,1,0,0:0:0:0:
52,272,120509,1,0,0:0:0:0:
288,384,120669,5,0,0:0:0:0:
456,284,120829,1,0,0:0:0:0:
232,268,120989,1,0,0:0:0:0:
478,188,121149,6,0,P|468:134|429:73,1,120.000004577637
53,374,122109,6,0,P|40:322|43:272,1,80.0000030517579
164,163,122589,1,0,0:0:0:0:
251,139,122749,1,0,0:0:0:0:
298,215,122909,1,0,0:0:0:0:
239,282,123069,2,0,P|198:281|159:264,1,80.0000030517579
52,112,123549,6,0,L|130:102,1,40.000001525879
216,21,123869,1,0,0:0:0:0:
396,90,124029,2,0,P|356:96|319:110,1,80.0000030517579
144,280,124509,6,0,P|138:240|144:201,1,80.0000030517579
426,282,124989,2,0,P|430:304|418:368,1,80.0000030517579
210,228,125469,5,0,0:0:0:0:
268,55,125629,1,0,0:0:0:0:
361,290,125789,1,0,0:0:0:0:
436,105,125949,2,0,P|438:66|422:26,1,80.0000030517579
280,20,126429,5,0,0:0:0:0:
368,89,126589,1,0,0:0:0:0:
382,225,126749,1,0,0:0:0:0:
282,311,126909,2,0,P|237:305|200:291,1,80.0000030517579
274,145,127389,6,0,L|345:142,2,40.000001525879
53,72,127869,5,0,0:0:0:0:
167,129,128029,1,0,0:0:0:0:
103,215,128189,1,0,0:0:0:0:
175,55,128349,5,0,0:0:0:0:
310,16,128509,1,0,0:0:0:0:
444,65,128669,1,0,0:0:0:0:
293,183,128829,5,0,0:0:0:0:
242,41,128989,1,0,0:0:0:0:
398,8,129149,1,0,0:0:0:0:
246,112,129309,5,0,0:0:0:0:
462,175,129469,1,0,0:0:0:0:
211,253,129629,1,0,0:0:0:0:
479,306,129789,6,0,P|491:342|495:384,1,80.0000030517579
368,89,130269,1,0,0:0:0:0:
437,146,130429,1,0,0:0:0:0:
401,236,130589,1,0,0:0:0:0:
303,237,130749,2,0,P|289:273|282:324,1,80.0000030517579
252,58,131229,6,0,L|213:60,1,40.000001525879
332,1,131549,1,0,0:0:0:0:
66,127,131709,2,0,P|112:118|170:124,1,80.0000030517579
303,237,132189,6,0,L|257:232,2,40.000001525879
76,372,132669,5,0,0:0:0:0:
293,338,132829,1,0,0:0:0:0:
136,308,132989,1,0,0:0:0:0:
373,325,133149,5,0,0:0:0:0:
512,160,133309,1,0,0:0:0:0:
372,252,133469,1,0,0:0:0:0:
194,188,133629,6,0,P|115:212|79:234,1,120.000004577637
6,80,134269,1,0,0:0:0:0:
6,80,134429,1,0,0:0:0:0:
197,10,134589,6,0,P|236:44|260:89,1,80.0000030517579
194,188,135069,2,0,P|197:216|196:235,2,40.000001525879
304,148,135549,5,0,0:0:0:0:
373,80,135709,1,0,0:0:0:0:
373,80,135789,1,0,0:0:0:0:
373,80,135869,1,0,0:0:0:0:
419,176,136029,5,0,0:0:0:0:
299,67,136189,1,0,0:0:0:0:
462,35,136349,1,0,0:0:0:0:
495,202,136509,5,0,0:0:0:0:
404,0,136669,1,0,0:0:0:0:
224,122,136829,1,0,0:0:0:0:
456,103,136989,5,0,0:0:0:0:
224,18,137149,1,0,0:0:0:0:
48,144,137309,1,0,0:0:0:0:
247,206,139389,5,0,0:0:0:0:
247,178,139549,1,0,0:0:0:0:
272,192,139709,1,0,0:0:0:0:
214,203,139869,5,0,0:0:0:0:
267,150,140029,1,0,0:0:0:0:
286,222,140189,1,0,0:0:0:0:
182,149,140349,5,0,0:0:0:0:
329,149,140509,1,0,0:0:0:0:
255,277,140669,1,0,0:0:0:0:
225,79,140829,5,0,0:0:0:0:
368,222,140989,1,0,0:0:0:0:
173,274,141149,1,0,0:0:0:0:
340,45,141309,5,0,0:0:0:0:
340,338,141469,1,0,0:0:0:0:
86,192,141629,1,0,0:0:0:0:
86,192,141789,1,0,0:0:0:0:
445,126,142269,5,0,0:0:0:0:
210,360,142429,1,0,0:0:0:0:
124,40,142589,1,0,0:0:0:0:
124,40,142749,1,0,0:0:0:0:
411,331,143229,5,0,0:0:0:0:
122,213,143389,1,0,0:0:0:0:
416,108,143549,1,0,0:0:0:0:
141,15,143709,1,0,0:0:0:0:
253,314,143869,1,0,0:0:0:0:
339,0,144029,1,0,0:0:0:0:
24,142,144189,2,0,P|3:200|0:259,1,120.000004577637
30,252,145149,6,0,P|30:201|20:166,1,80.0000030517579
13,156,145629,1,0,0:0:0:0:
104,308,145789,1,0,0:0:0:0:
182,112,145949,1,0,0:0:0:0:
244,280,146109,2,0,P|285:311|320:322,1,80.0000030517579
326,318,146589,5,0,0:0:0:0:
491,186,146749,1,0,0:0:0:0:
456,340,146909,1,0,0:0:0:0:
348,193,147069,2,0,P|327:145|319:111,1,80.0000030517579
485,11,147549,5,0,0:0:0:0:
325,52,147709,1,0,0:0:0:0:
481,203,147869,1,0,0:0:0:0:
299,258,148029,2,0,P|275:314|269:338,1,80.0000030517579
458,375,148509,5,0,0:0:0:0:
403,182,148669,1,0,0:0:0:0:
229,206,148829,1,0,0:0:0:0:
163,350,148989,2,0,P|114:365|76:364,1,80.0000030517579
1,195,149469,5,0,0:0:0:0:
72,35,149629,1,0,0:0:0:0:
72,35,149709,1,0,0:0:0:0:
72,35,149789,1,0,0:0:0:0:
265,4,149949,6,0,P|272:51|263:92,1,80.0000030517579
52,148,150429,1,0,0:0:0:0:
158,19,150589,1,0,0:0:0:0:
158,19,150669,1,0,0:0:0:0:
158,19,150749,1,0,0:0:0:0:
352,59,150909,6,0,P|398:58|433:44,1,80.0000030517579
230,26,151389,1,0,0:0:0:0:
373,133,151549,1,0,0:0:0:0:
146,221,151709,1,0,0:0:0:0:
471,161,151869,6,0,P|464:213|431:288,1,120.000004577637
302,353,152509,1,0,0:0:0:0:
302,353,152589,1,0,0:0:0:0:
302,353,152669,1,0,0:0:0:0:
420,125,152829,6,0,P|435:158|435:210,1,80.0000030517579
302,353,153309,2,0,L|307:298,2,40.000001525879
36,224,153789,6,0,P|21:257|21:309,1,80.0000030517579
168,128,154269,2,0,L|163:73,2,40.000001525879
364,32,154749,5,0,0:0:0:0:
308,229,154909,1,0,0:0:0:0:
308,229,155069,1,0,0:0:0:0:
97,358,155229,5,0,0:0:0:0:
349,304,155389,1,0,0:0:0:0:
169,245,155549,1,0,0:0:0:0:
421,361,155709,5,0,0:0:0:0:
427,348,156669,6,0,P|370:316|323:307,1,106.666666666667
132,344,157149,1,0,0:0:0:0:
300,376,157309,1,0,0:0:0:0:
460,272,157469,1,0,0:0:0:0:
492,100,157629,2,0,P|448:108|392:144,1,106.666666666667
311,302,158109,5,0,0:0:0:0:
468,384,158269,2,0,P|465:347|460:320,1,53.3333333333333
240,172,158589,2,0,P|293:170|343:186,1,106.666666666667
152,332,159069,2,0,P|191:323|211:314,2,53.3333333333333
23,148,159549,6,0,P|39:98|71:56,1,106.666666666667
246,197,160029,2,0,L|252:257,2,53.3333333333333
432,68,160509,6,0,P|445:129|444:179,1,106.666666666667
319,373,160989,1,0,0:0:0:0:
449,288,161149,1,0,0:0:0:0:
449,288,161309,1,0,0:0:0:0:
458,104,161469,6,0,P|441:45|417:1,1,106.666666666667
117,75,161949,1,0,0:0:0:0:
264,16,162109,1,0,0:0:0:0:
264,16,162269,1,0,0:0:0:0:
472,84,162429,6,0,P|418:86|367:99,1,106.666666666667
240,248,162909,2,0,P|232:292|232:320,2,53.3333333333333
472,248,163389,5,0,0:0:0:0:
272,156,163549,1,0,0:0:0:0:
472,180,163709,1,0,0:0:0:0:
312,284,163869,5,0,0:0:0:0:
480,312,164029,1,0,0:0:0:0:
272,384,164189,1,0,0:0:0:0:
108,212,164349,6,0,P|172:180|232:172,1,106.666666666667
403,320,164829,1,0,0:0:0:0:
247,292,164989,1,0,0:0:0:0:
463,191,165149,1,0,0:0:0:0:
264,124,165309,2,0,P|234:71|223:13,1,106.666666666667
92,156,165789,5,0,0:0:0:0:
273,278,165949,1,0,0:0:0:0:
35,262,166109,1,0,0:0:0:0:
259,288,166269,2,0,P|191:275|148:246,1,106.666666666667
330,347,166749,1,0,0:0:0:0:
380,204,166909,2,0,P|424:190|455:187,1,53.3333333333333
480,384,167229,6,0,P|496:325|495:269,1,106.666666666667
432,88,167709,5,0,0:0:0:0:
248,152,167869,1,0,0:0:0:0:
248,152,168029,1,0,0:0:0:0:
44,28,168189,2,0,P|112:19|176:20,1,106.666666666667
317,88,168669,1,0,0:0:0:0:
227,178,168829,2,0,P|217:208|214:258,1,53.3333333333333
455,343,169149,6,0,P|421:289|375:252,1,106.666666666667
424,66,169629,1,0,0:0:0:0:
308,218,169789,1,0,0:0:0:0:
308,218,169949,1,0,0:0:0:0:
236,112,170109,6,0,P|233:79|235:47,1,53.3333333333333
110,216,170429,2,0,L|169:205,1,53.3333333333333
358,157,170749,6,0,P|400:168|424:180,1,53.3333333333333
463,321,171069,2,0,L|400:321,1,53.3333333333333
190,373,171389,6,0,P|190:341|199:313,1,53.3333333333333
280,202,171709,2,0,P|280:170|271:142,1,53.3333333333333
88,24,172029,6,0,P|32:156|152:60,1,400
156,67,174885,5,0,0:0:0:0:
200,152,175430,5,0,0:0:0:0:
112,236,176144,6,0,B|100:300|128:336|128:336|102:369|40:371|40:371|20:332|36:276,1,293.333333333333
188,156,179699,5,0,0:0:0:0:
420,16,181432,5,0,0:0:0:0:
368,120,181565,1,0,0:0:0:0:
412,228,181699,1,0,0:0:0:0:
200,336,183699,5,0,0:0:0:0:
268,288,183832,1,0,0:0:0:0:
352,296,183965,2,0,P|400:300|272:208,1,600
240,8,186232,5,0,0:0:0:0:
240,8,187165,5,0,0:0:0:0:
234,35,187232,1,0,0:0:0:0:
234,63,187299,1,0,0:0:0:0:
246,87,187365,1,0,0:0:0:0:
256,113,187432,2,0,P|257:140|254:171,1,40
162,218,187565,5,0,0:0:0:0:
159,224,187632,1,0,0:0:0:0:
157,232,187699,2,0,P|163:261|168:276,1,40
269,336,187832,5,0,0:0:0:0:
273,340,187899,1,0,0:0:0:0:
280,345,187966,2,0,P|309:349|325:349,1,40
443,304,188099,6,0,B|445:276|445:276|428:211|428:211|430:179,1,120.000004577637
501,69,188499,1,0,0:0:0:0:
510,184,188632,1,0,0:0:0:0:
382,81,188765,6,0,L|295:76,1,80
172,20,189032,2,0,P|158:73|157:98,1,80
317,214,189299,5,0,0:0:0:0:
224,145,189432,1,0,0:0:0:0:
144,216,189565,1,0,0:0:0:0:
182,317,189699,1,0,0:0:0:0:
290,317,189832,5,0,0:0:0:0:
307,135,189965,1,0,0:0:0:0:
144,216,190099,1,0,0:0:0:0:
46,381,190232,6,0,B|40:357|40:357|56:285|56:285|53:251,1,120.000004577637
25,70,190632,1,0,0:0:0:0:
0,208,190765,1,0,0:0:0:0:
153,102,190899,6,0,P|199:102|241:111,1,80
414,234,191165,2,0,L|304:233,1,80
109,357,191432,5,0,0:0:0:0:
144,216,191565,1,0,0:0:0:0:
291,161,191699,1,0,0:0:0:0:
336,309,191832,1,0,0:0:0:0:
474,202,191965,5,0,0:0:0:0:
263,145,192099,1,0,0:0:0:0:
147,300,192232,1,0,0:0:0:0:
13,169,192365,6,0,B|33:164|33:164|109:185|109:185|144:182,1,120.000004577637
211,357,192765,1,0,0:0:0:0:
266,228,192899,1,0,0:0:0:0:
455,292,193032,6,0,P|461:327|457:378,1,80
337,244,193299,2,0,P|331:209|335:158,1,80
491,29,193565,5,0,0:0:0:0:
503,144,193698,1,0,0:0:0:0:
401,176,193831,1,0,0:0:0:0:
333,93,193965,1,0,0:0:0:0:
387,0,194098,5,0,0:0:0:0:
486,134,194232,1,0,0:0:0:0:
415,274,194365,1,0,0:0:0:0:
510,384,194499,6,0,B|498:366|498:366|494:286|494:286|482:264,1,120.000004577637
297,162,194899,2,0,L|290:242,1,60.0000022888184
119,361,195165,6,0,P|104:326|95:281,1,80
239,147,195432,1,0,0:0:0:0:
267,264,195565,1,0,0:0:0:0:
436,322,195699,6,0,P|444:260|445:214,1,80
362,163,195899,1,0,0:0:0:0:
351,137,195965,1,0,0:0:0:0:
346,109,196032,1,0,0:0:0:0:
353,81,196099,1,0,0:0:0:0:
372,60,196165,1,0,0:0:0:0:
397,48,196232,5,0,0:0:0:0:
425,48,196299,1,0,0:0:0:0:
451,57,196365,1,0,0:0:0:0:
469,78,196432,1,0,0:0:0:0:
480,103,196499,1,0,0:0:0:0:
479,109,196565,1,0,0:0:0:0:
478,114,196632,6,0,B|432:126|404:92|346:77|305:90,1,160
118,185,197032,6,0,P|115:211|128:275,1,80
249,158,197299,1,0,0:0:0:0:
206,20,197432,1,0,0:0:0:0:
87,110,197565,2,0,P|93:190|128:272,1,160
278,351,197965,1,0,0:0:0:0:
278,351,198099,1,0,0:0:0:0:
431,275,198232,2,0,P|453:214|452:171,1,80
241,106,198499,1,0,0:0:0:0:
390,14,198632,5,0,0:0:0:0:
483,126,198765,2,0,P|469:204|430:274,1,160
278,351,199165,2,0,P|318:308|335:267,1,80
239,186,199432,2,0,L|139:167,1,80
112,40,199699,5,0,0:0:0:0:
312,141,199832,2,0,P|231:174|152:168,1,160
25,305,200232,1,0,0:0:0:0:
74,101,200365,2,0,P|92:166|92:200,1,80
266,30,200632,2,0,P|232:88|208:112,1,80
112,40,200899,5,0,0:0:0:0:
281,16,201032,1,0,0:0:0:0:
147,108,201165,5,0,0:0:0:0:
323,124,201299,1,0,0:0:0:0:
172,189,201432,5,0,0:0:0:0:
353,237,201565,1,0,0:0:0:0:
353,237,201632,1,0,0:0:0:0:
353,237,201699,1,0,0:0:0:0:
158,283,201832,5,0,0:0:0:0:
158,283,201899,1,0,0:0:0:0:
158,283,201965,1,0,0:0:0:0:
357,359,202099,1,0,0:0:0:0:
357,359,202165,1,0,0:0:0:0:
357,359,202232,1,0,0:0:0:0:
124,365,202365,5,0,0:0:0:0:
124,365,202432,1,0,0:0:0:0:
124,365,202499,1,0,0:0:0:0:
310,261,202632,2,0,P|349:261|388:272,1,80
498,359,202899,5,0,0:0:0:0:
438,175,203032,2,0,P|363:203|301:277,1,160
418,62,203432,2,0,P|487:90|522:95,1,80
297,157,203699,2,0,L|197:147,1,80
40,81,203965,2,0,P|109:53|144:48,1,80
256,128,204232,5,0,0:0:0:0:
263,155,204299,1,0,0:0:0:0:
263,182,204365,1,0,0:0:0:0:
257,209,204432,1,0,0:0:0:0:
248,235,204499,1,0,0:0:0:0:
238,261,204565,1,0,0:0:0:0:
238,289,204632,1,0,0:0:0:0:
245,316,204699,1,0,0:0:0:0:
260,338,204765,6,0,P|301:340|356:312,1,80
337,326,205032,1,0,0:0:0:0:
496,165,205165,2,0,L|337:181,1,160
241,27,205565,2,0,P|279:17|319:21,1,80
322,28,205832,5,0,0:0:0:0:
182,176,205965,2,0,P|206:118|232:91,1,80
336,181,206232,1,0,0:0:0:0:
361,292,206365,1,0,0:0:0:0:
504,174,206499,6,0,P|480:86|474:79,1,80
322,28,206765,1,0,0:0:0:0:
322,28,206899,1,0,0:0:0:0:
153,148,207032,2,0,P|203:161|241:165,1,80
439,302,207299,6,0,L|268:314,1,160
86,194,207699,2,0,P|134:169|178:161,1,80
224,360,207965,5,0,0:0:0:0:
308,192,208099,1,0,0:0:0:0:
308,192,208232,1,0,0:0:0:0:
453,335,208365,2,0,P|485:286|503:215,1,120
441,150,208632,5,0,0:0:0:0:
433,140,208699,1,0,0:0:0:0:
429,128,208765,1,0,0:0:0:0:
427,116,208832,1,0,0:0:0:0:
427,103,208899,1,0,0:0:0:0:
429,91,208965,1,0,0:0:0:0:
448,70,209032,5,0,0:0:0:0:
449,98,209099,1,0,0:0:0:0:
427,116,209165,1,0,0:0:0:0:
400,124,209232,1,0,0:0:0:0:
373,116,209299,2,0,P|350:95|339:73,3,40
251,22,209565,6,0,B|241:29|241:29|146:34|146:34|121:44,1,120
68,92,209832,2,0,P|69:148|86:207,1,80
173,342,210099,2,0,L|161:249,1,80
298,143,210365,2,0,P|297:199|280:258,1,80
154,95,210632,5,0,0:0:0:0:
310,34,210765,1,0,0:0:0:0:
416,165,210899,1,0,0:0:0:0:
325,306,211032,1,0,0:0:0:0:
162,262,211165,5,0,0:0:0:0:
367,218,211299,1,0,0:0:0:0:
508,366,211432,1,0,0:0:0:0:
298,240,211565,1,0,0:0:0:0:
368,80,211699,1,0,0:0:0:0:
402,84,211766,1,0,0:0:0:0:
431,99,211832,1,0,0:0:0:0:
472,200,211965,5,0,0:0:0:0:
400,280,212099,1,0,0:0:0:0:
366,276,212166,1,0,0:0:0:0:
337,261,212232,2,0,P|274:252|239:263,1,80
86,280,212499,5,0,0:0:0:0:
72,255,212565,1,0,0:0:0:0:
69,226,212632,1,0,0:0:0:0:
77,199,212699,1,0,0:0:0:0:
93,176,212765,1,0,0:0:0:0:
119,167,212832,1,0,0:0:0:0:
147,168,212899,1,0,0:0:0:0:
172,179,212965,1,0,0:0:0:0:
192,197,213032,5,0,0:0:0:0:
214,213,213099,1,0,0:0:0:0:
240,219,213165,1,0,0:0:0:0:
267,212,213232,1,0,0:0:0:0:
289,195,213299,2,0,P|292:169|285:137,3,40
346,103,213565,2,0,P|333:79|309:57,3,40
177,11,213832,5,0,0:0:0:0:
157,36,213898,1,0,0:0:0:0:
143,65,213965,1,0,0:0:0:0:
135,95,214031,1,0,0:0:0:0:
133,127,214098,1,0,0:0:0:0:
138,159,214165,1,0,0:0:0:0:
148,189,214231,1,0,0:0:0:0:
163,217,214298,1,0,0:0:0:0:
180,244,214365,5,0,0:0:0:0:
197,272,214431,1,0,0:0:0:0:
207,302,214498,1,0,0:0:0:0:
191,327,214565,1,0,0:0:0:0:
163,319,214631,1,0,0:0:0:0:
163,288,214698,1,0,0:0:0:0:
186,267,214765,1,0,0:0:0:0:
216,257,214831,1,0,0:0:0:0:
248,256,214898,5,0,0:0:0:0:
280,262,214965,1,0,0:0:0:0:
307,277,215031,1,0,0:0:0:0:
336,289,215098,1,0,0:0:0:0:
367,293,215165,1,0,0:0:0:0:
397,284,215231,1,0,0:0:0:0:
420,261,215299,1,0,0:0:0:0:
426,229,215365,1,0,0:0:0:0:
422,197,215432,6,0,P|402:168|389:159,1,40
324,197,215565,2,0,B|264:108|296:55|327:108|295:180|274:199,1,200
193,196,215965,5,0,0:0:0:0:
173,170,216031,1,0,0:0:0:0:
163,140,216098,1,0,0:0:0:0:
164,108,216164,1,0,0:0:0:0:
175,79,216231,1,0,0:0:0:0:
196,54,216298,1,0,0:0:0:0:
224,39,216364,1,0,0:0:0:0:
255,33,216431,1,0,0:0:0:0:
287,39,216498,5,0,0:0:0:0:
314,54,216564,1,0,0:0:0:0:
335,78,216631,1,0,0:0:0:0:
347,108,216698,1,0,0:0:0:0:
348,140,216765,1,0,0:0:0:0:
337,170,216832,1,0,0:0:0:0:
319,197,216899,1,0,0:0:0:0:
299,222,216965,1,0,0:0:0:0:
290,252,217032,5,0,0:0:0:0:
294,283,217099,1,0,0:0:0:0:
308,311,217165,1,0,0:0:0:0:
335,327,217232,1,0,0:0:0:0:
367,329,217299,1,0,0:0:0:0:
393,311,217365,1,0,0:0:0:0:
406,281,217432,1,0,0:0:0:0:
405,248,217499,1,0,0:0:0:0:
392,218,217565,6,0,B|361:175|290:208|228:246|175:233|156:210|134:182|152:161,1,280
205,65,218099,5,0,0:0:0:0:
234,75,218165,1,0,0:0:0:0:
253,100,218232,1,0,0:0:0:0:
261,131,218299,1,0,0:0:0:0:
257,162,218365,1,0,0:0:0:0:
240,189,218432,1,0,0:0:0:0:
217,212,218499,1,0,0:0:0:0:
198,237,218565,1,0,0:0:0:0:
190,268,218632,5,0,0:0:0:0:
196,299,218699,1,0,0:0:0:0:
214,324,218765,1,0,0:0:0:0:
242,338,218832,1,0,0:0:0:0:
274,340,218899,1,0,0:0:0:0:
302,326,218965,1,0,0:0:0:0:
314,296,219032,2,0,P|311:267|303:245,1,40
180,231,219165,5,0,0:0:0:0:
177,263,219232,1,0,0:0:0:0:
181,294,219299,1,0,0:0:0:0:
193,322,219365,1,0,0:0:0:0:
213,346,219432,1,0,0:0:0:0:
242,357,219499,1,0,0:0:0:0:
273,356,219565,1,0,0:0:0:0:
302,342,219632,1,0,0:0:0:0:
325,319,219699,5,0,0:0:0:0:
353,306,219765,1,0,0:0:0:0:
384,299,219832,1,0,0:0:0:0:
415,303,219899,1,0,0:0:0:0:
443,315,219965,6,0,P|457:342|462:358,3,40
474,219,220232,2,0,P|480:248|480:265,3,40
378,172,220499,6,0,P|370:145|367:129,3,40
296,109,220765,2,0,P|306:82|314:68,3,40
256,25,221032,2,0,P|274:7|287:-1,3,40
475,26,221299,6,0,P|469:80|436:142,1,120
466,214,221565,2,0,P|423:247|356:268,1,120
326,340,221832,2,0,P|272:334|210:301,1,120
137,330,222099,2,0,P|103:287|82:220,1,120
32,147,222365,5,0,0:0:0:0:
44,117,222431,1,0,0:0:0:0:
66,94,222498,1,0,0:0:0:0:
93,78,222564,1,0,0:0:0:0:
124,70,222631,1,0,0:0:0:0:
156,70,222698,1,0,0:0:0:0:
188,76,222764,1,0,0:0:0:0:
218,86,222831,1,0,0:0:0:0:
248,98,222898,5,0,0:0:0:0:
277,111,222964,1,0,0:0:0:0:
307,122,223031,1,0,0:0:0:0:
338,131,223098,1,0,0:0:0:0:
369,136,223164,1,0,0:0:0:0:
401,135,223231,1,0,0:0:0:0:
432,127,223298,1,0,0:0:0:0:
458,109,223364,1,0,0:0:0:0:
471,79,223431,5,0,0:0:0:0:
465,47,223498,1,0,0:0:0:0:
450,18,223564,1,0,0:0:0:0:
422,1,223631,1,0,0:0:0:0:
389,3,223698,1,0,0:0:0:0:
361,18,223764,1,0,0:0:0:0:
339,42,223831,1,0,0:0:0:0:
329,72,223898,1,0,0:0:0:0:
336,102,223964,5,0,0:0:0:0:
347,131,224031,1,0,0:0:0:0:
365,157,224098,1,0,0:0:0:0:
387,179,224164,1,0,0:0:0:0:
407,203,224231,1,0,0:0:0:0:
426,228,224298,1,0,0:0:0:0:
434,258,224364,1,0,0:0:0:0:
435,290,224431,1,0,0:0:0:0:
423,320,224499,6,0,P|401:327|380:326,3,40
336,280,224765,2,0,P|314:273|293:274,3,40
264,346,225032,6,0,P|242:353|221:352,3,40
178,274,225298,2,0,P|156:267|135:268,3,40
78,352,225565,6,0,L|171:337,1,80
234,215,225832,2,0,P|235:158|229:114,1,80
155,37,226099,6,0,L|76:24,1,80
1,186,226365,6,0,B|41:204|67:181|107:170|144:194,1,120
217,240,226632,5,0,0:0:0:0:
233,212,226699,1,0,0:0:0:0:
237,180,226765,1,0,0:0:0:0:
229,148,226832,1,0,0:0:0:0:
228,115,226899,1,0,0:0:0:0:
256,128,226965,1,0,0:0:0:0:
272,155,227032,1,0,0:0:0:0:
277,186,227099,1,0,0:0:0:0:
272,217,227165,5,0,0:0:0:0:
301,203,227232,1,0,0:0:0:0:
313,173,227299,1,0,0:0:0:0:
313,141,227365,1,0,0:0:0:0:
307,109,227432,1,0,0:0:0:0:
335,124,227499,1,0,0:0:0:0:
351,150,227565,1,0,0:0:0:0:
358,181,227632,1,0,0:0:0:0:
384,162,227699,5,0,0:0:0:0:
391,153,227765,1,0,0:0:0:0:
402,149,227832,1,0,0:0:0:0:
413,151,227899,1,0,0:0:0:0:
422,157,227965,1,0,0:0:0:0:
431,164,228032,1,0,0:0:0:0:
442,166,228099,1,0,0:0:0:0:
453,165,228165,1,0,0:0:0:0:
464,163,228232,6,0,P|484:108|485:70,1,80
309,11,228499,2,0,L|321:114,1,80
249,262,228765,5,0,0:0:0:0:
249,293,228831,1,0,0:0:0:0:
240,324,228898,1,0,0:0:0:0:
222,350,228964,1,0,0:0:0:0:
197,370,229031,1,0,0:0:0:0:
168,382,229098,1,0,0:0:0:0:
136,384,229164,1,0,0:0:0:0:
105,376,229231,1,0,0:0:0:0:
78,360,229298,5,0,0:0:0:0:
57,335,229364,1,0,0:0:0:0:
44,306,229431,1,0,0:0:0:0:
41,275,229498,1,0,0:0:0:0:
47,243,229564,1,0,0:0:0:0:
63,215,229631,1,0,0:0:0:0:
86,193,229698,1,0,0:0:0:0:
114,180,229764,1,0,0:0:0:0:
146,175,229832,6,0,P|214:121|61:140,1,450.000017166138
144,283,230899,5,0,0:0:0:0:
144,283,231032,1,0,0:0:0:0:
230,144,231165,2,0,P|266:132|310:130,1,80
139,59,231432,5,0,0:0:0:0:
364,88,231565,1,0,0:0:0:0:
196,12,231699,1,0,0:0:0:0:
196,12,231832,1,0,0:0:0:0:
56,133,231965,6,0,P|61:189|72:223,1,80
257,69,232232,2,0,P|235:124|224:167,1,80
350,371,232499,6,0,L|340:281,1,80
482,91,232765,2,0,L|469:190,1,80
311,130,233032,5,0,0:0:0:0:
341,291,233165,1,0,0:0:0:0:
211,359,233299,6,0,P|164:335|134:310,1,80
364,218,233565,2,0,P|311:221|272:215,1,80
464,347,233832,1,0,0:0:0:0:
374,202,233965,1,0,0:0:0:0:
498,49,234099,2,0,P|510:113|500:152,1,80
317,23,234365,5,0,0:0:0:0:
317,23,234499,1,0,0:0:0:0:
190,146,234632,1,0,0:0:0:0:
190,146,234765,1,0,0:0:0:0:
34,57,234899,1,0,0:0:0:0:
82,131,235032,1,0,0:0:0:0:
25,197,235165,6,0,P|24:236|32:275,1,80
181,379,235432,1,0,0:0:0:0:
54,353,235565,1,0,0:0:0:0:
222,262,235699,1,0,0:0:0:0:
222,262,235832,1,0,0:0:0:0:
410,373,235965,6,0,P|423:317|423:283,1,80
310,150,236232,1,0,0:0:0:0:
310,150,236365,1,0,0:0:0:0:
401,35,236499,1,0,0:0:0:0:
427,156,236632,1,0,0:0:0:0:
392,25,236765,1,0,0:0:0:0:
429,166,236899,1,0,0:0:0:0:
301,41,237032,6,0,P|269:30|196:17,1,80
33,171,237299,5,0,0:0:0:0:
46,190,237365,1,0,0:0:0:0:
67,200,237432,1,0,0:0:0:0:
90,202,237499,1,0,0:0:0:0:
113,202,237565,2,0,L|130:154,1,40
227,101,237699,5,0,0:0:0:0:
239,121,237765,1,0,0:0:0:0:
248,143,237832,2,0,P|252:162|250:202,1,40
318,294,237965,5,0,0:0:0:0:
318,294,238032,1,0,0:0:0:0:
318,294,238099,2,0,L|274:292,1,40
145,374,238232,6,0,L|257:363,1,80
399,364,238432,1,0,0:0:0:0:
404,359,238499,2,0,L|416:308,1,40
472,242,238632,5,0,0:0:0:0:
472,214,238698,1,0,0:0:0:0:
468,186,238765,1,0,0:0:0:0:
461,159,238831,1,0,0:0:0:0:
449,133,238898,1,0,0:0:0:0:
434,110,238965,1,0,0:0:0:0:
415,89,239031,1,0,0:0:0:0:
393,72,239098,1,0,0:0:0:0:
368,62,239165,6,0,P|314:58|267:69,1,80
152,8,239432,1,0,0:0:0:0:
152,8,239565,1,0,0:0:0:0:
72,144,239699,2,0,P|152:136|168:128,1,80
304,25,239965,5,0,0:0:0:0:
304,25,240098,1,0,0:0:0:0:
389,178,240232,1,0,0:0:0:0:
444,29,240365,1,0,0:0:0:0:
501,204,240498,6,0,P|493:255|480:292,1,80
309,303,240765,2,0,L|320:407,1,80
174,183,241032,5,0,0:0:0:0:
92,351,241165,1,0,0:0:0:0:
275,143,241298,2,0,L|269:63,1,80
34,33,241565,5,0,0:0:0:0:
38,44,241632,1,0,0:0:0:0:
42,55,241699,1,0,0:0:0:0:
46,65,241765,1,0,0:0:0:0:
51,75,241832,2,0,P|107:89|128:88,1,80
360,153,242099,2,0,P|320:153|282:165,1,80
92,351,242365,5,0,0:0:0:0:
141,198,242498,1,0,0:0:0:0:
35,36,242632,2,0,P|23:100|33:139,1,80
189,275,242898,5,0,0:0:0:0:
382,257,243032,1,0,0:0:0:0:
141,198,243165,1,0,0:0:0:0:
383,156,243298,1,0,0:0:0:0:
122,78,243432,1,0,0:0:0:0:
426,44,243565,1,0,0:0:0:0:
117,0,243698,2,0,P|108:59|110:82,1,80
284,155,243965,5,0,0:0:0:0:
284,304,244098,1,0,0:0:0:0:
109,384,244232,1,0,0:0:0:0:
109,384,244365,1,0,0:0:0:0:
237,220,244499,2,0,P|290:230|322:246,1,80
444,358,244765,5,0,0:0:0:0:
505,262,244899,1,0,0:0:0:0:
478,152,245032,1,0,0:0:0:0:
386,78,245165,1,0,0:0:0:0:
256,168,245299,6,0,P|272:224|270:268,1,80
44,376,245565,2,0,L|66:232,1,120
38,161,245832,5,0,0:0:0:0:
60,127,245899,1,0,0:0:0:0:
93,106,245965,1,0,0:0:0:0:
131,95,246032,1,0,0:0:0:0:
170,99,246099,1,0,0:0:0:0:
204,118,246165,1,0,0:0:0:0:
232,146,246232,1,0,0:0:0:0:
249,182,246299,1,0,0:0:0:0:
271,214,246365,1,0,0:0:0:0:
308,229,246432,1,0,0:0:0:0:
346,241,246499,1,0,0:0:0:0:
385,238,246565,1,0,0:0:0:0:
421,221,246632,1,0,0:0:0:0:
444,188,246699,1,0,0:0:0:0:
455,150,246765,2,0,P|451:123|444:103,1,40
232,177,246899,5,0,0:0:0:0:
255,213,246965,1,0,0:0:0:0:
289,241,247032,1,0,0:0:0:0:
330,255,247099,1,0,0:0:0:0:
373,257,247165,1,0,0:0:0:0:
416,248,247232,1,0,0:0:0:0:
451,221,247299,1,0,0:0:0:0:
473,183,247365,1,0,0:0:0:0:
479,139,247432,1,0,0:0:0:0:
464,97,247499,1,0,0:0:0:0:
433,65,247565,1,0,0:0:0:0:
389,55,247632,1,0,0:0:0:0:
344,57,247699,1,0,0:0:0:0:
303,73,247765,1,0,0:0:0:0:
259,78,247832,1,0,0:0:0:0:
215,68,247899,1,0,0:0:0:0:
177,45,247965,6,0,P|243:3|172:140,1,480.000018310548
180,153,249165,1,0,0:0:0:0:
180,153,249299,1,0,0:0:0:0:
180,153,249432,1,0,0:0:0:0:
180,153,249565,1,0,0:0:0:0:
180,153,249699,1,0,0:0:0:0:
180,153,249832,1,0,0:0:0:0:
180,153,249965,1,0,0:0:0:0:
304,300,250099,6,0,B|334:313|379:310|386:265|437:245|508:252|531:283|515:344|470:403|283:340|449:222|485:112|459:89,1,480.000018310548
459,89,251299,1,0,0:0:0:0:
459,89,251432,1,0,0:0:0:0:
459,89,251565,1,0,0:0:0:0:
459,89,251699,1,0,0:0:0:0:
459,89,251832,1,0,0:0:0:0:
459,89,251965,1,0,0:0:0:0:
459,89,252099,1,0,0:0:0:0:
195,9,252232,6,0,B|152:60|208:149|256:209|200:318,1,320
200,316,253432,1,0,0:0:0:0:
200,316,253565,1,0,0:0:0:0:
200,316,253699,1,0,0:0:0:0:
200,316,253832,1,0,0:0:0:0:
200,316,253965,1,0,0:0:0:0:
200,316,254099,1,0,0:0:0:0:
200,316,254232,1,0,0:0:0:0:
135,196,254365,6,0,P|131:103|252:184,1,320
247,191,255499,1,0,0:0:0:0:
242,199,255565,1,0,0:0:0:0:
239,208,255632,1,0,0:0:0:0:
237,217,255699,1,0,0:0:0:0:
236,226,255765,1,0,0:0:0:0:
239,235,255832,1,0,0:0:0:0:
246,242,255899,1,0,0:0:0:0:
254,247,255965,1,0,0:0:0:0:
260,254,256032,1,0,0:0:0:0:
265,262,256099,1,0,0:0:0:0:
268,271,256165,1,0,0:0:0:0:
270,280,256232,1,0,0:0:0:0:
270,290,256299,1,0,0:0:0:0:
269,299,256365,1,0,0:0:0:0:
267,308,256432,1,0,0:0:0:0:
260,321,256499,6,0,B|221:319|192:158|259:102|259:102|283:164|348:155|348:155|368:130|368:130|397:167|396:230,1,480.000018310548
395,216,257699,1,0,0:0:0:0:
395,216,257832,1,0,0:0:0:0:
395,216,257965,1,0,0:0:0:0:
395,216,258099,1,0,0:0:0:0:
395,216,258232,1,0,0:0:0:0:
395,216,258365,1,0,0:0:0:0:
395,216,258499,1,0,0:0:0:0:
476,45,258632,6,0,B|433:21|402:32|366:44|316:26,1,160
320,28,259832,1,0,0:0:0:0:
320,28,259965,1,0,0:0:0:0:
320,28,260099,1,0,0:0:0:0:
320,28,260232,1,0,0:0:0:0:
320,28,260365,1,0,0:0:0:0:
320,28,260499,1,0,0:0:0:0:
320,28,260632,1,0,0:0:0:0:
247,126,260765,6,0,B|204:150|173:138|137:127|87:145,1,160
91,144,261965,1,0,0:0:0:0:
91,144,262098,1,0,0:0:0:0:
91,144,262232,1,0,0:0:0:0:
91,144,262365,1,0,0:0:0:0:
91,144,262498,1,0,0:0:0:0:
91,144,262632,1,0,0:0:0:0:
91,144,262765,1,0,0:0:0:0:
10,318,262899,6,0,L|171:290,1,160
370,363,263965,6,0,L|361:315,1,40
293,177,264232,1,0,0:0:0:0:
363,145,264365,1,0,0:0:0:0:
479,276,264499,6,0,L|455:323,1,40
260,362,264765,1,0,0:0:0:0:
277,293,264899,1,0,0:0:0:0:
168,152,265032,5,0,0:0:0:0:
136,152,270312,6,0,L|144:218,2,40.000001525879
114,280,270792,5,0,0:0:0:0:
231,169,270952,1,0,0:0:0:0:
163,53,271112,1,0,0:0:0:0:
53,123,271272,6,0,L|-7:129,2,40.000001525879
183,221,271752,5,0,0:0:0:0:
320,134,271912,1,0,0:0:0:0:
217,99,272072,1,0,0:0:0:0:
276,259,272232,6,0,L|269:314,2,40.000001525879
234,366,272712,5,0,0:0:0:0:
355,244,272872,1,0,0:0:0:0:
253,103,273032,1,0,0:0:0:0:
398,18,273192,6,0,L|390:63,2,40.000001525879
473,121,273672,5,0,0:0:0:0:
290,29,273832,1,0,0:0:0:0:
290,29,273992,1,0,0:0:0:0:
434,181,274152,6,0,P|439:210|439:226,2,40.000001525879
400,299,274632,5,0,0:0:0:0:
473,121,274792,1,0,0:0:0:0:
356,213,274952,1,0,0:0:0:0:
336,384,275112,6,0,L|373:367,2,40.000001525879
452,357,275592,5,0,0:0:0:0:
510,195,275752,1,0,0:0:0:0:
356,213,275912,1,0,0:0:0:0:
258,347,276072,6,0,L|205:343,2,40.000001525879
142,366,276552,5,0,0:0:0:0:
69,186,276712,1,0,0:0:0:0:
69,186,276872,1,0,0:0:0:0:
62,356,277032,5,0,0:0:0:0:
124,240,277192,1,0,0:0:0:0:
96,69,277352,1,0,0:0:0:0:
41,274,277512,5,0,0:0:0:0:
224,374,277672,1,0,0:0:0:0:
69,186,277832,1,0,0:0:0:0:
178,23,277992,6,0,P|185:54|184:64,2,40.000001525879
60,0,278472,5,0,0:0:0:0:
277,64,278632,1,0,0:0:0:0:
277,64,278792,1,0,0:0:0:0:
446,0,278952,6,0,P|439:31|440:41,2,40.000001525879
409,121,279432,5,0,0:0:0:0:
323,0,279592,1,0,0:0:0:0:
253,169,279752,1,0,0:0:0:0:
386,285,279912,6,0,L|434:283,2,40.000001525879
495,356,280392,5,0,0:0:0:0:
330,241,280552,1,0,0:0:0:0:
165,311,280712,1,0,0:0:0:0:
253,169,280872,6,0,L|245:120,2,40.000001525879
291,13,281352,5,0,0:0:0:0:
356,174,281512,1,0,0:0:0:0:
161,134,281672,1,0,0:0:0:0:
47,295,281832,6,0,L|102:283,1,40.000001525879
97,284,282072,1,0,0:0:0:0:
108,281,282152,1,0,0:0:0:0:
200,375,282312,5,0,0:0:0:0:
253,169,282472,1,0,0:0:0:0:
253,169,282632,1,0,0:0:0:0:
402,253,282792,6,0,L|407:302,1,40.000001525879
407,309,283032,1,0,0:0:0:0:
408,324,283112,1,0,0:0:0:0:
493,199,283272,5,0,0:0:0:0:
322,64,283432,1,0,0:0:0:0:
342,158,283592,1,0,0:0:0:0:
161,205,283752,6,0,L|122:207,1,40.000001525879
108,207,283992,1,0,0:0:0:0:
94,206,284072,1,0,0:0:0:0:
21,49,284232,5,0,0:0:0:0:
259,104,284392,1,0,0:0:0:0:
186,2,284552,1,0,0:0:0:0:
407,149,284712,6,0,L|412:188,1,40.000001525879
413,205,284952,1,0,0:0:0:0:
416,219,285032,1,0,0:0:0:0:
502,339,285192,5,0,0:0:0:0:
305,269,285352,1,0,0:0:0:0:
338,85,285512,1,0,0:0:0:0:
492,222,285672,5,0,0:0:0:0:
418,334,285832,1,0,0:0:0:0:
418,334,285912,1,0,0:0:0:0:
418,334,285992,1,0,0:0:0:0:
211,300,286152,5,0,0:0:0:0:
234,205,286312,1,0,0:0:0:0:
305,269,286472,1,0,0:0:0:0:
106,361,286632,5,0,0:0:0:0:
68,200,286792,1,0,0:0:0:0:
68,200,286872,1,0,0:0:0:0:
68,200,286952,1,0,0:0:0:0:
250,61,287112,5,0,0:0:0:0:
311,199,287272,1,0,0:0:0:0:
160,172,287432,1,0,0:0:0:0:
141,0,287592,5,0,0:0:0:0:
330,7,287752,1,0,0:0:0:0:
330,7,287832,1,0,0:0:0:0:
330,7,287912,1,0,0:0:0:0:
487,194,288072,5,0,0:0:0:0:
305,269,288232,1,0,0:0:0:0:
391,66,288392,1,0,0:0:0:0:
463,266,288552,5,0,0:0:0:0:
234,208,288712,1,0,0:0:0:0:
234,208,288792,1,0,0:0:0:0:
234,208,288872,1,0,0:0:0:0:
35,339,289032,5,0,0:0:0:0:
305,269,289192,1,0,0:0:0:0:
125,99,289352,1,0,0:0:0:0:
183,356,289512,5,0,0:0:0:0:
288,140,289672,1,0,0:0:0:0:
288,140,289752,1,0,0:0:0:0:
288,140,289832,1,0,0:0:0:0:
425,347,289992,5,0,0:0:0:0:
144,224,290152,1,0,0:0:0:0:
440,175,290312,1,0,0:0:0:0:
204,128,290472,5,0,0:0:0:0:
38,39,290632,1,0,0:0:0:0:
38,39,290712,1,0,0:0:0:0:
38,39,290792,1,0,0:0:0:0:
284,50,290952,5,0,0:0:0:0:
219,353,291112,1,0,0:0:0:0:
97,125,291272,1,0,0:0:0:0:
388,241,291432,5,0,0:0:0:0:
69,310,291592,1,0,0:0:0:0:
69,310,291672,1,0,0:0:0:0:
69,310,291752,1,0,0:0:0:0:
304,346,291912,5,0,0:0:0:0:
232,108,292072,1,0,0:0:0:0:
447,341,292232,1,0,0:0:0:0:
214,300,292392,5,0,0:0:0:0:
295,27,292552,1,0,0:0:0:0:
471,234,292712,1,0,0:0:0:0:
142,166,292872,5,0,0:0:0:0:
457,9,293032,1,0,0:0:0:0:
390,268,293192,1,0,0:0:0:0:
345,373,293352,6,0,P|302:341|287:308,1,80.0000030517579
337,95,293832,2,0,L|345:183,1,80.0000030517579
295,23,294312,5,0,0:0:0:0:
412,137,294472,1,0,0:0:0:0:
295,244,294632,1,0,0:0:0:0:
155,151,294792,2,0,P|110:149|73:151,1,80.0000030517579
9,314,295272,6,0,L|103:299,1,80.0000030517579
341,368,295752,2,0,L|251:353,1,80.0000030517579
256,125,296232,5,0,0:0:0:0:
295,244,296392,1,0,0:0:0:0:
192,319,296552,1,0,0:0:0:0:
104,228,296712,2,0,P|108:182|124:148,1,80.0000030517579
386,225,297192,6,0,L|407:329,1,80.0000030517579
353,27,297672,2,0,L|329:121,1,80.0000030517579
228,279,298152,6,0,P|164:290|133:282,1,80.0000030517579
287,363,298632,1,0,0:0:0:0:
30,234,298792,2,0,L|89:226,1,40.000001525879
224,76,299112,6,0,P|231:124|226:172,1,80.0000030517579
149,17,299592,1,0,0:0:0:0:
189,239,299752,6,0,L|194:287,1,40.000001525879
362,368,300072,6,0,P|412:371|470:344,1,80.0000030517579
275,326,300552,1,0,0:0:0:0:
506,293,300712,2,0,L|495:245,1,40.000001525879
415,152,301032,5,0,0:0:0:0:
366,317,301192,1,0,0:0:0:0:
415,152,301352,1,0,0:0:0:0:
269,17,301512,5,0,0:0:0:0:
281,260,301672,1,0,0:0:0:0:
281,260,301832,1,0,0:0:0:0:
117,31,301992,5,0,0:0:0:0:
445,225,302952,5,0,0:0:0:0:
406,123,303112,1,0,0:0:0:0:
325,193,303272,1,0,0:0:0:0:
103,43,303432,5,0,0:0:0:0:
240,231,303592,1,0,0:0:0:0:
327,42,303752,1,0,0:0:0:0:
63,211,303912,5,0,0:0:0:0:
63,211,304872,5,0,0:0:0:0:
63,211,305192,5,0,0:0:0:0:
63,211,305512,5,0,0:0:0:0:
63,211,305832,5,0,0:0:0:0:
133,273,306152,5,0,0:0:0:0:
254,297,306472,5,0,0:0:0:0:
411,276,306792,5,0,0:0:0:0:
438,192,306952,1,0,0:0:0:0:
352,210,307112,1,0,0:0:0:0:
459,294,307272,5,0,0:0:0:0:
451,150,307432,1,0,0:0:0:0:
320,228,307592,1,0,0:0:0:0:
485,295,307752,5,0,0:0:0:0:
412,79,307912,1,0,0:0:0:0:
238,225,308072,1,0,0:0:0:0:
506,289,308232,5,0,0:0:0:0:
331,103,308392,1,0,0:0:0:0:
262,331,308552,1,0,0:0:0:0:
56,184,308712,6,0,P|129:187|175:177,1,106.666666666667
270,40,309192,1,0,0:0:0:0:
140,102,309352,1,0,0:0:0:0:
302,170,309512,1,0,0:0:0:0:
461,60,309672,2,0,P|407:68|356:93,1,106.666666666667
173,20,310152,5,0,0:0:0:0:
25,145,310312,2,0,L|78:148,1,53.3333333333333
233,351,310632,2,0,P|208:285|175:242,1,106.666666666667
288,68,311112,2,0,P|249:77|229:86,2,53.3333333333333
161,274,311592,6,0,P|202:305|232:349,1,106.666666666667
433,194,312072,2,0,P|393:191|371:195,2,53.3333333333333
216,29,312552,6,0,L|232:160,1,106.666666666667
320,291,313032,1,0,0:0:0:0:
164,355,313192,1,0,0:0:0:0:
286,202,313352,1,0,0:0:0:0:
190,36,313512,6,0,P|207:95|231:139,1,106.666666666667
164,355,313992,1,0,0:0:0:0:
375,225,314152,1,0,0:0:0:0:
375,225,314312,1,0,0:0:0:0:
481,25,314472,6,0,P|419:21|368:38,1,106.666666666667
375,225,314952,1,0,0:0:0:0:
188,32,315112,2,0,L|239:44,1,53.3333333333333
102,148,315432,5,0,0:0:0:0:
75,307,315592,1,0,0:0:0:0:
75,307,315752,1,0,0:0:0:0:
229,354,315912,5,0,0:0:0:0:
148,85,316072,1,0,0:0:0:0:
238,244,316232,1,0,0:0:0:0:
75,307,316392,6,0,P|166:296|212:280,1,106.666666666667
16,372,316872,1,0,0:0:0:0:
169,224,317032,1,0,0:0:0:0:
354,304,317192,1,0,0:0:0:0:
460,215,317352,2,0,P|447:163|419:117,1,106.666666666667
214,16,317832,5,0,0:0:0:0:
445,39,317992,1,0,0:0:0:0:
250,162,318152,1,0,0:0:0:0:
383,263,318312,2,0,P|375:318|354:367,1,106.666666666667
131,294,318792,1,0,0:0:0:0:
131,294,318952,2,0,L|114:229,1,53.3333333333333
276,11,319272,6,0,P|260:70|261:126,1,106.666666666667
477,354,319752,5,0,0:0:0:0:
308,240,319912,1,0,0:0:0:0:
116,302,320072,1,0,0:0:0:0:
318,255,320232,2,0,P|371:253|423:245,1,106.666666666667
453,62,320712,1,0,0:0:0:0:
259,115,320872,2,0,P|269:145|272:195,1,53.3333333333333
70,352,321192,6,0,P|112:305|137:245,1,106.666666666667
77,62,321672,1,0,0:0:0:0:
179,194,321832,1,0,0:0:0:0:
179,194,321992,1,0,0:0:0:0:
331,57,322152,6,0,P|359:117|360:213,1,160
301,282,322792,2,0,L|230:297,1,53.3333333333333
404,369,323112,5,0,0:0:0:0:
288,205,323272,1,0,0:0:0:0:
288,205,323352,1,0,0:0:0:0:
288,205,323432,1,0,0:0:0:0:
474,252,323592,5,0,0:0:0:0:
262,116,323752,1,0,0:0:0:0:
506,99,323912,1,0,0:0:0:0:
217,28,324072,6,0,B|193:39|163:24|127:4|89:20,1,106.666666666667
54,287,324552,1,0,0:0:0:0:
166,221,324712,1,0,0:0:0:0:
149,97,324872,1,0,0:0:0:0:
16,28,325032,6,0,P|8:87|19:143,1,106.666666666667
166,221,325512,5,0,0:0:0:0:
309,136,325672,1,0,0:0:0:0:
427,284,325832,1,0,0:0:0:0:
493,91,325992,6,0,P|474:36|420:0,1,106.666666666667
273,238,326472,2,0,L|262:327,1,53.3333333333333
251,40,326792,5,0,0:0:0:0:
90,134,326952,2,0,P|134:138|207:116,1,106.666666666667
22,342,327432,2,0,P|45:294|81:255,1,106.666666666667
312,143,327912,6,0,L|325:211,1,53.3333333333333
341,285,328232,1,0,0:0:0:0:
185,168,328392,6,0,L|108:155,1,53.3333333333333
54,152,328712,1,0,0:0:0:0:
283,10,328872,6,0,P|330:59|386:86,1,106.666666666667
413,288,329352,5,0,0:0:0:0:
472,110,329512,1,0,0:0:0:0:
268,308,329672,1,0,0:0:0:0:
496,193,329832,2,0,P|503:233|505:269,1,53.3333333333333
245,150,330152,1,0,0:0:0:0:
245,150,330312,6,0,L|259:5,1,106.666666666667
57,131,330792,5,0,0:0:0:0:
1,238,330952,1,0,0:0:0:0:
51,349,331112,2,0,L|139:340,1,53.3333333333333
242,272,331432,5,0,0:0:0:0:
267,263,331512,1,0,0:0:0:0:
293,264,331592,1,0,0:0:0:0:
317,273,331672,1,0,0:0:0:0:
340,284,331752,2,0,P|367:301|454:271,1,106.666666666667
286,113,332232,5,0,0:0:0:0:
421,61,332392,1,0,0:0:0:0:
509,181,332552,1,0,0:0:0:0:
438,307,332712,2,0,L|321:318,1,106.666666666667
168,365,333192,5,0,0:0:0:0:
147,336,333272,1,0,0:0:0:0:
137,302,333352,1,0,0:0:0:0:
139,267,333432,1,0,0:0:0:0:
151,234,333512,1,0,0:0:0:0:
176,210,333592,1,0,0:0:0:0:
199,184,333672,2,0,P|212:121|206:73,1,106.666666666667
9,0,334152,5,0,0:0:0:0:
106,170,334312,1,0,0:0:0:0:
279,97,334472,1,0,0:0:0:0:
395,219,334632,2,0,P|403:254|410:329,1,106.666666666667
208,368,335112,5,0,0:0:0:0:
279,97,335272,1,0,0:0:0:0:
315,284,335432,1,0,0:0:0:0:
201,129,335592,2,0,P|161:135|102:173,1,106.666666666667
421,244,336072,5,0,0:0:0:0:
477,127,336232,1,0,0:0:0:0:
409,20,336392,1,0,0:0:0:0:
278,50,336552,2,0,P|279:93|292:160,1,106.666666666667
351,354,337032,5,0,0:0:0:0:
234,277,337192,1,0,0:0:0:0:
234,277,337272,1,0,0:0:0:0:
234,277,337352,1,0,0:0:0:0:
125,342,337512,6,0,P|86:354|65:356,1,53.3333333333333
7,198,337832,2,0,L|85:200,1,53.3333333333333
176,50,338152,6,0,L|239:78,1,53.3333333333333
341,201,338472,5,0,0:0:0:0:
319,72,338632,1,0,0:0:0:0:
319,72,338712,1,0,0:0:0:0:
319,72,338792,1,0,0:0:0:0:
425,23,338952,5,0,0:0:0:0:
258,159,339112,1,0,0:0:0:0:
367,337,339272,1,0,0:0:0:0:
488,199,339432,5,0,0:0:0:0:
400,166,339592,1,0,0:0:0:0:
423,251,339752,1,0,0:0:0:0:
217,331,339912,5,0,0:0:0:0:
196,246,340072,1,0,0:0:0:0:
280,268,340232,1,0,0:0:0:0:
239,113,340392,5,0,0:0:0:0:
268,26,340552,1,0,0:0:0:0:
331,91,340712,1,0,0:0:0:0:
280,268,340872,5,0,0:0:0:0:
184,364,341032,1,0,0:0:0:0:
146,239,341192,1,0,0:0:0:0:
37,113,341352,5,0,0:0:0:0:
20,82,341432,1,0,0:0:0:0:
23,47,341512,1,0,0:0:0:0:
49,24,341592,1,0,0:0:0:0:
83,19,341672,1,0,0:0:0:0:
114,33,341752,1,0,0:0:0:0:
129,64,341832,5,0,0:0:0:0:
145,94,341912,1,0,0:0:0:0:
175,110,341992,1,0,0:0:0:0:
209,112,342072,1,0,0:0:0:0:
239,95,342152,1,0,0:0:0:0:
257,66,342232,1,0,0:0:0:0:
280,40,342312,5,0,0:0:0:0:
308,20,342392,1,0,0:0:0:0:
342,18,342472,1,0,0:0:0:0:
375,26,342552,1,0,0:0:0:0:
403,45,342632,1,0,0:0:0:0:
420,74,342712,1,0,0:0:0:0:
428,107,342792,5,0,0:0:0:0:
426,141,342872,1,0,0:0:0:0:
401,165,342952,1,0,0:0:0:0:
370,180,343032,1,0,0:0:0:0:
335,176,343112,1,0,0:0:0:0:
308,153,343192,1,0,0:0:0:0:
294,120,343272,6,0,P|308:75|424:143,1,240
335,323,344872,1,0,0:0:0:0:
335,323,345032,1,0,0:0:0:0:
167,191,345192,5,0,0:0:0:0:
