osu file format v14

[General]
AudioFilename: audio.mp3
AudioLeadIn: 0
PreviewTime: 98485
Countdown: 0
SampleSet: Normal
StackLeniency: 0.7
Mode: 1
LetterboxInBreaks: 0
WidescreenStoryboard: 0

[Editor]
DistanceSpacing: 1
BeatDivisor: 4
GridSize: 32
TimelineZoom: 4

[Metadata]
Title:The Warrior Inside
TitleUnicode:The Warrior Inside
Artist:DragonForce
ArtistUnicode:DragonForce
Creator:Surono
Version:Tatsujin
Source:
Tags:Ultra Beatdown Dragon Force DGF DF Stream Speed Power Metal Marathon Herman Li ZP Theart
BeatmapID:1251239
BeatmapSetID:591253

[Difficulty]
HPDrainRate:4
CircleSize:2
OverallDifficulty:6.5
ApproachRate:10
SliderMultiplier:1.4
SliderTickRate:1

[Events]
//Background and Video events
0,0,"Bg warrior.jpg",0,0
//Break Periods
2,355885,371935
//Storyboard Layer 0 (Background)
//Storyboard Layer 1 (Fail)
//Storyboard Layer 2 (Pass)
//Storyboard Layer 3 (Foreground)
//Storyboard Sound Samples

[TimingPoints]
385,300,4,1,0,45,1,0
5110,-125,4,2,1,80,0,0
14710,-111.111111111111,4,1,0,90,0,0
19510,-100,4,1,0,90,0,0
23710,-100,4,1,1,65,0,0
24310,-100,4,1,0,90,0,0
25585,-100,4,1,0,90,0,1
28660,-100,4,1,0,70,0,1
30310,-100,4,1,0,90,0,1
42310,-100,4,1,1,80,0,1
43585,-100,4,1,0,90,0,1
48385,-100,4,1,0,90,0,0
67585,-90.9090909090909,4,1,0,90,0,0
69985,-100,4,1,0,90,0,0
89485,-111.111111111111,4,1,0,90,0,0
91285,-100,4,1,0,90,0,0
96385,-100,4,1,1,80,0,0
98785,-100,4,1,0,90,0,1
107110,-100,4,2,0,90,0,1
108310,-100,4,1,0,90,0,1
120385,-100,4,1,1,80,0,0
129985,-100,4,1,0,90,0,1
138010,-100,4,2,1,95,0,1
138535,-100,4,1,0,90,0,1
145210,-100,4,2,1,95,0,1
145660,-100,4,1,0,90,0,1
146710,-80,4,1,0,90,0,1
149185,-100,4,1,0,90,0,0
168385,-90.9090909090908,4,1,0,90,0,0
170785,-100,4,1,0,90,0,0
197185,-100,4,1,1,80,0,0
198985,-100,4,1,0,90,0,0
199585,-100,4,1,0,90,0,1
206710,-100,4,1,1,80,0,1
209185,-100,4,1,0,90,0,1
225985,-100,4,1,0,90,0,0
226585,-111.111111111111,4,2,1,90,0,0
240310,-105.263157894737,4,1,1,80,0,0
245110,-100,4,1,1,90,0,0
259585,-100,4,1,0,90,0,0
263185,-100,4,1,1,90,0,0
269110,-80,4,2,1,90,0,0
273985,-100,4,1,0,90,0,1
290710,-100,4,1,1,90,0,1
293185,-100,4,1,0,90,0,0
312685,-111.111111111111,4,1,0,90,0,0
316510,-100,4,1,1,90,0,0
317110,-100,4,1,0,90,0,0
323710,-100,4,1,1,90,0,0
324385,-100,4,1,0,90,0,0
329185,-100,4,1,1,90,0,0
330385,-100,4,1,0,90,0,0
338185,-66.6666666666667,4,1,0,90,0,0
338710,-100,4,1,1,90,0,0
341185,-100,4,1,0,90,0,1
355585,600,4,1,0,90,1,0
355585,-50,4,1,0,90,0,0
372310,-90.9090909090909,4,2,1,90,0,0
372610,-83.3333333333333,4,2,1,90,0,0
372910,-76.9230769230769,4,2,1,90,0,0
373210,-71.4285714285714,4,2,1,90,0,0
373510,-66.6666666666667,4,2,1,90,0,0
373810,-71.4285714285714,4,2,1,90,0,0
374110,-76.9230769230769,4,2,1,90,0,0
374410,-83.3333333333333,4,2,1,90,0,0
374785,-90.9090909090909,4,1,0,90,0,1
391435,-90.9090909090909,4,1,1,80,0,1
393835,-90.9090909090909,4,1,0,90,0,1
410635,-90.9090909090909,4,1,1,80,0,1
413185,472.44094488189,4,1,0,90,1,0
413185,-116.959064327485,4,1,0,90,0,0
416964,550.45871559633,4,2,1,90,1,0
421367,600,4,1,0,70,1,0

[HitObjects]
256,192,385,12,0,4885,0:0:0:0:
256,192,5185,5,12,0:0:0:0:
256,192,5335,1,0,0:0:0:0:
256,192,5485,1,8,0:0:0:0:
256,192,5635,1,0,0:0:0:0:
256,192,5935,1,8,0:0:0:0:
256,192,6235,1,0,0:0:0:0:
256,192,6535,1,0,0:0:0:0:
256,192,6835,1,8,0:0:0:0:
256,192,7135,1,8,0:0:0:0:
256,192,7285,1,0,0:0:0:0:
256,192,7435,1,8,0:0:0:0:
256,192,7585,1,0,0:0:0:0:
256,192,7885,1,8,0:0:0:0:
256,192,8035,1,0,0:0:0:0:
256,192,8335,1,0,0:0:0:0:
256,192,8635,1,8,0:0:0:0:
256,192,8935,1,8,0:0:0:0:
256,192,9085,1,0,0:0:0:0:
256,192,9235,1,8,0:0:0:0:
256,192,9385,1,0,0:0:0:0:
256,192,9685,1,8,0:0:0:0:
256,192,9835,1,8,0:0:0:0:
256,192,9985,1,0,0:0:0:0:
256,192,10135,1,8,0:0:0:0:
256,192,10285,1,0,0:0:0:0:
256,192,10435,1,0,0:0:0:0:
256,192,10585,1,8,0:0:0:0:
256,192,10885,1,8,0:0:0:0:
256,192,11035,1,8,0:0:0:0:
256,192,11335,1,8,0:0:0:0:
256,192,11635,1,0,0:0:0:0:
256,192,11935,1,8,0:0:0:0:
256,192,12085,1,0,0:0:0:0:
256,192,12235,1,8,0:0:0:0:
256,192,12385,1,0,0:0:0:0:
256,192,12535,1,0,0:0:0:0:
256,192,12685,1,8,0:0:0:0:
256,192,12835,1,0,0:0:0:0:
256,192,13135,1,8,0:0:0:0:
256,192,13435,1,8,0:0:0:0:
256,192,13735,1,0,0:0:0:0:
256,192,14035,1,0,0:0:0:0:
256,192,14185,1,8,0:0:0:0:
256,192,14335,1,8,0:0:0:0:
256,192,14485,1,0,0:0:0:0:
256,192,14635,1,8,0:0:0:0:
256,192,14785,1,4,0:0:0:0:
256,192,15085,1,4,0:0:0:0:
256,192,15385,1,0,0:0:0:0:
256,192,15535,1,8,0:0:0:0:
256,192,15685,1,0,0:0:0:0:
256,192,15835,1,8,0:0:0:0:
256,192,15985,1,0,0:0:0:0:
256,192,16135,1,0,0:0:0:0:
256,192,16285,1,8,0:0:0:0:
256,192,16435,1,8,0:0:0:0:
256,192,16585,1,0,0:0:0:0:
256,192,16735,1,12,0:0:0:0:
256,192,16885,1,12,0:0:0:0:
256,192,17035,1,12,0:0:0:0:
256,192,17185,1,4,0:0:0:0:
256,192,17335,1,4,0:0:0:0:
256,192,17485,1,4,0:0:0:0:
256,192,17635,1,8,0:0:0:0:
256,192,17785,1,0,0:0:0:0:
256,192,17935,1,8,0:0:0:0:
256,192,18085,1,0,0:0:0:0:
256,192,18235,1,8,0:0:0:0:
256,192,18385,1,0,0:0:0:0:
256,192,18535,1,8,0:0:0:0:
256,192,18685,1,0,0:0:0:0:
256,192,18835,1,0,0:0:0:0:
256,192,18985,2,0,P|192:128|256:64,1,188.999994232178
256,192,19585,1,12,0:0:0:0:
256,192,19735,1,0,0:0:0:0:
256,192,19885,1,12,0:0:0:0:
256,192,20035,1,0,0:0:0:0:
256,192,20185,1,12,0:0:0:0:
256,192,20335,1,0,0:0:0:0:
256,192,20485,1,12,0:0:0:0:
256,192,20635,1,0,0:0:0:0:
256,192,20785,1,12,0:0:0:0:
256,192,20935,1,0,0:0:0:0:
256,192,21085,1,12,0:0:0:0:
256,192,21235,1,0,0:0:0:0:
256,192,21385,1,12,0:0:0:0:
256,192,21535,1,0,0:0:0:0:
256,192,21685,1,12,0:0:0:0:
256,192,21985,1,4,0:0:0:0:
256,192,22135,1,4,0:0:0:0:
256,192,22285,1,8,0:0:0:0:
256,192,22435,1,8,0:0:0:0:
256,192,22510,1,8,0:0:0:0:
256,192,22585,1,8,0:0:0:0:
256,192,22735,1,4,0:0:0:0:
256,192,22885,1,4,0:0:0:0:
256,192,23035,1,4,0:0:0:0:
256,192,23185,1,12,0:0:0:0:
256,192,23335,1,12,0:0:0:0:
256,192,23485,1,12,0:0:0:0:
256,192,23635,1,0,0:0:0:0:
256,192,23785,5,8,0:0:0:0:
256,192,23822,1,8,0:0:0:0:
256,192,23935,1,8,0:0:0:0:
256,192,23972,1,8,0:0:0:0:
256,192,24085,1,8,0:0:0:0:
256,192,24122,1,8,0:0:0:0:
256,192,24235,1,8,0:0:0:0:
256,192,24272,1,8,0:0:0:0:
256,192,24385,1,0,0:0:0:0:
256,192,24460,1,0,0:0:0:0:
256,192,24535,1,8,0:0:0:0:
256,192,24610,1,8,0:0:0:0:
256,192,24685,1,8,0:0:0:0:
256,192,24760,1,8,0:0:0:0:
256,192,24835,1,0,0:0:0:0:
256,192,24910,1,0,0:0:0:0:
256,192,24985,1,8,0:0:0:0:
256,192,25060,1,8,0:0:0:0:
256,192,25135,1,8,0:0:0:0:
256,192,25210,1,8,0:0:0:0:
256,192,25285,1,0,0:0:0:0:
256,192,25360,1,0,0:0:0:0:
256,192,25435,1,0,0:0:0:0:
256,192,25585,1,12,0:0:0:0:
256,192,25735,1,8,0:0:0:0:
256,192,25810,1,0,0:0:0:0:
256,192,25885,1,0,0:0:0:0:
256,192,25960,1,0,0:0:0:0:
256,192,26035,1,8,0:0:0:0:
256,192,26110,1,8,0:0:0:0:
256,192,26185,1,0,0:0:0:0:
256,192,26335,1,0,0:0:0:0:
256,192,26485,1,8,0:0:0:0:
256,192,26560,1,8,0:0:0:0:
256,192,26635,1,0,0:0:0:0:
256,192,26710,1,0,0:0:0:0:
256,192,26785,1,8,0:0:0:0:
256,192,26935,1,0,0:0:0:0:
256,192,27085,1,0,0:0:0:0:
256,192,27160,1,0,0:0:0:0:
256,192,27235,1,8,0:0:0:0:
256,192,27310,1,8,0:0:0:0:
256,192,27385,1,0,0:0:0:0:
256,192,27535,1,0,0:0:0:0:
256,192,27685,1,8,0:0:0:0:
256,192,27760,1,0,0:0:0:0:
256,192,27835,1,8,0:0:0:0:
256,192,27985,1,0,0:0:0:0:
256,192,28060,1,0,0:0:0:0:
256,192,28135,1,8,0:0:0:0:
256,192,28210,1,0,0:0:0:0:
256,192,28285,1,0,0:0:0:0:
256,192,28360,1,0,0:0:0:0:
256,192,28435,1,8,0:0:0:0:
256,192,28510,1,8,0:0:0:0:
256,192,28585,1,0,0:0:0:0:
256,192,28735,1,8,0:0:0:0:
256,192,28772,1,8,0:0:0:0:
256,192,28885,1,8,0:0:0:0:
256,192,28922,1,8,0:0:0:0:
256,192,29035,1,8,0:0:0:0:
256,192,29072,1,8,0:0:0:0:
256,192,29185,1,8,0:0:0:0:
256,192,29222,1,8,0:0:0:0:
256,192,29335,1,8,0:0:0:0:
256,192,29372,1,8,0:0:0:0:
256,192,29485,1,8,0:0:0:0:
256,192,29522,1,8,0:0:0:0:
256,192,29635,1,8,0:0:0:0:
256,192,29672,1,8,0:0:0:0:
256,192,29785,2,0,L|256:160,12,17.5
256,192,30385,1,8,0:0:0:0:
256,192,30535,1,8,0:0:0:0:
256,192,30610,1,0,0:0:0:0:
256,192,30685,1,0,0:0:0:0:
256,192,30760,1,0,0:0:0:0:
256,192,30835,1,8,0:0:0:0:
256,192,30910,1,0,0:0:0:0:
256,192,30985,1,0,0:0:0:0:
256,192,31135,1,0,0:0:0:0:
256,192,31285,1,8,0:0:0:0:
256,192,31360,1,0,0:0:0:0:
256,192,31435,1,0,0:0:0:0:
256,192,31510,1,0,0:0:0:0:
256,192,31585,1,8,0:0:0:0:
256,192,31660,1,8,0:0:0:0:
256,192,31735,1,0,0:0:0:0:
256,192,31810,1,8,0:0:0:0:
256,192,31885,1,0,0:0:0:0:
256,192,31960,1,0,0:0:0:0:
256,192,32035,1,8,0:0:0:0:
256,192,32110,1,0,0:0:0:0:
256,192,32185,1,8,0:0:0:0:
256,192,32260,1,8,0:0:0:0:
256,192,32335,1,0,0:0:0:0:
256,192,32410,1,8,0:0:0:0:
256,192,32485,1,0,0:0:0:0:
256,192,32560,1,0,0:0:0:0:
256,192,32635,1,8,0:0:0:0:
256,192,32785,1,8,0:0:0:0:
256,192,32860,1,8,0:0:0:0:
256,192,32935,1,0,0:0:0:0:
256,192,33010,1,8,0:0:0:0:
256,192,33085,1,0,0:0:0:0:
256,192,33160,1,0,0:0:0:0:
256,192,33235,1,8,0:0:0:0:
256,192,33310,1,0,0:0:0:0:
256,192,33385,1,8,0:0:0:0:
256,192,33460,1,8,0:0:0:0:
256,192,33535,1,0,0:0:0:0:
256,192,33610,1,8,0:0:0:0:
256,192,33685,1,8,0:0:0:0:
256,192,33760,1,8,0:0:0:0:
256,192,33835,1,0,0:0:0:0:
256,192,33910,1,0,0:0:0:0:
256,192,33985,1,8,0:0:0:0:
256,192,34060,1,0,0:0:0:0:
256,192,34135,1,8,0:0:0:0:
256,192,34210,1,8,0:0:0:0:
256,192,34285,1,0,0:0:0:0:
256,192,34360,1,0,0:0:0:0:
256,192,34435,1,8,0:0:0:0:
256,192,34510,1,0,0:0:0:0:
256,192,34585,1,8,0:0:0:0:
256,192,34660,1,8,0:0:0:0:
256,192,34735,1,0,0:0:0:0:
256,192,34810,1,8,0:0:0:0:
256,192,34885,1,0,0:0:0:0:
256,192,34960,1,0,0:0:0:0:
256,192,35035,1,0,0:0:0:0:
256,192,35185,1,12,0:0:0:0:
256,192,35335,1,8,0:0:0:0:
256,192,35410,1,0,0:0:0:0:
256,192,35485,1,8,0:0:0:0:
256,192,35560,1,0,0:0:0:0:
256,192,35635,1,8,0:0:0:0:
256,192,35710,1,8,0:0:0:0:
256,192,35785,1,0,0:0:0:0:
256,192,35860,1,0,0:0:0:0:
256,192,35935,1,8,0:0:0:0:
256,192,36010,1,0,0:0:0:0:
256,192,36085,1,8,0:0:0:0:
256,192,36160,1,8,0:0:0:0:
256,192,36235,1,8,0:0:0:0:
256,192,36310,1,0,0:0:0:0:
256,192,36385,1,8,0:0:0:0:
256,192,36460,1,0,0:0:0:0:
256,192,36535,1,8,0:0:0:0:
256,192,36610,1,8,0:0:0:0:
256,192,36685,1,0,0:0:0:0:
256,192,36760,1,0,0:0:0:0:
256,192,36835,1,8,0:0:0:0:
256,192,36910,1,8,0:0:0:0:
256,192,36985,1,8,0:0:0:0:
256,192,37060,1,8,0:0:0:0:
256,192,37135,1,0,0:0:0:0:
256,192,37210,1,0,0:0:0:0:
256,192,37285,1,8,0:0:0:0:
256,192,37360,1,0,0:0:0:0:
256,192,37435,1,8,0:0:0:0:
256,192,37585,1,12,0:0:0:0:
256,192,37735,1,0,0:0:0:0:
256,192,37810,1,0,0:0:0:0:
256,192,37885,1,8,0:0:0:0:
256,192,38035,1,0,0:0:0:0:
256,192,38185,1,12,0:0:0:0:
256,192,38335,1,0,0:0:0:0:
256,192,38485,1,12,0:0:0:0:
256,192,38635,1,0,0:0:0:0:
256,192,38785,1,12,0:0:0:0:
256,192,38935,1,0,0:0:0:0:
256,192,39010,1,0,0:0:0:0:
256,192,39085,1,8,0:0:0:0:
256,192,39235,1,0,0:0:0:0:
256,192,39385,1,12,0:0:0:0:
256,192,39535,1,0,0:0:0:0:
256,192,39610,1,0,0:0:0:0:
256,192,39685,1,8,0:0:0:0:
256,192,39760,1,0,0:0:0:0:
256,192,39835,1,8,0:0:0:0:
256,192,39985,1,4,0:0:0:0:
256,192,40135,1,8,0:0:0:0:
256,192,40210,1,8,0:0:0:0:
256,192,40285,1,0,0:0:0:0:
256,192,40360,1,0,0:0:0:0:
256,192,40435,1,8,0:0:0:0:
256,192,40510,1,0,0:0:0:0:
256,192,40585,1,8,0:0:0:0:
256,192,40735,1,0,0:0:0:0:
256,192,40885,1,8,0:0:0:0:
256,192,40960,1,8,0:0:0:0:
256,192,41035,1,0,0:0:0:0:
256,192,41110,1,0,0:0:0:0:
256,192,41185,1,8,0:0:0:0:
256,192,41260,1,0,0:0:0:0:
256,192,41335,1,8,0:0:0:0:
256,192,41410,1,0,0:0:0:0:
256,192,41485,1,8,0:0:0:0:
256,192,41560,1,8,0:0:0:0:
256,192,41635,1,0,0:0:0:0:
256,192,41710,1,8,0:0:0:0:
256,192,41785,1,0,0:0:0:0:
256,192,41860,1,0,0:0:0:0:
256,192,41935,1,8,0:0:0:0:
256,192,42010,1,0,0:0:0:0:
256,192,42085,1,8,0:0:0:0:
256,192,42160,1,8,0:0:0:0:
256,192,42235,1,0,0:0:0:0:
256,192,42385,1,0,0:0:0:0:
256,192,42460,1,0,0:0:0:0:
256,192,42535,1,0,0:0:0:0:
256,192,42610,1,0,0:0:0:0:
256,192,42685,1,8,0:0:0:0:
256,192,42760,1,0,0:0:0:0:
256,192,42835,1,8,0:0:0:0:
256,192,42910,1,8,0:0:0:0:
256,192,42985,1,0,0:0:0:0:
256,192,43060,1,0,0:0:0:0:
256,192,43135,1,0,0:0:0:0:
256,192,43285,1,0,0:0:0:0:
256,192,43360,1,0,0:0:0:0:
256,192,43435,1,0,0:0:0:0:
256,192,43510,1,0,0:0:0:0:
256,192,43585,1,8,0:0:0:0:
256,192,43735,1,0,0:0:0:0:
256,192,43810,1,0,0:0:0:0:
256,192,43885,1,8,0:0:0:0:
256,192,44035,1,8,0:0:0:0:
256,192,44110,1,0,0:0:0:0:
256,192,44185,1,0,0:0:0:0:
256,192,44260,1,0,0:0:0:0:
256,192,44335,1,8,0:0:0:0:
256,192,44410,1,0,0:0:0:0:
256,192,44485,1,8,0:0:0:0:
256,192,44560,1,0,0:0:0:0:
256,192,44635,1,0,0:0:0:0:
256,192,44785,1,12,0:0:0:0:
256,192,44985,1,8,0:0:0:0:
256,192,45085,1,0,0:0:0:0:
256,192,45185,1,8,0:0:0:0:
256,192,45285,1,8,0:0:0:0:
256,192,45385,1,0,0:0:0:0:
256,192,45485,1,8,0:0:0:0:
256,192,45585,1,0,0:0:0:0:
256,192,45685,1,0,0:0:0:0:
256,192,45785,1,8,0:0:0:0:
256,192,45985,1,4,0:0:0:0:
256,192,46135,1,8,0:0:0:0:
256,192,46285,1,4,0:0:0:0:
256,192,46435,1,8,0:0:0:0:
256,192,46585,1,4,0:0:0:0:
256,192,46735,1,8,0:0:0:0:
256,192,46885,1,4,0:0:0:0:
256,192,47035,1,8,0:0:0:0:
256,192,47185,2,4,L|64:64,1,210
256,192,47785,1,12,0:0:0:0:
256,192,47935,1,12,0:0:0:0:
256,192,48385,1,4,0:0:0:0:
256,192,48535,1,8,0:0:0:0:
256,192,48685,1,0,0:0:0:0:
256,192,48760,1,0,0:0:0:0:
256,192,48835,1,8,0:0:0:0:
256,192,48910,1,0,0:0:0:0:
256,192,49060,1,0,0:0:0:0:
256,192,49135,1,8,0:0:0:0:
256,192,49285,1,0,0:0:0:0:
256,192,49435,1,8,0:0:0:0:
256,192,49510,1,0,0:0:0:0:
256,192,49585,5,0,0:0:0:0:
256,192,49735,1,8,0:0:0:0:
256,192,49810,1,0,0:0:0:0:
256,192,49885,1,0,0:0:0:0:
256,192,50035,1,8,0:0:0:0:
256,192,50185,1,0,0:0:0:0:
256,192,50260,1,0,0:0:0:0:
256,192,50335,1,0,0:0:0:0:
256,192,50485,1,8,0:0:0:0:
256,192,50560,1,0,0:0:0:0:
256,192,50635,1,8,0:0:0:0:
256,192,50785,1,0,0:0:0:0:
256,192,50935,1,8,0:0:0:0:
256,192,51085,1,0,0:0:0:0:
256,192,51160,1,0,0:0:0:0:
256,192,51235,1,8,0:0:0:0:
256,192,51310,1,0,0:0:0:0:
256,192,51460,1,0,0:0:0:0:
256,192,51535,1,8,0:0:0:0:
256,192,51685,1,0,0:0:0:0:
256,192,51835,1,0,0:0:0:0:
256,192,51910,1,8,0:0:0:0:
256,192,51985,1,8,0:0:0:0:
256,192,52135,1,0,0:0:0:0:
256,192,52210,1,8,0:0:0:0:
256,192,52285,1,8,0:0:0:0:
256,192,52435,1,8,0:0:0:0:
256,192,52585,1,0,0:0:0:0:
256,192,52735,1,0,0:0:0:0:
256,192,52885,1,8,0:0:0:0:
256,192,52960,1,8,0:0:0:0:
256,192,53035,1,8,0:0:0:0:
256,192,53185,1,4,0:0:0:0:
256,192,53335,1,8,0:0:0:0:
256,192,53485,1,0,0:0:0:0:
256,192,53560,1,0,0:0:0:0:
256,192,53635,1,8,0:0:0:0:
256,192,53785,1,0,0:0:0:0:
256,192,53860,1,0,0:0:0:0:
256,192,53935,1,8,0:0:0:0:
256,192,54010,1,0,0:0:0:0:
256,192,54085,1,0,0:0:0:0:
256,192,54235,1,8,0:0:0:0:
256,192,54385,1,0,0:0:0:0:
256,192,54535,1,8,0:0:0:0:
256,192,54685,1,0,0:0:0:0:
256,192,54760,1,0,0:0:0:0:
256,192,54835,1,8,0:0:0:0:
256,192,54910,1,8,0:0:0:0:
256,192,54985,1,0,0:0:0:0:
256,192,55135,1,8,0:0:0:0:
256,192,55210,1,8,0:0:0:0:
256,192,55285,1,0,0:0:0:0:
256,192,55435,1,8,0:0:0:0:
256,192,55585,1,0,0:0:0:0:
256,192,55660,1,0,0:0:0:0:
256,192,55735,1,8,0:0:0:0:
256,192,55810,1,8,0:0:0:0:
256,192,55885,1,8,0:0:0:0:
256,192,55960,1,8,0:0:0:0:
256,192,56035,1,0,0:0:0:0:
256,192,56110,1,0,0:0:0:0:
256,192,56185,1,8,0:0:0:0:
256,192,56260,1,8,0:0:0:0:
256,192,56335,1,8,0:0:0:0:
256,192,56410,1,8,0:0:0:0:
256,192,56485,1,0,0:0:0:0:
256,192,56560,1,0,0:0:0:0:
256,192,56635,1,0,0:0:0:0:
256,192,56710,1,0,0:0:0:0:
256,192,56785,1,8,0:0:0:0:
256,192,56935,1,0,0:0:0:0:
256,192,57010,1,0,0:0:0:0:
256,192,57085,1,8,0:0:0:0:
256,192,57235,1,0,0:0:0:0:
256,192,57310,1,0,0:0:0:0:
256,192,57385,1,8,0:0:0:0:
256,192,57535,1,0,0:0:0:0:
256,192,57685,1,8,0:0:0:0:
256,192,57835,1,0,0:0:0:0:
256,192,57985,1,12,0:0:0:0:
256,192,58135,1,8,0:0:0:0:
256,192,58210,1,0,0:0:0:0:
256,192,58285,1,0,0:0:0:0:
256,192,58360,1,0,0:0:0:0:
256,192,58435,1,8,0:0:0:0:
256,192,58510,1,8,0:0:0:0:
256,192,58585,1,0,0:0:0:0:
256,192,58660,1,0,0:0:0:0:
256,192,58735,1,8,0:0:0:0:
256,192,58810,1,0,0:0:0:0:
256,192,58885,1,0,0:0:0:0:
256,192,58960,1,0,0:0:0:0:
256,192,59035,1,8,0:0:0:0:
256,192,59110,1,0,0:0:0:0:
256,192,59185,1,0,0:0:0:0:
256,192,59260,1,0,0:0:0:0:
256,192,59335,1,8,0:0:0:0:
256,192,59410,1,8,0:0:0:0:
256,192,59485,1,0,0:0:0:0:
256,192,59560,1,0,0:0:0:0:
256,192,59635,1,8,0:0:0:0:
256,192,59710,1,0,0:0:0:0:
256,192,59785,1,8,0:0:0:0:
256,192,59860,1,0,0:0:0:0:
256,192,59935,1,0,0:0:0:0:
256,192,60010,1,0,0:0:0:0:
256,192,60085,1,8,0:0:0:0:
256,192,60160,1,8,0:0:0:0:
256,192,60235,1,0,0:0:0:0:
256,192,60385,1,12,0:0:0:0:
256,192,60535,1,0,0:0:0:0:
256,192,60610,1,0,0:0:0:0:
256,192,60685,1,8,0:0:0:0:
256,192,60760,1,0,0:0:0:0:
256,192,60835,1,0,0:0:0:0:
256,192,60910,1,0,0:0:0:0:
256,192,60985,1,8,0:0:0:0:
256,192,61060,1,8,0:0:0:0:
256,192,61135,1,0,0:0:0:0:
256,192,61210,1,0,0:0:0:0:
256,192,61285,1,8,0:0:0:0:
256,192,61360,1,8,0:0:0:0:
256,192,61435,1,0,0:0:0:0:
256,192,61585,1,8,0:0:0:0:
256,192,61685,1,8,0:0:0:0:
256,192,61785,1,8,0:0:0:0:
256,192,61885,1,8,0:0:0:0:
256,192,61985,1,8,0:0:0:0:
256,192,62085,1,8,0:0:0:0:
256,192,62185,1,0,0:0:0:0:
256,192,62285,1,0,0:0:0:0:
256,192,62385,1,0,0:0:0:0:
256,192,62485,1,0,0:0:0:0:
256,192,62585,1,0,0:0:0:0:
256,192,62685,1,0,0:0:0:0:
256,192,62785,1,12,0:0:0:0:
256,192,63235,1,0,0:0:0:0:
256,192,63385,1,8,0:0:0:0:
256,192,63435,1,8,0:0:0:0:
256,192,63535,1,0,0:0:0:0:
256,192,63685,1,8,0:0:0:0:
256,192,63835,1,8,0:0:0:0:
256,192,63985,1,4,0:0:0:0:
256,192,64285,1,0,0:0:0:0:
256,192,64585,1,8,0:0:0:0:
256,192,64635,1,8,0:0:0:0:
256,192,64885,1,8,0:0:0:0:
256,192,65035,1,0,0:0:0:0:
256,192,65185,1,4,0:0:0:0:
256,192,65485,1,0,0:0:0:0:
256,192,65635,1,0,0:0:0:0:
256,192,65785,1,8,0:0:0:0:
256,192,66085,1,8,0:0:0:0:
256,192,66235,1,0,0:0:0:0:
256,192,66535,1,8,0:0:0:0:
256,192,66835,1,0,0:0:0:0:
256,192,66985,1,8,0:0:0:0:
256,192,67285,1,8,0:0:0:0:
256,192,67585,1,8,0:0:0:0:
256,192,67660,1,0,0:0:0:0:
256,192,67735,1,0,0:0:0:0:
256,192,67810,1,8,0:0:0:0:
256,192,67885,1,8,0:0:0:0:
256,192,67960,1,0,0:0:0:0:
256,192,68035,1,0,0:0:0:0:
256,192,68110,1,8,0:0:0:0:
256,192,68185,1,8,0:0:0:0:
256,192,68260,1,0,0:0:0:0:
256,192,68335,1,0,0:0:0:0:
256,192,68410,1,8,0:0:0:0:
256,192,68485,1,8,0:0:0:0:
256,192,68560,1,0,0:0:0:0:
256,192,68635,1,0,0:0:0:0:
256,192,68710,1,0,0:0:0:0:
256,192,68785,1,8,0:0:0:0:
256,192,68860,1,8,0:0:0:0:
256,192,68935,1,0,0:0:0:0:
256,192,69010,1,0,0:0:0:0:
256,192,69085,1,8,0:0:0:0:
256,192,69160,1,0,0:0:0:0:
256,192,69235,1,0,0:0:0:0:
256,192,69310,1,0,0:0:0:0:
256,192,69385,1,8,0:0:0:0:
256,192,69460,1,8,0:0:0:0:
256,192,69535,1,8,0:0:0:0:
256,192,69610,1,8,0:0:0:0:
256,192,69685,1,0,0:0:0:0:
256,192,69985,1,12,0:0:0:0:
256,192,70135,1,0,0:0:0:0:
256,192,70285,1,8,0:0:0:0:
256,192,70360,1,8,0:0:0:0:
256,192,70510,1,0,0:0:0:0:
256,192,70585,1,8,0:0:0:0:
256,192,70735,1,0,0:0:0:0:
256,192,70885,1,8,0:0:0:0:
256,192,70960,1,8,0:0:0:0:
256,192,71035,1,0,0:0:0:0:
256,192,71185,1,8,0:0:0:0:
256,192,71335,1,0,0:0:0:0:
256,192,71410,1,8,0:0:0:0:
256,192,71485,1,8,0:0:0:0:
256,192,71560,1,0,0:0:0:0:
256,192,71710,1,0,0:0:0:0:
256,192,71785,1,8,0:0:0:0:
256,192,71935,1,8,0:0:0:0:
256,192,72085,1,8,0:0:0:0:
256,192,72235,1,0,0:0:0:0:
256,192,72385,1,8,0:0:0:0:
256,192,72460,1,8,0:0:0:0:
256,192,72535,1,0,0:0:0:0:
256,192,72685,1,8,0:0:0:0:
256,192,72760,1,0,0:0:0:0:
256,192,72910,1,8,0:0:0:0:
256,192,72985,1,8,0:0:0:0:
256,192,73135,1,0,0:0:0:0:
256,192,73285,5,8,0:0:0:0:
256,192,73360,1,0,0:0:0:0:
256,192,73435,1,0,0:0:0:0:
256,192,73585,1,8,0:0:0:0:
256,192,73660,1,0,0:0:0:0:
256,192,73735,1,0,0:0:0:0:
256,192,73810,1,8,0:0:0:0:
256,192,73885,1,8,0:0:0:0:
256,192,73960,1,0,0:0:0:0:
256,192,74035,1,8,0:0:0:0:
256,192,74185,1,0,0:0:0:0:
256,192,74260,1,0,0:0:0:0:
256,192,74335,1,0,0:0:0:0:
256,192,74485,1,8,0:0:0:0:
256,192,74560,1,8,0:0:0:0:
256,192,74635,1,8,0:0:0:0:
256,192,74785,1,4,0:0:0:0:
256,192,74935,1,0,0:0:0:0:
256,192,75010,1,0,0:0:0:0:
256,192,75085,1,8,0:0:0:0:
256,192,75235,1,8,0:0:0:0:
256,192,75310,1,0,0:0:0:0:
256,192,75385,1,8,0:0:0:0:
256,192,75535,1,0,0:0:0:0:
256,192,75610,1,0,0:0:0:0:
256,192,75685,1,8,0:0:0:0:
256,192,75835,1,8,0:0:0:0:
256,192,75910,1,0,0:0:0:0:
256,192,75985,1,8,0:0:0:0:
256,192,76135,1,0,0:0:0:0:
256,192,76210,1,0,0:0:0:0:
256,192,76285,1,8,0:0:0:0:
256,192,76435,1,8,0:0:0:0:
256,192,76510,1,0,0:0:0:0:
256,192,76585,1,8,0:0:0:0:
256,192,76735,1,0,0:0:0:0:
256,192,76810,1,0,0:0:0:0:
256,192,76885,1,8,0:0:0:0:
256,192,77035,1,0,0:0:0:0:
256,192,77185,1,8,0:0:0:0:
256,192,77260,1,0,0:0:0:0:
256,192,77335,1,0,0:0:0:0:
256,192,77410,1,8,0:0:0:0:
256,192,77485,1,0,0:0:0:0:
256,192,77560,1,0,0:0:0:0:
256,192,77635,1,8,0:0:0:0:
256,192,77710,1,0,0:0:0:0:
256,192,77785,1,8,0:0:0:0:
256,192,77860,1,8,0:0:0:0:
256,192,77935,1,0,0:0:0:0:
256,192,78010,1,0,0:0:0:0:
256,192,78085,1,8,0:0:0:0:
256,192,78160,1,0,0:0:0:0:
256,192,78235,1,8,0:0:0:0:
256,192,78310,1,8,0:0:0:0:
256,192,78385,1,8,0:0:0:0:
256,192,78535,1,0,0:0:0:0:
256,192,78610,1,0,0:0:0:0:
256,192,78685,1,8,0:0:0:0:
256,192,78835,1,8,0:0:0:0:
256,192,78910,1,0,0:0:0:0:
256,192,78985,1,0,0:0:0:0:
256,192,79060,1,0,0:0:0:0:
256,192,79135,1,8,0:0:0:0:
256,192,79285,1,8,0:0:0:0:
256,192,79360,1,8,0:0:0:0:
256,192,79435,1,0,0:0:0:0:
256,192,79585,1,12,0:0:0:0:
256,192,79735,1,0,0:0:0:0:
256,192,79885,1,8,0:0:0:0:
256,192,79960,1,0,0:0:0:0:
256,192,80035,1,0,0:0:0:0:
256,192,80110,1,0,0:0:0:0:
256,192,80185,1,8,0:0:0:0:
256,192,80335,1,0,0:0:0:0:
256,192,80485,1,8,0:0:0:0:
256,192,80635,1,0,0:0:0:0:
256,192,80785,1,8,0:0:0:0:
256,192,80860,1,0,0:0:0:0:
256,192,80935,1,0,0:0:0:0:
256,192,81010,1,0,0:0:0:0:
256,192,81085,1,8,0:0:0:0:
256,192,81160,1,0,0:0:0:0:
256,192,81235,1,0,0:0:0:0:
256,192,81310,1,0,0:0:0:0:
256,192,81385,1,8,0:0:0:0:
256,192,81535,1,8,0:0:0:0:
256,192,81685,1,8,0:0:0:0:
256,192,81835,1,0,0:0:0:0:
256,192,81985,1,12,0:0:0:0:
256,192,82135,1,0,0:0:0:0:
256,192,82285,1,8,0:0:0:0:
256,192,82360,1,8,0:0:0:0:
256,192,82435,1,0,0:0:0:0:
256,192,82510,1,0,0:0:0:0:
256,192,82585,1,8,0:0:0:0:
256,192,82735,1,0,0:0:0:0:
256,192,82885,1,8,0:0:0:0:
256,192,83035,1,0,0:0:0:0:
256,192,83185,1,8,0:0:0:0:
256,192,83260,1,8,0:0:0:0:
256,192,83335,1,0,0:0:0:0:
256,192,83485,1,8,0:0:0:0:
256,192,83635,1,0,0:0:0:0:
256,192,83710,1,0,0:0:0:0:
256,192,83785,1,8,0:0:0:0:
256,192,83860,1,8,0:0:0:0:
256,192,83935,1,0,0:0:0:0:
256,192,84085,1,8,0:0:0:0:
256,192,84235,1,0,0:0:0:0:
256,192,84385,1,12,0:0:0:0:
256,192,84535,1,0,0:0:0:0:
256,192,84685,1,8,0:0:0:0:
256,192,84760,1,8,0:0:0:0:
256,192,84835,1,0,0:0:0:0:
256,192,84910,1,0,0:0:0:0:
256,192,84985,1,8,0:0:0:0:
256,192,85060,1,0,0:0:0:0:
256,192,85135,1,8,0:0:0:0:
256,192,85285,1,8,0:0:0:0:
256,192,85360,1,0,0:0:0:0:
256,192,85435,1,0,0:0:0:0:
256,192,85585,1,8,0:0:0:0:
256,192,85660,1,0,0:0:0:0:
256,192,85735,1,8,0:0:0:0:
256,192,85810,1,0,0:0:0:0:
256,192,85885,1,8,0:0:0:0:
256,192,86035,1,0,0:0:0:0:
256,192,86110,1,8,0:0:0:0:
256,192,86185,1,8,0:0:0:0:
256,192,86335,1,0,0:0:0:0:
256,192,86485,1,8,0:0:0:0:
256,192,86560,1,0,0:0:0:0:
256,192,86635,1,0,0:0:0:0:
256,192,86785,1,8,0:0:0:0:
256,192,86860,1,8,0:0:0:0:
256,192,86935,1,0,0:0:0:0:
256,192,87010,1,8,0:0:0:0:
256,192,87085,1,0,0:0:0:0:
256,192,87160,1,0,0:0:0:0:
256,192,87235,1,8,0:0:0:0:
256,192,87310,1,8,0:0:0:0:
256,192,87385,1,0,0:0:0:0:
256,192,87460,1,8,0:0:0:0:
256,192,87535,1,0,0:0:0:0:
256,192,87610,1,0,0:0:0:0:
256,192,87685,1,8,0:0:0:0:
256,192,87760,1,8,0:0:0:0:
256,192,87835,1,8,0:0:0:0:
256,192,87910,1,0,0:0:0:0:
256,192,87985,1,8,0:0:0:0:
256,192,88060,1,0,0:0:0:0:
256,192,88135,1,0,0:0:0:0:
256,192,88210,1,0,0:0:0:0:
256,192,88285,1,8,0:0:0:0:
256,192,88360,1,0,0:0:0:0:
256,192,88435,1,0,0:0:0:0:
256,192,88510,1,0,0:0:0:0:
256,192,88585,1,8,0:0:0:0:
256,192,88735,1,0,0:0:0:0:
256,192,88810,1,0,0:0:0:0:
256,192,88885,1,8,0:0:0:0:
256,192,89035,1,0,0:0:0:0:
256,192,89185,1,4,0:0:0:0:
256,192,89635,1,0,0:0:0:0:
256,192,89785,1,8,0:0:0:0:
256,192,90085,1,0,0:0:0:0:
256,192,90385,1,12,0:0:0:0:
256,192,90835,1,0,0:0:0:0:
256,192,90985,1,8,0:0:0:0:
256,192,91285,1,0,0:0:0:0:
256,192,91435,5,0,0:0:0:0:
256,192,91585,1,4,0:0:0:0:
256,192,91885,1,8,0:0:0:0:
256,192,92035,1,0,0:0:0:0:
256,192,92185,1,0,0:0:0:0:
256,192,92335,1,0,0:0:0:0:
256,192,92485,1,8,0:0:0:0:
256,192,92785,1,0,0:0:0:0:
256,192,92935,1,0,0:0:0:0:
256,192,93085,1,8,0:0:0:0:
256,192,93160,1,0,0:0:0:0:
256,192,93235,1,8,0:0:0:0:
256,192,93385,1,0,0:0:0:0:
256,192,93460,1,0,0:0:0:0:
256,192,93535,1,0,0:0:0:0:
256,192,93685,1,12,0:0:0:0:
256,192,93985,1,4,0:0:0:0:
256,192,94135,1,0,0:0:0:0:
256,192,94210,1,0,0:0:0:0:
256,192,94285,1,8,0:0:0:0:
256,192,94435,1,8,0:0:0:0:
256,192,94585,1,4,0:0:0:0:
256,192,94735,1,0,0:0:0:0:
256,192,94810,1,0,0:0:0:0:
256,192,94885,1,8,0:0:0:0:
256,192,95035,1,8,0:0:0:0:
256,192,95185,1,4,0:0:0:0:
256,192,95335,1,0,0:0:0:0:
256,192,95410,1,0,0:0:0:0:
256,192,95485,1,8,0:0:0:0:
256,192,95635,1,8,0:0:0:0:
256,192,95785,1,4,0:0:0:0:
256,192,95935,1,0,0:0:0:0:
256,192,96010,1,0,0:0:0:0:
256,192,96085,1,8,0:0:0:0:
256,192,96235,1,8,0:0:0:0:
256,192,96310,1,0,0:0:0:0:
256,192,96385,1,0,0:0:0:0:
256,192,96535,1,0,0:0:0:0:
256,192,96685,1,0,0:0:0:0:
256,192,96835,1,0,0:0:0:0:
256,192,96985,1,0,0:0:0:0:
256,192,97135,1,0,0:0:0:0:
256,192,97285,1,0,0:0:0:0:
256,192,97435,1,0,0:0:0:0:
256,192,97585,1,0,0:0:0:0:
256,192,97735,1,0,0:0:0:0:
256,192,97885,1,0,0:0:0:0:
256,192,98035,1,0,0:0:0:0:
256,192,98185,1,12,0:0:0:0:
256,192,98785,1,4,0:0:0:0:
256,192,98935,1,8,0:0:0:0:
256,192,99010,1,8,0:0:0:0:
256,192,99085,1,0,0:0:0:0:
256,192,99160,1,0,0:0:0:0:
256,192,99235,1,0,0:0:0:0:
256,192,99310,1,0,0:0:0:0:
256,192,99385,1,8,0:0:0:0:
256,192,99460,1,8,0:0:0:0:
256,192,99535,1,0,0:0:0:0:
256,192,99610,1,0,0:0:0:0:
256,192,99685,1,0,0:0:0:0:
256,192,99760,1,0,0:0:0:0:
256,192,99835,1,8,0:0:0:0:
256,192,99910,1,0,0:0:0:0:
256,192,99985,1,8,0:0:0:0:
256,192,100060,1,8,0:0:0:0:
256,192,100135,1,0,0:0:0:0:
256,192,100210,1,0,0:0:0:0:
256,192,100285,1,0,0:0:0:0:
256,192,100360,1,0,0:0:0:0:
256,192,100435,1,8,0:0:0:0:
256,192,100510,1,0,0:0:0:0:
256,192,100585,1,0,0:0:0:0:
256,192,100660,1,0,0:0:0:0:
256,192,100735,1,0,0:0:0:0:
256,192,100810,1,0,0:0:0:0:
256,192,100885,1,8,0:0:0:0:
256,192,100960,1,8,0:0:0:0:
256,192,101035,1,0,0:0:0:0:
256,192,101110,1,0,0:0:0:0:
256,192,101185,1,8,0:0:0:0:
256,192,101260,1,0,0:0:0:0:
256,192,101335,1,8,0:0:0:0:
256,192,101410,1,8,0:0:0:0:
256,192,101485,1,0,0:0:0:0:
256,192,101560,1,0,0:0:0:0:
256,192,101635,1,0,0:0:0:0:
256,192,101710,1,0,0:0:0:0:
256,192,101785,1,8,0:0:0:0:
256,192,101860,1,8,0:0:0:0:
256,192,101935,1,0,0:0:0:0:
256,192,102010,1,0,0:0:0:0:
256,192,102085,1,0,0:0:0:0:
256,192,102160,1,0,0:0:0:0:
256,192,102235,1,8,0:0:0:0:
256,192,102310,1,0,0:0:0:0:
256,192,102385,1,8,0:0:0:0:
256,192,102460,1,8,0:0:0:0:
256,192,102535,1,0,0:0:0:0:
256,192,102610,1,0,0:0:0:0:
256,192,102685,1,8,0:0:0:0:
256,192,102760,1,8,0:0:0:0:
256,192,102835,1,0,0:0:0:0:
256,192,102910,1,0,0:0:0:0:
256,192,102985,1,8,0:0:0:0:
256,192,103060,1,8,0:0:0:0:
256,192,103135,1,0,0:0:0:0:
256,192,103210,1,0,0:0:0:0:
256,192,103285,1,8,0:0:0:0:
256,192,103360,1,8,0:0:0:0:
256,192,103435,1,0,0:0:0:0:
256,192,103510,1,0,0:0:0:0:
256,192,103585,1,8,0:0:0:0:
256,192,103660,1,0,0:0:0:0:
256,192,103735,1,0,0:0:0:0:
256,192,103810,1,0,0:0:0:0:
256,192,103885,1,8,0:0:0:0:
256,192,103960,1,0,0:0:0:0:
256,192,104035,1,8,0:0:0:0:
256,192,104110,1,8,0:0:0:0:
256,192,104185,1,0,0:0:0:0:
256,192,104260,1,0,0:0:0:0:
256,192,104335,1,0,0:0:0:0:
256,192,104410,1,0,0:0:0:0:
256,192,104485,1,8,0:0:0:0:
256,192,104560,1,0,0:0:0:0:
256,192,104635,1,0,0:0:0:0:
256,192,104710,1,0,0:0:0:0:
256,192,104785,1,8,0:0:0:0:
256,192,104860,1,0,0:0:0:0:
256,192,104935,1,8,0:0:0:0:
256,192,105010,1,8,0:0:0:0:
256,192,105085,1,0,0:0:0:0:
256,192,105160,1,0,0:0:0:0:
256,192,105235,1,8,0:0:0:0:
256,192,105310,1,8,0:0:0:0:
256,192,105385,1,0,0:0:0:0:
256,192,105460,1,0,0:0:0:0:
256,192,105535,1,0,0:0:0:0:
256,192,105610,1,0,0:0:0:0:
256,192,105685,1,8,0:0:0:0:
256,192,105835,1,8,0:0:0:0:
256,192,105985,1,0,0:0:0:0:
256,192,106060,1,0,0:0:0:0:
256,192,106135,1,8,0:0:0:0:
256,192,106210,1,8,0:0:0:0:
256,192,106285,1,8,0:0:0:0:
256,192,106360,1,8,0:0:0:0:
256,192,106435,1,0,0:0:0:0:
256,192,106510,1,0,0:0:0:0:
256,192,106585,1,8,0:0:0:0:
256,192,106660,1,8,0:0:0:0:
256,192,106735,1,8,0:0:0:0:
256,192,106810,1,8,0:0:0:0:
256,192,106885,1,0,0:0:0:0:
256,192,106960,1,0,0:0:0:0:
256,192,107035,1,0,0:0:0:0:
256,192,107185,1,12,0:0:0:0:
256,192,107485,1,12,0:0:0:0:
256,192,107785,1,12,0:0:0:0:
256,192,108085,1,12,0:0:0:0:
256,192,108385,1,12,0:0:0:0:
256,192,108535,1,8,0:0:0:0:
256,192,108610,1,0,0:0:0:0:
256,192,108685,1,0,0:0:0:0:
256,192,108760,1,0,0:0:0:0:
256,192,108835,1,8,0:0:0:0:
256,192,108985,1,0,0:0:0:0:
256,192,109060,1,0,0:0:0:0:
256,192,109135,1,8,0:0:0:0:
256,192,109210,1,0,0:0:0:0:
256,192,109285,1,0,0:0:0:0:
256,192,109435,1,8,0:0:0:0:
256,192,109585,1,0,0:0:0:0:
256,192,109735,1,8,0:0:0:0:
256,192,109885,1,0,0:0:0:0:
256,192,109960,1,0,0:0:0:0:
256,192,110035,1,8,0:0:0:0:
256,192,110110,1,0,0:0:0:0:
256,192,110185,1,0,0:0:0:0:
256,192,110260,1,0,0:0:0:0:
256,192,110335,1,8,0:0:0:0:
256,192,110410,1,0,0:0:0:0:
256,192,110485,1,8,0:0:0:0:
256,192,110560,1,8,0:0:0:0:
256,192,110635,1,0,0:0:0:0:
256,192,110785,1,8,0:0:0:0:
256,192,110935,1,8,0:0:0:0:
256,192,111010,1,8,0:0:0:0:
256,192,111085,1,0,0:0:0:0:
256,192,111160,1,0,0:0:0:0:
256,192,111235,1,8,0:0:0:0:
256,192,111385,1,0,0:0:0:0:
256,192,111460,1,0,0:0:0:0:
256,192,111535,1,8,0:0:0:0:
256,192,111610,1,8,0:0:0:0:
256,192,111685,1,0,0:0:0:0:
256,192,111835,1,8,0:0:0:0:
256,192,111985,1,0,0:0:0:0:
256,192,112060,1,0,0:0:0:0:
256,192,112135,1,8,0:0:0:0:
256,192,112210,1,8,0:0:0:0:
256,192,112285,1,0,0:0:0:0:
256,192,112360,1,0,0:0:0:0:
256,192,112435,1,8,0:0:0:0:
256,192,112585,1,0,0:0:0:0:
256,192,112735,1,8,0:0:0:0:
256,192,112885,1,0,0:0:0:0:
256,192,113035,1,8,0:0:0:0:
256,192,113185,1,8,0:0:0:0:
256,192,113260,1,8,0:0:0:0:
256,192,113335,1,0,0:0:0:0:
256,192,113410,1,0,0:0:0:0:
256,192,113485,1,8,0:0:0:0:
256,192,113560,1,0,0:0:0:0:
256,192,113635,1,8,0:0:0:0:
256,192,113710,1,8,0:0:0:0:
256,192,113785,1,0,0:0:0:0:
256,192,113860,1,0,0:0:0:0:
256,192,113935,1,0,0:0:0:0:
256,192,114010,1,0,0:0:0:0:
256,192,114085,1,8,0:0:0:0:
256,192,114160,1,8,0:0:0:0:
256,192,114235,1,0,0:0:0:0:
256,192,114310,1,0,0:0:0:0:
256,192,114385,1,8,0:0:0:0:
256,192,114460,1,8,0:0:0:0:
256,192,114535,1,0,0:0:0:0:
256,192,114610,1,0,0:0:0:0:
256,192,114685,1,8,0:0:0:0:
256,192,114760,1,0,0:0:0:0:
256,192,114835,1,0,0:0:0:0:
256,192,114910,1,0,0:0:0:0:
256,192,114985,1,8,0:0:0:0:
256,192,115060,1,8,0:0:0:0:
256,192,115135,1,0,0:0:0:0:
256,192,115210,1,0,0:0:0:0:
256,192,115285,1,8,0:0:0:0:
256,192,115360,1,0,0:0:0:0:
256,192,115435,1,8,0:0:0:0:
256,192,115510,1,8,0:0:0:0:
256,192,115585,1,0,0:0:0:0:
256,192,115660,1,0,0:0:0:0:
256,192,115735,1,8,0:0:0:0:
256,192,115810,1,0,0:0:0:0:
256,192,115885,1,0,0:0:0:0:
256,192,115960,1,0,0:0:0:0:
256,192,116035,1,8,0:0:0:0:
256,192,116110,1,8,0:0:0:0:
256,192,116185,1,0,0:0:0:0:
256,192,116260,1,0,0:0:0:0:
256,192,116335,1,8,0:0:0:0:
256,192,116410,1,0,0:0:0:0:
256,192,116485,1,0,0:0:0:0:
256,192,116560,1,0,0:0:0:0:
256,192,116635,1,8,0:0:0:0:
256,192,116710,1,8,0:0:0:0:
256,192,116785,1,0,0:0:0:0:
256,192,116935,1,8,0:0:0:0:
256,192,117085,1,0,0:0:0:0:
256,192,117235,1,8,0:0:0:0:
256,192,117385,1,8,0:0:0:0:
256,192,117460,1,8,0:0:0:0:
256,192,117535,1,0,0:0:0:0:
256,192,117610,1,0,0:0:0:0:
256,192,117685,1,8,0:0:0:0:
256,192,117760,1,8,0:0:0:0:
256,192,117835,1,0,0:0:0:0:
256,192,117985,1,8,0:0:0:0:
256,192,118060,1,8,0:0:0:0:
256,192,118135,1,0,0:0:0:0:
256,192,118210,1,0,0:0:0:0:
256,192,118285,1,0,0:0:0:0:
256,192,118360,1,0,0:0:0:0:
256,192,118435,1,8,0:0:0:0:
256,192,118510,1,0,0:0:0:0:
256,192,118585,1,8,0:0:0:0:
256,192,118660,1,8,0:0:0:0:
256,192,118735,1,0,0:0:0:0:
256,192,118810,1,0,0:0:0:0:
256,192,118885,1,0,0:0:0:0:
256,192,118960,1,0,0:0:0:0:
256,192,119035,1,0,0:0:0:0:
256,192,119110,1,0,0:0:0:0:
256,192,119185,1,8,0:0:0:0:
256,192,119260,1,0,0:0:0:0:
256,192,119335,1,0,0:0:0:0:
256,192,119410,1,0,0:0:0:0:
256,192,119485,1,8,0:0:0:0:
256,192,119560,1,0,0:0:0:0:
256,192,119635,1,0,0:0:0:0:
256,192,119710,1,0,0:0:0:0:
256,192,119785,1,8,0:0:0:0:
256,192,119935,1,0,0:0:0:0:
256,192,120010,1,0,0:0:0:0:
256,192,120085,1,8,0:0:0:0:
256,192,120235,1,0,0:0:0:0:
256,192,120385,1,12,0:0:0:0:
256,192,120535,1,0,0:0:0:0:
256,192,120685,1,8,0:0:0:0:
256,192,120735,1,8,0:0:0:0:
256,192,121285,1,0,0:0:0:0:
256,192,121335,1,0,0:0:0:0:
256,192,121885,1,0,0:0:0:0:
256,192,121935,1,0,0:0:0:0:
256,192,122335,1,12,0:0:0:0:
256,192,122485,1,12,0:0:0:0:
256,192,122635,1,12,0:0:0:0:
256,192,122785,1,4,0:0:0:0:
256,192,123235,1,0,0:0:0:0:
256,192,123385,1,8,0:0:0:0:
256,192,123435,1,8,0:0:0:0:
256,192,123535,1,0,0:0:0:0:
256,192,123685,1,0,0:0:0:0:
256,192,123835,1,8,0:0:0:0:
256,192,123885,1,8,0:0:0:0:
256,192,124135,1,8,0:0:0:0:
256,192,124285,1,8,0:0:0:0:
256,192,124435,1,0,0:0:0:0:
256,192,124585,1,0,0:0:0:0:
256,192,124735,1,12,0:0:0:0:
256,192,124885,1,12,0:0:0:0:
256,192,125035,1,12,0:0:0:0:
256,192,125185,1,4,0:0:0:0:
256,192,125335,1,4,0:0:0:0:
256,192,125485,1,4,0:0:0:0:
256,192,125935,1,8,0:0:0:0:
256,192,126085,1,0,0:0:0:0:
256,192,126135,1,0,0:0:0:0:
256,192,126235,1,8,0:0:0:0:
256,192,126385,1,0,0:0:0:0:
256,192,126535,1,12,0:0:0:0:
256,192,127135,1,12,0:0:0:0:
256,192,127285,1,12,0:0:0:0:
256,192,127435,1,12,0:0:0:0:
256,192,127585,1,4,0:0:0:0:
256,192,128185,1,4,0:0:0:0:
256,192,128785,5,8,0:0:0:0:
256,192,128860,1,8,0:0:0:0:
256,192,128935,1,8,0:0:0:0:
256,192,129010,1,8,0:0:0:0:
256,192,129085,1,0,0:0:0:0:
256,192,129160,1,0,0:0:0:0:
256,192,129235,1,0,0:0:0:0:
256,192,129310,1,0,0:0:0:0:
256,192,129385,1,8,0:0:0:0:
256,192,129460,1,0,0:0:0:0:
256,192,129535,1,0,0:0:0:0:
256,192,129610,1,0,0:0:0:0:
256,192,129685,1,8,0:0:0:0:
256,192,129760,1,0,0:0:0:0:
256,192,129835,1,0,0:0:0:0:
256,192,129985,1,12,0:0:0:0:
256,192,130135,1,8,0:0:0:0:
256,192,130210,1,0,0:0:0:0:
256,192,130285,1,0,0:0:0:0:
256,192,130360,1,0,0:0:0:0:
256,192,130435,1,8,0:0:0:0:
256,192,130510,1,8,0:0:0:0:
256,192,130585,1,0,0:0:0:0:
256,192,130735,1,0,0:0:0:0:
256,192,130885,1,8,0:0:0:0:
256,192,130960,1,0,0:0:0:0:
256,192,131035,1,0,0:0:0:0:
256,192,131185,2,0,B|272:112|320:96|400:160|384:272|208:288|160:256,1,350
256,192,132085,5,8,0:0:0:0:
256,192,132235,1,0,0:0:0:0:
256,192,132385,1,12,0:0:0:0:
256,192,132535,1,8,0:0:0:0:
256,192,132610,1,8,0:0:0:0:
256,192,132685,1,0,0:0:0:0:
256,192,132760,1,0,0:0:0:0:
256,192,132835,1,8,0:0:0:0:
256,192,132910,1,0,0:0:0:0:
256,192,132985,1,0,0:0:0:0:
256,192,133135,1,0,0:0:0:0:
256,192,133285,1,8,0:0:0:0:
256,192,133360,1,8,0:0:0:0:
256,192,133435,1,0,0:0:0:0:
256,192,133585,1,8,0:0:0:0:
256,192,133660,1,0,0:0:0:0:
256,192,133735,1,8,0:0:0:0:
256,192,133810,1,8,0:0:0:0:
256,192,133885,1,0,0:0:0:0:
256,192,133960,1,8,0:0:0:0:
256,192,134035,1,8,0:0:0:0:
256,192,134110,1,8,0:0:0:0:
256,192,134185,1,0,0:0:0:0:
256,192,134260,1,0,0:0:0:0:
256,192,134335,1,8,0:0:0:0:
256,192,134410,1,8,0:0:0:0:
256,192,134485,1,0,0:0:0:0:
256,192,134635,1,0,0:0:0:0:
256,192,134785,1,12,0:0:0:0:
256,192,134935,1,0,0:0:0:0:
256,192,135010,1,0,0:0:0:0:
256,192,135085,1,0,0:0:0:0:
256,192,135160,1,0,0:0:0:0:
256,192,135235,1,8,0:0:0:0:
256,192,135310,1,0,0:0:0:0:
256,192,135385,1,0,0:0:0:0:
256,192,135460,1,0,0:0:0:0:
256,192,135535,1,0,0:0:0:0:
256,192,135610,1,0,0:0:0:0:
256,192,135685,1,8,0:0:0:0:
256,192,135760,1,0,0:0:0:0:
256,192,135835,1,8,0:0:0:0:
256,192,135910,1,0,0:0:0:0:
256,192,135985,1,8,0:0:0:0:
256,192,136060,1,8,0:0:0:0:
256,192,136135,1,0,0:0:0:0:
256,192,136210,1,0,0:0:0:0:
256,192,136285,1,0,0:0:0:0:
256,192,136360,1,0,0:0:0:0:
256,192,136435,1,8,0:0:0:0:
256,192,136510,1,8,0:0:0:0:
256,192,136585,1,0,0:0:0:0:
256,192,136660,1,0,0:0:0:0:
256,192,136735,1,0,0:0:0:0:
256,192,136810,1,0,0:0:0:0:
256,192,136885,1,8,0:0:0:0:
256,192,136960,1,0,0:0:0:0:
256,192,137035,1,8,0:0:0:0:
256,192,137185,1,0,0:0:0:0:
256,192,137260,1,8,0:0:0:0:
256,192,137335,1,0,0:0:0:0:
256,192,137410,1,0,0:0:0:0:
256,192,137485,1,8,0:0:0:0:
256,192,137560,1,8,0:0:0:0:
256,192,137635,1,0,0:0:0:0:
256,192,137710,1,0,0:0:0:0:
256,192,137785,1,0,0:0:0:0:
256,192,137860,1,0,0:0:0:0:
256,192,137935,1,8,0:0:0:0:
256,192,138085,1,4,0:0:0:0:
256,192,138235,5,4,0:0:0:0:
256,192,138385,1,12,0:0:0:0:
256,192,138535,1,0,0:0:0:0:
256,192,138685,1,8,0:0:0:0:
256,192,138760,1,8,0:0:0:0:
256,192,138835,1,0,0:0:0:0:
256,192,138910,1,0,0:0:0:0:
256,192,138985,1,8,0:0:0:0:
256,192,139060,1,0,0:0:0:0:
256,192,139135,1,8,0:0:0:0:
256,192,139210,1,0,0:0:0:0:
256,192,139285,1,8,0:0:0:0:
256,192,139360,1,8,0:0:0:0:
256,192,139435,1,0,0:0:0:0:
256,192,139585,1,12,0:0:0:0:
256,192,139735,1,8,0:0:0:0:
256,192,139810,1,8,0:0:0:0:
256,192,139885,1,0,0:0:0:0:
256,192,139960,1,0,0:0:0:0:
256,192,140035,1,8,0:0:0:0:
256,192,140110,1,0,0:0:0:0:
256,192,140185,1,8,0:0:0:0:
256,192,140260,1,8,0:0:0:0:
256,192,140335,1,0,0:0:0:0:
256,192,140410,1,0,0:0:0:0:
256,192,140485,1,8,0:0:0:0:
256,192,140560,1,0,0:0:0:0:
256,192,140635,1,8,0:0:0:0:
256,192,140710,1,8,0:0:0:0:
256,192,140785,1,0,0:0:0:0:
256,192,140860,1,8,0:0:0:0:
256,192,140935,1,8,0:0:0:0:
256,192,141010,1,8,0:0:0:0:
256,192,141085,1,0,0:0:0:0:
256,192,141160,1,0,0:0:0:0:
256,192,141235,1,8,0:0:0:0:
256,192,141310,1,0,0:0:0:0:
256,192,141385,1,8,0:0:0:0:
256,192,141460,1,8,0:0:0:0:
256,192,141535,1,0,0:0:0:0:
256,192,141610,1,8,0:0:0:0:
256,192,141685,1,0,0:0:0:0:
256,192,141760,1,0,0:0:0:0:
256,192,141835,1,8,0:0:0:0:
256,192,141985,1,8,0:0:0:0:
256,192,142060,1,8,0:0:0:0:
256,192,142135,1,8,0:0:0:0:
256,192,142210,1,0,0:0:0:0:
256,192,142285,1,8,0:0:0:0:
256,192,142360,1,8,0:0:0:0:
256,192,142435,1,8,0:0:0:0:
256,192,142510,1,0,0:0:0:0:
256,192,142585,1,8,0:0:0:0:
256,192,142660,1,8,0:0:0:0:
256,192,142735,1,8,0:0:0:0:
256,192,142810,1,0,0:0:0:0:
256,192,142885,1,8,0:0:0:0:
256,192,142960,1,8,0:0:0:0:
256,192,143035,1,8,0:0:0:0:
256,192,143110,1,0,0:0:0:0:
256,192,143185,1,8,0:0:0:0:
256,192,143335,1,0,0:0:0:0:
256,192,143485,1,8,0:0:0:0:
256,192,143635,1,0,0:0:0:0:
256,192,143785,1,8,0:0:0:0:
256,192,143935,1,8,0:0:0:0:
256,192,144085,1,8,0:0:0:0:
256,192,144385,1,0,0:0:0:0:
256,192,144460,1,0,0:0:0:0:
256,192,144535,1,0,0:0:0:0:
256,192,144685,1,8,0:0:0:0:
256,192,144760,1,8,0:0:0:0:
256,192,144835,1,8,0:0:0:0:
256,192,144985,1,0,0:0:0:0:
256,192,145135,1,8,0:0:0:0:
256,192,145285,1,4,0:0:0:0:
256,192,145435,1,4,0:0:0:0:
256,192,145585,1,12,0:0:0:0:
256,192,145735,1,0,0:0:0:0:
256,192,145885,1,8,0:0:0:0:
256,192,145960,1,8,0:0:0:0:
256,192,146035,1,0,0:0:0:0:
256,192,146110,1,0,0:0:0:0:
256,192,146185,1,0,0:0:0:0:
256,192,146260,1,8,0:0:0:0:
256,192,146335,1,0,0:0:0:0:
256,192,146410,1,0,0:0:0:0:
256,192,146485,1,8,0:0:0:0:
256,192,146560,1,8,0:0:0:0:
256,192,146635,1,0,0:0:0:0:
256,192,146785,1,4,0:0:0:0:
256,192,146935,1,4,0:0:0:0:
256,192,147235,1,4,0:0:0:0:
256,192,147385,1,4,0:0:0:0:
256,192,147535,1,4,0:0:0:0:
256,192,147985,1,4,0:0:0:0:
256,192,148135,1,4,0:0:0:0:
256,192,148435,1,4,0:0:0:0:
256,192,148585,1,4,0:0:0:0:
256,192,148735,1,4,0:0:0:0:
256,192,149185,1,12,0:0:0:0:
256,192,149335,1,8,0:0:0:0:
256,192,149485,1,0,0:0:0:0:
256,192,149560,1,0,0:0:0:0:
256,192,149635,1,8,0:0:0:0:
256,192,149710,1,0,0:0:0:0:
256,192,149860,1,0,0:0:0:0:
256,192,149935,1,8,0:0:0:0:
256,192,150085,1,0,0:0:0:0:
256,192,150235,1,8,0:0:0:0:
256,192,150310,1,0,0:0:0:0:
256,192,150385,5,0,0:0:0:0:
256,192,150535,1,8,0:0:0:0:
256,192,150610,1,0,0:0:0:0:
256,192,150685,1,0,0:0:0:0:
256,192,150835,1,8,0:0:0:0:
256,192,150985,1,0,0:0:0:0:
256,192,151060,1,0,0:0:0:0:
256,192,151135,1,0,0:0:0:0:
256,192,151285,1,8,0:0:0:0:
256,192,151360,1,0,0:0:0:0:
256,192,151435,1,8,0:0:0:0:
256,192,151585,1,0,0:0:0:0:
256,192,151735,1,8,0:0:0:0:
256,192,151885,1,0,0:0:0:0:
256,192,151960,1,0,0:0:0:0:
256,192,152035,1,8,0:0:0:0:
256,192,152110,1,0,0:0:0:0:
256,192,152260,1,0,0:0:0:0:
256,192,152335,1,8,0:0:0:0:
256,192,152485,1,0,0:0:0:0:
256,192,152635,1,0,0:0:0:0:
256,192,152710,1,8,0:0:0:0:
256,192,152785,1,8,0:0:0:0:
256,192,152935,1,0,0:0:0:0:
256,192,153010,1,8,0:0:0:0:
256,192,153085,1,8,0:0:0:0:
256,192,153235,1,8,0:0:0:0:
256,192,153385,1,0,0:0:0:0:
256,192,153535,1,0,0:0:0:0:
256,192,153685,1,8,0:0:0:0:
256,192,153760,1,8,0:0:0:0:
256,192,153835,1,8,0:0:0:0:
256,192,153985,1,4,0:0:0:0:
256,192,154135,1,8,0:0:0:0:
256,192,154285,1,0,0:0:0:0:
256,192,154360,1,0,0:0:0:0:
256,192,154435,1,8,0:0:0:0:
256,192,154585,1,0,0:0:0:0:
256,192,154660,1,0,0:0:0:0:
256,192,154735,1,8,0:0:0:0:
256,192,154810,1,0,0:0:0:0:
256,192,154885,1,0,0:0:0:0:
256,192,155035,1,8,0:0:0:0:
256,192,155185,1,0,0:0:0:0:
256,192,155335,1,8,0:0:0:0:
256,192,155485,1,0,0:0:0:0:
256,192,155560,1,0,0:0:0:0:
256,192,155635,1,8,0:0:0:0:
256,192,155710,1,8,0:0:0:0:
256,192,155785,1,0,0:0:0:0:
256,192,155935,1,8,0:0:0:0:
256,192,156010,1,8,0:0:0:0:
256,192,156085,1,0,0:0:0:0:
256,192,156235,1,8,0:0:0:0:
256,192,156385,1,8,0:0:0:0:
256,192,156460,1,0,0:0:0:0:
256,192,156535,1,0,0:0:0:0:
256,192,156610,1,8,0:0:0:0:
256,192,156685,1,0,0:0:0:0:
256,192,156760,1,0,0:0:0:0:
256,192,156835,1,8,0:0:0:0:
256,192,156910,1,0,0:0:0:0:
256,192,156985,1,8,0:0:0:0:
256,192,157060,1,8,0:0:0:0:
256,192,157135,1,0,0:0:0:0:
256,192,157210,1,0,0:0:0:0:
256,192,157285,1,8,0:0:0:0:
256,192,157360,1,0,0:0:0:0:
256,192,157435,1,8,0:0:0:0:
256,192,157510,1,8,0:0:0:0:
256,192,157585,1,8,0:0:0:0:
256,192,157660,1,0,0:0:0:0:
256,192,157735,1,0,0:0:0:0:
256,192,157810,1,0,0:0:0:0:
256,192,157885,1,8,0:0:0:0:
256,192,157960,1,0,0:0:0:0:
256,192,158035,1,8,0:0:0:0:
256,192,158110,1,8,0:0:0:0:
256,192,158185,1,0,0:0:0:0:
256,192,158260,1,0,0:0:0:0:
256,192,158335,1,8,0:0:0:0:
256,192,158410,1,0,0:0:0:0:
256,192,158485,1,8,0:0:0:0:
256,192,158560,1,8,0:0:0:0:
256,192,158635,1,8,0:0:0:0:
256,192,158785,1,4,0:0:0:0:
256,192,158935,1,8,0:0:0:0:
256,192,159010,1,8,0:0:0:0:
256,192,159085,1,0,0:0:0:0:
256,192,159160,1,0,0:0:0:0:
256,192,159235,1,8,0:0:0:0:
256,192,159310,1,8,0:0:0:0:
256,192,159385,1,0,0:0:0:0:
256,192,159460,1,0,0:0:0:0:
256,192,159535,1,8,0:0:0:0:
256,192,159610,1,0,0:0:0:0:
256,192,159685,1,0,0:0:0:0:
256,192,159760,1,0,0:0:0:0:
256,192,159835,1,8,0:0:0:0:
256,192,159910,1,0,0:0:0:0:
256,192,159985,1,0,0:0:0:0:
256,192,160060,1,0,0:0:0:0:
256,192,160135,1,8,0:0:0:0:
256,192,160210,1,8,0:0:0:0:
256,192,160285,1,0,0:0:0:0:
256,192,160360,1,0,0:0:0:0:
256,192,160435,1,8,0:0:0:0:
256,192,160510,1,0,0:0:0:0:
256,192,160585,1,8,0:0:0:0:
256,192,160660,1,0,0:0:0:0:
256,192,160735,1,0,0:0:0:0:
256,192,160810,1,0,0:0:0:0:
256,192,160885,1,8,0:0:0:0:
256,192,160960,1,8,0:0:0:0:
256,192,161035,1,0,0:0:0:0:
256,192,161185,1,4,0:0:0:0:
256,192,161335,1,8,0:0:0:0:
256,192,161410,1,8,0:0:0:0:
256,192,161485,1,0,0:0:0:0:
256,192,161560,1,0,0:0:0:0:
256,192,161635,1,8,0:0:0:0:
256,192,161710,1,0,0:0:0:0:
256,192,161785,1,8,0:0:0:0:
256,192,161860,1,0,0:0:0:0:
256,192,161935,1,0,0:0:0:0:
256,192,162010,1,0,0:0:0:0:
256,192,162085,1,8,0:0:0:0:
256,192,162160,1,8,0:0:0:0:
256,192,162235,1,0,0:0:0:0:
256,192,162385,1,8,0:0:0:0:
256,192,162485,1,8,0:0:0:0:
256,192,162585,1,0,0:0:0:0:
256,192,162685,1,0,0:0:0:0:
256,192,162785,1,0,0:0:0:0:
256,192,162885,1,0,0:0:0:0:
256,192,162985,1,8,0:0:0:0:
256,192,163085,1,8,0:0:0:0:
256,192,163185,1,0,0:0:0:0:
256,192,163285,1,0,0:0:0:0:
256,192,163385,1,0,0:0:0:0:
256,192,163485,1,0,0:0:0:0:
256,192,163585,1,12,0:0:0:0:
256,192,164035,1,0,0:0:0:0:
256,192,164185,1,8,0:0:0:0:
256,192,164235,1,8,0:0:0:0:
256,192,164335,1,0,0:0:0:0:
256,192,164485,1,8,0:0:0:0:
256,192,164635,1,0,0:0:0:0:
256,192,164785,1,4,0:0:0:0:
256,192,165085,1,0,0:0:0:0:
256,192,165385,1,8,0:0:0:0:
256,192,165435,1,8,0:0:0:0:
256,192,165685,1,8,0:0:0:0:
256,192,165835,1,8,0:0:0:0:
256,192,165985,1,4,0:0:0:0:
256,192,166285,1,0,0:0:0:0:
256,192,166435,1,0,0:0:0:0:
256,192,166585,1,8,0:0:0:0:
256,192,166885,1,0,0:0:0:0:
256,192,167035,1,0,0:0:0:0:
256,192,167335,1,8,0:0:0:0:
256,192,167635,1,0,0:0:0:0:
256,192,167785,1,8,0:0:0:0:
256,192,168085,1,8,0:0:0:0:
256,192,168385,1,8,0:0:0:0:
256,192,168460,1,0,0:0:0:0:
256,192,168535,1,0,0:0:0:0:
256,192,168610,1,8,0:0:0:0:
256,192,168685,1,8,0:0:0:0:
256,192,168760,1,0,0:0:0:0:
256,192,168835,1,0,0:0:0:0:
256,192,168910,1,8,0:0:0:0:
256,192,168985,1,8,0:0:0:0:
256,192,169060,1,0,0:0:0:0:
256,192,169135,1,0,0:0:0:0:
256,192,169210,1,8,0:0:0:0:
256,192,169285,1,8,0:0:0:0:
256,192,169360,1,0,0:0:0:0:
256,192,169435,1,0,0:0:0:0:
256,192,169510,1,0,0:0:0:0:
256,192,169585,1,8,0:0:0:0:
256,192,169660,1,8,0:0:0:0:
256,192,169735,1,0,0:0:0:0:
256,192,169810,1,0,0:0:0:0:
256,192,169885,1,8,0:0:0:0:
256,192,169960,1,0,0:0:0:0:
256,192,170035,1,0,0:0:0:0:
256,192,170110,1,0,0:0:0:0:
256,192,170185,1,8,0:0:0:0:
256,192,170260,1,8,0:0:0:0:
256,192,170335,1,8,0:0:0:0:
256,192,170410,1,8,0:0:0:0:
256,192,170485,1,0,0:0:0:0:
256,192,170785,1,12,0:0:0:0:
256,192,170935,1,0,0:0:0:0:
256,192,171085,1,8,0:0:0:0:
256,192,171160,1,8,0:0:0:0:
256,192,171310,1,0,0:0:0:0:
256,192,171385,1,8,0:0:0:0:
256,192,171535,1,0,0:0:0:0:
256,192,171685,1,8,0:0:0:0:
256,192,171760,1,8,0:0:0:0:
256,192,171835,1,0,0:0:0:0:
256,192,171985,1,8,0:0:0:0:
256,192,172135,1,0,0:0:0:0:
256,192,172210,1,8,0:0:0:0:
256,192,172285,1,8,0:0:0:0:
256,192,172360,1,0,0:0:0:0:
256,192,172510,1,0,0:0:0:0:
256,192,172585,1,8,0:0:0:0:
256,192,172735,1,8,0:0:0:0:
256,192,172885,1,8,0:0:0:0:
256,192,173035,1,0,0:0:0:0:
256,192,173185,1,8,0:0:0:0:
256,192,173260,1,8,0:0:0:0:
256,192,173335,1,0,0:0:0:0:
256,192,173485,1,8,0:0:0:0:
256,192,173560,1,0,0:0:0:0:
256,192,173710,1,8,0:0:0:0:
256,192,173785,1,8,0:0:0:0:
256,192,173935,1,0,0:0:0:0:
256,192,174085,5,8,0:0:0:0:
256,192,174160,1,0,0:0:0:0:
256,192,174235,1,0,0:0:0:0:
256,192,174385,1,0,0:0:0:0:
256,192,174460,1,8,0:0:0:0:
256,192,174535,1,8,0:0:0:0:
256,192,174610,1,0,0:0:0:0:
256,192,174685,1,0,0:0:0:0:
256,192,174760,1,8,0:0:0:0:
256,192,174835,1,0,0:0:0:0:
256,192,174985,1,8,0:0:0:0:
256,192,175060,1,8,0:0:0:0:
256,192,175135,1,8,0:0:0:0:
256,192,175285,1,0,0:0:0:0:
256,192,175360,1,0,0:0:0:0:
256,192,175435,1,0,0:0:0:0:
256,192,175585,1,12,0:0:0:0:
256,192,175735,1,8,0:0:0:0:
256,192,175810,1,0,0:0:0:0:
256,192,175885,1,8,0:0:0:0:
256,192,176035,1,0,0:0:0:0:
256,192,176110,1,0,0:0:0:0:
256,192,176185,1,8,0:0:0:0:
256,192,176335,1,8,0:0:0:0:
256,192,176410,1,0,0:0:0:0:
256,192,176485,1,8,0:0:0:0:
256,192,176635,1,0,0:0:0:0:
256,192,176710,1,0,0:0:0:0:
256,192,176785,1,8,0:0:0:0:
256,192,176935,1,8,0:0:0:0:
256,192,177010,1,0,0:0:0:0:
256,192,177085,1,8,0:0:0:0:
256,192,177235,1,0,0:0:0:0:
256,192,177310,1,0,0:0:0:0:
256,192,177385,1,8,0:0:0:0:
256,192,177535,1,8,0:0:0:0:
256,192,177610,1,0,0:0:0:0:
256,192,177685,1,8,0:0:0:0:
256,192,177835,1,0,0:0:0:0:
256,192,177985,1,8,0:0:0:0:
256,192,178060,1,8,0:0:0:0:
256,192,178135,1,0,0:0:0:0:
256,192,178210,1,8,0:0:0:0:
256,192,178285,1,8,0:0:0:0:
256,192,178360,1,8,0:0:0:0:
256,192,178435,1,0,0:0:0:0:
256,192,178510,1,8,0:0:0:0:
256,192,178585,1,8,0:0:0:0:
256,192,178660,1,8,0:0:0:0:
256,192,178735,1,0,0:0:0:0:
256,192,178810,1,8,0:0:0:0:
256,192,178885,1,8,0:0:0:0:
256,192,178960,1,8,0:0:0:0:
256,192,179035,1,0,0:0:0:0:
256,192,179110,1,0,0:0:0:0:
256,192,179185,1,8,0:0:0:0:
256,192,179260,1,0,0:0:0:0:
256,192,179335,1,0,0:0:0:0:
256,192,179410,1,0,0:0:0:0:
256,192,179485,1,8,0:0:0:0:
256,192,179560,1,0,0:0:0:0:
256,192,179635,1,0,0:0:0:0:
256,192,179710,1,0,0:0:0:0:
256,192,179785,1,8,0:0:0:0:
256,192,179860,1,0,0:0:0:0:
256,192,179935,1,8,0:0:0:0:
256,192,180010,1,0,0:0:0:0:
256,192,180085,1,8,0:0:0:0:
256,192,180160,1,8,0:0:0:0:
256,192,180235,1,0,0:0:0:0:
256,192,180385,1,12,0:0:0:0:
256,192,180535,1,0,0:0:0:0:
256,192,180685,1,8,0:0:0:0:
256,192,180760,1,0,0:0:0:0:
256,192,180835,1,0,0:0:0:0:
256,192,180910,1,0,0:0:0:0:
256,192,180985,1,8,0:0:0:0:
256,192,181135,1,0,0:0:0:0:
256,192,181285,1,8,0:0:0:0:
256,192,181435,1,0,0:0:0:0:
256,192,181585,1,8,0:0:0:0:
256,192,181660,1,0,0:0:0:0:
256,192,181735,1,0,0:0:0:0:
256,192,181810,1,0,0:0:0:0:
256,192,181885,1,8,0:0:0:0:
256,192,181960,1,0,0:0:0:0:
256,192,182035,1,0,0:0:0:0:
256,192,182110,1,0,0:0:0:0:
256,192,182185,1,8,0:0:0:0:
256,192,182335,1,8,0:0:0:0:
256,192,182485,1,8,0:0:0:0:
256,192,182635,1,0,0:0:0:0:
256,192,182785,1,12,0:0:0:0:
256,192,182935,1,0,0:0:0:0:
256,192,183085,1,8,0:0:0:0:
256,192,183160,1,8,0:0:0:0:
256,192,183235,1,0,0:0:0:0:
256,192,183310,1,0,0:0:0:0:
256,192,183385,1,8,0:0:0:0:
256,192,183535,1,0,0:0:0:0:
256,192,183685,1,8,0:0:0:0:
256,192,183835,1,0,0:0:0:0:
256,192,183985,1,8,0:0:0:0:
256,192,184060,1,8,0:0:0:0:
256,192,184135,1,0,0:0:0:0:
256,192,184285,1,8,0:0:0:0:
256,192,184435,1,0,0:0:0:0:
256,192,184510,1,0,0:0:0:0:
256,192,184585,1,8,0:0:0:0:
256,192,184660,1,8,0:0:0:0:
256,192,184735,1,0,0:0:0:0:
256,192,184885,1,8,0:0:0:0:
256,192,185035,1,0,0:0:0:0:
256,192,185185,1,12,0:0:0:0:
256,192,185335,1,0,0:0:0:0:
256,192,185485,1,8,0:0:0:0:
256,192,185560,1,8,0:0:0:0:
256,192,185635,1,0,0:0:0:0:
256,192,185710,1,0,0:0:0:0:
256,192,185785,1,8,0:0:0:0:
256,192,185860,1,0,0:0:0:0:
256,192,185935,1,0,0:0:0:0:
256,192,186085,1,8,0:0:0:0:
256,192,186160,1,0,0:0:0:0:
256,192,186235,1,0,0:0:0:0:
256,192,186385,1,8,0:0:0:0:
256,192,186460,1,8,0:0:0:0:
256,192,186535,1,0,0:0:0:0:
256,192,186610,1,8,0:0:0:0:
256,192,186685,1,8,0:0:0:0:
256,192,186835,1,0,0:0:0:0:
256,192,186910,1,8,0:0:0:0:
256,192,186985,1,8,0:0:0:0:
256,192,187135,1,0,0:0:0:0:
256,192,187285,1,8,0:0:0:0:
256,192,187360,1,0,0:0:0:0:
256,192,187435,1,0,0:0:0:0:
256,192,187585,1,12,0:0:0:0:
256,192,187735,1,0,0:0:0:0:
256,192,187810,1,0,0:0:0:0:
256,192,187885,1,8,0:0:0:0:
256,192,187960,1,0,0:0:0:0:
256,192,188035,1,0,0:0:0:0:
256,192,188110,1,0,0:0:0:0:
256,192,188185,1,8,0:0:0:0:
256,192,188260,1,0,0:0:0:0:
256,192,188335,1,0,0:0:0:0:
256,192,188410,1,0,0:0:0:0:
256,192,188485,1,8,0:0:0:0:
256,192,188560,1,0,0:0:0:0:
256,192,188635,1,0,0:0:0:0:
256,192,188710,1,0,0:0:0:0:
256,192,188785,1,8,0:0:0:0:
256,192,188860,1,8,0:0:0:0:
256,192,188935,1,0,0:0:0:0:
256,192,189010,1,0,0:0:0:0:
256,192,189085,1,8,0:0:0:0:
256,192,189160,1,8,0:0:0:0:
256,192,189235,1,8,0:0:0:0:
256,192,189310,1,0,0:0:0:0:
256,192,189385,1,8,0:0:0:0:
256,192,189460,1,0,0:0:0:0:
256,192,189535,1,0,0:0:0:0:
256,192,189610,1,0,0:0:0:0:
256,192,189685,1,8,0:0:0:0:
256,192,189760,1,8,0:0:0:0:
256,192,189835,1,0,0:0:0:0:
256,192,189910,1,0,0:0:0:0:
256,192,189985,1,8,0:0:0:0:
256,192,190135,1,8,0:0:0:0:
256,192,190285,1,8,0:0:0:0:
256,192,190435,1,8,0:0:0:0:
256,192,190585,1,8,0:0:0:0:
256,192,190735,1,8,0:0:0:0:
256,192,190885,1,8,0:0:0:0:
256,192,191035,1,8,0:0:0:0:
256,192,191185,1,8,0:0:0:0:
256,192,191335,1,8,0:0:0:0:
256,192,191485,1,8,0:0:0:0:
256,192,191635,1,8,0:0:0:0:
256,192,191785,1,8,0:0:0:0:
256,192,191935,1,8,0:0:0:0:
256,192,192085,1,8,0:0:0:0:
256,192,192235,5,8,0:0:0:0:
256,192,192385,1,4,0:0:0:0:
256,192,192685,1,0,0:0:0:0:
256,192,192835,1,0,0:0:0:0:
256,192,192985,1,8,0:0:0:0:
256,192,193135,1,0,0:0:0:0:
256,192,193285,1,8,0:0:0:0:
256,192,193585,1,0,0:0:0:0:
256,192,193735,1,0,0:0:0:0:
256,192,193885,1,8,0:0:0:0:
256,192,194035,1,8,0:0:0:0:
256,192,194185,1,12,0:0:0:0:
256,192,194335,1,0,0:0:0:0:
256,192,194485,1,0,0:0:0:0:
256,192,194785,1,4,0:0:0:0:
256,192,194935,1,0,0:0:0:0:
256,192,195010,1,0,0:0:0:0:
256,192,195085,1,8,0:0:0:0:
256,192,195235,1,0,0:0:0:0:
256,192,195385,1,8,0:0:0:0:
256,192,195460,1,0,0:0:0:0:
256,192,195535,1,0,0:0:0:0:
256,192,195610,1,0,0:0:0:0:
256,192,195685,1,8,0:0:0:0:
256,192,195835,1,0,0:0:0:0:
256,192,195985,1,8,0:0:0:0:
256,192,196135,1,0,0:0:0:0:
256,192,196210,1,0,0:0:0:0:
256,192,196285,1,8,0:0:0:0:
256,192,196435,1,0,0:0:0:0:
256,192,196585,1,8,0:0:0:0:
256,192,196660,1,0,0:0:0:0:
256,192,196735,1,0,0:0:0:0:
256,192,196810,1,0,0:0:0:0:
256,192,196885,1,8,0:0:0:0:
256,192,197035,1,8,0:0:0:0:
256,192,197110,1,0,0:0:0:0:
256,192,197185,1,0,0:0:0:0:
256,192,197335,1,0,0:0:0:0:
256,192,197485,1,0,0:0:0:0:
256,192,197635,1,0,0:0:0:0:
256,192,197785,1,0,0:0:0:0:
256,192,197935,1,0,0:0:0:0:
256,192,198085,1,0,0:0:0:0:
256,192,198235,1,0,0:0:0:0:
256,192,198385,1,0,0:0:0:0:
256,192,198535,1,0,0:0:0:0:
256,192,198685,1,0,0:0:0:0:
256,192,198835,1,0,0:0:0:0:
256,192,198985,1,8,0:0:0:0:
256,192,199060,1,8,0:0:0:0:
256,192,199135,1,0,0:0:0:0:
256,192,199210,1,0,0:0:0:0:
256,192,199285,1,0,0:0:0:0:
256,192,199360,1,0,0:0:0:0:
256,192,199435,1,0,0:0:0:0:
256,192,199585,1,4,0:0:0:0:
256,192,199735,1,8,0:0:0:0:
256,192,199810,1,8,0:0:0:0:
256,192,199885,1,0,0:0:0:0:
256,192,199960,1,0,0:0:0:0:
256,192,200035,1,0,0:0:0:0:
256,192,200110,1,0,0:0:0:0:
256,192,200185,1,8,0:0:0:0:
256,192,200260,1,8,0:0:0:0:
256,192,200335,1,0,0:0:0:0:
256,192,200410,1,0,0:0:0:0:
256,192,200485,1,0,0:0:0:0:
256,192,200560,1,0,0:0:0:0:
256,192,200635,1,8,0:0:0:0:
256,192,200710,1,0,0:0:0:0:
256,192,200785,1,8,0:0:0:0:
256,192,200860,1,8,0:0:0:0:
256,192,200935,1,0,0:0:0:0:
256,192,201010,1,0,0:0:0:0:
256,192,201085,1,0,0:0:0:0:
256,192,201160,1,0,0:0:0:0:
256,192,201235,1,8,0:0:0:0:
256,192,201310,1,0,0:0:0:0:
256,192,201385,1,0,0:0:0:0:
256,192,201460,1,0,0:0:0:0:
256,192,201535,1,0,0:0:0:0:
256,192,201610,1,0,0:0:0:0:
256,192,201685,1,8,0:0:0:0:
256,192,201760,1,8,0:0:0:0:
256,192,201835,1,0,0:0:0:0:
256,192,201910,1,0,0:0:0:0:
256,192,201985,1,8,0:0:0:0:
256,192,202060,1,0,0:0:0:0:
256,192,202135,1,8,0:0:0:0:
256,192,202210,1,8,0:0:0:0:
256,192,202285,1,0,0:0:0:0:
256,192,202360,1,0,0:0:0:0:
256,192,202435,1,0,0:0:0:0:
256,192,202510,1,0,0:0:0:0:
256,192,202585,1,8,0:0:0:0:
256,192,202660,1,8,0:0:0:0:
256,192,202735,1,0,0:0:0:0:
256,192,202810,1,0,0:0:0:0:
256,192,202885,1,0,0:0:0:0:
256,192,202960,1,0,0:0:0:0:
256,192,203035,1,8,0:0:0:0:
256,192,203110,1,0,0:0:0:0:
256,192,203185,1,8,0:0:0:0:
256,192,203260,1,8,0:0:0:0:
256,192,203335,1,0,0:0:0:0:
256,192,203410,1,0,0:0:0:0:
256,192,203485,1,8,0:0:0:0:
256,192,203560,1,8,0:0:0:0:
256,192,203635,1,0,0:0:0:0:
256,192,203710,1,0,0:0:0:0:
256,192,203785,1,8,0:0:0:0:
256,192,203860,1,8,0:0:0:0:
256,192,203935,1,0,0:0:0:0:
256,192,204010,1,0,0:0:0:0:
256,192,204085,1,8,0:0:0:0:
256,192,204160,1,8,0:0:0:0:
256,192,204235,1,0,0:0:0:0:
256,192,204310,1,0,0:0:0:0:
256,192,204385,1,8,0:0:0:0:
256,192,204460,1,0,0:0:0:0:
256,192,204535,1,0,0:0:0:0:
256,192,204610,1,0,0:0:0:0:
256,192,204685,1,8,0:0:0:0:
256,192,204760,1,0,0:0:0:0:
256,192,204835,1,8,0:0:0:0:
256,192,204910,1,8,0:0:0:0:
256,192,204985,1,0,0:0:0:0:
256,192,205060,1,0,0:0:0:0:
256,192,205135,1,0,0:0:0:0:
256,192,205210,1,0,0:0:0:0:
256,192,205285,1,8,0:0:0:0:
256,192,205360,1,0,0:0:0:0:
256,192,205435,1,0,0:0:0:0:
256,192,205510,1,0,0:0:0:0:
256,192,205585,1,8,0:0:0:0:
256,192,205660,1,0,0:0:0:0:
256,192,205735,1,8,0:0:0:0:
256,192,205810,1,8,0:0:0:0:
256,192,205885,1,0,0:0:0:0:
256,192,205960,1,0,0:0:0:0:
256,192,206035,1,8,0:0:0:0:
256,192,206110,1,8,0:0:0:0:
256,192,206185,1,0,0:0:0:0:
256,192,206260,1,0,0:0:0:0:
256,192,206335,1,0,0:0:0:0:
256,192,206410,1,0,0:0:0:0:
256,192,206485,1,8,0:0:0:0:
256,192,206635,1,8,0:0:0:0:
256,192,206785,1,8,0:0:0:0:
256,192,206860,1,8,0:0:0:0:
256,192,206935,1,8,0:0:0:0:
256,192,207010,1,8,0:0:0:0:
256,192,207085,1,8,0:0:0:0:
256,192,207160,1,8,0:0:0:0:
256,192,207235,1,8,0:0:0:0:
256,192,207310,1,8,0:0:0:0:
256,192,207385,1,0,0:0:0:0:
256,192,207460,1,0,0:0:0:0:
256,192,207535,1,0,0:0:0:0:
256,192,207610,1,0,0:0:0:0:
256,192,207685,1,0,0:0:0:0:
256,192,207760,1,0,0:0:0:0:
256,192,207835,1,0,0:0:0:0:
256,192,207985,1,8,0:0:0:0:
256,192,208060,1,8,0:0:0:0:
256,192,208285,1,8,0:0:0:0:
256,192,208360,1,8,0:0:0:0:
256,192,208585,1,8,0:0:0:0:
256,192,208660,1,8,0:0:0:0:
256,192,208885,1,8,0:0:0:0:
256,192,208960,1,8,0:0:0:0:
256,192,209185,1,12,0:0:0:0:
256,192,209335,1,8,0:0:0:0:
256,192,209410,1,0,0:0:0:0:
256,192,209485,1,0,0:0:0:0:
256,192,209560,1,0,0:0:0:0:
256,192,209635,1,8,0:0:0:0:
256,192,209785,1,0,0:0:0:0:
256,192,209860,1,0,0:0:0:0:
256,192,209935,1,8,0:0:0:0:
256,192,210010,1,0,0:0:0:0:
256,192,210085,1,0,0:0:0:0:
256,192,210235,1,8,0:0:0:0:
256,192,210385,1,0,0:0:0:0:
256,192,210535,1,8,0:0:0:0:
256,192,210685,1,0,0:0:0:0:
256,192,210760,1,0,0:0:0:0:
256,192,210835,1,8,0:0:0:0:
256,192,210910,1,0,0:0:0:0:
256,192,210985,1,0,0:0:0:0:
256,192,211060,1,0,0:0:0:0:
256,192,211135,1,8,0:0:0:0:
256,192,211210,1,0,0:0:0:0:
256,192,211285,1,8,0:0:0:0:
256,192,211360,1,8,0:0:0:0:
256,192,211435,1,0,0:0:0:0:
256,192,211585,1,8,0:0:0:0:
256,192,211735,1,8,0:0:0:0:
256,192,211810,1,8,0:0:0:0:
256,192,211885,1,0,0:0:0:0:
256,192,211960,1,0,0:0:0:0:
256,192,212035,1,8,0:0:0:0:
256,192,212185,1,0,0:0:0:0:
256,192,212260,1,0,0:0:0:0:
256,192,212335,1,8,0:0:0:0:
256,192,212410,1,8,0:0:0:0:
256,192,212485,1,0,0:0:0:0:
256,192,212635,1,8,0:0:0:0:
256,192,212785,1,0,0:0:0:0:
256,192,212860,1,0,0:0:0:0:
256,192,212935,1,8,0:0:0:0:
256,192,213010,1,8,0:0:0:0:
256,192,213085,1,0,0:0:0:0:
256,192,213160,1,0,0:0:0:0:
256,192,213235,1,8,0:0:0:0:
256,192,213385,1,0,0:0:0:0:
256,192,213535,1,8,0:0:0:0:
256,192,213685,1,0,0:0:0:0:
256,192,213835,1,8,0:0:0:0:
256,192,213985,1,8,0:0:0:0:
256,192,214060,1,8,0:0:0:0:
256,192,214135,1,0,0:0:0:0:
256,192,214210,1,0,0:0:0:0:
256,192,214285,1,8,0:0:0:0:
256,192,214360,1,0,0:0:0:0:
256,192,214435,1,8,0:0:0:0:
256,192,214510,1,8,0:0:0:0:
256,192,214585,1,0,0:0:0:0:
256,192,214660,1,0,0:0:0:0:
256,192,214735,1,0,0:0:0:0:
256,192,214810,1,0,0:0:0:0:
256,192,214885,1,8,0:0:0:0:
256,192,214960,1,8,0:0:0:0:
256,192,215035,1,0,0:0:0:0:
256,192,215110,1,0,0:0:0:0:
256,192,215185,1,8,0:0:0:0:
256,192,215260,1,8,0:0:0:0:
256,192,215335,1,0,0:0:0:0:
256,192,215410,1,0,0:0:0:0:
256,192,215485,1,8,0:0:0:0:
256,192,215560,1,0,0:0:0:0:
256,192,215635,1,0,0:0:0:0:
256,192,215710,1,0,0:0:0:0:
256,192,215785,1,8,0:0:0:0:
256,192,215860,1,8,0:0:0:0:
256,192,215935,1,0,0:0:0:0:
256,192,216010,1,0,0:0:0:0:
256,192,216085,1,8,0:0:0:0:
256,192,216160,1,0,0:0:0:0:
256,192,216235,1,8,0:0:0:0:
256,192,216310,1,8,0:0:0:0:
256,192,216385,1,0,0:0:0:0:
256,192,216460,1,0,0:0:0:0:
256,192,216535,1,8,0:0:0:0:
256,192,216610,1,0,0:0:0:0:
256,192,216685,1,0,0:0:0:0:
256,192,216760,1,0,0:0:0:0:
256,192,216835,1,8,0:0:0:0:
256,192,216910,1,8,0:0:0:0:
256,192,216985,1,0,0:0:0:0:
256,192,217060,1,0,0:0:0:0:
256,192,217135,1,8,0:0:0:0:
256,192,217210,1,0,0:0:0:0:
256,192,217285,1,0,0:0:0:0:
256,192,217360,1,0,0:0:0:0:
256,192,217435,1,8,0:0:0:0:
256,192,217510,1,8,0:0:0:0:
256,192,217585,1,0,0:0:0:0:
256,192,217735,1,8,0:0:0:0:
256,192,217885,1,0,0:0:0:0:
256,192,218035,1,8,0:0:0:0:
256,192,218185,1,8,0:0:0:0:
256,192,218260,1,8,0:0:0:0:
256,192,218335,1,0,0:0:0:0:
256,192,218410,1,0,0:0:0:0:
256,192,218485,1,8,0:0:0:0:
256,192,218560,1,8,0:0:0:0:
256,192,218635,1,0,0:0:0:0:
256,192,218785,1,8,0:0:0:0:
256,192,218860,1,0,0:0:0:0:
256,192,218935,1,8,0:0:0:0:
256,192,219010,1,8,0:0:0:0:
256,192,219085,1,8,0:0:0:0:
256,192,219160,1,0,0:0:0:0:
256,192,219235,1,0,0:0:0:0:
256,192,219310,1,0,0:0:0:0:
256,192,219385,1,8,0:0:0:0:
256,192,219460,1,8,0:0:0:0:
256,192,219535,1,8,0:0:0:0:
256,192,219685,1,0,0:0:0:0:
256,192,219835,1,0,0:0:0:0:
256,192,219910,1,0,0:0:0:0:
256,192,219985,1,8,0:0:0:0:
256,192,220135,1,8,0:0:0:0:
256,192,220210,1,8,0:0:0:0:
256,192,220285,1,0,0:0:0:0:
256,192,220435,1,0,0:0:0:0:
256,192,220585,1,8,0:0:0:0:
256,192,220660,1,8,0:0:0:0:
256,192,220735,1,8,0:0:0:0:
256,192,220810,1,8,0:0:0:0:
256,192,220885,1,0,0:0:0:0:
256,192,221035,1,0,0:0:0:0:
256,192,221185,1,8,0:0:0:0:
256,192,221260,1,0,0:0:0:0:
256,192,221335,1,0,0:0:0:0:
256,192,221410,1,0,0:0:0:0:
256,192,221485,1,8,0:0:0:0:
256,192,221560,1,0,0:0:0:0:
256,192,221635,1,0,0:0:0:0:
256,192,221710,1,0,0:0:0:0:
256,192,221785,1,8,0:0:0:0:
256,192,221860,1,0,0:0:0:0:
256,192,221935,1,0,0:0:0:0:
256,192,222010,1,0,0:0:0:0:
256,192,222085,1,8,0:0:0:0:
256,192,222160,1,0,0:0:0:0:
256,192,222235,1,0,0:0:0:0:
256,192,222310,1,0,0:0:0:0:
256,192,222385,1,8,0:0:0:0:
256,192,222460,1,0,0:0:0:0:
256,192,222535,1,0,0:0:0:0:
256,192,222610,1,0,0:0:0:0:
256,192,222685,1,8,0:0:0:0:
256,192,222760,1,0,0:0:0:0:
256,192,222835,1,0,0:0:0:0:
256,192,222910,1,0,0:0:0:0:
256,192,222985,1,8,0:0:0:0:
256,192,223060,1,0,0:0:0:0:
256,192,223135,1,0,0:0:0:0:
256,192,223210,1,0,0:0:0:0:
256,192,223285,1,8,0:0:0:0:
256,192,223360,1,0,0:0:0:0:
256,192,223435,1,8,0:0:0:0:
256,192,223510,1,0,0:0:0:0:
256,192,223585,1,8,0:0:0:0:
256,192,223660,1,0,0:0:0:0:
256,192,223735,1,0,0:0:0:0:
256,192,223810,1,8,0:0:0:0:
256,192,223885,1,0,0:0:0:0:
256,192,223960,1,0,0:0:0:0:
256,192,224035,1,8,0:0:0:0:
256,192,224110,1,0,0:0:0:0:
256,192,224185,1,8,0:0:0:0:
256,192,224260,1,0,0:0:0:0:
256,192,224335,1,0,0:0:0:0:
256,192,224410,1,0,0:0:0:0:
256,192,224485,1,8,0:0:0:0:
256,192,224560,1,0,0:0:0:0:
256,192,224635,1,8,0:0:0:0:
256,192,224710,1,8,0:0:0:0:
256,192,224785,1,0,0:0:0:0:
256,192,224935,1,0,0:0:0:0:
256,192,225010,1,0,0:0:0:0:
256,192,225085,1,0,0:0:0:0:
256,192,225235,1,0,0:0:0:0:
256,192,225310,1,0,0:0:0:0:
256,192,225385,1,8,0:0:0:0:
256,192,225535,1,0,0:0:0:0:
256,192,225610,1,0,0:0:0:0:
256,192,225685,1,0,0:0:0:0:
256,192,225835,1,0,0:0:0:0:
256,192,225985,1,4,0:0:0:0:
256,192,227785,1,0,0:0:0:0:
256,192,228385,1,8,0:0:0:0:
256,192,228985,1,8,0:0:0:0:
256,192,229585,1,0,0:0:0:0:
256,192,230185,1,8,0:0:0:0:
256,192,230785,1,12,0:0:0:0:
256,192,232585,1,0,0:0:0:0:
256,192,233185,1,8,0:0:0:0:
256,192,233785,1,8,0:0:0:0:
256,192,234385,1,0,0:0:0:0:
256,192,234985,1,8,0:0:0:0:
256,192,235585,1,4,0:0:0:0:
256,192,236185,1,8,0:0:0:0:
256,192,236485,1,0,0:0:0:0:
256,192,236785,1,0,0:0:0:0:
256,192,237985,1,12,0:0:0:0:
256,192,238585,1,0,0:0:0:0:
256,192,238885,1,8,0:0:0:0:
256,192,239785,1,8,0:0:0:0:
256,192,240385,1,0,0:0:0:0:
256,192,240535,1,0,0:0:0:0:
256,192,240685,1,0,0:0:0:0:
256,192,240835,1,0,0:0:0:0:
256,192,240985,1,0,0:0:0:0:
256,192,241135,1,0,0:0:0:0:
256,192,241285,1,0,0:0:0:0:
256,192,241435,1,0,0:0:0:0:
256,192,241585,1,0,0:0:0:0:
256,192,241735,1,0,0:0:0:0:
256,192,241885,1,0,0:0:0:0:
256,192,242035,1,0,0:0:0:0:
256,192,242185,1,0,0:0:0:0:
256,192,242335,1,0,0:0:0:0:
256,192,242485,1,0,0:0:0:0:
256,192,242635,1,0,0:0:0:0:
256,192,242785,1,8,0:0:0:0:
256,192,242935,1,8,0:0:0:0:
256,192,243085,1,8,0:0:0:0:
256,192,243235,1,8,0:0:0:0:
256,192,243385,1,8,0:0:0:0:
256,192,243535,1,8,0:0:0:0:
256,192,243685,1,8,0:0:0:0:
256,192,243835,1,8,0:0:0:0:
256,192,243985,1,8,0:0:0:0:
256,192,244135,1,8,0:0:0:0:
256,192,244285,1,8,0:0:0:0:
256,192,244435,1,8,0:0:0:0:
256,192,244585,1,8,0:0:0:0:
256,192,244735,1,8,0:0:0:0:
256,192,244885,1,8,0:0:0:0:
256,192,245035,1,8,0:0:0:0:
256,192,245185,1,0,0:0:0:0:
256,192,245235,1,0,0:0:0:0:
256,192,245335,1,0,0:0:0:0:
256,192,245485,1,0,0:0:0:0:
256,192,245535,1,0,0:0:0:0:
256,192,245635,1,0,0:0:0:0:
256,192,245785,1,8,0:0:0:0:
256,192,245935,1,0,0:0:0:0:
256,192,245985,1,0,0:0:0:0:
256,192,246085,1,0,0:0:0:0:
256,192,246235,1,8,0:0:0:0:
256,192,246285,1,8,0:0:0:0:
256,192,246535,1,8,0:0:0:0:
256,192,246685,5,0,0:0:0:0:
256,192,246835,1,8,0:0:0:0:
256,192,246985,1,0,0:0:0:0:
256,192,247135,1,8,0:0:0:0:
256,192,247285,1,0,0:0:0:0:
256,192,247435,1,0,0:0:0:0:
256,192,247585,1,0,0:0:0:0:
256,192,247635,1,0,0:0:0:0:
256,192,247735,1,0,0:0:0:0:
256,192,247885,1,0,0:0:0:0:
256,192,247935,1,0,0:0:0:0:
256,192,248035,1,0,0:0:0:0:
256,192,248185,1,8,0:0:0:0:
256,192,248335,1,0,0:0:0:0:
256,192,248385,1,0,0:0:0:0:
256,192,248485,1,0,0:0:0:0:
256,192,248635,1,8,0:0:0:0:
256,192,248685,1,8,0:0:0:0:
256,192,248935,1,8,0:0:0:0:
256,192,249085,5,0,0:0:0:0:
256,192,249235,1,8,0:0:0:0:
256,192,249385,1,0,0:0:0:0:
256,192,249535,1,8,0:0:0:0:
256,192,249685,1,0,0:0:0:0:
256,192,249835,1,0,0:0:0:0:
256,192,249985,1,0,0:0:0:0:
256,192,250035,1,0,0:0:0:0:
256,192,250135,1,0,0:0:0:0:
256,192,250285,1,0,0:0:0:0:
256,192,250335,1,0,0:0:0:0:
256,192,250435,1,0,0:0:0:0:
256,192,250585,1,8,0:0:0:0:
256,192,250735,1,0,0:0:0:0:
256,192,250785,1,0,0:0:0:0:
256,192,250885,1,0,0:0:0:0:
256,192,251035,1,8,0:0:0:0:
256,192,251085,1,8,0:0:0:0:
256,192,251335,1,8,0:0:0:0:
256,192,251485,5,0,0:0:0:0:
256,192,251635,1,8,0:0:0:0:
256,192,251785,1,0,0:0:0:0:
256,192,251935,1,8,0:0:0:0:
256,192,252085,1,0,0:0:0:0:
256,192,252235,1,0,0:0:0:0:
256,192,252385,1,0,0:0:0:0:
256,192,252435,1,0,0:0:0:0:
256,192,252535,1,0,0:0:0:0:
256,192,252685,1,0,0:0:0:0:
256,192,252735,1,0,0:0:0:0:
256,192,252835,1,0,0:0:0:0:
256,192,252985,1,8,0:0:0:0:
256,192,253135,1,0,0:0:0:0:
256,192,253185,1,0,0:0:0:0:
256,192,253285,1,0,0:0:0:0:
256,192,253435,1,8,0:0:0:0:
256,192,253485,1,8,0:0:0:0:
256,192,253735,1,8,0:0:0:0:
256,192,253885,5,0,0:0:0:0:
256,192,254035,1,8,0:0:0:0:
256,192,254185,1,0,0:0:0:0:
256,192,254335,1,8,0:0:0:0:
256,192,254485,1,0,0:0:0:0:
256,192,254635,1,0,0:0:0:0:
256,192,254785,1,0,0:0:0:0:
256,192,254835,1,0,0:0:0:0:
256,192,254935,1,0,0:0:0:0:
256,192,255085,1,0,0:0:0:0:
256,192,255135,1,0,0:0:0:0:
256,192,255235,1,0,0:0:0:0:
256,192,255385,1,8,0:0:0:0:
256,192,255535,1,0,0:0:0:0:
256,192,255585,1,0,0:0:0:0:
256,192,255685,1,0,0:0:0:0:
256,192,255835,1,8,0:0:0:0:
256,192,255885,1,8,0:0:0:0:
256,192,256135,1,8,0:0:0:0:
256,192,256285,5,0,0:0:0:0:
256,192,256435,1,8,0:0:0:0:
256,192,256585,1,8,0:0:0:0:
256,192,256735,1,8,0:0:0:0:
256,192,256885,1,0,0:0:0:0:
256,192,257035,1,8,0:0:0:0:
256,192,257185,1,0,0:0:0:0:
256,192,257235,1,0,0:0:0:0:
256,192,257335,1,0,0:0:0:0:
256,192,257485,1,0,0:0:0:0:
256,192,257535,1,0,0:0:0:0:
256,192,257635,1,0,0:0:0:0:
256,192,257785,1,0,0:0:0:0:
256,192,257935,1,0,0:0:0:0:
256,192,257985,1,0,0:0:0:0:
256,192,258085,1,0,0:0:0:0:
256,192,258235,1,8,0:0:0:0:
256,192,258285,1,8,0:0:0:0:
256,192,258535,1,8,0:0:0:0:
256,192,258685,5,8,0:0:0:0:
256,192,258835,1,8,0:0:0:0:
256,192,258985,1,0,0:0:0:0:
256,192,259135,1,8,0:0:0:0:
256,192,259285,1,0,0:0:0:0:
256,192,259435,1,0,0:0:0:0:
256,192,259585,1,12,0:0:0:0:
256,192,259885,1,8,0:0:0:0:
256,192,260035,1,4,0:0:0:0:
256,192,260335,1,0,0:0:0:0:
256,192,260485,1,12,0:0:0:0:
256,192,260785,1,4,0:0:0:0:
256,192,261085,1,8,0:0:0:0:
256,192,261235,1,4,0:0:0:0:
256,192,261535,1,0,0:0:0:0:
256,192,261685,1,12,0:0:0:0:
256,192,261985,1,12,0:0:0:0:
256,192,262285,1,8,0:0:0:0:
256,192,262435,1,4,0:0:0:0:
256,192,262735,1,0,0:0:0:0:
256,192,262885,1,12,0:0:0:0:
256,192,263185,1,12,0:0:0:0:
256,192,263335,1,0,0:0:0:0:
256,192,263485,1,0,0:0:0:0:
256,192,263635,1,0,0:0:0:0:
256,192,263710,1,0,0:0:0:0:
256,192,263785,1,8,0:0:0:0:
256,192,263935,1,8,0:0:0:0:
256,192,264010,1,8,0:0:0:0:
256,192,264085,1,0,0:0:0:0:
256,192,264235,1,8,0:0:0:0:
256,192,264385,1,4,0:0:0:0:
256,192,264685,1,0,0:0:0:0:
256,192,264835,1,0,0:0:0:0:
256,192,264985,1,8,0:0:0:0:
256,192,265135,1,8,0:0:0:0:
256,192,265285,1,0,0:0:0:0:
256,192,265435,1,8,0:0:0:0:
256,192,265585,1,0,0:0:0:0:
256,192,265735,1,0,0:0:0:0:
256,192,265885,1,8,0:0:0:0:
256,192,266035,1,8,0:0:0:0:
256,192,266185,1,0,0:0:0:0:
256,192,266335,1,0,0:0:0:0:
256,192,266485,1,8,0:0:0:0:
256,192,266635,1,0,0:0:0:0:
256,192,266785,1,8,0:0:0:0:
256,192,266935,1,0,0:0:0:0:
256,192,267085,1,0,0:0:0:0:
256,192,267135,1,0,0:0:0:0:
256,192,267235,1,0,0:0:0:0:
256,192,267385,1,8,0:0:0:0:
256,192,267535,1,8,0:0:0:0:
256,192,267685,1,0,0:0:0:0:
256,192,267835,1,8,0:0:0:0:
256,192,267985,1,0,0:0:0:0:
256,192,268135,1,0,0:0:0:0:
256,192,268285,1,8,0:0:0:0:
256,192,268435,1,8,0:0:0:0:
256,192,268585,1,0,0:0:0:0:
256,192,268635,1,0,0:0:0:0:
256,192,268735,1,0,0:0:0:0:
256,192,268885,1,0,0:0:0:0:
256,192,268935,1,0,0:0:0:0:
256,192,269185,1,12,0:0:0:0:
256,192,269485,1,12,0:0:0:0:
256,192,269785,1,12,0:0:0:0:
256,192,270235,1,12,0:0:0:0:
256,192,270535,1,12,0:0:0:0:
256,192,270835,1,12,0:0:0:0:
256,192,271135,1,12,0:0:0:0:
256,192,271285,1,12,0:0:0:0:
256,192,271585,1,12,0:0:0:0:
256,192,272485,1,12,0:0:0:0:
256,192,272635,1,12,0:0:0:0:
256,192,272785,1,12,0:0:0:0:
256,192,273985,1,12,0:0:0:0:
256,192,274135,1,0,0:0:0:0:
256,192,274210,1,0,0:0:0:0:
256,192,274285,1,8,0:0:0:0:
256,192,274360,1,0,0:0:0:0:
256,192,274435,5,0,0:0:0:0:
256,192,274510,1,0,0:0:0:0:
256,192,274585,1,8,0:0:0:0:
256,192,274660,1,0,0:0:0:0:
256,192,274735,1,0,0:0:0:0:
256,192,274810,1,0,0:0:0:0:
256,192,274885,1,8,0:0:0:0:
256,192,274960,1,8,0:0:0:0:
256,192,275035,1,0,0:0:0:0:
256,192,275110,1,0,0:0:0:0:
256,192,275185,1,8,0:0:0:0:
256,192,275260,1,8,0:0:0:0:
256,192,275335,1,8,0:0:0:0:
256,192,275410,1,0,0:0:0:0:
256,192,275485,1,8,0:0:0:0:
256,192,275560,1,8,0:0:0:0:
256,192,275635,1,0,0:0:0:0:
256,192,275710,1,0,0:0:0:0:
256,192,275785,1,8,0:0:0:0:
256,192,275860,1,8,0:0:0:0:
256,192,275935,1,0,0:0:0:0:
256,192,276010,1,8,0:0:0:0:
256,192,276085,1,0,0:0:0:0:
256,192,276160,1,0,0:0:0:0:
256,192,276235,1,8,0:0:0:0:
256,192,276310,1,8,0:0:0:0:
256,192,276385,1,8,0:0:0:0:
256,192,276535,1,0,0:0:0:0:
256,192,276685,1,8,0:0:0:0:
256,192,276760,1,0,0:0:0:0:
256,192,276835,1,8,0:0:0:0:
256,192,276910,1,0,0:0:0:0:
256,192,276985,1,8,0:0:0:0:
256,192,277135,1,0,0:0:0:0:
256,192,277285,1,8,0:0:0:0:
256,192,277360,1,0,0:0:0:0:
256,192,277435,1,8,0:0:0:0:
256,192,277585,1,0,0:0:0:0:
256,192,277660,1,8,0:0:0:0:
256,192,277735,1,0,0:0:0:0:
256,192,277885,1,0,0:0:0:0:
256,192,277960,1,8,0:0:0:0:
256,192,278035,1,0,0:0:0:0:
288,192,278185,2,8,L|96:64,1,210
256,192,278785,1,12,0:0:0:0:
256,192,278935,1,8,0:0:0:0:
256,192,279235,1,8,0:0:0:0:
256,192,279385,1,0,0:0:0:0:
256,192,279535,1,8,0:0:0:0:
256,192,279685,1,8,0:0:0:0:
256,192,279835,1,8,0:0:0:0:
256,192,279985,1,0,0:0:0:0:
256,192,280135,1,0,0:0:0:0:
256,192,280435,1,8,0:0:0:0:
256,192,280585,1,0,0:0:0:0:
256,192,280660,1,8,0:0:0:0:
256,192,280735,1,8,0:0:0:0:
256,192,280810,1,0,0:0:0:0:
256,192,280885,1,8,0:0:0:0:
256,192,281035,1,8,0:0:0:0:
256,192,281185,1,0,0:0:0:0:
256,192,281260,1,0,0:0:0:0:
256,192,281335,1,8,0:0:0:0:
256,192,281410,1,8,0:0:0:0:
256,192,281485,1,8,0:0:0:0:
256,192,281560,1,8,0:0:0:0:
256,192,281635,1,0,0:0:0:0:
256,192,281710,1,0,0:0:0:0:
256,192,281785,1,8,0:0:0:0:
256,192,281860,1,8,0:0:0:0:
256,192,281935,1,8,0:0:0:0:
256,192,282010,1,8,0:0:0:0:
256,192,282085,1,0,0:0:0:0:
256,192,282160,1,0,0:0:0:0:
256,192,282235,1,8,0:0:0:0:
256,192,282310,1,8,0:0:0:0:
256,192,282385,1,0,0:0:0:0:
256,192,282460,1,8,0:0:0:0:
256,192,282535,1,8,0:0:0:0:
256,192,282610,1,8,0:0:0:0:
256,192,282685,1,0,0:0:0:0:
256,192,282760,1,0,0:0:0:0:
256,192,282835,1,8,0:0:0:0:
256,192,282910,1,0,0:0:0:0:
256,192,282985,1,8,0:0:0:0:
256,192,283060,1,0,0:0:0:0:
256,192,283135,1,8,0:0:0:0:
256,192,283210,1,8,0:0:0:0:
256,192,283285,1,0,0:0:0:0:
256,192,283360,1,8,0:0:0:0:
256,192,283435,1,0,0:0:0:0:
256,192,283585,1,12,0:0:0:0:
256,192,283735,1,8,0:0:0:0:
256,192,283810,1,8,0:0:0:0:
256,192,283885,1,0,0:0:0:0:
256,192,284035,1,0,0:0:0:0:
256,192,284185,1,8,0:0:0:0:
256,192,284260,1,8,0:0:0:0:
256,192,284335,1,0,0:0:0:0:
256,192,284410,1,0,0:0:0:0:
256,192,284485,1,8,0:0:0:0:
256,192,284635,1,0,0:0:0:0:
256,192,284785,1,8,0:0:0:0:
256,192,284860,1,8,0:0:0:0:
256,192,284935,1,0,0:0:0:0:
256,192,285010,1,0,0:0:0:0:
256,192,285085,1,8,0:0:0:0:
256,192,285160,1,0,0:0:0:0:
256,192,285235,1,0,0:0:0:0:
256,192,285310,1,0,0:0:0:0:
256,192,285385,1,8,0:0:0:0:
256,192,285460,1,8,0:0:0:0:
256,192,285535,1,0,0:0:0:0:
256,192,285610,1,0,0:0:0:0:
256,192,285685,1,8,0:0:0:0:
256,192,285760,1,8,0:0:0:0:
256,192,285835,1,8,0:0:0:0:
256,192,285985,1,8,0:0:0:0:
256,192,286022,1,8,0:0:0:0:
256,192,286135,1,0,0:0:0:0:
256,192,286172,1,0,0:0:0:0:
256,192,286285,1,8,0:0:0:0:
256,192,286322,1,8,0:0:0:0:
256,192,286435,1,0,0:0:0:0:
256,192,286472,1,0,0:0:0:0:
256,192,286585,1,8,0:0:0:0:
256,192,286622,1,8,0:0:0:0:
256,192,286735,1,0,0:0:0:0:
256,192,286772,1,0,0:0:0:0:
256,192,286885,1,8,0:0:0:0:
256,192,286922,1,8,0:0:0:0:
256,192,287035,1,0,0:0:0:0:
256,192,287072,1,0,0:0:0:0:
256,192,287185,1,8,0:0:0:0:
256,192,287260,1,0,0:0:0:0:
256,192,287335,1,8,0:0:0:0:
256,192,287410,1,8,0:0:0:0:
256,192,287485,1,0,0:0:0:0:
256,192,287560,1,8,0:0:0:0:
256,192,287635,1,0,0:0:0:0:
256,192,287710,1,0,0:0:0:0:
256,192,287785,1,8,0:0:0:0:
256,192,287860,1,8,0:0:0:0:
256,192,287935,1,8,0:0:0:0:
256,192,288010,1,0,0:0:0:0:
256,192,288085,1,0,0:0:0:0:
256,192,288160,1,0,0:0:0:0:
256,192,288235,1,8,0:0:0:0:
256,192,288385,1,4,0:0:0:0:
256,192,288535,1,8,0:0:0:0:
256,192,288835,1,8,0:0:0:0:
256,192,288985,1,8,0:0:0:0:
256,192,289135,1,0,0:0:0:0:
256,192,289285,1,8,0:0:0:0:
256,192,289435,1,8,0:0:0:0:
256,192,289585,1,0,0:0:0:0:
256,192,289735,1,0,0:0:0:0:
256,192,290035,1,8,0:0:0:0:
256,192,290185,1,0,0:0:0:0:
256,192,290260,1,8,0:0:0:0:
256,192,290335,1,8,0:0:0:0:
256,192,290410,1,0,0:0:0:0:
256,192,290485,1,8,0:0:0:0:
256,192,290635,1,8,0:0:0:0:
256,192,290785,1,4,0:0:0:0:
256,192,290935,1,0,0:0:0:0:
256,192,291085,1,8,0:0:0:0:
256,192,291160,1,8,0:0:0:0:
256,192,291235,1,8,0:0:0:0:
256,192,291310,1,8,0:0:0:0:
256,192,291385,1,0,0:0:0:0:
256,192,291535,1,0,0:0:0:0:
256,192,291685,1,0,0:0:0:0:
256,192,291760,1,0,0:0:0:0:
256,192,291835,1,0,0:0:0:0:
256,192,291910,1,0,0:0:0:0:
256,192,291985,1,8,0:0:0:0:
256,192,292135,1,8,0:0:0:0:
256,192,292285,1,0,0:0:0:0:
256,192,292360,1,0,0:0:0:0:
256,192,292435,1,8,0:0:0:0:
256,192,292585,1,0,0:0:0:0:
256,192,292622,1,0,0:0:0:0:
256,192,292735,1,0,0:0:0:0:
256,192,292772,1,0,0:0:0:0:
256,192,292885,1,0,0:0:0:0:
256,192,292922,1,0,0:0:0:0:
256,192,293035,1,0,0:0:0:0:
256,192,293072,1,0,0:0:0:0:
256,192,293185,1,12,0:0:0:0:
256,192,293485,1,8,0:0:0:0:
256,192,293785,1,8,0:0:0:0:
256,192,293935,1,8,0:0:0:0:
256,192,294085,1,8,0:0:0:0:
256,192,294235,1,0,0:0:0:0:
256,192,294385,1,8,0:0:0:0:
256,192,294685,1,8,0:0:0:0:
256,192,294835,1,0,0:0:0:0:
256,192,294985,1,8,0:0:0:0:
256,192,295135,1,0,0:0:0:0:
256,192,295285,1,8,0:0:0:0:
256,192,295435,1,8,0:0:0:0:
256,192,295585,1,12,0:0:0:0:
256,192,295885,1,8,0:0:0:0:
256,192,296035,1,0,0:0:0:0:
256,192,296185,1,8,0:0:0:0:
256,192,296335,1,0,0:0:0:0:
256,192,296485,1,8,0:0:0:0:
256,192,296635,12,8,297385,0:0:0:0:
256,192,297535,5,0,0:0:0:0:
256,192,297685,1,12,0:0:0:0:
256,192,297835,1,0,0:0:0:0:
256,192,297985,1,8,0:0:0:0:
256,192,298060,1,8,0:0:0:0:
256,192,298135,1,0,0:0:0:0:
256,192,298210,1,8,0:0:0:0:
256,192,298285,1,8,0:0:0:0:
256,192,298360,1,8,0:0:0:0:
256,192,298435,1,0,0:0:0:0:
256,192,298510,1,0,0:0:0:0:
256,192,298585,1,8,0:0:0:0:
256,192,298660,1,8,0:0:0:0:
256,192,298735,1,0,0:0:0:0:
256,192,298810,1,8,0:0:0:0:
256,192,298885,1,8,0:0:0:0:
256,192,298960,1,8,0:0:0:0:
256,192,299035,1,0,0:0:0:0:
256,192,299110,1,0,0:0:0:0:
256,192,299185,1,8,0:0:0:0:
256,192,299260,1,0,0:0:0:0:
256,192,299335,1,0,0:0:0:0:
256,192,299410,1,0,0:0:0:0:
256,192,299485,1,8,0:0:0:0:
256,192,299560,1,8,0:0:0:0:
256,192,299635,1,0,0:0:0:0:
256,192,299710,1,8,0:0:0:0:
256,192,299785,1,8,0:0:0:0:
256,192,299860,1,8,0:0:0:0:
256,192,299935,1,0,0:0:0:0:
256,192,300010,1,8,0:0:0:0:
256,192,300085,1,8,0:0:0:0:
256,192,300160,1,8,0:0:0:0:
256,192,300235,1,0,0:0:0:0:
256,192,300310,1,0,0:0:0:0:
256,192,300385,1,8,0:0:0:0:
256,192,300535,1,8,0:0:0:0:
256,192,300610,1,0,0:0:0:0:
256,192,300685,1,8,0:0:0:0:
256,192,300835,1,0,0:0:0:0:
256,192,300985,1,8,0:0:0:0:
256,192,301135,1,0,0:0:0:0:
256,192,301210,1,8,0:0:0:0:
256,192,301285,1,0,0:0:0:0:
256,192,301435,1,0,0:0:0:0:
256,192,301585,1,8,0:0:0:0:
256,192,301735,1,0,0:0:0:0:
256,192,301810,1,0,0:0:0:0:
256,192,301885,1,8,0:0:0:0:
256,192,302035,1,0,0:0:0:0:
256,192,302185,1,8,0:0:0:0:
256,192,302335,1,0,0:0:0:0:
256,192,302410,1,8,0:0:0:0:
256,192,302485,1,8,0:0:0:0:
256,192,302785,1,4,0:0:0:0:
256,192,302935,1,8,0:0:0:0:
256,192,303085,1,0,0:0:0:0:
256,192,303160,1,0,0:0:0:0:
256,192,303235,1,0,0:0:0:0:
256,192,303310,1,8,0:0:0:0:
256,192,303385,1,8,0:0:0:0:
256,192,303535,1,8,0:0:0:0:
256,192,303610,1,8,0:0:0:0:
256,192,303685,1,0,0:0:0:0:
256,192,303835,1,0,0:0:0:0:
256,192,303910,1,8,0:0:0:0:
256,192,303985,1,0,0:0:0:0:
256,192,304060,1,0,0:0:0:0:
256,192,304135,1,8,0:0:0:0:
256,192,304210,1,8,0:0:0:0:
256,192,304285,1,8,0:0:0:0:
256,192,304360,1,0,0:0:0:0:
256,192,304435,1,8,0:0:0:0:
256,192,304510,1,8,0:0:0:0:
256,192,304585,1,0,0:0:0:0:
256,192,304660,1,0,0:0:0:0:
256,192,304735,1,8,0:0:0:0:
256,192,304810,1,0,0:0:0:0:
256,192,304885,1,8,0:0:0:0:
256,192,305185,5,8,0:0:0:0:
256,192,305260,1,0,0:0:0:0:
256,192,305335,1,0,0:0:0:0:
256,192,305410,1,8,0:0:0:0:
256,192,305485,1,8,0:0:0:0:
256,192,305560,1,0,0:0:0:0:
256,192,305635,1,0,0:0:0:0:
256,192,305710,1,0,0:0:0:0:
256,192,305785,1,8,0:0:0:0:
256,192,305860,1,0,0:0:0:0:
256,192,305935,1,8,0:0:0:0:
256,192,306010,1,8,0:0:0:0:
256,192,306085,1,0,0:0:0:0:
256,192,306160,1,8,0:0:0:0:
256,192,306235,1,0,0:0:0:0:
256,192,306310,1,0,0:0:0:0:
256,192,306385,1,8,0:0:0:0:
256,192,306460,1,8,0:0:0:0:
256,192,306535,1,0,0:0:0:0:
256,192,306610,1,8,0:0:0:0:
256,192,306685,1,0,0:0:0:0:
256,192,306835,1,8,0:0:0:0:
256,192,306985,1,0,0:0:0:0:
256,192,307135,1,8,0:0:0:0:
256,192,307210,1,0,0:0:0:0:
256,192,307285,1,8,0:0:0:0:
256,192,307585,1,12,0:0:0:0:
256,192,307735,1,8,0:0:0:0:
256,192,307810,1,0,0:0:0:0:
256,192,307885,1,0,0:0:0:0:
256,192,307960,1,0,0:0:0:0:
256,192,308035,1,8,0:0:0:0:
256,192,308110,1,8,0:0:0:0:
256,192,308185,1,8,0:0:0:0:
256,192,308260,1,0,0:0:0:0:
256,192,308335,1,0,0:0:0:0:
256,192,308410,1,0,0:0:0:0:
256,192,308485,1,8,0:0:0:0:
256,192,308560,1,8,0:0:0:0:
256,192,308635,1,8,0:0:0:0:
256,192,308785,1,8,0:0:0:0:
256,192,308860,1,8,0:0:0:0:
256,192,308935,1,0,0:0:0:0:
256,192,309085,1,8,0:0:0:0:
256,192,309160,1,8,0:0:0:0:
256,192,309235,1,0,0:0:0:0:
256,192,309385,1,8,0:0:0:0:
256,192,309460,1,0,0:0:0:0:
256,192,309535,1,0,0:0:0:0:
256,192,309685,1,0,0:0:0:0:
256,192,309760,1,8,0:0:0:0:
256,192,309835,1,8,0:0:0:0:
192,64,309985,1,0,0:0:0:0:
256,192,310060,1,0,0:0:0:0:
256,192,310135,1,8,0:0:0:0:
256,192,310210,1,8,0:0:0:0:
256,192,310285,1,0,0:0:0:0:
256,192,310360,1,8,0:0:0:0:
256,192,310435,1,0,0:0:0:0:
256,192,310510,1,0,0:0:0:0:
256,192,310585,1,8,0:0:0:0:
256,192,310660,1,0,0:0:0:0:
256,192,310735,1,8,0:0:0:0:
256,192,310810,1,0,0:0:0:0:
256,192,310885,1,8,0:0:0:0:
256,192,310960,1,0,0:0:0:0:
256,192,311035,1,8,0:0:0:0:
256,192,311110,1,8,0:0:0:0:
256,192,311185,1,0,0:0:0:0:
256,192,311260,1,0,0:0:0:0:
256,192,311335,1,8,0:0:0:0:
256,192,311410,1,8,0:0:0:0:
256,192,311485,1,8,0:0:0:0:
256,192,311560,1,8,0:0:0:0:
256,192,311635,1,0,0:0:0:0:
256,192,311710,1,0,0:0:0:0:
256,192,311785,1,8,0:0:0:0:
256,192,311860,1,8,0:0:0:0:
256,192,311935,1,8,0:0:0:0:
256,192,312010,1,8,0:0:0:0:
256,192,312085,1,0,0:0:0:0:
256,192,312160,1,0,0:0:0:0:
256,192,312235,1,0,0:0:0:0:
256,192,312385,1,12,0:0:0:0:
256,192,312835,1,0,0:0:0:0:
256,192,312985,1,8,0:0:0:0:
256,192,313285,1,8,0:0:0:0:
256,192,313435,1,0,0:0:0:0:
256,192,313585,1,0,0:0:0:0:
256,192,313735,1,8,0:0:0:0:
256,192,313885,1,0,0:0:0:0:
256,192,314035,1,8,0:0:0:0:
256,192,314185,1,8,0:0:0:0:
256,192,314335,1,0,0:0:0:0:
256,192,314485,1,8,0:0:0:0:
256,192,314635,1,0,0:0:0:0:
256,192,314785,1,8,0:0:0:0:
256,192,315235,1,0,0:0:0:0:
256,192,315385,1,8,0:0:0:0:
256,192,315685,1,8,0:0:0:0:
256,192,315835,1,8,0:0:0:0:
256,192,315985,1,0,0:0:0:0:
256,192,316285,1,0,0:0:0:0:
256,192,316585,2,0,L|224:160,6,35
256,192,317185,1,4,0:0:0:0:
256,192,317335,1,8,0:0:0:0:
256,192,317485,1,8,0:0:0:0:
256,192,317635,1,0,0:0:0:0:
256,192,317785,1,8,0:0:0:0:
256,192,317935,1,0,0:0:0:0:
256,192,318085,1,8,0:0:0:0:
256,192,318235,1,0,0:0:0:0:
256,192,318385,1,8,0:0:0:0:
256,192,318535,1,8,0:0:0:0:
256,192,318685,1,8,0:0:0:0:
256,192,318835,1,8,0:0:0:0:
256,192,318985,1,0,0:0:0:0:
256,192,319135,1,0,0:0:0:0:
256,192,319285,1,8,0:0:0:0:
256,192,319435,1,8,0:0:0:0:
256,192,319585,1,0,0:0:0:0:
256,192,319660,1,0,0:0:0:0:
256,192,319735,1,8,0:0:0:0:
256,192,319810,1,8,0:0:0:0:
256,192,319885,1,8,0:0:0:0:
256,192,319960,1,8,0:0:0:0:
256,192,320035,1,0,0:0:0:0:
256,192,320110,1,0,0:0:0:0:
256,192,320185,1,8,0:0:0:0:
256,192,320260,1,8,0:0:0:0:
256,192,320335,1,8,0:0:0:0:
256,192,320410,1,8,0:0:0:0:
256,192,320485,1,0,0:0:0:0:
256,192,320560,1,0,0:0:0:0:
256,192,320635,1,8,0:0:0:0:
256,192,320710,1,8,0:0:0:0:
256,192,320785,1,0,0:0:0:0:
256,192,320860,1,0,0:0:0:0:
256,192,320935,1,8,0:0:0:0:
256,192,321010,1,0,0:0:0:0:
256,192,321085,1,8,0:0:0:0:
256,192,321160,1,8,0:0:0:0:
256,192,321235,1,0,0:0:0:0:
256,192,321310,1,0,0:0:0:0:
256,192,321385,1,8,0:0:0:0:
256,192,321460,1,0,0:0:0:0:
256,192,321535,1,8,0:0:0:0:
256,192,321610,1,8,0:0:0:0:
256,192,321685,1,0,0:0:0:0:
256,192,321760,1,0,0:0:0:0:
256,192,321835,1,8,0:0:0:0:
256,192,321985,1,4,0:0:0:0:
256,192,322135,1,8,0:0:0:0:
256,192,322285,1,0,0:0:0:0:
256,192,322435,1,8,0:0:0:0:
256,192,322585,1,8,0:0:0:0:
256,192,322735,1,0,0:0:0:0:
256,192,322885,1,8,0:0:0:0:
256,192,323035,1,0,0:0:0:0:
256,192,323185,1,8,0:0:0:0:
256,192,323235,1,8,0:0:0:0:
256,192,323485,1,0,0:0:0:0:
256,192,323535,1,0,0:0:0:0:
256,192,323785,1,8,0:0:0:0:
256,192,323935,1,0,0:0:0:0:
256,192,324085,1,0,0:0:0:0:
256,192,324235,1,0,0:0:0:0:
256,192,324385,1,12,0:0:0:0:
256,192,324535,1,0,0:0:0:0:
256,192,324685,1,8,0:0:0:0:
256,192,324835,1,0,0:0:0:0:
256,192,324985,1,8,0:0:0:0:
256,192,325135,1,0,0:0:0:0:
256,192,325285,1,0,0:0:0:0:
256,192,325435,1,8,0:0:0:0:
256,192,325585,1,0,0:0:0:0:
256,192,325660,1,8,0:0:0:0:
256,192,325735,1,0,0:0:0:0:
256,192,325810,1,0,0:0:0:0:
256,192,325885,1,8,0:0:0:0:
256,192,325960,1,0,0:0:0:0:
256,192,326035,1,0,0:0:0:0:
256,192,326110,1,0,0:0:0:0:
256,192,326185,1,8,0:0:0:0:
256,192,326260,1,8,0:0:0:0:
256,192,326335,1,0,0:0:0:0:
256,192,326410,1,0,0:0:0:0:
256,192,326485,1,8,0:0:0:0:
256,192,326635,1,0,0:0:0:0:
256,192,326785,1,12,0:0:0:0:
256,192,326935,1,0,0:0:0:0:
256,192,327010,1,0,0:0:0:0:
256,192,327085,1,8,0:0:0:0:
256,192,327235,1,0,0:0:0:0:
256,192,327310,1,0,0:0:0:0:
256,192,327385,1,8,0:0:0:0:
256,192,327535,1,0,0:0:0:0:
256,192,327685,1,8,0:0:0:0:
256,192,327835,1,8,0:0:0:0:
256,192,327910,1,0,0:0:0:0:
256,192,327985,1,8,0:0:0:0:
256,192,328135,1,0,0:0:0:0:
256,192,328210,1,8,0:0:0:0:
256,192,328285,1,8,0:0:0:0:
256,192,328435,1,0,0:0:0:0:
256,192,328510,1,8,0:0:0:0:
256,192,328585,1,8,0:0:0:0:
256,192,328735,1,0,0:0:0:0:
256,192,328885,1,8,0:0:0:0:
256,192,329035,1,8,0:0:0:0:
256,192,329110,1,0,0:0:0:0:
256,192,329185,1,8,0:0:0:0:
256,192,329260,1,8,0:0:0:0:
256,192,329335,1,0,0:0:0:0:
256,192,329410,1,0,0:0:0:0:
256,192,329485,1,8,0:0:0:0:
256,192,329560,1,0,0:0:0:0:
256,192,329635,1,8,0:0:0:0:
256,192,329710,1,0,0:0:0:0:
256,192,329785,1,8,0:0:0:0:
256,192,329860,1,0,0:0:0:0:
256,192,329935,1,0,0:0:0:0:
256,192,330010,1,0,0:0:0:0:
256,192,330085,1,8,0:0:0:0:
256,192,330160,1,0,0:0:0:0:
256,192,330235,1,0,0:0:0:0:
256,192,330310,1,0,0:0:0:0:
256,192,330385,1,8,0:0:0:0:
256,192,330535,1,0,0:0:0:0:
256,192,330685,1,8,0:0:0:0:
256,192,330835,1,0,0:0:0:0:
256,192,330985,1,8,0:0:0:0:
256,192,331060,1,8,0:0:0:0:
256,192,331135,1,0,0:0:0:0:
256,192,331285,1,12,0:0:0:0:
256,192,331585,1,4,0:0:0:0:
256,192,331735,1,8,0:0:0:0:
256,192,331885,1,0,0:0:0:0:
256,192,331960,1,0,0:0:0:0:
256,192,332035,1,8,0:0:0:0:
256,192,332185,1,8,0:0:0:0:
256,192,332335,1,0,0:0:0:0:
256,192,332485,1,8,0:0:0:0:
256,192,332560,1,0,0:0:0:0:
256,192,332635,1,8,0:0:0:0:
256,192,332785,1,8,0:0:0:0:
256,192,332935,1,0,0:0:0:0:
256,192,333010,1,8,0:0:0:0:
256,192,333085,1,8,0:0:0:0:
256,192,333160,1,8,0:0:0:0:
256,192,333235,1,0,0:0:0:0:
256,192,333385,1,8,0:0:0:0:
256,192,333535,1,0,0:0:0:0:
256,192,333610,1,8,0:0:0:0:
256,192,333685,1,0,0:0:0:0:
256,192,333760,1,0,0:0:0:0:
256,192,333835,1,8,0:0:0:0:
256,192,333985,1,12,0:0:0:0:
256,192,334135,1,0,0:0:0:0:
256,192,334210,1,8,0:0:0:0:
256,192,334285,1,0,0:0:0:0:
256,192,334360,1,0,0:0:0:0:
256,192,334435,1,8,0:0:0:0:
256,192,334585,1,8,0:0:0:0:
256,192,334735,1,0,0:0:0:0:
256,192,334810,1,8,0:0:0:0:
256,192,334885,1,0,0:0:0:0:
256,192,334960,1,0,0:0:0:0:
256,192,335035,1,8,0:0:0:0:
256,192,335185,1,4,0:0:0:0:
256,192,335335,1,8,0:0:0:0:
256,192,335485,1,0,0:0:0:0:
256,192,335560,1,0,0:0:0:0:
256,192,335635,1,8,0:0:0:0:
256,192,335785,1,0,0:0:0:0:
256,192,335935,1,8,0:0:0:0:
256,192,336085,1,8,0:0:0:0:
256,192,336160,1,8,0:0:0:0:
256,192,336235,1,8,0:0:0:0:
256,192,336385,1,4,0:0:0:0:
256,192,336535,1,8,0:0:0:0:
256,192,336610,1,8,0:0:0:0:
256,192,336685,1,0,0:0:0:0:
256,192,336760,1,0,0:0:0:0:
256,192,336835,1,8,0:0:0:0:
256,192,336910,1,0,0:0:0:0:
256,192,336985,1,0,0:0:0:0:
256,192,337135,1,8,0:0:0:0:
256,192,337210,1,0,0:0:0:0:
256,192,337285,1,0,0:0:0:0:
256,192,337360,1,0,0:0:0:0:
256,192,337435,1,8,0:0:0:0:
256,192,337510,1,8,0:0:0:0:
256,192,337585,1,0,0:0:0:0:
256,192,337735,1,8,0:0:0:0:
256,192,337885,1,0,0:0:0:0:
256,192,338035,1,0,0:0:0:0:
256,192,338185,12,0,338635,0:0:0:0:
256,192,338785,5,8,0:0:0:0:
256,192,338860,1,8,0:0:0:0:
256,192,338935,1,0,0:0:0:0:
256,192,339010,1,0,0:0:0:0:
256,192,339085,1,8,0:0:0:0:
256,192,339160,1,8,0:0:0:0:
256,192,339235,1,0,0:0:0:0:
256,192,339310,1,0,0:0:0:0:
256,192,339385,1,8,0:0:0:0:
256,192,339460,1,0,0:0:0:0:
256,192,339535,1,0,0:0:0:0:
256,192,339610,1,0,0:0:0:0:
256,192,339685,1,8,0:0:0:0:
256,192,339760,1,0,0:0:0:0:
256,192,339835,1,8,0:0:0:0:
256,192,339910,1,0,0:0:0:0:
256,192,339985,1,8,0:0:0:0:
256,192,340060,1,0,0:0:0:0:
256,192,340135,1,0,0:0:0:0:
256,192,340210,1,8,0:0:0:0:
256,192,340285,1,0,0:0:0:0:
256,192,340360,1,0,0:0:0:0:
256,192,340435,1,8,0:0:0:0:
256,192,340510,1,0,0:0:0:0:
256,192,340585,1,8,0:0:0:0:
256,192,340660,1,8,0:0:0:0:
256,192,340735,1,8,0:0:0:0:
256,192,340810,1,8,0:0:0:0:
256,192,340885,1,0,0:0:0:0:
256,192,340960,1,0,0:0:0:0:
256,192,341035,1,0,0:0:0:0:
256,192,341185,1,12,0:0:0:0:
256,192,341335,1,0,0:0:0:0:
256,192,341410,1,8,0:0:0:0:
256,192,341485,1,0,0:0:0:0:
256,192,341560,1,0,0:0:0:0:
256,192,341635,1,8,0:0:0:0:
256,192,341710,1,8,0:0:0:0:
256,192,341785,1,0,0:0:0:0:
256,192,341860,1,0,0:0:0:0:
256,192,341935,1,8,0:0:0:0:
256,192,342010,1,0,0:0:0:0:
256,192,342085,1,0,0:0:0:0:
256,192,342160,1,8,0:0:0:0:
256,192,342235,1,0,0:0:0:0:
256,192,342310,1,0,0:0:0:0:
256,192,342385,1,8,0:0:0:0:
256,192,342460,1,0,0:0:0:0:
256,192,342535,1,0,0:0:0:0:
256,192,342610,1,0,0:0:0:0:
256,192,342685,1,8,0:0:0:0:
256,192,342760,1,8,0:0:0:0:
256,192,342835,1,0,0:0:0:0:
256,192,342910,1,0,0:0:0:0:
256,192,342985,1,8,0:0:0:0:
256,192,343060,1,8,0:0:0:0:
256,192,343135,1,8,0:0:0:0:
256,192,343210,1,0,0:0:0:0:
256,192,343285,5,8,0:0:0:0:
256,192,343360,1,8,0:0:0:0:
256,192,343435,1,0,0:0:0:0:
256,192,343510,1,8,0:0:0:0:
256,192,343585,1,0,0:0:0:0:
256,192,343685,1,0,0:0:0:0:
256,192,343785,1,8,0:0:0:0:
256,192,343885,5,8,0:0:0:0:
256,192,343985,1,8,0:0:0:0:
256,192,344085,1,8,0:0:0:0:
256,192,344185,1,0,0:0:0:0:
256,192,344285,1,0,0:0:0:0:
256,192,344385,1,8,0:0:0:0:
256,192,344485,1,8,0:0:0:0:
256,192,344585,1,0,0:0:0:0:
256,192,344685,1,8,0:0:0:0:
256,192,344785,1,0,0:0:0:0:
256,192,344860,1,0,0:0:0:0:
256,192,344935,1,8,0:0:0:0:
256,192,345010,1,0,0:0:0:0:
256,192,345085,1,0,0:0:0:0:
256,192,345160,1,0,0:0:0:0:
256,192,345235,1,8,0:0:0:0:
256,192,345310,1,0,0:0:0:0:
256,192,345385,1,8,0:0:0:0:
256,192,345460,1,8,0:0:0:0:
256,192,345535,1,0,0:0:0:0:
256,192,345610,1,0,0:0:0:0:
256,192,345685,1,8,0:0:0:0:
256,192,345760,1,0,0:0:0:0:
256,192,345835,1,8,0:0:0:0:
256,192,345985,1,4,0:0:0:0:
256,192,346135,1,8,0:0:0:0:
256,192,346210,1,0,0:0:0:0:
256,192,346285,1,0,0:0:0:0:
256,192,346360,1,0,0:0:0:0:
256,192,346435,1,8,0:0:0:0:
256,192,346510,1,8,0:0:0:0:
256,192,346585,1,0,0:0:0:0:
256,192,346660,1,0,0:0:0:0:
256,192,346735,1,8,0:0:0:0:
256,192,346810,1,8,0:0:0:0:
256,192,346885,1,0,0:0:0:0:
256,192,346960,1,0,0:0:0:0:
256,192,347035,1,8,0:0:0:0:
256,192,347110,1,8,0:0:0:0:
256,192,347185,1,0,0:0:0:0:
256,192,347260,1,8,0:0:0:0:
256,192,347335,1,0,0:0:0:0:
256,192,347410,1,8,0:0:0:0:
256,192,347485,1,0,0:0:0:0:
256,192,347560,1,8,0:0:0:0:
256,192,347635,1,0,0:0:0:0:
256,192,347710,1,8,0:0:0:0:
256,192,347785,1,0,0:0:0:0:
256,192,347860,1,0,0:0:0:0:
256,192,347935,1,8,0:0:0:0:
256,192,348010,1,0,0:0:0:0:
256,192,348085,1,8,0:0:0:0:
256,192,348160,1,8,0:0:0:0:
256,192,348235,1,0,0:0:0:0:
256,192,348385,1,4,0:0:0:0:
256,192,348535,1,8,0:0:0:0:
256,192,348635,1,0,0:0:0:0:
256,192,348735,1,8,0:0:0:0:
256,192,348835,1,8,0:0:0:0:
256,192,348935,1,0,0:0:0:0:
256,192,349035,1,0,0:0:0:0:
256,192,349135,1,8,0:0:0:0:
256,192,349235,1,8,0:0:0:0:
256,192,349335,1,0,0:0:0:0:
256,192,349435,1,8,0:0:0:0:
256,192,349585,1,0,0:0:0:0:
256,192,349660,1,8,0:0:0:0:
256,192,349735,1,8,0:0:0:0:
256,192,349810,1,0,0:0:0:0:
256,192,349885,1,0,0:0:0:0:
256,192,350035,1,8,0:0:0:0:
256,192,350110,1,0,0:0:0:0:
256,192,350185,1,0,0:0:0:0:
256,192,350260,1,8,0:0:0:0:
256,192,350335,1,8,0:0:0:0:
256,192,350485,1,0,0:0:0:0:
256,192,350785,1,4,0:0:0:0:
256,192,350935,1,0,0:0:0:0:
256,192,351085,1,8,0:0:0:0:
256,192,351235,1,8,0:0:0:0:
256,192,351385,1,0,0:0:0:0:
256,192,351535,1,8,0:0:0:0:
256,192,351610,1,0,0:0:0:0:
256,192,351760,1,0,0:0:0:0:
256,192,351835,1,8,0:0:0:0:
256,192,351985,1,4,0:0:0:0:
256,192,352135,1,0,0:0:0:0:
256,192,352210,1,8,0:0:0:0:
256,192,352285,1,0,0:0:0:0:
256,192,352360,1,0,0:0:0:0:
256,192,352435,1,8,0:0:0:0:
256,192,352510,1,8,0:0:0:0:
256,192,352585,1,0,0:0:0:0:
256,192,352660,1,0,0:0:0:0:
256,192,352735,1,8,0:0:0:0:
256,192,352810,1,8,0:0:0:0:
256,192,352885,1,0,0:0:0:0:
256,192,352960,1,0,0:0:0:0:
256,192,353035,1,8,0:0:0:0:
256,192,353185,1,8,0:0:0:0:
256,192,353260,1,0,0:0:0:0:
256,192,353335,1,0,0:0:0:0:
256,192,353410,1,8,0:0:0:0:
256,192,353485,1,0,0:0:0:0:
256,192,353560,1,0,0:0:0:0:
256,192,353635,1,8,0:0:0:0:
256,192,353710,1,0,0:0:0:0:
256,192,353785,1,8,0:0:0:0:
256,192,353860,1,8,0:0:0:0:
256,192,353935,1,0,0:0:0:0:
256,192,354010,1,0,0:0:0:0:
256,192,354085,1,8,0:0:0:0:
256,192,354160,1,0,0:0:0:0:
256,192,354235,1,8,0:0:0:0:
256,192,354310,1,8,0:0:0:0:
256,192,354385,1,8,0:0:0:0:
256,192,354535,1,0,0:0:0:0:
256,192,354610,1,0,0:0:0:0:
256,192,354685,1,8,0:0:0:0:
256,192,354835,1,8,0:0:0:0:
256,192,354910,1,8,0:0:0:0:
256,192,354985,1,0,0:0:0:0:
256,192,355060,1,0,0:0:0:0:
256,192,355135,1,8,0:0:0:0:
256,192,355285,1,8,0:0:0:0:
256,192,355360,1,0,0:0:0:0:
256,192,355435,1,0,0:0:0:0:
256,192,355585,1,4,0:0:0:0:
256,192,372385,5,4,0:0:0:0:
256,192,372685,1,4,0:0:0:0:
256,192,372985,1,4,0:0:0:0:
256,192,373285,1,4,0:0:0:0:
256,192,373585,1,4,0:0:0:0:
256,192,373885,1,4,0:0:0:0:
256,192,374185,1,4,0:0:0:0:
256,192,374485,1,4,0:0:0:0:
256,192,374785,1,4,0:0:0:0:
256,192,375985,1,8,0:0:0:0:
256,192,376585,1,0,0:0:0:0:
256,192,376885,1,0,0:0:0:0:
256,192,377185,1,0,0:0:0:0:
256,192,377785,1,0,0:0:0:0:
256,192,378385,1,8,0:0:0:0:
256,192,378985,1,0,0:0:0:0:
256,192,379285,1,8,0:0:0:0:
256,192,379585,1,0,0:0:0:0:
256,192,380185,1,0,0:0:0:0:
256,192,380785,1,8,0:0:0:0:
256,192,381385,1,8,0:0:0:0:
256,192,381685,1,0,0:0:0:0:
256,192,381985,1,8,0:0:0:0:
256,192,382585,1,0,0:0:0:0:
256,192,383185,1,8,0:0:0:0:
256,192,383785,1,12,0:0:0:0:
256,192,384085,1,8,0:0:0:0:
256,192,384385,1,12,0:0:0:0:
256,192,384985,1,0,0:0:0:0:
256,192,385585,1,8,0:0:0:0:
256,192,386185,1,0,0:0:0:0:
256,192,386485,1,0,0:0:0:0:
256,192,386785,1,8,0:0:0:0:
256,192,387385,1,0,0:0:0:0:
256,192,387985,1,8,0:0:0:0:
256,192,388585,1,8,0:0:0:0:
256,192,388885,1,8,0:0:0:0:
256,192,389185,1,4,0:0:0:0:
256,192,389785,1,0,0:0:0:0:
256,192,390385,1,8,0:0:0:0:
256,192,390985,1,0,0:0:0:0:
256,192,391285,1,8,0:0:0:0:
256,192,391585,1,0,0:0:0:0:
256,192,391660,1,0,0:0:0:0:
256,192,391735,1,0,0:0:0:0:
256,192,391885,1,0,0:0:0:0:
256,192,392185,1,8,0:0:0:0:
256,192,392335,1,8,0:0:0:0:
256,192,392485,1,8,0:0:0:0:
256,192,392785,1,8,0:0:0:0:
256,192,393085,1,0,0:0:0:0:
256,192,393235,1,8,0:0:0:0:
256,192,393385,1,0,0:0:0:0:
256,192,393685,1,8,0:0:0:0:
256,192,393985,1,4,0:0:0:0:
256,192,395185,1,12,0:0:0:0:
256,192,395785,1,0,0:0:0:0:
256,192,396085,1,0,0:0:0:0:
256,192,396385,1,0,0:0:0:0:
256,192,396985,1,0,0:0:0:0:
256,192,397585,1,12,0:0:0:0:
256,192,398185,1,0,0:0:0:0:
256,192,398485,1,8,0:0:0:0:
256,192,398785,1,0,0:0:0:0:
256,192,399385,1,0,0:0:0:0:
256,192,399985,1,12,0:0:0:0:
256,192,400585,1,8,0:0:0:0:
256,192,400885,1,0,0:0:0:0:
256,192,401185,1,12,0:0:0:0:
256,192,401785,1,0,0:0:0:0:
256,192,402385,1,0,0:0:0:0:
256,192,402535,1,0,0:0:0:0:
256,192,402685,1,0,0:0:0:0:
256,192,402985,1,0,0:0:0:0:
256,192,403135,1,0,0:0:0:0:
256,192,403285,1,0,0:0:0:0:
256,192,403585,1,4,0:0:0:0:
256,192,404185,1,0,0:0:0:0:
256,192,404785,1,12,0:0:0:0:
256,192,405385,1,0,0:0:0:0:
256,192,405685,1,0,0:0:0:0:
256,192,405985,1,8,0:0:0:0:
256,192,406585,1,0,0:0:0:0:
256,192,407185,1,12,0:0:0:0:
256,192,407785,1,8,0:0:0:0:
256,192,408085,1,8,0:0:0:0:
256,192,408385,1,4,0:0:0:0:
256,192,408985,1,0,0:0:0:0:
256,192,409585,1,12,0:0:0:0:
256,192,410185,1,0,0:0:0:0:
256,192,410485,1,8,0:0:0:0:
256,192,410785,1,8,0:0:0:0:
256,192,410885,1,8,0:0:0:0:
256,192,410985,1,0,0:0:0:0:
256,192,411085,1,0,0:0:0:0:
256,192,411185,1,0,0:0:0:0:
256,192,411285,1,0,0:0:0:0:
256,192,411385,1,8,0:0:0:0:
256,192,411485,1,8,0:0:0:0:
256,192,411585,1,0,0:0:0:0:
256,192,411685,1,0,0:0:0:0:
256,192,411785,1,0,0:0:0:0:
256,192,411885,1,0,0:0:0:0:
256,192,411985,1,8,0:0:0:0:
256,192,412085,1,8,0:0:0:0:
256,192,412185,1,0,0:0:0:0:
256,192,412285,1,0,0:0:0:0:
256,192,412385,1,0,0:0:0:0:
256,192,412485,1,0,0:0:0:0:
256,192,412585,1,8,0:0:0:0:
256,192,412685,1,8,0:0:0:0:
256,192,412785,1,0,0:0:0:0:
256,192,412885,1,0,0:0:0:0:
256,192,412985,1,0,0:0:0:0:
256,192,413085,1,0,0:0:0:0:
256,192,413185,1,12,0:0:0:0:
256,192,416964,1,12,0:0:0:0:
256,192,421367,1,12,0:0:0:0:
256,192,421667,12,0,427067,0:0:0:0:
