osu file format v14

[General]
AudioFilename: DragonForce - The Game (Official Video. Feat. Matt Heafy of Trivium).mp3
AudioLeadIn: 0
PreviewTime: 250920
Countdown: 0
SampleSet: None
StackLeniency: 0.7
Mode: 0
LetterboxInBreaks: 1
WidescreenStoryboard: 0

[Editor]
Bookmarks: 6095,10140,13174,13553,13933,14186,18231,20254,22277,26322,28345,30368,34413,36436,38459,42504,44527,46550,52618,53124,53629,54649,56695,58742,61813,62836,65906,66930,71024,75069,77092,77345,77597,77850,79115,83160,85183,87206,89228,91251,93274,95297,101491,101997,102503,103008,103388,105434,107481,110552,111575,113622,115669,119793,121827,123862,125897,127932,129966,132001,136071,138105,140140,142175,144210,146244,148279,152349,153995,154248,154374,156020,156274,156400,157920,158300,160072,160325,160452,162098,162351,162478,164504,165517,166530,167543,168556,170582,172607,174633,176659,178685,180713,182743,188835,190865,191119,191373,191626,191880,192134,192388,192642,192895,194926,195307,195687,196956,201019,205083,209146,209908,210162,210924,211178,211940,212194,213210,217274,231090,231218,231346,231474,234672,236719,238766,240813,242860,244907,246954,251047,253085,255123,257161,259199,261238,263276,267352,269382,271412,273443,275473,277504,279534,283595,287656,289687,290702,290956,291717,293747,300854
DistanceSpacing: 1.2
BeatDivisor: 4
GridSize: 4
TimelineZoom: 3.899998

[Metadata]
Title:The Game
TitleUnicode:The Game
Artist:DragonForce
ArtistUnicode:DragonForce
Creator:Nattu
Version:Legend
Source:
Tags:rock powermetal metal death stream deathstream rsi niat
BeatmapID:1172150
BeatmapSetID:514176

[Difficulty]
HPDrainRate:5
CircleSize:4.5
OverallDifficulty:9
ApproachRate:9.8
SliderMultiplier:1.7
SliderTickRate:1

[Events]
//Background and Video events
0,0,"game.png",0,0
//Break Periods
//Storyboard Layer 0 (Background)
//Storyboard Layer 1 (Fail)
//Storyboard Layer 2 (Pass)
//Storyboard Layer 3 (Foreground)
//Storyboard Sound Samples

[TimingPoints]
111,249.347890137328,4,3,4,10,1,0
609,-100,4,3,4,15,0,0
1108,-100,4,3,4,20,0,0
1607,-100,4,3,4,25,0,0
2105,-100,4,3,4,30,0,0
2604,-100,4,3,4,35,0,0
3103,-100,4,3,4,40,0,0
3601,-100,4,3,4,45,0,0
3975,-100,4,3,4,5,0,0
4100,-100,4,3,4,50,0,0
6095,252.844500632111,4,3,2,60,1,0
14186,-80,4,3,2,60,0,0
22277,-100,4,3,2,50,0,0
38459,-83.3333333333333,4,3,2,60,0,1
42504,-100,4,3,2,50,0,0
46550,-83.3333333333333,4,3,2,60,0,1
51607,-100,4,3,0,40,0,0
52618,-133.333333333333,4,3,5,60,0,0
54649,255.863539445629,4,3,5,60,1,0
54649,-133.333333333333,4,3,5,60,0,0
71024,252.844500632111,4,3,2,60,1,0
71024,-83.3333333333333,4,3,2,60,0,1
77092,-83.3333333333333,4,3,2,50,0,1
79115,-100,4,3,2,60,0,0
100353,-100,4,3,0,40,0,0
101365,-133.333333333333,4,3,4,60,0,0
103388,255.863539445629,4,3,2,60,1,0
103388,-133.333333333333,4,3,5,60,0,0
119793,254.345061466723,4,3,2,60,1,0
134036,-100,4,3,2,50,0,0
136071,-100,4,3,2,60,0,0
150314,-100,4,3,2,60,0,0
152349,253.237215741225,4,3,2,60,1,0
152349,-200,4,3,2,70,0,0
153995,-200,4,3,2,60,0,0
154628,-200,4,3,2,40,0,0
156020,-200,4,3,2,60,0,0
156400,-133.333333333333,4,3,2,60,0,0
163491,-133.333333333333,4,3,2,50,0,0
164504,-100,4,3,2,60,0,1
168049,-133.333333333333,4,3,2,60,0,1
168556,-100,4,3,2,60,0,1
170835,-100,4,3,0,60,0,1
171595,-100,4,3,2,60,0,1
172607,-83.3333333333333,4,3,2,70,0,1
178812,-83.3333333333333,4,3,2,60,0,1
179698,253.807106598985,4,3,4,60,1,0
179698,-100,4,3,2,60,0,1
184774,-100,4,3,2,50,0,1
187819,-100,4,1,0,60,0,1
188835,-100,4,1,0,70,0,1
195941,-100,4,1,0,80,0,1
196956,253.97712423957,4,3,2,70,1,0
196956,-83.3333333333333,4,3,2,60,0,1
213210,-83.3333333333333,4,3,2,50,0,1
214226,-83.3333333333333,4,3,2,40,0,1
215242,-133.333333333333,4,3,2,40,0,1
215623,-133.333333333333,4,3,0,50,0,1
216258,-133.333333333333,4,3,4,60,0,1
217274,255.863539445629,4,3,4,60,1,0
217274,-200,4,3,4,70,0,0
217337,-200,4,3,4,30,0,0
219320,-181.818181818182,4,3,4,30,0,0
221367,-192.307692307692,4,3,4,30,0,0
223414,-200,4,3,4,30,0,0
230067,-200,4,3,4,35,0,0
230578,-200,4,3,4,40,0,0
231090,-200,4,3,4,42,0,0
231218,-200,4,3,4,44,0,0
231346,-200,4,3,4,46,0,0
231474,-200,4,3,4,48,0,0
231602,-200,4,3,4,50,0,0
233649,-200,4,3,4,60,0,0
233905,-200,4,3,4,65,0,0
234160,-200,4,3,4,70,0,0
234416,-200,4,3,4,75,0,0
234672,-133.333333333333,4,3,5,60,0,0
251047,254.777070063694,4,3,2,60,1,0
251047,-100,4,3,2,60,0,0
267352,253.807106598985,4,3,2,60,1,0
283595,-83.3333333333333,4,3,2,70,0,1
291717,-100,4,3,2,40,0,0
293747,-100,4,3,2,60,0,0
295778,-100,4,3,2,70,0,0
298824,-100,4,3,2,50,0,0
299839,-100,4,3,2,40,0,0
300854,-100,4,3,2,30,0,0

[Colours]
Combo1 : 150,150,150
Combo2 : 201,14,222
Combo3 : 255,106,255

[HitObjects]
256,192,111,12,0,3975,0:0:0:0:
432,132,4100,6,0,P|460:112|475:66,2,56.6666666666667,8|0|0,0:3|0:3|0:3,0:3:0:0:
396,56,4349,2,0,L|361:18,3,42.5,8|0|0|0,0:3|0:3|0:3|0:3,0:3:0:0:
316,96,4599,2,0,L|352:134,3,42.5,8|0|0|0,0:3|0:3|0:3|0:3,0:3:0:0:
308,204,4848,2,0,L|272:165,3,42.5,8|0|0|0,0:3|0:3|0:3|0:3,0:3:0:0:
392,212,5097,6,0,P|384:244|359:268,1,42.5,8|0,0:3|0:3,0:3:0:0:
412,316,5222,2,0,P|380:325|348:317,1,42.5,8|0,0:3|0:3,0:3:0:0:
328,384,5347,2,0,P|304:361|294:330,1,42.5,8|0,0:3|0:3,0:3:0:0:
228,348,5471,2,0,P|236:316|256:295,1,42.5,8|0,0:3|0:3,0:3:0:0:
308,204,5596,5,8,0:3:0:0:
324,165,5658,1,8,0:3:0:0:
325,123,5721,1,8,0:3:0:0:
309,83,5783,1,8,0:3:0:0:
280,53,5846,1,8,0:3:0:0:
241,36,5908,1,8,0:3:0:0:
199,36,5970,1,8,0:3:0:0:
160,52,6033,1,8,0:3:0:0:
130,81,6095,6,0,P|112:128|112:168,1,85,4|0,1:2|0:3,0:3:0:0:
156,324,6347,1,0,1:3:0:0:
241,308,6474,2,0,P|259:261|259:221,1,85,8|0,0:3|1:3,0:3:0:0:
48,216,6727,2,0,P|88:240|141:238,1,85,8|0,0:3|1:3,0:3:0:0:
260,88,6979,2,0,L|276:136,1,42.5,8|0,0:3|0:3,0:3:0:0:
337,200,7106,6,0,P|297:224|244:222,1,85,0|8,1:3|0:3,0:3:0:0:
180,112,7359,1,0,1:3:0:0:
180,112,7422,1,0,1:3:0:0:
180,112,7485,1,8,1:3:0:0:
125,241,7612,1,0,1:3:0:0:
273,309,7738,2,0,L|257:213,1,85,8|0,0:3|1:3,0:3:0:0:
337,62,7991,2,0,L|353:110,1,42.5,8|0,0:3|0:3,0:3:0:0:
414,174,8117,6,0,P|374:198|321:196,1,85,0|8,1:3|0:3,0:3:0:0:
240,40,8370,1,0,1:3:0:0:
240,40,8433,1,0,1:3:0:0:
240,40,8497,1,8,1:3:0:0:
168,168,8623,1,0,1:3:0:0:
349,284,8749,2,0,L|333:180,1,85,8|0,0:3|1:3,0:3:0:0:
337,62,9002,2,0,L|313:110,1,42.5,8|0,0:3|0:3,0:3:0:0:
224,116,9129,6,0,L|248:152,1,42.5,0|0,1:3|0:3,0:3:0:0:
336,199,9255,1,8,0:3:0:0:
168,280,9381,1,0,1:3:0:0:
168,280,9445,1,0,1:3:0:0:
168,280,9508,1,8,1:3:0:0:
261,320,9634,5,0,1:3:0:0:
152,188,9761,1,8,0:3:0:0:
317,100,9887,1,0,1:3:0:0:
317,100,9950,1,0,1:3:0:0:
317,100,10014,1,8,1:3:0:0:
261,320,10140,6,0,L|233:130,1,170,4|0,1:2|1:3,1:3:0:0:
176,40,10519,1,8,0:3:0:0:
93,100,10646,1,0,1:3:0:0:
174,252,10772,2,0,L|161:161,1,85,8|0,0:3|1:3,0:3:0:0:
304,252,11025,2,0,P|296:280|276:304,1,42.5,8|0,0:3|0:3,0:3:0:0:
144,328,11151,6,0,P|108:300|96:236,1,85,0|8,1:3|0:3,0:3:0:0:
246,150,11404,1,0,1:3:0:0:
246,150,11467,1,0,1:3:0:0:
246,150,11531,1,8,1:3:0:0:
187,66,11657,1,0,1:3:0:0:
332,131,11784,2,0,L|318:39,1,85,8|0,0:3|1:3,0:3:0:0:
455,137,12036,2,0,P|447:165|427:189,1,42.5,8|0,0:3|0:3,0:3:0:0:
295,213,12163,6,0,P|259:185|247:121,1,85,0|8,1:3|0:3,0:3:0:0:
418,68,12416,1,0,1:3:0:0:
418,68,12479,1,0,1:3:0:0:
418,68,12542,1,8,1:3:0:0:
319,46,12668,1,0,1:3:0:0:
295,213,12795,2,0,L|308:304,1,85,8|0,0:3|1:3,0:3:0:0:
180,284,13048,2,0,P|164:256|168:216,1,42.5,8|0,0:3|0:3,0:3:0:0:
245,149,13174,6,0,P|300:132|348:152,1,85,4|8,1:2|0:3,0:3:0:0:
438,240,13427,1,0,0:3:0:0:
454,266,13490,1,0,0:3:0:0:
457,298,13553,1,4,1:2:0:0:
446,327,13617,1,0,0:3:0:0:
423,349,13680,5,0,0:3:0:0:
394,318,13743,1,0,0:3:0:0:
356,299,13806,1,0,1:3:0:0:
314,295,13869,1,0,0:3:0:0:
273,305,13933,1,4,1:2:0:0:
241,333,13996,1,0,0:3:0:0:
201,345,14059,1,8,0:3:0:0:
159,341,14122,1,0,0:3:0:0:
123,319,14186,6,0,B|94:296|84:264|84:264|180:220|160:112,1,212.5,4|0,1:2|1:3,0:3:0:0:
0,84,14565,2,0,P|32:140|104:168,1,106.25,8|0,0:3|1:3,0:3:0:0:
235,107,14818,1,8,0:3:0:0:
124,46,14944,1,0,1:3:0:0:
124,46,15007,1,0,1:3:0:0:
124,46,15070,1,8,1:3:0:0:
66,161,15197,6,0,L|84:272,1,106.25,0|8,1:3|0:3,0:3:0:0:
185,342,15450,1,0,1:3:0:0:
163,218,15576,2,0,L|147:106,1,106.25,8|0,0:3|1:3,0:3:0:0:
315,42,15829,1,8,0:3:0:0:
235,107,15955,2,0,L|253:218,1,106.25,0|8,1:3|0:3,0:3:0:0:
315,323,16208,6,0,P|336:346|360:360,1,53.125,0|0,1:3|0:3,0:3:0:0:
422,293,16335,2,0,P|454:285|482:266,1,53.125,8|0,0:3|0:3,0:3:0:0:
497,200,16461,1,0,1:3:0:0:
497,162,16524,1,0,0:3:0:0:
486,125,16588,2,0,P|468:82|406:47,1,106.25,8|0,0:3|1:3,0:3:0:0:
293,61,16840,1,8,0:3:0:0:
389,145,16967,2,0,L|409:261,1,106.25,0|8,1:3|0:3,0:3:0:0:
208,272,17220,5,0,1:3:0:0:
147,159,17346,1,8,0:3:0:0:
264,108,17473,1,0,1:3:0:0:
264,108,17536,1,0,1:3:0:0:
264,108,17599,1,8,1:3:0:0:
317,213,17725,2,0,L|337:329,1,106.25,0|8,1:3|0:3,0:3:0:0:
208,272,17978,1,0,0:3:0:0:
168,267,18041,1,0,0:3:0:0:
128,263,18104,1,0,0:3:0:0:
89,258,18167,1,0,0:3:0:0:
49,254,18231,6,0,P|34:200|63:131,2,106.25,4|0|0,1:2|0:3|1:3,0:3:0:0:
141,373,18610,1,8,0:3:0:0:
242,337,18737,2,0,P|279:290|257:218,1,106.25,0|8,1:3|0:3,0:3:0:0:
137,107,18990,2,0,P|159:162|232:179,1,106.25,0|8,1:3|0:3,0:3:0:0:
388,131,19242,6,0,P|329:123|278:178,1,106.25,0|8,1:3|0:3,0:3:0:0:
355,294,19495,1,0,1:3:0:0:
384,316,19558,1,0,0:3:0:0:
411,341,19622,2,0,P|430:290|409:238,1,106.25,8|0,0:3|1:3,0:3:0:0:
292,147,19875,1,8,0:3:0:0:
288,115,19938,1,0,0:3:0:0:
283,83,20001,2,0,B|320:47|320:47|389:41,1,106.25,0|8,1:3|0:3,0:3:0:0:
470,128,20254,6,0,L|484:197,1,53.125,4|0,1:3|0:3,0:3:0:0:
402,191,20380,2,0,L|416:260,1,53.125,8|0,0:3|0:3,0:3:0:0:
325,251,20507,1,0,1:3:0:0:
281,281,20570,1,0,1:3:0:0:
237,311,20633,2,0,P|216:258|241:176,1,106.25,8|0,0:3|1:3,0:3:0:0:
288,115,20886,1,8,0:3:0:0:
191,49,21012,5,0,1:3:0:0:
191,49,21076,1,0,1:3:0:0:
191,49,21139,1,8,0:3:0:0:
103,126,21265,1,0,1:3:0:0:
77,314,21392,6,0,B|102:309|102:309|126:293,1,53.125,8|0,0:3|0:3,0:3:0:0:
190,329,21518,2,0,B|198:304|198:304|196:276,1,53.125,0|0,1:3|0:3,0:3:0:0:
262,241,21644,2,0,B|245:221|245:221|219:209,1,53.125,8|0,0:3|0:3,0:3:0:0:
218,137,21771,2,0,B|193:141|193:141|169:157,1,53.125,0|0,1:3|0:3,0:3:0:0:
102,125,21897,2,0,B|93:149|93:149|95:177,1,53.125,8|0,0:3|0:3,0:3:0:0:
262,241,22024,5,0,1:3:0:0:
294,218,22087,1,0,0:3:0:0:
317,186,22150,1,8,0:3:0:0:
327,147,22213,1,0,0:3:0:0:
324,108,22277,6,0,L|286:5,1,85,4|0,1:2|0:3,0:3:0:0:
176,25,22529,1,0,0:3:0:0:
218,137,22656,2,0,P|211:190|179:230,1,85,8|0,0:3|1:3,0:3:0:0:
124,293,22909,1,8,0:3:0:0:
134,153,23035,1,0,1:3:0:0:
134,153,23098,1,0,1:3:0:0:
134,153,23162,1,8,1:3:0:0:
280,232,23288,6,0,L|372:240,1,85,0|8,1:3|0:3,0:3:0:0:
436,313,23541,1,0,1:3:0:0:
412,168,23667,2,0,L|392:68,1,85,8|0,0:3|1:3,0:3:0:0:
315,48,23920,1,8,0:3:0:0:
450,28,24046,1,0,1:3:0:0:
450,28,24110,1,0,1:3:0:0:
450,28,24173,1,8,1:3:0:0:
316,132,24299,6,0,P|272:121|236:84,1,85,0|8,1:3|0:3,0:3:0:0:
188,28,24552,1,0,1:3:0:0:
192,164,24679,2,0,L|184:260,1,85,8|0,0:3|1:3,0:3:0:0:
132,335,24931,1,8,0:3:0:0:
49,274,25058,2,0,L|57:178,1,85,0|8,1:3|0:3,0:3:0:0:
184,248,25311,6,0,P|236:240|272:196,1,85,0|8,1:3|0:3,0:3:0:0:
292,140,25564,1,0,1:3:0:0:
292,140,25627,1,0,1:3:0:0:
292,140,25690,1,8,1:3:0:0:
324,304,25816,1,0,1:3:0:0:
192,164,25943,1,8,0:3:0:0:
336,316,26069,1,0,1:3:0:0:
178,326,26196,1,8,0:3:0:0:
356,200,26322,6,0,P|380:144|316:56,1,170,4|0,1:2|1:3,0:3:0:0:
178,80,26701,2,0,L|194:176,1,85,8|0,0:3|1:3,0:3:0:0:
320,280,26954,1,8,0:3:0:0:
132,232,27081,2,0,L|116:132,1,85,0|8,1:3|0:3,0:3:0:0:
252,32,27333,6,0,L|268:132,1,85,0|8,1:3|0:3,0:3:0:0:
356,200,27586,1,0,1:3:0:0:
240,224,27713,2,0,L|208:332,1,85,8|0,0:3|1:3,0:3:0:0:
106,352,27966,1,8,0:3:0:0:
215,305,28092,5,0,1:3:0:0:
251,295,28155,1,0,1:3:0:0:
290,296,28218,1,8,0:3:0:0:
326,307,28282,1,0,0:3:0:0:
358,328,28345,6,0,P|432:344|496:256,1,170,4|0,1:2|1:3,0:3:0:0:
408,184,28724,2,0,L|412:284,1,85,8|0,0:3|1:3,0:3:0:0:
485,152,28977,1,8,0:3:0:0:
324,216,29103,2,0,L|320:116,1,85,0|8,1:3|0:3,0:3:0:0:
312,12,29356,5,0,1:3:0:0:
376,68,29483,1,8,0:3:0:0:
260,80,29609,1,0,1:3:0:0:
260,80,29672,1,0,1:3:0:0:
260,80,29735,1,8,1:3:0:0:
408,184,29862,1,8,0:3:0:0:
411,221,29925,1,8,0:3:0:0:
398,257,29988,1,8,0:3:0:0:
372,284,30052,1,8,0:3:0:0:
337,298,30115,1,8,0:3:0:0:
299,296,30178,1,8,0:3:0:0:
268,273,30241,1,8,0:3:0:0:
232,264,30304,1,8,0:3:0:0:
194,269,30368,6,0,P|149:295|120:360,1,85,4|0,1:2|0:3,0:3:0:0:
224,360,30620,1,0,1:3:0:0:
76,256,30747,2,0,P|50:300|56:371,1,85,8|0,0:3|1:3,0:3:0:0:
240,368,31000,1,8,0:3:0:0:
328,220,31126,1,0,1:3:0:0:
328,220,31189,1,0,1:3:0:0:
328,220,31253,1,8,1:3:0:0:
184,140,31379,6,0,P|139:113|109:49,1,85,0|8,1:3|0:3,0:3:0:0:
213,49,31632,1,0,1:3:0:0:
65,153,31758,2,0,P|39:108|45:37,1,85,8|0,0:3|1:3,0:3:0:0:
229,41,32011,1,8,0:3:0:0:
136,204,32137,1,0,1:3:0:0:
136,204,32201,1,0,1:3:0:0:
136,204,32264,1,8,1:3:0:0:
264,120,32390,6,0,L|288:224,1,85,0|8,1:3|0:3,0:3:0:0:
224,264,32643,1,0,1:3:0:0:
352,164,32770,2,0,L|376:268,1,85,8|0,0:3|1:3,0:3:0:0:
320,316,33022,1,8,0:3:0:0:
440,208,33149,1,0,1:3:0:0:
440,208,33212,1,0,1:3:0:0:
440,208,33275,1,8,1:3:0:0:
283,202,33402,6,0,L|260:104,1,85,0|8,1:3|0:3,0:3:0:0:
219,27,33655,1,0,1:3:0:0:
219,27,33718,1,0,1:3:0:0:
219,27,33781,1,8,0:3:0:0:
196,180,33907,2,0,P|144:192|100:172,1,85,0|8,1:3|0:3,0:3:0:0:
92,56,34160,2,0,P|144:88|156:128,1,85,0|8,1:3|0:3,0:3:0:0:
220,283,34413,6,0,L|270:90,1,170,4|0,1:2|1:3,0:3:0:0:
340,72,34792,2,0,P|352:120|332:180,1,85,8|0,0:3|1:3,0:3:0:0:
272,224,35045,1,8,0:3:0:0:
316,296,35172,2,0,P|360:312|427:294,1,85,0|8,1:3|0:3,0:3:0:0:
488,200,35424,6,0,P|496:128|424:160,1,170,0|0,1:3|1:3,0:3:0:0:
397,308,35804,2,0,P|388:256|362:227,1,85,8|0,0:3|1:3,0:3:0:0:
200,236,36057,1,8,0:3:0:0:
316,296,36183,1,0,1:3:0:0:
316,296,36246,1,0,1:3:0:0:
316,296,36309,1,8,1:3:0:0:
244,148,36436,6,0,P|232:112|328:116,1,170,4|0,1:2|1:3,0:3:0:0:
368,231,36815,2,0,P|391:196|392:154,1,85,8|0,0:3|1:3,0:3:0:0:
387,51,37068,1,8,0:3:0:0:
480,124,37194,1,0,1:3:0:0:
480,124,37258,1,0,1:3:0:0:
480,124,37321,1,8,1:3:0:0:
320,172,37447,5,8,0:3:0:0:
303,191,37510,1,8,0:3:0:0:
294,215,37574,1,8,0:3:0:0:
292,240,37637,1,8,0:3:0:0:
298,265,37700,1,8,0:3:0:0:
311,286,37763,1,8,0:3:0:0:
330,303,37826,1,8,0:3:0:0:
353,313,37890,1,8,0:3:0:0:
385,328,37953,5,0,1:3:0:0:
366,296,38016,1,0,1:3:0:0:
335,274,38079,1,0,1:3:0:0:
298,265,38143,1,0,1:3:0:0:
261,272,38206,1,0,1:3:0:0:
230,294,38269,1,0,1:3:0:0:
207,324,38332,1,0,1:3:0:0:
172,338,38395,1,0,1:3:0:0:
134,333,38459,6,0,B|96:296|96:296|104:244|104:244|56:176,1,152.999995330811,4|0,1:2|1:3,0:3:0:0:
72,96,38711,1,8,0:3:0:0:
84,84,38775,1,0,1:3:0:0:
96,72,38838,2,0,P|108:104|104:140,1,50.9999984436036,8|0,0:3|1:3,0:3:0:0:
172,44,38964,1,8,0:3:0:0:
188,39,39027,1,0,1:3:0:0:
204,35,39091,2,0,P|198:68|176:97,1,50.9999984436036,8|0,0:3|1:3,0:3:0:0:
284,32,39217,1,8,0:3:0:0:
300,36,39280,1,0,1:3:0:0:
316,40,39344,2,0,P|294:66|261:80,1,50.9999984436036,8|0,0:3|1:3,0:3:0:0:
208,160,39470,5,8,0:3:0:0:
220,172,39533,1,0,1:3:0:0:
232,184,39596,2,0,P|244:152|240:116,1,50.9999984436036,8|0,0:3|1:3,0:3:0:0:
308,212,39723,1,8,0:3:0:0:
324,217,39786,1,0,1:3:0:0:
340,221,39849,2,0,P|334:187|312:158,1,50.9999984436036,8|0,0:3|1:3,0:3:0:0:
420,224,39976,1,8,0:3:0:0:
436,220,40039,1,0,1:3:0:0:
452,216,40102,2,0,P|430:189|397:175,1,50.9999984436036,8|0,0:3|1:3,0:3:0:0:
376,108,40229,5,8,0:3:0:0:
363,86,40292,1,0,1:3:0:0:
358,61,40355,1,8,0:3:0:0:
363,36,40418,1,0,1:3:0:0:
376,14,40481,6,0,L|432:36,3,50.9999984436036,8|0|8|0,0:3|1:3|0:3|1:3,0:3:0:0:
280,80,40734,2,0,L|232:16,3,50.9999984436036,8|0|8|0,0:3|1:3|0:3|1:3,0:3:0:0:
296,208,40987,2,0,L|336:164,3,50.9999984436036,8|0|8|0,0:3|1:3|0:3|1:3,0:3:0:0:
192,152,41240,2,0,L|136:164,3,50.9999984436036,8|0|8|0,0:3|1:3|0:3|1:3,0:3:0:0:
224,264,41493,5,8,0:3:0:0:
229,288,41556,1,0,1:3:0:0:
234,313,41619,1,8,0:3:0:0:
239,338,41682,1,0,1:3:0:0:
244,364,41746,5,8,0:3:0:0:
280,336,41809,1,0,1:3:0:0:
324,324,41872,1,8,0:3:0:0:
370,328,41935,1,0,1:3:0:0:
409,350,41998,1,8,0:3:0:0:
454,345,42062,1,0,1:3:0:0:
487,314,42125,1,8,0:3:0:0:
496,270,42188,1,0,1:3:0:0:
478,229,42251,1,8,0:3:0:0:
445,197,42314,1,0,1:3:0:0:
429,155,42378,1,8,0:3:0:0:
432,109,42441,1,0,1:3:0:0:
453,69,42504,6,0,P|400:48|344:64,1,85,4|0,1:3|0:3,0:3:0:0:
260,60,42757,2,0,P|280:124|256:172,1,85,0|8,1:3|0:3,0:3:0:0:
113,114,43010,2,0,B|146:121|169:113|169:113|185:125|185:125|293:142,1,170,0|0,1:3|1:3,0:3:0:0:
312,229,43389,1,8,0:3:0:0:
147,203,43515,6,0,B|180:210|196:221|196:221|219:214|219:214|327:231,1,170,0|0,1:3|1:3,0:3:0:0:
368,316,43895,1,8,0:3:0:0:
424,192,44021,1,0,1:3:0:0:
424,192,44084,1,0,1:3:0:0:
424,192,44148,1,8,1:3:0:0:
312,229,44274,1,0,1:3:0:0:
312,229,44337,1,0,1:3:0:0:
312,229,44400,1,8,1:3:0:0:
360,128,44527,6,0,P|424:104|512:208,1,212.5,4|0,1:2|1:3,0:3:0:0:
443,274,44906,2,0,L|419:170,1,85,8|0,0:3|1:3,0:3:0:0:
312,229,45159,2,0,L|296:136,1,85,8|0,0:3|1:3,0:3:0:0:
324,28,45412,1,8,0:3:0:0:
224,92,45538,5,8,0:3:0:0:
206,110,45601,1,0,0:3:0:0:
184,123,45665,1,8,0:3:0:0:
160,130,45728,1,0,0:3:0:0:
134,130,45791,1,8,0:3:0:0:
110,122,45854,1,0,0:3:0:0:
88,109,45918,1,8,0:3:0:0:
71,90,45981,1,0,0:3:0:0:
60,68,46044,5,0,1:3:0:0:
90,90,46107,1,0,1:3:0:0:
110,122,46170,1,0,1:3:0:0:
115,160,46234,1,0,1:3:0:0:
104,196,46297,1,0,1:3:0:0:
86,230,46360,1,0,1:3:0:0:
85,268,46423,1,0,1:3:0:0:
102,302,46486,1,0,1:3:0:0:
132,324,46550,6,0,B|184:316|184:316|256:264,1,101.999996887207,4|0,1:2|0:3,0:3:0:0:
232,144,46802,1,8,0:3:0:0:
244,128,46866,1,0,1:3:0:0:
260,112,46929,2,0,L|276:164,1,50.9999984436036,8|0,0:3|1:3,0:3:0:0:
340,112,47055,1,8,0:3:0:0:
358,104,47119,1,0,1:3:0:0:
380,98,47182,2,0,L|367:151,1,50.9999984436036,8|0,0:3|1:3,0:3:0:0:
452,132,47308,1,8,0:3:0:0:
471,134,47371,1,0,1:3:0:0:
493,139,47435,2,0,L|455:178,1,50.9999984436036,8|0,0:3|1:3,0:3:0:0:
476,268,47561,5,8,0:3:0:0:
464,284,47624,1,0,1:3:0:0:
448,300,47687,2,0,L|432:248,1,50.9999984436036,8|0,0:3|1:3,0:3:0:0:
368,300,47814,1,8,0:3:0:0:
350,308,47877,1,0,1:3:0:0:
328,314,47940,2,0,L|340:260,1,50.9999984436036,8|0,0:3|1:3,0:3:0:0:
256,280,48067,1,8,0:3:0:0:
237,278,48130,1,0,1:3:0:0:
215,273,48193,2,0,L|252:233,1,50.9999984436036,8|0,0:3|1:3,0:3:0:0:
328,180,48320,5,8,0:3:0:0:
338,156,48383,1,0,1:3:0:0:
343,131,48446,1,8,0:3:0:0:
342,106,48509,1,0,1:3:0:0:
335,82,48572,6,0,P|301:91|272:112,3,50.9999984436036,8|0|8|0,0:3|1:3|0:3|1:3,0:3:0:0:
216,160,48825,2,0,P|204:137|199:112,3,50.9999984436036,8|0|8|0,0:3|1:3|0:3|1:3,0:3:0:0:
236,28,49078,2,0,P|213:16|188:11,3,50.9999984436036,8|0|8|0,0:3|1:3|0:3|1:3,0:3:0:0:
116,64,49331,2,0,P|104:86|99:111,3,50.9999984436036,8|0|8|0,0:3|1:3|0:3|1:3,0:3:0:0:
136,188,49584,5,8,0:3:0:0:
132,206,49647,1,0,1:3:0:0:
128,225,49710,1,8,0:3:0:0:
124,244,49773,1,0,1:3:0:0:
121,263,49837,1,8,0:3:0:0:
117,281,49900,1,0,1:3:0:0:
114,300,49963,5,8,0:3:0:0:
94,271,50026,1,0,1:3:0:0:
60,260,50089,1,8,0:3:0:0:
27,273,50153,1,0,1:3:0:0:
10,304,50216,1,8,0:3:0:0:
15,338,50279,1,0,1:3:0:0:
40,362,50342,1,8,0:3:0:0:
75,365,50405,1,0,1:3:0:0:
105,345,50469,1,8,0:3:0:0:
139,336,50532,1,0,1:3:0:0:
175,338,50595,5,0,1:3:0:0:
215,358,50658,1,0,1:3:0:0:
261,355,50722,1,0,1:3:0:0:
298,330,50785,1,0,1:3:0:0:
318,289,50848,1,0,1:3:0:0:
315,244,50911,1,0,1:3:0:0:
290,206,50974,1,0,1:3:0:0:
250,185,51038,1,0,1:3:0:0:
224,147,51101,1,0,1:3:0:0:
221,102,51164,1,0,1:3:0:0:
240,61,51227,1,0,1:3:0:0:
276,34,51290,1,0,1:3:0:0:
321,28,51354,1,0,1:3:0:0:
366,35,51417,1,0,1:3:0:0:
403,61,51480,1,0,1:3:0:0:
425,101,51543,1,0,1:3:0:0:
428,147,51607,6,0,L|412:243,2,56.6666666666667,8|0|0,0:3|0:3|0:3,0:3:0:0:
348,192,51859,2,0,L|332:293,2,56.6666666666667,8|0|0,0:3|0:3|0:3,0:3:0:0:
489,236,52112,2,0,L|473:337,2,56.6666666666667,8|0|0,0:3|0:3|0:3,0:3:0:0:
409,281,52365,2,0,L|393:382,2,56.6666666666667,8|0|0,0:3|0:3|0:3,0:3:0:0:
245,311,52618,6,0,B|239:283|222:264|222:264|239:223|239:223|224:104,1,191.250007295609,4|0,1:2|0:3,0:3:0:0:
301,17,53124,2,0,B|307:45|324:64|324:64|307:105|307:105|321:221,1,191.250007295609,4|0,1:2|0:3,0:3:0:0:
361,308,53629,6,0,L|390:238,1,63.7500024318696,4|0,1:2|0:3,0:3:0:0:
459,276,53882,2,0,L|456:212,1,63.7500024318696,0|0,1:3|1:3,0:3:0:0:
318,198,54135,1,8,0:3:0:0:
367,129,54261,2,0,L|412:112,2,31.8750012159348,0|0|0,1:3|0:3|0:3,0:3:0:0:
281,119,54514,1,0,0:3:0:0:
385,249,54649,6,0,P|355:275|303:272,1,63.7500024318696,4|0,0:2|0:3,0:3:0:0:
240,231,54904,1,0,0:3:0:0:
240,231,55032,1,0,0:3:0:0:
145,316,55160,2,0,L|215:359,1,63.7500024318696,8|0,0:3|0:3,0:3:0:0:
302,345,55416,1,0,0:3:0:0:
302,345,55544,1,0,0:3:0:0:
283,164,55672,6,0,P|312:197|316:238,1,63.7500024318696,8|0,0:3|0:3,0:3:0:0:
158,231,55928,1,0,0:3:0:0:
158,231,56056,1,0,0:3:0:0:
216,117,56184,2,0,L|216:25,1,63.7500024318696,8|0,0:3|0:3,0:3:0:0:
318,47,56440,1,0,0:3:0:0:
318,47,56567,1,0,0:3:0:0:
345,168,56695,6,0,P|309:161|260:170,1,63.7500024318696,12|0,0:3|0:3,0:3:0:0:
234,254,56951,1,0,0:3:0:0:
234,254,57079,1,0,0:3:0:0:
361,248,57207,2,0,P|405:228|425:195,1,63.7500024318696,8|0,0:3|0:3,0:3:0:0:
408,114,57463,1,0,0:3:0:0:
408,114,57591,1,0,0:3:0:0:
484,196,57719,6,0,L|494:286,1,63.7500024318696,8|0,0:3|0:3,0:3:0:0:
411,327,57975,1,0,0:3:0:0:
299,245,58103,2,0,P|337:254|370:242,1,63.7500024318696,8|0,0:3|0:3,0:3:0:0:
408,192,58359,1,0,0:3:0:0:
283,174,58486,2,0,P|237:199|229:228,1,63.7500024318696,8|0,0:3|0:3,0:3:0:0:
183,321,58742,6,0,L|172:240,1,63.7500024318696,12|0,0:3|0:3,0:3:0:0:
121,169,58998,1,0,0:3:0:0:
121,169,59126,1,0,0:3:0:0:
171,55,59254,2,0,L|182:136,1,63.7500024318696,8|0,0:3|0:3,0:3:0:0:
233,207,59510,1,0,0:3:0:0:
233,207,59638,1,0,0:3:0:0:
96,246,59766,6,0,P|52:216|40:191,1,63.7500024318696,8|0,0:3|0:3,0:3:0:0:
53,105,60022,1,0,0:3:0:0:
53,105,60150,1,0,0:3:0:0:
178,82,60277,2,0,L|168:166,1,63.7500024318696,8|0,0:3|0:3,0:3:0:0:
170,248,60533,1,0,0:3:0:0:
170,248,60661,1,0,0:3:0:0:
249,148,60789,6,0,L|239:232,1,63.7500024318696,8|0,0:3|0:3,0:3:0:0:
241,314,61045,1,0,0:3:0:0:
241,314,61173,1,0,0:3:0:0:
319,213,61301,2,0,L|309:297,1,63.7500024318696,8|0,0:3|0:3,0:3:0:0:
311,379,61557,1,0,0:3:0:0:
311,379,61685,1,0,0:3:0:0:
439,324,61813,6,0,P|394:317|364:328,1,63.7500024318696,12|0,0:3|0:3,0:3:0:0:
311,379,62069,1,0,0:3:0:0:
394,212,62196,2,0,P|375:160|347:145,1,63.7500024318696,8|0,0:3|0:3,0:3:0:0:
258,205,62452,1,0,0:3:0:0:
258,205,62580,2,0,P|312:214|339:197,1,63.7500024318696,8|0,0:3|0:3,0:3:0:0:
451,55,62836,6,0,L|434:134,1,63.7500024318696,12|0,0:3|0:3,0:3:0:0:
356,93,63092,2,0,L|369:155,1,63.7500024318696,0|0,0:3|0:3,0:3:0:0:
331,274,63348,2,0,L|317:211,1,63.7500024318696,8|0,0:3|0:3,0:3:0:0:
236,312,63604,2,0,L|253:233,1,63.7500024318696,0|0,0:3|0:3,0:3:0:0:
269,122,63860,6,0,P|221:137|185:130,1,63.7500024318696,8|0,0:3|0:3,0:3:0:0:
122,79,64115,1,0,0:3:0:0:
122,79,64243,1,0,0:3:0:0:
165,218,64371,2,0,P|128:183|116:149,1,63.7500024318696,8|0,0:3|0:3,0:3:0:0:
191,47,64627,1,0,0:3:0:0:
191,47,64755,1,0,0:3:0:0:
239,180,64883,6,0,P|245:238|234:260,1,63.7500024318696,8|0,0:3|0:3,0:3:0:0:
171,318,65139,1,0,0:3:0:0:
171,318,65267,1,0,0:3:0:0:
315,284,65395,2,0,P|267:318|243:319,1,63.7500024318696,8|0,0:3|0:3,0:3:0:0:
109,274,65651,1,0,0:3:0:0:
109,274,65779,1,0,0:3:0:0:
239,180,65906,6,0,L|246:98,1,63.7500024318696,12|0,0:3|0:3,0:3:0:0:
210,20,66162,1,0,0:3:0:0:
320,85,66290,2,0,L|315:162,2,63.7500024318696,8|0|0,0:3|0:3|0:3,0:3:0:0:
389,151,66674,2,0,L|385:228,1,63.7500024318696,8|0,0:3|0:3,0:3:0:0:
294,261,66930,5,12,0:3:0:0:
294,261,67058,1,0,0:3:0:0:
313,160,67186,1,0,0:3:0:0:
393,292,67314,1,0,0:3:0:0:
247,324,67442,2,0,P|221:292|216:253,1,63.7500024318696,8|0,0:3|0:3,0:3:0:0:
307,173,67698,1,0,0:3:0:0:
310,362,67825,1,0,0:3:0:0:
145,302,67953,6,0,P|138:261|153:225,1,63.7500024318696,8|0,0:3|0:3,0:3:0:0:
298,184,68209,1,0,0:3:0:0:
181,364,68337,1,0,0:3:0:0:
69,230,68465,2,0,P|83:191|114:167,1,63.7500024318696,8|0,0:3|0:3,0:3:0:0:
99,65,68721,2,0,P|115:94|162:123,1,63.7500024318696,0|0,0:3|0:3,0:3:0:0:
220,155,68977,5,8,0:3:0:0:
244,170,69041,1,0,0:3:0:0:
271,176,69105,1,0,0:3:0:0:
299,171,69169,1,0,0:3:0:0:
324,156,69233,1,0,0:3:0:0:
341,133,69297,1,0,0:3:0:0:
352,106,69361,1,0,0:3:0:0:
357,78,69425,1,0,0:3:0:0:
354,50,69489,5,0,0:3:0:0:
347,78,69553,1,0,0:3:0:0:
343,106,69617,1,0,0:3:0:0:
342,135,69680,1,0,0:3:0:0:
344,163,69744,1,0,0:3:0:0:
348,192,69808,1,0,0:3:0:0:
356,219,69872,1,0,0:3:0:0:
366,246,69936,1,0,0:3:0:0:
380,271,70000,5,0,0:3:0:0:
383,308,70063,1,0,0:3:0:0:
369,344,70127,1,0,0:3:0:0:
341,369,70191,1,0,0:3:0:0:
305,380,70255,1,0,0:3:0:0:
267,373,70319,1,0,0:3:0:0:
237,350,70383,1,0,0:3:0:0:
220,317,70447,1,0,0:3:0:0:
219,279,70512,1,0,0:3:0:0:
223,241,70575,1,0,0:3:0:0:
212,205,70639,1,0,0:3:0:0:
187,176,70703,1,0,0:3:0:0:
153,159,70767,1,0,0:3:0:0:
115,158,70831,1,0,0:3:0:0:
80,171,70895,1,0,0:3:0:0:
52,198,70959,1,0,0:3:0:0:
38,233,71024,6,0,P|41:285|183:303,1,203.999993774414,4|0,1:2|1:3,0:3:0:0:
153,159,71403,2,0,L|143:16,1,101.999996887207,8|0,0:3|1:3,0:3:0:0:
254,135,71656,1,8,0:3:0:0:
118,251,71782,1,0,1:3:0:0:
118,251,71845,1,0,1:3:0:0:
118,251,71908,1,8,1:3:0:0:
258,238,72035,6,0,L|373:269,1,101.999996887207,0|8,1:3|0:3,0:3:0:0:
480,212,72288,1,0,1:3:0:0:
480,212,72351,1,0,1:3:0:0:
480,212,72414,1,8,1:3:0:0:
353,167,72541,1,0,1:3:0:0:
423,313,72667,2,0,P|383:346|326:338,1,101.999996887207,8|0,0:3|1:3,0:3:0:0:
252,282,72920,1,8,0:3:0:0:
353,167,73046,6,0,L|372:59,1,101.999996887207,0|8,1:3|0:3,0:3:0:0:
472,44,73299,1,0,1:3:0:0:
472,44,73362,1,0,1:3:0:0:
472,44,73426,1,8,1:3:0:0:
374,29,73552,1,0,1:3:0:0:
280,69,73678,2,0,P|226:93|173:81,1,101.999996887207,8|0,0:3|1:3,0:3:0:0:
102,25,73931,1,8,0:3:0:0:
237,142,74058,6,0,L|219:254,1,101.999996887207,0|8,1:3|0:3,0:3:0:0:
156,347,74310,1,0,1:3:0:0:
127,326,74374,1,0,1:3:0:0:
106,297,74437,1,8,1:3:0:0:
97,262,74500,1,0,1:3:0:0:
100,227,74563,6,0,L|145:182,1,50.9999984436036,0|0,1:3|0:3,0:3:0:0:
83,137,74690,2,0,L|127:91,1,50.9999984436036,8|0,0:3|0:3,0:3:0:0:
163,31,74816,1,0,1:3:0:0:
199,42,74879,1,0,1:3:0:0:
235,54,74943,1,8,1:3:0:0:
272,66,75006,1,0,1:3:0:0:
308,77,75069,6,0,B|368:102|368:102|365:146|365:146|325:209|381:268,1,203.999993774414,4|0,1:2|1:3,0:3:0:0:
437,306,75448,2,0,P|465:248|452:195,1,101.999996887207,8|0,0:3|1:3,0:3:0:0:
307,173,75701,2,0,P|279:231|292:284,1,101.999996887207,8|0,0:3|1:3,0:3:0:0:
342,351,75954,1,8,0:3:0:0:
384,136,76080,6,0,P|345:96|270:100,1,101.999996887207,0|8,1:3|0:3,0:3:0:0:
217,146,76333,1,0,1:3:0:0:
217,146,76396,1,0,1:3:0:0:
217,146,76460,1,8,1:3:0:0:
231,45,76586,1,0,1:3:0:0:
307,173,76713,2,0,P|267:221|222:233,1,101.999996887207,8|0,0:3|1:3,0:3:0:0:
139,192,76965,1,8,0:3:0:0:
170,308,77092,6,0,P|175:336|186:356,1,50.9999984436036,12|0,0:3|0:3,0:3:0:0:
248,305,77218,2,0,L|303:342,1,50.9999984436036,0|0,0:3|0:3,0:3:0:0:
320,260,77345,2,0,L|381:232,1,50.9999984436036,12|0,0:3|0:3,0:3:0:0:
274,97,77471,6,0,L|267:158,1,50.9999984436036,0|0,0:3|0:3,0:3:0:0:
199,61,77597,2,0,L|192:122,1,50.9999984436036,12|0,0:3|0:3,0:3:0:0:
124,25,77724,2,0,L|117:86,1,50.9999984436036,0|0,0:3|0:3,0:3:0:0:
53,167,77850,5,12,0:3:0:0:
60,204,77913,1,0,0:3:0:0:
67,242,77976,1,0,0:3:0:0:
75,279,78039,1,0,0:3:0:0:
82,317,78103,6,0,P|117:338|150:338,1,50.9999984436036,8|0,0:3|0:3,0:3:0:0:
266,241,78230,2,0,L|205:262,1,50.9999984436036,8|0,0:3|0:3,0:3:0:0:
175,154,78356,2,0,P|173:102|210:51,1,101.999996887207,0|0,1:3|0:3,0:3:0:0:
344,141,78609,1,0,1:3:0:0:
371,218,78735,1,0,2:3:0:0:
337,293,78862,2,0,B|228:333,1,101.999996887207,8|0,0:3|0:3,0:3:0:0:
64,200,79115,6,0,P|64:116|164:88,1,170,4|0,1:2|1:3,0:3:0:0:
225,223,79494,2,0,L|285:147,1,85,8|0,0:3|1:3,0:3:0:0:
240,60,79747,1,8,0:3:0:0:
136,160,79873,1,0,1:3:0:0:
136,160,79936,1,0,0:3:0:0:
136,160,79999,1,8,1:3:0:0:
264,308,80126,6,0,L|324:240,1,85,0|8,1:3|0:3,0:3:0:0:
424,220,80379,1,0,1:3:0:0:
360,64,80505,2,0,P|336:104|340:144,1,85,8|0,0:3|1:3,0:3:0:0:
344,248,80758,1,8,0:3:0:0:
412,120,80884,1,0,1:3:0:0:
412,120,80948,1,0,1:3:0:0:
412,120,81011,1,8,1:3:0:0:
252,184,81137,6,0,P|208:200|164:196,1,85,0|8,1:3|0:3,0:3:0:0:
108,140,81390,1,0,1:3:0:0:
272,100,81517,2,0,L|252:272,1,170,8|8,0:3|0:3,0:3:0:0:
156,324,81896,1,0,1:3:0:0:
92,236,82022,1,8,0:3:0:0:
252,268,82149,6,0,B|292:296|340:280|340:280|392:256|440:280,1,170,0|0,1:3|1:3,0:3:0:0:
472,336,82528,1,8,0:3:0:0:
308,208,82654,2,0,L|292:112,1,85,0|8,1:3|0:3,0:3:0:0:
192,128,82907,1,0,1:3:0:0:
165,145,82970,1,0,1:3:0:0:
134,151,83034,1,8,1:3:0:0:
102,147,83097,1,0,0:3:0:0:
75,132,83160,6,0,L|91:228,1,85,4|0,1:2|0:3,0:3:0:0:
152,280,83413,1,0,0:3:0:0:
264,184,83539,2,0,P|284:104|224:32,1,170,8|8,0:3|0:3,0:3:0:0:
152,48,83919,1,0,1:3:0:0:
108,120,84045,1,8,0:3:0:0:
264,184,84171,6,0,L|360:180,1,85,0|8,1:3|0:3,0:3:0:0:
424,220,84424,1,0,1:3:0:0:
256,268,84551,2,0,P|192:232|200:120,1,170,8|8,0:3|0:3,0:3:0:0:
278,100,84930,2,0,L|262:204,1,85,0|8,1:3|0:3,0:3:0:0:
365,263,85183,6,0,L|345:164,1,85,4|0,1:2|0:3,0:3:0:0:
404,112,85436,1,0,1:3:0:0:
452,272,85562,2,0,P|424:324|296:312,1,170,8|8,0:3|0:3,0:3:0:0:
256,280,85941,1,0,1:3:0:0:
224,268,86005,1,0,1:3:0:0:
192,272,86068,1,8,1:3:0:0:
80,328,86194,6,0,P|52:288|56:228,1,85,0|8,1:3|0:3,0:3:0:0:
104,188,86447,1,0,1:3:0:0:
232,184,86573,2,0,P|252:140|248:84,1,85,8|0,0:3|0:3,0:3:0:0:
240,67,86763,1,0,0:3:0:0:
215,39,86826,1,0,0:3:0:0:
181,22,86889,1,0,0:3:0:0:
143,21,86953,1,0,0:3:0:0:
108,34,87016,1,0,0:3:0:0:
80,61,87079,1,0,0:3:0:0:
66,96,87142,1,0,0:3:0:0:
66,134,87206,6,0,B|84:184|84:184|68:244|68:244|92:316,1,170,4|0,1:2|1:3,0:3:0:0:
252,256,87585,2,0,P|204:236|148:256,1,85,8|0,0:3|1:3,0:3:0:0:
52,304,87838,1,8,0:3:0:0:
196,312,87964,1,0,1:3:0:0:
196,312,88027,1,0,1:3:0:0:
196,312,88091,1,8,1:3:0:0:
160,160,88217,6,0,P|200:84|296:100,1,170,0|0,1:3|1:3,0:3:0:0:
396,208,88596,2,0,L|292:212,1,85,8|0,0:3|1:3,0:3:0:0:
240,156,88849,1,8,0:3:0:0:
352,120,88975,2,0,P|358:80|340:32,1,85,0|8,1:3|0:3,0:3:0:0:
311,211,89228,6,0,L|295:303,1,85,4|8,1:2|0:3,0:3:0:0:
212,300,89481,1,0,1:3:0:0:
360,344,89608,2,0,P|432:340|472:244,1,170,8|0,0:3|0:3,0:3:0:0:
468,68,89987,2,0,P|420:80|388:120,1,85,0|8,1:3|0:3,0:3:0:0:
311,211,90240,6,0,P|344:244|395:255,1,85,0|8,1:3|0:3,0:3:0:0:
476,172,90493,1,0,1:3:0:0:
476,172,90556,1,0,1:3:0:0:
476,172,90619,1,8,1:3:0:0:
272,140,90745,2,0,L|256:280,1,127.5,0|0,1:3|0:3,0:3:0:0:
248,308,90998,2,0,P|196:328|148:316,1,85,0|8,1:3|0:3,0:3:0:0:
76,180,91251,6,0,B|56:160|52:132|52:132|88:116|112:76|88:12,1,170,4|0,1:2|1:3,0:3:0:0:
192,140,91630,2,0,P|244:152|280:132,1,85,8|0,0:3|1:3,0:3:0:0:
347,71,91883,1,8,0:3:0:0:
344,208,92010,1,0,1:3:0:0:
344,208,92073,1,0,1:3:0:0:
344,208,92136,1,8,1:3:0:0:
236,72,92262,6,0,L|152:20,1,85,0|8,1:3|0:3,0:3:0:0:
104,88,92515,1,0,1:3:0:0:
104,88,92578,1,0,1:3:0:0:
104,88,92642,1,8,1:3:0:0:
172,164,92768,1,0,1:3:0:0:
84,216,92895,1,8,0:3:0:0:
160,288,93021,1,0,1:3:0:0:
187,299,93084,1,0,1:3:0:0:
215,310,93147,1,8,1:3:0:0:
242,321,93211,1,0,1:3:0:0:
270,332,93274,6,0,L|388:304,1,85,4|0,1:3|1:3,0:3:0:0:
448,172,93527,1,8,0:3:0:0:
456,88,93653,1,0,1:3:0:0:
380,124,93780,2,0,L|360:180,3,42.5,0|0|8|0,1:3|0:3|0:3|0:3,0:3:0:0:
304,104,94032,2,0,L|324:48,3,42.5,8|0|8|0,0:3|0:3|0:3|0:3,0:3:0:0:
232,68,94285,5,0,1:3:0:0:
224,109,94348,1,0,1:3:0:0:
230,151,94412,1,0,1:3:0:0:
250,188,94475,1,0,1:3:0:0:
282,216,94538,1,0,1:3:0:0:
311,247,94601,1,0,1:3:0:0:
323,287,94664,1,0,1:3:0:0:
317,328,94728,1,0,1:3:0:0:
292,362,94791,1,0,1:3:0:0:
255,382,94854,1,0,1:3:0:0:
213,383,94917,1,0,1:3:0:0:
175,364,94981,1,0,1:3:0:0:
149,331,95044,1,0,1:3:0:0:
141,290,95107,1,0,1:3:0:0:
151,249,95170,1,0,1:3:0:0:
148,207,95233,1,0,1:3:0:0:
131,168,95297,6,0,L|95:123,3,42.5,12|0|0|0,1:3|0:3|0:3|0:3,0:3:0:0:
232,116,95549,2,0,L|172:108,3,42.5,8|0|0|0,0:3|1:3|0:3|1:3,0:3:0:0:
332,152,95802,2,0,L|368:197,3,42.5,8|0|0|0,0:3|1:3|0:3|1:3,0:3:0:0:
231,204,96055,2,0,L|291:212,3,42.5,8|0|0|0,0:3|1:3|0:3|1:3,0:3:0:0:
208,292,96308,6,0,L|228:340,3,42.5,8|0|0|0,0:3|1:3|0:3|1:3,0:3:0:0:
273,209,96561,2,0,L|293:257,3,42.5,8|0|0|0,0:3|1:3|0:3|1:3,0:3:0:0:
374,224,96814,2,0,L|358:185,3,42.5,8|0|0|0,0:3|1:3|0:3|1:3,0:3:0:0:
439,141,97066,2,0,L|423:102,3,42.5,8|0|0|0,0:3|1:3|0:3|1:3,0:3:0:0:
316,60,97319,5,8,0:3:0:0:
286,77,97383,1,0,1:3:0:0:
254,86,97446,1,0,0:3:0:0:
220,87,97509,1,0,1:3:0:0:
187,79,97572,1,8,0:3:0:0:
157,63,97635,1,0,1:3:0:0:
132,40,97699,1,0,0:3:0:0:
99,31,97762,1,0,1:3:0:0:
67,38,97825,1,8,0:3:0:0:
40,59,97888,1,0,1:3:0:0:
26,90,97951,1,0,0:3:0:0:
27,123,98015,1,0,1:3:0:0:
44,153,98078,1,8,0:3:0:0:
72,171,98141,1,0,1:3:0:0:
105,175,98204,1,0,0:3:0:0:
136,162,98267,1,0,1:3:0:0:
170,164,98331,5,8,0:3:0:0:
199,181,98394,1,0,1:3:0:0:
217,210,98457,1,0,0:3:0:0:
221,243,98520,1,0,1:3:0:0:
209,275,98584,1,8,0:3:0:0:
185,298,98647,1,0,1:3:0:0:
156,320,98710,5,0,0:3:0:0:
136,292,98773,1,0,1:3:0:0:
128,259,98836,1,8,0:3:0:0:
131,225,98900,1,0,1:3:0:0:
145,195,98963,1,0,0:3:0:0:
170,171,99026,1,0,1:3:0:0:
201,158,99089,1,8,0:3:0:0:
234,156,99152,1,0,1:3:0:0:
267,166,99216,1,0,0:3:0:0:
294,186,99279,1,0,1:3:0:0:
312,214,99342,5,0,1:3:0:0:
274,247,99405,1,0,1:3:0:0:
259,295,99469,1,0,1:3:0:0:
273,343,99532,1,0,1:3:0:0:
311,376,99595,1,0,1:3:0:0:
360,383,99658,1,0,1:3:0:0:
406,362,99721,1,0,1:3:0:0:
433,320,99785,1,0,1:3:0:0:
432,270,99848,1,0,1:3:0:0:
403,230,99911,1,0,1:3:0:0:
405,180,99974,1,0,1:3:0:0:
440,143,100037,1,0,1:3:0:0:
469,103,100101,1,0,1:3:0:0:
465,53,100164,1,0,1:3:0:0:
430,17,100227,1,0,1:3:0:0:
381,12,100290,1,0,1:3:0:0:
339,41,100353,6,0,P|288:68|248:64,2,56.6666666666667,8|0|0,0:3|0:3|0:3,0:3:0:0:
312,152,100606,2,0,P|253:149|220:124,2,56.6666666666667,8|0|0,0:3|0:3|0:3,0:3:0:0:
232,228,100859,2,0,P|182:196|164:160,2,56.6666666666667,8|0|0,0:3|0:3|0:3,0:3:0:0:
122,259,101112,2,0,P|95:207|96:164,2,56.6666666666667,8|0|0,0:3|0:3|0:3,0:3:0:0:
72,48,101365,5,8,0:3:0:0:
72,48,101491,2,0,P|116:104|188:112,1,127.500004863739,4|0,1:2|0:3,0:3:0:0:
400,8,101871,1,8,0:3:0:0:
400,8,101997,2,0,P|344:52|336:124,1,127.500004863739,4|0,1:2|0:3,0:3:0:0:
440,336,102376,1,8,0:3:0:0:
440,336,102503,2,0,P|396:280|324:272,1,127.500004863739,4|0,1:2|0:3,0:3:0:0:
112,376,102882,1,8,0:3:0:0:
112,376,103008,2,0,P|168:332|176:260,1,127.500004863739,4|0,1:2|0:3,0:3:0:0:
44,124,103388,6,0,L|68:196,1,63.7500024318696,12|0,0:3|0:3,0:3:0:0:
164,204,103643,1,0,0:3:0:0:
164,204,103771,1,0,0:3:0:0:
108,60,103899,2,0,L|132:132,1,63.7500024318696,8|0,0:3|0:3,0:3:0:0:
228,140,104155,1,0,0:3:0:0:
228,140,104283,1,0,0:3:0:0:
356,104,104411,6,0,L|320:184,1,63.7500024318696,8|0,0:3|0:3,0:3:0:0:
252,228,104667,1,0,0:3:0:0:
252,228,104795,1,0,0:3:0:0:
412,176,104923,2,0,L|376:256,1,63.7500024318696,8|0,0:3|0:3,0:3:0:0:
308,300,105179,1,0,0:3:0:0:
308,300,105306,1,0,0:3:0:0:
228,140,105434,6,0,L|208:76,1,63.7500024318696,12|0,0:3|0:3,0:3:0:0:
112,44,105690,1,0,0:3:0:0:
84,144,105818,2,0,P|116:144|156:124,2,63.7500024318696,0|8|0,0:3|0:3|0:3,0:3:0:0:
28,80,106202,1,0,0:3:0:0:
28,80,106330,1,0,0:3:0:0:
164,193,106458,6,0,L|144:129,1,63.7500024318696,8|0,0:3|0:3,0:3:0:0:
226,77,106714,1,0,0:3:0:0:
312,168,106842,2,0,L|331:107,1,63.7500024318696,8|0,0:3|0:3,0:3:0:0:
220,48,107098,1,0,0:3:0:0:
240,180,107225,2,0,L|252:256,1,63.7500024318696,8|0,0:3|0:3,0:3:0:0:
330,334,107481,5,12,0:3:0:0:
347,259,107609,1,0,0:3:0:0:
401,204,107737,1,0,0:3:0:0:
476,190,107865,1,0,0:3:0:0:
404,312,107993,5,8,0:3:0:0:
347,259,108121,1,0,0:3:0:0:
328,185,108249,1,0,0:3:0:0:
352,115,108377,1,0,0:3:0:0:
422,237,108505,5,8,0:3:0:0:
347,259,108633,1,0,0:3:0:0:
274,239,108761,1,0,0:3:0:0:
225,183,108889,1,0,0:3:0:0:
366,184,109016,5,8,0:3:0:0:
347,259,109144,1,0,0:3:0:0:
299,318,109272,2,0,P|265:320|228:303,1,63.7500024318696,0|0,0:3|0:3,0:3:0:0:
113,270,109528,2,0,P|147:272|184:255,2,63.7500024318696,8|0|0,0:3|0:3|0:3,0:3:0:0:
146,132,109912,1,0,0:3:0:0:
146,132,110040,2,0,L|135:207,1,63.7500024318696,8|0,0:3|0:3,0:3:0:0:
213,196,110296,1,0,0:3:0:0:
288,186,110424,1,0,0:3:0:0:
480,192,110552,6,0,P|468:228|440:252,1,63.7500024318696,12|0,0:3|0:3,0:3:0:0:
328,272,110808,1,0,0:3:0:0:
328,272,110935,2,0,P|340:308|368:332,1,63.7500024318696,8|0,0:3|0:3,0:3:0:0:
452,324,111191,1,0,0:3:0:0:
396,188,111319,2,0,P|363:171|336:168,1,63.7500024318696,8|0,0:3|0:3,0:3:0:0:
236,248,111575,5,12,0:3:0:0:
168,288,111703,1,0,0:3:0:0:
96,268,111831,1,0,0:3:0:0:
60,200,111959,1,0,0:3:0:0:
160,192,112087,5,8,0:3:0:0:
200,124,112215,1,0,0:3:0:0:
180,52,112343,1,0,0:3:0:0:
112,16,112471,1,0,0:3:0:0:
122,124,112599,5,8,0:3:0:0:
160,192,112727,1,0,0:3:0:0:
233,211,112854,1,0,0:3:0:0:
298,170,112982,1,0,0:3:0:0:
300,64,113110,5,8,0:3:0:0:
372,92,113238,1,0,0:3:0:0:
400,164,113366,1,0,0:3:0:0:
372,236,113494,1,0,0:3:0:0:
184,340,113622,6,0,P|192:304|184:252,1,63.7500024318696,12|0,0:3|0:3,0:3:0:0:
100,216,113878,1,0,0:3:0:0:
100,216,114006,1,0,0:3:0:0:
256,208,114134,6,0,P|244:172|212:131,1,63.7500024318696,8|0,0:3|0:3,0:3:0:0:
121,142,114390,1,0,0:3:0:0:
121,142,114518,1,0,0:3:0:0:
188,36,114645,6,0,P|224:28|268:36,1,63.7500024318696,8|0,0:3|0:3,0:3:0:0:
328,100,114901,1,0,0:3:0:0:
328,100,115029,2,0,P|348:68|356:28,1,63.7500024318696,8|0,0:3|0:3,0:3:0:0:
230,150,115285,1,0,0:3:0:0:
230,150,115413,2,0,P|241:185|267:217,1,63.7500024318696,8|0,0:3|0:3,0:3:0:0:
448,224,115669,6,0,L|424:304,1,63.7500024318696,12|0,0:3|0:3,0:3:0:0:
348,348,115925,1,0,0:3:0:0:
348,348,116053,1,0,0:3:0:0:
329,161,116181,2,0,L|353:241,1,63.7500024318696,8|0,0:3|0:3,0:3:0:0:
429,285,116437,1,0,0:3:0:0:
429,285,116564,1,0,0:3:0:0:
447,98,116692,6,0,L|423:178,1,63.7500024318696,8|0,0:3|0:3,0:3:0:0:
347,222,116948,1,0,0:3:0:0:
347,222,117076,1,0,0:3:0:0:
328,35,117204,2,0,L|352:115,1,63.7500024318696,8|0,0:3|0:3,0:3:0:0:
428,159,117460,1,0,0:3:0:0:
428,159,117588,1,0,0:3:0:0:
288,160,117716,5,8,0:3:0:0:
272,180,117780,1,0,0:3:0:0:
264,204,117844,1,0,0:3:0:0:
262,229,117908,1,0,0:3:0:0:
272,252,117972,2,0,L|256:303,3,31.8750012159348,0|0|0|0,0:3|0:3|0:3|0:3,0:3:0:0:
216,324,118228,5,0,0:3:0:0:
191,304,118292,1,0,0:3:0:0:
161,291,118356,1,0,0:3:0:0:
130,287,118419,1,0,0:3:0:0:
98,292,118483,2,0,L|68:344,3,31.8750012159348,0|0|0|0,0:3|0:3|0:3|0:3,0:3:0:0:
49,238,118739,5,0,0:3:0:0:
38,208,118803,1,0,0:3:0:0:
37,176,118867,1,0,0:3:0:0:
44,145,118931,1,0,0:3:0:0:
61,118,118995,1,0,0:3:0:0:
87,101,119059,1,0,0:3:0:0:
118,95,119123,1,0,0:3:0:0:
149,101,119187,1,0,0:3:0:0:
176,118,119251,1,0,0:3:0:0:
194,144,119315,1,0,0:3:0:0:
216,167,119379,1,0,0:3:0:0:
244,182,119443,1,0,0:3:0:0:
275,185,119507,1,0,0:3:0:0:
306,178,119571,1,0,0:3:0:0:
333,160,119635,1,0,0:0:0:0:
352,132,119699,1,0,0:0:0:0:
360,104,119793,6,0,B|364:64|333:27|333:27|416:32|428:84,1,170,4|0,1:2|1:3,0:3:0:0:
463,211,120174,2,0,P|428:228|369:225,1,85,8|0,0:3|0:3,0:3:0:0:
333,160,120428,1,8,0:3:0:0:
279,94,120556,1,0,1:3:0:0:
223,29,120683,1,8,0:3:0:0:
176,168,120810,6,0,L|164:280,1,85,0|8,1:3|0:3,0:3:0:0:
220,320,121064,1,0,1:3:0:0:
300,236,121191,2,0,L|312:348,1,85,8|0,0:3|1:3,0:3:0:0:
416,288,121446,1,8,0:3:0:0:
333,160,121573,1,0,1:3:0:0:
333,160,121637,1,0,1:3:0:0:
333,160,121700,1,8,1:3:0:0:
232,280,121827,6,0,P|176:300|81:218,1,170,4|0,1:2|1:3,0:3:0:0:
28,184,122209,2,0,P|5:224|20:296,1,85,8|0,0:3|1:3,0:3:0:0:
176,200,122463,2,0,L|200:84,1,85,8|0,0:3|1:3,0:3:0:0:
251,33,122717,1,8,0:3:0:0:
300,148,122845,6,0,P|348:152|396:132,1,85,0|8,1:3|0:3,0:3:0:0:
448,61,123099,1,0,1:3:0:0:
448,61,123163,1,0,1:3:0:0:
448,61,123226,1,8,1:3:0:0:
404,164,123353,2,0,L|388:260,1,85,0|8,1:3|0:3,0:3:0:0:
322,323,123608,1,0,1:3:0:0:
322,323,123671,1,0,1:3:0:0:
322,323,123735,1,8,1:3:0:0:
172,240,123862,6,0,P|108:228|24:304,1,170,4|0,1:2|1:3,0:3:0:0:
188,316,124244,2,0,P|240:284|248:240,1,85,8|0,0:3|1:3,0:3:0:0:
296,128,124498,1,8,0:3:0:0:
296,128,124625,2,0,P|244:160|236:204,1,85,0|8,1:3|0:3,0:3:0:0:
324,340,124879,6,0,P|360:260|308:204,1,170,0|0,1:3|1:3,0:3:0:0:
172,240,125261,2,0,P|156:200|168:136,1,85,8|0,0:3|1:3,0:3:0:0:
224,48,125515,1,8,0:3:0:0:
124,72,125642,1,0,1:3:0:0:
124,72,125706,1,0,1:3:0:0:
124,72,125770,1,8,1:3:0:0:
240,132,125897,6,0,B|284:128|310:81|310:81|344:56|408:68,1,170,4|0,1:2|1:3,0:3:0:0:
428,80,126215,1,0,1:3:0:0:
428,80,126278,1,8,1:3:0:0:
460,160,126405,1,0,1:3:0:0:
392,212,126533,1,8,0:3:0:0:
432,288,126660,1,0,1:3:0:0:
440,308,126723,1,0,1:3:0:0:
448,328,126787,2,0,L|408:368,1,42.5,8|0,1:3|0:3,0:3:0:0:
340,324,126914,6,0,L|316:256,3,42.5,0|0|0|0,0:3|0:3|0:3|0:3,0:3:0:0:
244,320,127169,2,0,L|220:252,3,42.5,0|0|0|0,0:3|0:3|0:3|0:3,0:3:0:0:
148,300,127423,1,0,0:3:0:0:
123,283,127486,1,0,0:3:0:0:
106,259,127550,1,0,1:3:0:0:
100,230,127614,1,0,1:3:0:0:
105,201,127677,1,8,0:3:0:0:
120,176,127741,1,8,0:3:0:0:
144,158,127804,1,0,1:3:0:0:
172,150,127868,1,0,1:3:0:0:
201,154,127932,6,0,P|268:168|340:96,1,170,4|0,1:2|1:3,0:3:0:0:
328,20,128313,2,0,P|372:24|408:52,1,85,8|0,0:3|1:3,0:3:0:0:
420,132,128567,1,8,0:3:0:0:
256,80,128695,1,0,1:3:0:0:
256,80,128758,1,0,1:3:0:0:
256,80,128822,1,8,1:3:0:0:
300,244,128949,6,0,L|300:329,1,85,0|8,1:3|0:3,0:3:0:0:
360,180,129203,2,0,L|402:253,1,85,0|8,1:3|0:3,0:3:0:0:
380,92,129458,2,0,L|453:134,1,85,0|8,1:3|0:3,0:3:0:0:
336,24,129712,1,0,1:3:0:0:
336,24,129776,1,0,1:3:0:0:
336,24,129839,1,8,1:3:0:0:
256,164,129966,6,0,P|180:196|104:160,1,170,4|0,1:2|1:3,0:3:0:0:
168,20,130348,2,0,L|180:120,1,85,8|0,0:3|1:3,0:3:0:0:
256,164,130602,1,8,0:3:0:0:
256,164,130729,2,0,L|268:64,1,85,0|8,1:3|0:3,0:3:0:0:
344,44,130984,5,0,1:3:0:0:
416,92,131111,1,8,0:3:0:0:
456,168,131238,2,0,P|448:216|420:256,1,85,0|8,1:3|0:3,0:3:0:0:
364,300,131492,2,0,P|346:254|351:205,1,85,0|8,1:3|0:3,0:3:0:0:
324,136,131747,1,0,1:3:0:0:
248,92,131874,1,8,0:3:0:0:
140,224,132001,6,0,B|128:180|128:180|140:112,1,85,4|8,1:2|0:3,0:3:0:0:
168,44,132255,1,0,1:3:0:0:
170,48,132318,1,0,1:3:0:0:
172,53,132382,1,8,1:3:0:0:
260,236,132510,2,0,B|227:203|227:203|204:139,1,85,0|8,1:3|0:3,0:3:0:0:
175,59,132764,1,0,1:3:0:0:
177,63,132827,1,0,1:3:0:0:
179,68,132891,1,0,1:3:0:0:
296,161,133018,6,0,B|284:205|284:205|239:257,1,85,0|8,1:3|0:3,0:3:0:0:
181,303,133273,1,0,1:0:0:0:
181,303,133336,1,0,1:0:0:0:
181,303,133400,1,0,1:0:0:0:
316,296,133527,1,0,1:3:0:0:
356,220,133654,1,8,0:3:0:0:
380,140,133781,2,0,P|368:104|316:72,1,85,0|8,1:3|0:3,0:3:0:0:
212,40,134036,6,0,L|162:-25,1,42.5,2|0,0:3|0:3,0:3:0:0:
124,56,134163,2,0,L|48:24,1,42.5,2|0,1:3|0:3,0:3:0:0:
76,124,134290,2,0,L|-5:134,1,42.5,2|0,1:3|0:3,0:3:0:0:
64,208,134417,2,0,L|-1:257,1,42.5,2|0,0:3|0:3,0:3:0:0:
84,300,134545,2,0,B|120:340|120:340|184:352,1,85,2|0,1:3|0:3,0:3:0:0:
220,228,134799,1,10,0:3:0:0:
220,228,134926,1,2,0:3:0:0:
340,196,135053,5,2,0:3:0:0:
371,196,135117,1,0,0:3:0:0:
400,209,135180,1,2,0:3:0:0:
421,232,135244,1,0,0:3:0:0:
432,262,135308,2,0,L|392:308,3,42.5,10|0|2|0,0:3|0:3|0:3|0:3,0:3:0:0:
496,208,135562,2,0,L|484:112,1,85,8|0,0:3|0:3,0:3:0:0:
340,32,135816,2,0,L|352:128,1,85,8|0,0:3|0:3,0:3:0:0:
272,268,136071,6,0,L|248:92,1,170,4|0,1:2|1:3,0:3:0:0:
106,46,136452,2,0,P|144:81|192:85,1,85,8|0,0:3|1:3,0:3:0:0:
308,52,136706,1,8,0:3:0:0:
296,172,136834,1,0,1:3:0:0:
296,172,136897,1,0,1:3:0:0:
296,172,136961,1,8,1:3:0:0:
128,148,137088,6,0,P|88:192|172:224,1,170,0|0,1:3|1:3,0:3:0:0:
260,164,137469,1,8,0:3:0:0:
248,284,137597,2,0,L|176:372,1,85,0|8,1:3|0:3,0:3:0:0:
96,310,137851,2,0,L|-16:301,1,85,0|8,1:3|0:3,0:3:0:0:
128,148,138105,6,0,P|160:88|56:48,1,170,4|0,1:2|1:3,0:3:0:0:
52,180,138487,2,0,P|92:220|140:224,1,85,8|0,0:3|1:3,0:3:0:0:
228,180,138741,1,8,0:3:0:0:
270,69,138868,1,0,1:3:0:0:
270,69,138932,1,0,1:3:0:0:
270,69,138996,1,8,1:3:0:0:
396,168,139123,6,0,L|360:268,1,85,0|8,1:3|0:3,0:3:0:0:
290,315,139377,1,0,1:3:0:0:
290,315,139441,1,0,1:3:0:0:
290,315,139504,1,8,1:3:0:0:
228,180,139631,2,0,L|192:280,1,85,0|8,1:3|0:3,0:3:0:0:
118,321,139886,1,0,1:3:0:0:
118,321,139949,1,0,1:3:0:0:
118,321,140013,1,8,1:3:0:0:
23,178,140140,6,0,P|27:114|135:102,1,170,4|0,1:2|1:3,0:3:0:0:
192,181,140522,2,0,L|220:85,1,85,8|0,0:3|1:3,0:3:0:0:
296,35,140776,1,8,0:3:0:0:
354,118,140903,1,0,1:3:0:0:
354,118,140967,1,0,1:3:0:0:
354,118,141030,1,8,1:3:0:0:
269,265,141157,6,0,P|313:321|413:297,1,170,0|0,1:3|1:3,0:3:0:0:
354,118,141539,2,0,P|394:190|338:254,1,170,8|8,0:3|0:3,0:3:0:0:
201,246,141921,1,0,1:3:0:0:
201,246,141984,1,0,1:3:0:0:
201,246,142048,1,8,1:3:0:0:
148,84,142175,6,0,P|120:52|60:36,1,85,4|8,1:2|0:3,0:3:0:0:
144,168,142429,2,0,P|185:159|229:115,1,85,0|8,1:3|0:3,0:3:0:0:
72,120,142684,2,0,P|58:160|74:220,1,85,0|8,1:3|0:3,0:3:0:0:
116,268,142938,1,0,1:3:0:0:
128,296,143001,1,0,1:3:0:0:
140,324,143065,2,0,L|192:352,1,42.5,8|0,1:3|0:3,0:3:0:0:
252,304,143192,5,0,1:3:0:0:
288,282,143256,1,0,0:3:0:0:
330,278,143319,1,8,0:3:0:0:
369,294,143383,1,0,0:3:0:0:
396,326,143447,2,0,P|424:336|448:328,3,42.5,8|0|0|0,0:3|0:3|0:3|0:3,0:3:0:0:
444,252,143701,5,8,0:3:0:0:
454,233,143765,1,0,0:3:0:0:
461,213,143828,1,8,0:3:0:0:
464,192,143892,1,8,0:3:0:0:
462,171,143955,1,8,0:3:0:0:
457,150,144019,1,8,0:3:0:0:
447,131,144082,1,8,0:3:0:0:
434,114,144146,1,8,0:3:0:0:
420,100,144210,6,0,P|340:116|284:48,1,170,4|0,1:2|1:3,0:3:0:0:
298,174,144591,2,0,L|270:262,1,85,8|0,0:3|1:3,0:3:0:0:
176,291,144845,1,8,0:3:0:0:
260,348,144973,1,0,1:3:0:0:
288,352,145036,1,0,1:3:0:0:
316,344,145100,1,8,1:3:0:0:
432,264,145227,6,0,L|392:364,1,85,0|8,1:3|0:3,0:3:0:0:
392,164,145481,2,0,L|352:264,1,85,0|8,1:3|0:3,0:3:0:0:
352,64,145736,2,0,L|312:164,1,85,0|8,1:3|0:3,0:3:0:0:
248,248,145990,1,0,1:3:0:0:
214,273,146054,1,0,1:3:0:0:
173,279,146117,1,8,1:3:0:0:
134,262,146181,1,0,1:3:0:0:
109,228,146244,6,0,B|92:212|96:176|96:176|156:128|128:44,1,170,4|0,1:2|1:3,0:3:0:0:
48,12,146626,2,0,L|52:112,1,85,8|0,0:3|1:3,0:3:0:0:
188,192,146880,1,8,0:3:0:0:
32,264,147007,1,0,1:3:0:0:
56,120,147135,1,8,0:3:0:0:
144,264,147262,6,0,P|200:276|272:176,1,170,0|0,1:3|1:3,0:3:0:0:
172,22,147643,2,0,L|188:198,1,170,8|8,0:3|0:3,0:3:0:0:
238,280,148025,1,0,1:3:0:0:
238,280,148088,1,0,1:3:0:0:
238,280,148152,1,8,1:3:0:0:
340,144,148279,6,0,P|396:124|452:148,1,85,4|8,1:2|0:3,0:3:0:0:
448,272,148533,2,0,P|402:233|395:173,1,85,0|8,1:3|0:3,0:3:0:0:
504,112,148788,2,0,P|493:170|444:206,1,85,0|8,1:3|0:3,0:3:0:0:
364,280,149042,1,0,1:3:0:0:
328,293,149106,1,0,1:3:0:0:
292,307,149169,1,0,1:3:0:0:
256,321,149233,1,0,1:3:0:0:
221,335,149297,6,0,B|196:308|196:308|176:224,1,85,0|8,1:3|0:3,0:3:0:0:
288,140,149551,2,0,B|277:175|277:175|214:234,1,85,0|8,1:3|0:3,0:3:0:0:
80,180,149805,2,0,B|115:171|115:171|198:196,1,85,0|8,1:3|0:3,0:3:0:0:
320,224,150060,1,0,1:3:0:0:
353,198,150123,1,0,1:3:0:0:
372,161,150187,1,8,1:3:0:0:
372,119,150250,1,0,1:3:0:0:
353,81,150314,6,0,L|324:36,3,42.5,8|0|0|0,0:0|0:0|0:0|0:0,0:0:0:0:
228,48,150568,2,0,L|257:93,3,42.5,8|0|0|0,0:0|0:0|0:0|0:0,0:0:0:0:
172,136,150823,5,0,1:0:0:0:
162,172,150886,1,0,1:0:0:0:
168,209,150950,1,0,1:0:0:0:
190,240,151013,1,0,1:0:0:0:
218,265,151077,1,0,1:0:0:0:
228,302,151141,1,0,1:0:0:0:
214,337,151204,1,0,1:0:0:0:
183,358,151268,1,0,1:0:0:0:
145,357,151331,6,0,L|100:324,3,42.5,8|0|8|0,0:0|0:0|0:0|0:0,0:0:0:0:
16,304,151586,2,0,L|39:355,3,42.5,8|0|8|0,0:0|0:0|0:0|0:0,0:0:0:0:
64,216,151840,5,0,1:0:0:0:
69,195,151904,1,0,1:0:0:0:
75,174,151967,1,0,1:0:0:0:
80,154,152031,1,0,1:0:0:0:
86,133,152094,1,0,1:0:0:0:
91,113,152158,1,0,1:0:0:0:
97,92,152221,1,0,1:0:0:0:
102,72,152285,1,0,1:0:0:0:
112,40,152349,5,4,1:3:0:0:
224,320,153995,6,0,P|212:300|208:272,1,42.5,4|0,0:3|0:3,0:3:0:0:
300,192,154248,1,4,0:3:0:0:
172,192,154374,1,4,0:3:0:0:
288,68,154628,6,0,L|304:48,2,21.25,2|2|2,3:3|3:3|3:3,3:3:0:0:
360,88,154881,2,0,L|376:68,2,21.25,2|2|2,3:3|3:3|3:3,3:3:0:0:
432,112,155134,2,0,L|448:92,2,21.25,2|2|2,3:3|3:3|3:3,3:3:0:0:
368,168,155387,6,0,P|340:244|404:236,1,170,0|0,0:3|0:3,0:3:0:0:
480,220,156020,2,0,L|464:266,1,42.5,4|0,0:3|0:3,0:3:0:0:
416,332,156274,1,4,0:3:0:0:
292,312,156400,6,0,B|268:280|268:280|304:232|260:184,1,127.500004863739,4|0,1:3|1:3,0:3:0:0:
266,192,156717,1,0,1:3:0:0:
262,186,156780,1,8,1:3:0:0:
279,111,156907,1,0,1:3:0:0:
274,104,156970,1,0,1:3:0:0:
269,98,157033,1,8,1:3:0:0:
302,29,157160,1,0,1:3:0:0:
297,22,157223,1,0,1:3:0:0:
292,16,157287,1,8,1:3:0:0:
220,42,157413,6,0,P|194:68|190:107,1,63.7500024318696,0|8,1:3|0:3,0:3:0:0:
140,153,157666,1,0,1:3:0:0:
135,146,157730,1,0,1:3:0:0:
130,140,157793,1,8,1:3:0:0:
80,80,157920,2,0,P|54:106|50:145,1,63.7500024318696,4|8,1:3|0:3,0:3:0:0:
17,201,158173,1,0,1:3:0:0:
12,194,158236,1,0,1:3:0:0:
7,188,158300,1,12,1:3:0:0:
53,306,158426,6,0,P|109:334|172:313,1,127.500004863739,4|0,1:3|1:3,0:3:0:0:
171,308,158743,1,0,1:3:0:0:
174,300,158806,1,8,1:3:0:0:
189,172,158933,2,0,P|204:214|203:260,1,63.7500024318696,0|8,1:3|0:3,0:3:0:0:
277,260,159186,1,0,1:3:0:0:
280,252,159249,1,0,1:3:0:0:
283,244,159313,1,8,1:3:0:0:
292,116,159439,6,0,P|307:158|306:204,1,63.7500024318696,0|8,1:3|0:3,0:3:0:0:
380,204,159692,1,0,1:3:0:0:
383,196,159756,1,0,1:3:0:0:
386,188,159819,1,8,1:3:0:0:
393,59,159946,2,0,P|408:101|407:147,1,63.7500024318696,0|12,1:3|0:3,0:3:0:0:
481,147,160199,1,0,1:3:0:0:
484,139,160262,1,0,1:3:0:0:
487,131,160325,1,12,1:3:0:0:
463,256,160452,6,0,B|440:321|440:321|368:333,1,127.500004863739,4|0,1:3|1:3,0:3:0:0:
356,324,160769,1,0,1:3:0:0:
330,318,160832,1,8,1:3:0:0:
352,230,160959,1,0,1:3:0:0:
326,223,161022,1,0,1:3:0:0:
300,217,161085,1,8,1:3:0:0:
326,131,161212,1,0,1:3:0:0:
301,125,161275,1,0,1:3:0:0:
275,119,161338,1,8,1:3:0:0:
144,170,161465,5,0,1:3:0:0:
170,163,161528,1,0,1:3:0:0:
196,157,161592,1,8,1:3:0:0:
170,71,161718,1,0,1:3:0:0:
195,65,161782,1,0,1:3:0:0:
221,59,161845,1,8,1:3:0:0:
306,29,161972,1,0,1:3:0:0:
419,85,162098,2,0,P|436:124|436:166,1,63.7500024318696,12|0,0:3|1:3,0:3:0:0:
434,160,162288,1,0,1:3:0:0:
431,175,162351,1,12,1:3:0:0:
445,292,162478,6,0,B|392:263|392:263|314:280,1,127.500004863739,4|0,1:3|1:3,0:3:0:0:
322,292,162795,1,0,1:3:0:0:
319,308,162858,1,8,1:3:0:0:
232,284,162984,2,0,L|211:206,1,63.7500024318696,0|8,1:3|0:3,0:3:0:0:
120,156,163238,1,0,1:3:0:0:
120,156,163301,1,0,1:3:0:0:
120,156,163364,1,8,1:3:0:0:
178,55,163491,5,8,0:3:0:0:
205,70,163554,1,0,0:3:0:0:
232,86,163618,2,0,L|251:119,1,31.8750012159348,8|8,0:3|0:3,0:3:0:0:
296,39,163744,1,8,0:3:0:0:
312,66,163807,1,0,0:3:0:0:
328,93,163871,2,0,L|327:132,1,31.8750012159348,8|8,0:3|0:3,0:3:0:0:
408,77,163997,1,8,0:3:0:0:
408,109,164061,1,0,0:3:0:0:
408,141,164124,2,0,L|388:174,1,31.8750012159348,8|8,0:3|0:3,0:3:0:0:
484,172,164251,1,8,0:3:0:0:
468,199,164314,1,0,0:3:0:0:
452,227,164377,2,0,L|418:246,1,31.8750012159348,8|8,0:3|0:3,0:3:0:0:
335,287,164504,6,0,L|363:232,3,42.5,4|0|8|0,1:2|0:3|0:3|0:3,0:3:0:0:
231,279,164757,2,0,L|275:247,3,42.5,0|0|8|0,1:3|1:3|1:3|0:3,0:3:0:0:
145,220,165010,2,0,L|199:214,3,42.5,0|0|8|0,1:3|0:3|0:3|0:3,0:3:0:0:
100,125,165264,2,0,L|149:147,3,42.5,0|0|8|0,1:3|1:3|0:3|0:3,0:3:0:0:
227,142,165517,5,4,1:3:0:0:
263,152,165580,1,0,0:3:0:0:
299,143,165643,1,8,0:3:0:0:
326,116,165707,1,0,0:3:0:0:
342,82,165770,1,0,1:3:0:0:
373,60,165833,1,0,1:3:0:0:
411,59,165897,1,8,0:3:0:0:
444,77,165960,1,0,0:3:0:0:
463,109,166023,1,0,1:3:0:0:
463,147,166087,1,0,0:3:0:0:
443,179,166150,1,8,0:3:0:0:
410,196,166213,1,0,0:3:0:0:
372,191,166277,2,0,P|352:206|336:233,3,42.5,0|0|8|0,1:3|1:3|1:3|0:3,0:3:0:0:
330,306,166530,5,4,1:3:0:0:
291,289,166593,1,0,0:3:0:0:
263,257,166656,1,8,0:3:0:0:
254,216,166720,1,0,0:3:0:0:
277,181,166783,1,0,1:3:0:0:
284,140,166846,1,0,1:3:0:0:
273,99,166910,1,8,1:3:0:0:
246,67,166973,1,0,0:3:0:0:
207,50,167036,1,0,1:3:0:0:
165,50,167100,1,0,0:3:0:0:
128,70,167163,1,8,0:3:0:0:
107,107,167226,1,0,0:3:0:0:
111,150,167289,2,0,L|154:191,3,42.5,0|0|8|0,1:3|1:3|1:3|0:3,0:3:0:0:
215,138,167543,5,4,1:3:0:0:
231,181,167606,1,0,0:3:0:0:
224,226,167669,1,8,0:3:0:0:
195,262,167733,1,0,0:3:0:0:
170,300,167796,1,0,1:3:0:0:
179,345,167859,1,0,1:3:0:0:
216,368,167923,1,8,1:3:0:0:
261,362,167986,1,0,0:3:0:0:
296,330,168049,6,0,L|290:270,3,31.8750012159348,0|0|8|0,1:3|0:3|0:3|0:3,0:3:0:0:
375,264,168302,2,0,L|370:215,3,31.8750012159348,0|0|8|0,1:3|1:3|0:3|0:3,0:3:0:0:
256,162,168556,1,4,1:3:0:0:
240,147,168619,1,0,0:3:0:0:
230,128,168682,1,8,0:3:0:0:
225,108,168746,1,0,0:3:0:0:
221,87,168809,6,0,L|156:67,2,56.6666666666667,0|0|0,1:0|0:0|0:0,0:0:0:0:
306,35,169062,2,0,L|362:15,2,56.6666666666667,0|0|0,1:0|0:0|0:0,0:0:0:0:
324,133,169315,5,0,1:3:0:0:
348,153,169379,1,0,1:3:0:0:
377,164,169442,1,8,1:3:0:0:
409,164,169505,1,0,1:3:0:0:
438,152,169569,6,0,L|432:215,1,42.5,0|0,1:3|0:3,0:3:0:0:
362,301,169695,2,0,L|355:238,1,42.5,8|0,0:3|0:3,0:3:0:0:
255,179,169822,2,0,L|248:241,1,42.5,0|0,1:3|1:3,0:3:0:0:
178,327,169948,2,0,L|171:264,1,42.5,8|0,1:3|0:3,0:3:0:0:
86,136,170075,6,0,L|120:182,1,42.5,0|0,1:3|0:3,0:3:0:0:
189,311,170202,2,0,L|182:248,1,42.5,8|0,0:3|0:3,0:3:0:0:
218,71,170328,2,0,L|252:117,1,42.5,0|0,1:3|0:3,0:3:0:0:
348,298,170455,2,0,L|341:235,1,42.5,8|0,0:3|0:3,0:3:0:0:
342,91,170582,1,4,1:3:0:0:
361,66,170645,1,0,1:3:0:0:
388,49,170708,1,0,1:3:0:0:
419,44,170772,1,0,0:3:0:0:
450,51,170835,6,0,L|476:104,3,42.5,8|0|8|0,0:3|0:3|0:3|0:3,0:3:0:0:
423,161,171088,2,0,L|449:214,3,42.5,8|8|8|0,0:3|0:3|0:3|0:3,0:3:0:0:
398,272,171341,2,0,L|424:325,3,42.5,8|0|8|0,0:3|0:3|0:3|0:3,0:3:0:0:
289,300,171595,5,8,0:3:0:0:
260,268,171658,1,0,0:3:0:0:
246,228,171721,1,0,1:3:0:0:
250,186,171784,1,0,1:3:0:0:
269,149,171848,2,0,P|265:126|239:86,1,42.5,0|0,1:3|0:3,0:3:0:0:
135,67,171974,5,0,1:3:0:0:
107,86,172038,1,0,1:3:0:0:
91,116,172101,2,0,P|118:130|160:127,1,42.5,8|0,0:3|0:3,0:3:0:0:
295,54,172228,1,0,1:3:0:0:
275,27,172291,1,0,1:3:0:0:
245,11,172354,2,0,P|230:38|233:80,1,42.5,0|0,0:3|0:3,0:3:0:0:
169,203,172481,1,0,1:3:0:0:
161,244,172544,1,0,1:3:0:0:
155,286,172607,6,0,P|184:323|263:329,1,101.999996887207,4|8,1:2|0:3,0:3:0:0:
416,250,172861,1,0,1:3:0:0:
416,250,172924,1,0,1:3:0:0:
416,250,172987,1,8,1:3:0:0:
387,65,173114,2,0,L|352:161,1,101.999996887207,0|8,1:3|0:3,0:3:0:0:
227,263,173367,1,0,1:3:0:0:
227,263,173430,1,0,1:3:0:0:
227,263,173494,1,8,1:3:0:0:
151,73,173620,6,0,P|86:56|97:121,1,152.999995330811,0|0,1:3|0:3,0:3:0:0:
113,159,173874,2,0,B|137:196|135:233|135:233|95:257|84:314,1,152.999995330811,0|0,1:3|0:3,0:3:0:0:
78,340,174127,2,0,B|143:286|206:341|206:341|266:351|329:306|298:213,1,305.999990661621,0|8,1:3|0:3,0:3:0:0:
297,103,174633,5,4,1:3:0:0:
282,63,174697,1,0,0:3:0:0:
263,24,174760,2,0,L|339:48,1,50.9999984436036,8|0,0:3|0:3,0:3:0:0:
402,120,174887,1,0,1:3:0:0:
381,157,174950,1,0,1:3:0:0:
361,194,175013,2,0,L|391:261,1,50.9999984436036,8|0,0:3|0:3,0:3:0:0:
322,349,175140,5,0,1:3:0:0:
280,356,175203,1,0,0:3:0:0:
241,341,175266,1,8,0:3:0:0:
216,308,175330,1,0,0:3:0:0:
212,266,175393,1,0,1:3:0:0:
231,229,175456,1,0,1:3:0:0:
257,197,175520,1,8,0:3:0:0:
252,156,175583,1,0,0:3:0:0:
220,130,175646,6,0,P|150:115|112:140,1,101.999996887207,0|8,1:3|0:3,0:3:0:0:
290,276,175900,2,0,P|338:222|335:176,1,101.999996887207,0|8,1:3|0:3,0:3:0:0:
82,68,176153,2,0,B|38:100|41:160|84:195|84:195|131:234|153:280|105:351,1,305.999990661621,0|8,1:3|0:3,0:3:0:0:
257,191,176659,5,4,1:2:0:0:
298,183,176723,1,0,0:3:0:0:
339,195,176786,1,8,1:3:0:0:
411,308,176913,1,0,1:3:0:0:
467,148,177039,1,8,0:3:0:0:
466,105,177102,1,0,1:3:0:0:
446,68,177166,2,0,P|406:46|335:67,1,101.999996887207,0|8,1:3|0:3,0:3:0:0:
196,262,177419,2,0,P|236:284|307:263,1,101.999996887207,0|8,1:3|0:3,0:3:0:0:
373,119,177672,5,0,1:3:0:0:
362,86,177736,1,0,1:3:0:0:
352,54,177799,1,8,1:3:0:0:
235,96,177925,1,0,1:3:0:0:
224,63,177989,1,0,1:3:0:0:
214,31,178052,1,8,1:3:0:0:
217,197,178179,5,0,1:3:0:0:
206,230,178242,1,0,1:3:0:0:
196,262,178305,1,8,1:3:0:0:
79,220,178432,1,0,1:3:0:0:
68,253,178495,1,0,1:3:0:0:
58,285,178559,1,8,1:3:0:0:
225,344,178685,5,4,1:3:0:0:
264,328,178748,1,0,1:3:0:0:
303,316,178812,2,0,L|359:292,1,50.9999984436036,8|0,1:3|0:3,0:3:0:0:
425,130,178938,2,0,L|414:179,1,50.9999984436036,0|0,1:3|1:3,0:3:0:0:
328,164,179065,2,0,L|317:213,1,50.9999984436036,8|0,0:3|0:3,0:3:0:0:
231,198,179192,2,0,L|220:247,1,50.9999984436036,0|0,1:3|1:3,0:3:0:0:
133,232,179318,2,0,L|122:281,1,50.9999984436036,8|0,0:3|0:3,0:3:0:0:
36,266,179445,2,0,L|25:315,3,50.9999984436036,0|0|8|0,1:3|1:3|0:3|0:3,0:3:0:0:
66,157,179698,5,8,0:3:0:0:
94,138,179761,1,0,0:3:0:0:
126,129,179824,1,8,0:3:0:0:
160,132,179888,1,0,0:3:0:0:
191,145,179951,1,8,0:3:0:0:
216,168,180015,1,0,0:3:0:0:
231,198,180078,1,8,0:3:0:0:
250,226,180142,1,0,0:3:0:0:
278,245,180205,1,8,0:3:0:0:
311,253,180269,1,0,0:3:0:0:
344,248,180332,1,8,0:3:0:0:
373,230,180395,1,0,0:3:0:0:
393,203,180459,5,0,1:3:0:0:
389,193,180522,1,0,1:3:0:0:
385,184,180586,1,0,1:3:0:0:
381,174,180649,1,0,1:3:0:0:
377,164,180713,6,0,B|342:133|342:133|319:168,1,85,4|8,1:2|0:3,0:3:0:0:
465,292,180967,2,0,P|426:312|357:303,1,85,0|8,1:3|0:3,0:3:0:0:
410,91,181220,1,0,1:3:0:0:
410,91,181284,1,0,1:3:0:0:
410,91,181347,1,8,1:3:0:0:
278,245,181474,1,0,1:3:0:0:
278,245,181538,1,0,1:3:0:0:
278,245,181601,1,8,1:3:0:0:
167,114,181728,5,0,1:3:0:0:
153,91,181791,1,0,0:3:0:0:
133,75,181855,1,8,0:3:0:0:
107,67,181918,1,0,0:3:0:0:
81,69,181982,1,0,1:3:0:0:
57,81,182045,1,0,1:3:0:0:
39,100,182109,1,8,1:3:0:0:
31,125,182172,1,0,0:3:0:0:
30,151,182236,2,0,L|70:189,3,42.5,0|0|8|0,1:3|0:3|0:3|0:3,0:3:0:0:
47,265,182489,2,0,L|101:259,3,42.5,0|0|8|0,1:3|1:3|1:3|0:3,0:3:0:0:
146,198,182743,6,0,P|175:239|156:305,1,85,4|8,1:3|0:3,0:3:0:0:
67,343,182997,1,0,1:3:0:0:
67,343,183060,1,0,1:3:0:0:
67,343,183124,1,8,1:3:0:0:
224,210,183251,2,0,P|253:251|234:317,1,85,0|8,1:3|0:3,0:3:0:0:
145,355,183505,1,0,1:3:0:0:
145,355,183568,1,0,1:3:0:0:
145,355,183632,1,8,1:3:0:0:
146,198,183758,6,0,P|168:153|235:138,1,85,0|8,1:3|0:3,0:3:0:0:
310,198,184012,1,0,1:3:0:0:
310,198,184076,1,0,1:3:0:0:
310,198,184139,1,8,1:3:0:0:
403,56,184266,2,0,P|380:100|313:115,1,85,0|8,1:3|0:3,0:3:0:0:
239,56,184520,1,0,1:3:0:0:
239,56,184583,1,0,1:3:0:0:
239,56,184647,1,8,1:3:0:0:
235,224,184774,6,0,P|252:255|291:283,2,56.6666666666667,0|0|0,0:3|0:3|0:3,0:3:0:0:
241,344,185027,2,0,P|276:344|320:325,2,56.6666666666667,0|0|0,0:3|0:3|0:3,0:3:0:0:
416,233,185281,2,0,P|399:202|360:174,2,56.6666666666667,0|0|0,0:3|0:3|0:3,0:3:0:0:
410,113,185535,2,0,P|375:113|331:132,2,56.6666666666667,0|0|0,0:3|0:3|0:3,0:3:0:0:
297,186,185789,5,0,0:3:0:0:
250,215,185873,1,0,0:3:0:0:
198,199,185958,1,0,0:3:0:0:
175,149,186043,1,0,0:3:0:0:
199,99,186127,1,0,0:3:0:0:
188,46,186212,1,0,0:3:0:0:
140,19,186296,1,0,0:3:0:0:
88,38,186381,1,0,0:3:0:0:
60,86,186466,1,0,0:3:0:0:
65,142,186550,1,0,0:3:0:0:
101,184,186635,1,0,0:3:0:0:
156,198,186719,1,0,0:3:0:0:
207,177,186804,5,0,0:3:0:0:
136,173,186889,1,0,0:3:0:0:
90,227,186973,1,0,0:3:0:0:
105,296,187058,1,0,0:3:0:0:
170,326,187143,1,0,0:3:0:0:
235,301,187227,1,0,0:3:0:0:
264,235,187312,1,0,0:3:0:0:
332,215,187396,1,0,0:3:0:0:
391,254,187481,1,0,0:3:0:0:
441,309,187566,2,0,P|456:288|466:251,3,42.5,8|0|0|0,0:3|0:3|0:3|0:3,0:3:0:0:
418,184,187819,5,0,1:3:0:0:
415,173,187883,1,0,1:3:0:0:
412,163,187946,1,0,1:3:0:0:
409,153,188010,1,0,1:3:0:0:
406,142,188073,1,0,1:3:0:0:
404,132,188137,1,0,1:3:0:0:
401,122,188200,1,0,1:3:0:0:
398,112,188263,1,0,1:3:0:0:
395,101,188327,1,0,1:3:0:0:
392,91,188390,1,0,1:3:0:0:
390,81,188454,1,0,1:3:0:0:
387,71,188517,1,0,1:3:0:0:
385,60,188581,2,0,L|337:46,3,42.5,0|0|0|0,1:0|1:3|1:3|1:3,1:3:0:0:
225,95,188835,6,0,L|277:106,3,42.5,4|0|0|0,0:2|0:0|0:0|0:0,0:0:0:0:
315,181,189088,1,0,0:0:0:0:
311,186,189152,1,0,0:0:0:0:
310,193,189215,1,8,0:0:0:0:
320,232,189279,1,0,0:0:0:0:
298,267,189342,1,0,0:0:0:0:
280,305,189406,1,0,0:0:0:0:
290,345,189469,1,8,0:0:0:0:
324,369,189533,1,0,0:0:0:0:
366,364,189596,1,0,0:0:0:0:
394,334,189659,1,0,0:0:0:0:
395,292,189723,1,8,0:0:0:0:
390,250,189786,1,0,0:0:0:0:
406,211,189850,5,0,0:0:0:0:
438,184,189913,1,0,0:0:0:0:
474,163,189977,1,8,0:0:0:0:
494,126,190040,1,0,0:0:0:0:
494,84,190104,1,0,0:0:0:0:
472,48,190167,1,0,0:0:0:0:
436,27,190230,1,8,0:0:0:0:
394,28,190294,1,0,0:0:0:0:
357,49,190357,6,0,L|321:103,3,42.5,0|0|8|0,0:0|0:0|0:0|0:0,0:0:0:0:
219,76,190611,2,0,L|182:129,3,42.5,0|0|8|0,0:0|0:0|0:0|0:0,0:0:0:0:
286,164,190865,5,4,0:2:0:0:
302,188,190928,1,0,0:0:0:0:
309,217,190992,1,8,0:0:0:0:
306,246,191055,1,0,0:0:0:0:
294,273,191119,1,4,0:2:0:0:
273,294,191182,1,0,0:0:0:0:
247,307,191246,1,8,0:0:0:0:
217,311,191309,1,0,0:0:0:0:
188,304,191373,5,4,0:2:0:0:
169,276,191436,1,0,0:0:0:0:
141,258,191500,1,8,0:0:0:0:
107,253,191563,1,0,0:0:0:0:
75,261,191626,2,0,L|17:297,3,42.5,4|0|8|0,0:2|0:0|0:0|0:0,0:0:0:0:
30,126,191880,5,4,0:2:0:0:
35,92,191944,1,0,0:0:0:0:
54,64,192007,1,8,0:0:0:0:
82,45,192071,1,0,0:0:0:0:
115,39,192134,1,4,0:2:0:0:
148,47,192198,1,0,0:0:0:0:
175,67,192261,1,8,0:0:0:0:
208,73,192324,1,0,0:0:0:0:
242,68,192388,6,0,L|294:53,3,42.5,4|0|8|0,0:2|0:0|0:0|0:0,0:0:0:0:
284,181,192642,2,0,L|243:192,3,42.5,4|0|8|0,0:2|0:0|0:0|0:0,0:0:0:0:
415,228,192895,5,4,0:2:0:0:
449,252,192959,1,0,0:0:0:0:
466,290,193022,1,8,0:0:0:0:
463,332,193086,1,0,0:0:0:0:
438,366,193149,1,0,0:0:0:0:
400,384,193213,1,0,0:0:0:0:
359,380,193276,1,8,0:0:0:0:
324,355,193340,1,0,0:0:0:0:
307,317,193403,5,0,0:0:0:0:
292,278,193467,1,0,0:0:0:0:
266,244,193530,1,8,0:0:0:0:
231,220,193593,1,0,0:0:0:0:
191,207,193657,1,0,0:0:0:0:
149,206,193720,1,0,0:0:0:0:
108,218,193784,1,8,0:0:0:0:
73,242,193847,1,0,0:0:0:0:
46,275,193911,6,0,L|68:337,3,42.5,0|0|8|0,0:0|0:0|0:0|0:0,0:0:0:0:
54,158,194165,2,0,L|75:96,3,42.5,0|0|8|0,0:0|0:0|0:0|0:0,0:0:0:0:
152,293,194418,2,0,L|173:354,3,42.5,0|0|8|0,0:0|0:0|0:0|0:0,0:0:0:0:
146,146,194672,2,0,L|167:84,3,42.5,0|0|8|0,0:0|0:0|0:0|0:0,0:0:0:0:
207,215,194926,5,4,0:2:0:0:
241,245,194989,1,0,0:0:0:0:
287,249,195053,1,8,0:0:0:0:
326,226,195116,1,0,0:0:0:0:
344,183,195180,1,0,0:0:0:0:
333,138,195243,1,0,0:0:0:0:
312,98,195307,1,4,0:2:0:0:
321,53,195370,1,0,0:0:0:0:
356,23,195434,1,0,0:0:0:0:
402,22,195497,1,0,0:0:0:0:
439,49,195560,1,8,0:0:0:0:
451,93,195624,1,0,0:0:0:0:
430,135,195687,1,4,0:2:0:0:
430,181,195751,1,0,0:0:0:0:
455,220,195814,1,8,0:0:0:0:
456,266,195878,1,0,0:0:0:0:
431,314,195941,5,8,0:0:0:0:
383,335,196004,1,0,0:0:0:0:
332,323,196067,1,8,0:0:0:0:
300,282,196131,1,0,0:0:0:0:
299,230,196194,5,8,0:0:0:0:
275,182,196258,1,0,0:0:0:0:
231,154,196322,1,8,0:0:0:0:
179,152,196385,1,0,0:0:0:0:
133,178,196448,5,8,0:0:0:0:
86,156,196512,1,0,0:0:0:0:
62,110,196576,1,8,0:0:0:0:
72,59,196639,1,0,0:0:0:0:
111,24,196703,2,0,P|153:7|230:57,1,127.5,8|0,0:0|0:0,0:0:0:0:
312,106,196956,6,0,L|335:4,1,101.999996887207,4|0,1:2|0:3,0:3:0:0:
158,81,197209,1,0,1:3:0:0:
446,68,197336,2,0,L|417:206,1,101.999996887207,8|0,0:3|1:3,0:3:0:0:
333,289,197590,1,8,0:3:0:0:
118,270,197717,2,0,L|147:132,1,101.999996887207,0|8,1:3|0:3,0:3:0:0:
344,183,197971,6,0,L|364:83,1,101.999996887207,0|8,1:3|0:3,0:3:0:0:
202,37,198225,1,0,1:3:0:0:
429,181,198352,2,0,L|400:319,1,101.999996887207,8|0,0:3|1:3,0:3:0:0:
271,353,198606,1,8,0:3:0:0:
99,169,198733,1,0,1:3:0:0:
99,169,198797,1,0,1:3:0:0:
99,169,198860,1,8,1:3:0:0:
325,82,198987,6,0,L|349:210,1,101.999996887207,0|8,1:3|0:3,0:3:0:0:
333,289,199241,1,0,1:3:0:0:
118,270,199368,2,0,L|94:142,1,101.999996887207,8|0,0:3|1:3,0:3:0:0:
202,37,199622,1,8,0:3:0:0:
63,91,199749,1,0,1:3:0:0:
63,91,199813,1,0,1:3:0:0:
63,91,199876,1,8,1:3:0:0:
305,207,200003,6,0,L|413:210,1,101.999996887207,0|8,1:3|0:3,0:3:0:0:
202,37,200257,1,0,1:3:0:0:
379,119,200384,2,0,L|487:122,1,101.999996887207,8|0,0:3|1:3,0:3:0:0:
184,320,200638,1,8,0:3:0:0:
99,169,200765,1,0,1:3:0:0:
99,169,200829,1,0,1:3:0:0:
99,169,200892,1,8,1:3:0:0:
379,119,201019,6,0,L|347:255,1,101.999996887207,4|8,1:2|0:3,0:3:0:0:
168,328,201273,1,0,1:3:0:0:
412,305,201400,2,0,L|444:169,1,101.999996887207,8|0,0:3|1:3,0:3:0:0:
284,36,201654,1,8,0:3:0:0:
172,168,201781,1,0,1:3:0:0:
344,203,201908,1,8,0:3:0:0:
112,96,202035,6,0,L|80:232,1,101.999996887207,0|8,1:3|0:3,0:3:0:0:
204,328,202289,1,0,1:3:0:0:
396,264,202416,2,0,P|424:216|400:144,1,101.999996887207,8|0,0:3|1:3,0:3:0:0:
232,92,202670,1,8,0:3:0:0:
380,24,202797,1,0,1:3:0:0:
380,24,202860,1,0,1:3:0:0:
380,24,202924,1,8,1:3:0:0:
288,204,203051,6,0,P|244:232|156:236,1,101.999996887207,0|8,1:3|0:3,0:3:0:0:
40,136,203305,1,0,1:3:0:0:
148,308,203432,2,0,P|192:336|280:340,1,101.999996887207,8|0,0:3|1:3,0:3:0:0:
388,204,203686,1,8,0:3:0:0:
428,352,203813,1,0,1:3:0:0:
428,352,203876,1,0,1:3:0:0:
428,352,203940,1,8,1:3:0:0:
312,240,204067,5,2,0:3:0:0:
279,208,204130,1,2,0:3:0:0:
237,190,204194,1,2,0:3:0:0:
191,188,204257,1,2,0:3:0:0:
148,202,204321,5,0,1:3:0:0:
126,242,204384,1,0,1:3:0:0:
85,260,204448,1,0,1:3:0:0:
41,250,204511,1,0,1:3:0:0:
11,216,204575,5,8,0:3:0:0:
8,171,204638,1,0,0:3:0:0:
33,133,204702,1,8,0:3:0:0:
72,109,204765,1,0,0:3:0:0:
117,101,204829,5,0,1:3:0:0:
162,110,204892,1,0,1:3:0:0:
207,113,204956,1,0,1:3:0:0:
252,103,205019,1,0,1:3:0:0:
293,82,205083,6,0,B|322:104|322:104|358:204,1,101.999996887207,4|0,1:2|0:3,0:3:0:0:
372,316,205337,1,0,1:3:0:0:
177,325,205464,2,0,B|148:303|148:303|112:203,1,101.999996887207,8|0,0:3|1:3,0:3:0:0:
176,32,205718,1,8,0:3:0:0:
61,193,205845,2,0,P|45:241|77:305,1,101.999996887207,0|8,1:3|0:3,0:3:0:0:
412,212,206099,6,0,P|428:164|396:100,1,101.999996887207,0|8,1:3|0:3,0:3:0:0:
212,36,206353,1,0,1:3:0:0:
320,208,206480,2,0,L|296:332,1,101.999996887207,8|0,0:3|1:3,0:3:0:0:
200,316,206734,1,8,0:3:0:0:
400,288,206861,1,0,1:3:0:0:
400,288,206924,1,0,1:3:0:0:
400,288,206988,1,8,1:3:0:0:
200,160,207115,6,0,L|220:48,1,101.999996887207,0|8,1:3|0:3,0:3:0:0:
424,68,207369,1,0,1:3:0:0:
256,228,207496,2,0,P|204:244|120:208,1,101.999996887207,8|0,0:3|1:3,0:3:0:0:
88,40,207750,1,8,0:3:0:0:
276,112,207877,5,0,1:3:0:0:
52,188,208004,1,8,0:3:0:0:
237,328,208130,2,0,L|257:218,1,101.999996887207,0|8,1:3|0:3,0:3:0:0:
172,108,208384,1,0,1:3:0:0:
172,108,208448,1,0,1:3:0:0:
172,108,208511,1,8,1:3:0:0:
328,48,208638,5,8,0:3:0:0:
366,24,208702,1,8,0:3:0:0:
411,28,208765,1,8,0:3:0:0:
446,57,208829,1,8,0:3:0:0:
458,100,208892,1,8,0:3:0:0:
443,143,208956,1,8,0:3:0:0:
417,180,209019,1,8,0:3:0:0:
409,225,209083,1,8,0:3:0:0:
420,269,209146,6,0,P|368:320|312:304,1,101.999996887207,4|8,1:2|0:3,0:3:0:0:
148,256,209400,1,0,1:3:0:0:
326,147,209527,2,0,B|338:105|338:105|326:39,1,101.999996887207,8|0,0:3|1:3,0:3:0:0:
152,36,209781,1,8,0:3:0:0:
196,172,209908,1,4,1:2:0:0:
196,172,209972,1,0,1:3:0:0:
196,172,210035,1,8,1:3:0:0:
412,108,210162,6,0,L|388:0,1,101.999996887207,4|8,1:2|0:3,0:3:0:0:
232,84,210416,1,0,1:3:0:0:
180,248,210543,2,0,L|204:356,1,101.999996887207,8|0,0:3|1:3,0:3:0:0:
324,348,210797,1,8,0:3:0:0:
388,244,210924,1,4,1:2:0:0:
388,244,210988,1,0,1:3:0:0:
388,244,211051,1,8,1:3:0:0:
196,172,211178,6,0,P|142:179|100:245,1,101.999996887207,4|8,1:2|0:3,0:3:0:0:
202,347,211432,1,0,1:3:0:0:
268,205,211559,2,0,P|276:157|224:93,1,101.999996887207,8|0,0:3|1:3,0:3:0:0:
92,92,211813,1,8,0:3:0:0:
240,24,211940,1,4,1:2:0:0:
240,24,212004,1,0,1:3:0:0:
240,24,212067,1,8,1:3:0:0:
207,253,212194,6,0,P|251:281|319:265,1,101.999996887207,4|8,1:2|0:3,0:3:0:0:
404,164,212448,1,0,1:3:0:0:
423,136,212512,1,0,1:3:0:0:
442,108,212575,1,8,1:3:0:0:
328,28,212702,2,0,P|279:44|264:100,1,101.999996887207,0|8,1:0|0:0,0:0:0:0:
344,208,212956,1,0,1:3:0:0:
363,235,213020,1,0,1:3:0:0:
382,263,213083,1,8,1:3:0:0:
452,336,213210,5,4,1:2:0:0:
447,345,213274,1,0,0:3:0:0:
443,354,213337,2,0,L|363:338,1,50.9999984436036,8|0,0:3|0:3,0:3:0:0:
276,322,213464,2,0,L|356:306,1,50.9999984436036,8|0,0:3|0:3,0:3:0:0:
432,273,213591,2,0,L|352:257,1,50.9999984436036,8|0,0:3|0:3,0:3:0:0:
282,236,213718,5,8,0:3:0:0:
261,213,213781,1,0,0:3:0:0:
251,184,213845,1,8,0:3:0:0:
251,154,213908,1,0,0:3:0:0:
262,126,213972,1,8,0:3:0:0:
283,104,214035,1,0,0:3:0:0:
310,90,214099,1,8,0:3:0:0:
341,88,214162,1,0,0:3:0:0:
370,97,214226,5,0,0:3:0:0:
391,119,214289,1,0,0:3:0:0:
419,129,214353,1,0,0:3:0:0:
449,123,214416,1,0,0:3:0:0:
473,105,214480,1,2,0:3:0:0:
484,77,214543,1,2,0:3:0:0:
481,47,214607,1,2,0:3:0:0:
464,22,214670,1,2,0:3:0:0:
437,8,214734,1,2,0:3:0:0:
407,9,214797,1,2,0:3:0:0:
381,24,214861,1,2,0:3:0:0:
367,51,214924,1,2,0:3:0:0:
357,80,214988,1,8,0:3:0:0:
352,110,215051,1,8,0:3:0:0:
351,141,215115,1,8,0:3:0:0:
354,171,215178,1,0,0:3:0:0:
361,201,215242,6,0,B|366:246|366:246|323:319,1,127.500004863739,0|0,0:3|0:3,0:3:0:0:
200,350,215623,6,0,L|179:310,1,31.8750012159348,8|0,0:3|0:3,0:3:0:0:
112,321,215750,2,0,L|124:285,1,31.8750012159348,8|0,0:3|0:3,0:3:0:0:
54,261,215877,1,0,0:3:0:0:
55,254,215940,1,8,0:3:0:0:
57,248,216004,2,0,L|91:221,3,31.8750012159348,8|0|8|0,0:3|0:3|0:3|0:3,0:3:0:0:
155,227,216258,5,8,0:3:0:0:
182,210,216321,1,8,0:3:0:0:
199,184,216385,1,8,0:3:0:0:
204,153,216448,1,8,0:3:0:0:
195,123,216512,5,0,0:3:0:0:
201,134,216575,1,0,0:3:0:0:
209,144,216639,1,0,0:3:0:0:
217,154,216702,1,0,0:3:0:0:
227,162,216766,5,8,0:3:0:0:
238,169,216829,1,8,0:3:0:0:
249,174,216893,1,8,0:3:0:0:
261,178,216956,1,8,0:3:0:0:
274,181,217020,5,0,0:3:0:0:
287,181,217083,1,0,0:3:0:0:
299,181,217147,1,0,0:3:0:0:
312,178,217210,1,0,0:3:0:0:
324,174,217274,6,0,B|399:148|445:191|478:197|503:126|491:90|431:66|387:85|369:118|405:205|436:251|436:251|381:222|329:243|329:243|283:265|234:242,1,595,4|0,1:2|0:3,0:3:0:0:
83,285,219320,2,0,B|110:229|110:229|143:278|143:278|114:355|114:355|139:347|139:347|157:300|198:303|198:303|241:326|290:333|328:326|370:299|378:307|378:307|396:306|408:328|459:323|459:323|410:329|379:357,1,654.500019973755,0|2,0:3|0:2,0:3:0:0:
217,41,221367,2,0,B|253:87|253:87|252:132|214:144|214:144|177:94|177:94|136:107|141:154|141:154|196:231|196:231|225:231|250:246|250:246|242:205|266:153|347:153|363:224|334:249,1,618.799996223145,2|2,0:2|0:2,0:3:0:0:
434,72,223414,6,0,P|342:33|379:127,1,255,2|0,0:2|0:3,0:3:0:0:
97,293,224438,2,0,B|89:272|94:252|94:252|125:218|109:153,2,127.5,0|0|0,0:2|0:2|0:2,0:3:0:0:
270,330,225461,6,0,P|308:257|328:309,3,170,2|2|2|2,0:3|0:3|0:3|0:3,0:3:0:0:
187,344,227252,1,2,0:3:0:0:
183,260,227508,2,0,P|202:224|285:185,1,127.5,2|0,0:3|0:3,0:3:0:0:
353,146,228020,2,0,L|344:202,1,42.5,2|0,0:3|0:3,0:3:0:0:
428,211,228276,2,0,L|387:253,1,42.5,0|0,0:3|0:3,0:3:0:0:
283,269,228531,6,0,L|332:289,2,42.5,2|0|0,0:3|0:3|0:3,0:3:0:0:
244,146,228915,2,0,L|238:104,2,42.5,2|0|0,0:3|0:3|0:3,0:3:0:0:
164,246,229299,2,0,L|111:261,1,42.5,2|0,0:3|0:3,0:3:0:0:
344,140,229555,6,0,P|356:124|368:96,3,42.5,0|0|0|0,0:3|0:3|0:3|0:3,0:3:0:0:
166,141,230067,2,0,P|147:139|116:143,3,42.5,0|0|0|0,0:3|0:3|0:3|0:3,0:3:0:0:
257,294,230578,2,0,P|264:312|283:336,3,42.5,0|0|0|0,0:3|0:3|0:3|0:3,0:3:0:0:
236,228,231090,1,4,0:3:0:0:
256,164,231218,1,4,0:3:0:0:
308,120,231346,1,4,0:3:0:0:
376,116,231474,1,4,0:3:0:0:
256,36,231602,5,8,0:3:0:0:
256,192,232625,12,0,234544,0:3:0:0:
176,148,234672,6,0,L|164:232,1,63.7500024318696,12|0,0:3|0:3,0:3:0:0:
212,304,234928,1,0,0:3:0:0:
212,304,235056,1,0,0:3:0:0:
92,256,235184,2,0,L|76:172,1,63.7500024318696,8|0,0:3|0:3,0:3:0:0:
104,92,235440,1,0,0:3:0:0:
104,92,235568,1,0,0:3:0:0:
224,132,235696,6,0,B|256:136|256:136|312:128,1,63.7500024318696,8|0,0:3|0:3,0:3:0:0:
348,48,235952,1,0,0:3:0:0:
348,48,236079,1,0,0:3:0:0:
348,176,236207,2,0,L|376:252,1,63.7500024318696,8|0,0:3|0:3,0:3:0:0:
436,316,236463,1,0,0:3:0:0:
436,316,236591,1,0,0:3:0:0:
308,316,236719,6,0,P|264:308|244:284,1,63.7500024318696,12|0,0:3|0:3,0:3:0:0:
224,224,236975,1,0,0:3:0:0:
232,148,237103,1,0,0:3:0:0:
332,68,237231,2,0,P|346:102|376:128,1,63.7500024318696,8|0,0:3|0:3,0:3:0:0:
464,40,237487,2,0,L|400:60,1,63.7500024318696,0|0,0:3|0:3,0:3:0:0:
368,196,237743,6,0,P|384:168|388:128,1,63.7500024318696,8|0,0:3|0:3,0:3:0:0:
332,68,237998,1,0,0:3:0:0:
264,104,238126,2,0,P|228:108|192:100,2,63.7500024318696,8|0|0,0:3|0:3|0:3,0:3:0:0:
300,172,238510,2,0,L|280:248,1,63.7500024318696,8|0,0:3|0:3,0:3:0:0:
184,312,238766,5,12,0:3:0:0:
107,316,238894,1,0,0:3:0:0:
55,259,239022,1,0,0:3:0:0:
56,182,239150,1,0,0:3:0:0:
130,78,239278,5,8,0:3:0:0:
174,140,239406,1,0,0:3:0:0:
249,150,239534,1,0,0:3:0:0:
320,122,239662,1,0,0:3:0:0:
436,170,239789,5,8,0:3:0:0:
384,226,239917,1,0,0:3:0:0:
373,301,240045,1,0,0:3:0:0:
406,370,240173,1,0,0:3:0:0:
456,254,240301,5,8,0:3:0:0:
384,226,240429,1,0,0:3:0:0:
312,252,240557,1,0,0:3:0:0:
271,317,240685,1,0,0:3:0:0:
261,189,240813,6,0,P|250:152|222:118,1,63.7500024318696,12|0,0:3|0:3,0:3:0:0:
137,103,241069,1,0,0:3:0:0:
137,103,241197,1,0,0:3:0:0:
191,220,241325,2,0,P|190:257|168:299,1,63.7500024318696,8|0,0:3|0:3,0:3:0:0:
96,341,241581,1,0,0:3:0:0:
96,341,241708,1,0,0:3:0:0:
33,229,241836,6,0,P|62:207|109:199,1,63.7500024318696,8|0,0:3|0:3,0:3:0:0:
180,281,242092,1,0,0:3:0:0:
180,281,242220,2,0,P|191:251|191:220,1,63.7500024318696,8|0,0:3|0:3,0:3:0:0:
131,105,242476,1,0,0:3:0:0:
131,105,242604,2,0,P|158:135|200:153,1,63.7500024318696,8|0,0:3|0:3,0:3:0:0:
296,195,242860,6,0,L|317:126,1,63.7500024318696,12|0,0:3|0:3,0:3:0:0:
365,76,243116,1,0,0:3:0:0:
438,55,243244,1,0,0:3:0:0:
436,182,243372,2,0,P|399:192|359:191,1,63.7500024318696,8|0,0:3|0:3,0:3:0:0:
296,195,243627,1,0,0:3:0:0:
223,170,243755,1,0,0:3:0:0:
106,218,243883,6,0,P|150:215|181:232,1,63.7500024318696,8|0,0:3|0:3,0:3:0:0:
233,262,244139,1,0,0:3:0:0:
279,323,244267,1,0,0:3:0:0:
404,297,244395,2,0,L|404:229,1,63.7500024318696,8|0,0:3|0:3,0:3:0:0:
473,199,244651,2,0,L|473:127,1,63.7500024318696,0|0,0:3|0:3,0:3:0:0:
378,48,244907,5,12,0:3:0:0:
317,95,245035,1,0,0:3:0:0:
241,107,245163,1,0,0:3:0:0:
170,78,245291,1,0,0:3:0:0:
200,200,245418,5,8,0:3:0:0:
206,276,245546,1,0,0:3:0:0:
174,345,245674,2,0,P|143:325|128:289,1,63.7500024318696,0|0,0:3|0:3,0:3:0:0:
68,189,245930,6,0,L|18:229,2,63.7500024318696,8|0|0,0:3|0:3|0:3,0:3:0:0:
109,95,246314,2,0,B|94:66|94:66|94:29,1,63.7500024318696,8|0,0:3|0:3,0:3:0:0:
237,108,246570,1,0,0:3:0:0:
237,108,246698,2,0,B|245:78|245:78|241:32,1,63.7500024318696,8|0,0:3|0:3,0:3:0:0:
171,189,246954,6,0,L|166:266,1,63.7500024318696,12|0,0:3|0:3,0:3:0:0:
211,315,247210,1,0,0:3:0:0:
141,344,247337,1,0,0:3:0:0:
92,225,247465,2,0,L|98:147,1,63.7500024318696,8|0,0:3|0:3,0:3:0:0:
49,100,247721,1,0,0:3:0:0:
124,88,247849,1,0,0:3:0:0:
214,179,247977,6,0,P|241:190|287:189,1,63.7500024318696,8|0,0:3|0:3,0:3:0:0:
350,174,248233,1,0,0:3:0:0:
412,131,248361,1,0,0:3:0:0:
304,60,248489,2,0,B|270:87|270:87|255:120,1,63.7500024318696,8|0,0:3|0:3,0:3:0:0:
214,179,248745,2,0,P|185:151|174:117,1,63.7500024318696,8|0,0:3|0:3,0:3:0:0:
127,49,249001,5,8,0:3:0:0:
95,44,249065,1,0,0:3:0:0:
66,55,249129,1,0,0:3:0:0:
47,80,249192,1,0,0:3:0:0:
44,112,249256,2,0,L|76:152,3,31.8750012159348,0|0|0|0,0:3|0:3|0:3|0:3,0:3:0:0:
106,204,249512,1,8,0:3:0:0:
121,233,249576,1,0,0:3:0:0:
122,264,249640,1,0,0:3:0:0:
111,294,249704,1,0,0:3:0:0:
90,317,249768,2,0,L|48:340,3,31.8750012159348,8|0|0|0,0:3|0:3|0:3|0:3,0:3:0:0:
43,253,250024,5,8,0:3:0:0:
71,228,250088,1,0,0:3:0:0:
108,219,250152,1,0,0:3:0:0:
145,226,250216,1,0,0:3:0:0:
175,250,250280,1,0,0:3:0:0:
190,284,250344,1,0,0:3:0:0:
221,306,250408,1,8,0:3:0:0:
259,308,250472,1,0,0:3:0:0:
292,290,250536,1,0,0:3:0:0:
311,257,250600,1,0,0:3:0:0:
314,219,250664,1,0,0:3:0:0:
296,186,250728,1,0,0:3:0:0:
270,158,250792,1,8,0:3:0:0:
260,122,250856,1,0,0:3:0:0:
269,85,250920,1,0,0:3:0:0:
293,56,250984,1,0,0:3:0:0:
328,42,251047,6,0,P|396:48|418:167,1,170,4|0,1:2|1:3,0:3:0:0:
371,280,251429,2,0,B|339:204|339:204|330:159|361:101,1,170,8|8,0:3|0:3,0:3:0:0:
449,49,251811,1,0,1:3:0:0:
433,133,251938,1,8,0:3:0:0:
324,191,252066,6,0,P|281:184|237:158,1,85,0|8,1:3|0:3,0:3:0:0:
171,121,252320,1,0,1:3:0:0:
352,118,252448,2,0,P|395:159|357:258,1,170,8|0,0:3|0:3,0:3:0:0:
267,324,252830,2,0,P|247:284|253:217,1,85,0|8,1:3|0:3,0:3:0:0:
233,75,253085,6,0,P|165:44|93:109,1,170,4|0,1:2|1:3,0:3:0:0:
42,213,253467,2,0,P|79:229|137:216,1,85,8|0,0:3|1:3,0:3:0:0:
171,121,253722,1,8,0:3:0:0:
215,241,253849,1,0,1:3:0:0:
215,241,253913,1,0,1:3:0:0:
215,241,253976,1,8,1:3:0:0:
380,279,254104,6,0,P|338:273|304:248,1,85,0|8,1:3|0:3,0:3:0:0:
270,124,254359,1,0,1:3:0:0:
270,124,254422,1,0,1:3:0:0:
270,124,254486,1,8,1:3:0:0:
366,206,254613,2,0,L|455:201,1,85,0|8,1:3|0:3,0:3:0:0:
442,56,254868,2,0,L|406:146,1,85,0|8,1:3|0:3,0:3:0:0:
304,248,255123,6,0,P|231:224|147:255,1,170,4|0,1:2|1:3,0:3:0:0:
69,346,255505,2,0,L|64:249,1,85,8|0,0:3|1:3,0:3:0:0:
98,182,255760,1,8,0:3:0:0:
42,77,255887,1,0,1:3:0:0:
42,77,255951,1,0,1:3:0:0:
42,77,256015,1,8,1:3:0:0:
171,157,256142,6,0,P|244:181|328:150,1,170,0|0,1:3|1:3,0:3:0:0:
411,64,256524,2,0,L|405:153,1,85,8|0,0:3|1:3,0:3:0:0:
410,268,256779,1,8,0:3:0:0:
467,205,256906,2,0,L|475:109,1,85,0|8,1:3|0:3,0:3:0:0:
308,78,257161,6,0,P|264:71|209:89,1,85,4|8,1:2|0:3,0:3:0:0:
159,191,257416,1,0,1:3:0:0:
159,191,257480,1,0,1:3:0:0:
159,191,257543,1,8,1:3:0:0:
240,341,257671,2,0,L|261:248,1,85,0|8,1:3|0:3,0:3:0:0:
324,149,257925,1,0,1:3:0:0:
324,149,257989,1,0,1:3:0:0:
324,149,258053,1,8,1:3:0:0:
209,116,258180,5,8,0:3:0:0:
179,105,258244,1,0,0:3:0:0:
147,104,258308,1,0,1:3:0:0:
117,114,258371,1,0,1:3:0:0:
92,133,258435,2,0,B|79:160|79:160|73:189,1,42.5,0|0,0:3|0:3,0:3:0:0:
85,259,258562,1,8,0:3:0:0:
91,296,258626,1,0,0:3:0:0:
114,326,258690,1,0,0:3:0:0:
147,344,258754,1,0,0:3:0:0:
185,345,258817,1,0,0:3:0:0:
220,329,258881,1,0,0:3:0:0:
243,299,258945,1,8,0:3:0:0:
260,265,259008,1,0,0:3:0:0:
291,243,259072,1,0,0:3:0:0:
328,237,259136,1,0,0:3:0:0:
365,251,259199,6,0,P|445:258|483:165,1,170,4|0,1:2|1:3,0:3:0:0:
406,19,259582,2,0,L|409:201,1,170,8|0,0:3|0:3,0:3:0:0:
365,251,259964,1,0,1:3:0:0:
317,310,260091,1,8,0:3:0:0:
193,253,260218,6,0,P|160:199|233:123,1,170,0|0,1:3|1:3,0:3:0:0:
333,85,260601,2,0,P|309:45|245:22,1,85,8|0,0:3|1:3,0:3:0:0:
178,53,260855,1,8,0:3:0:0:
140,148,260983,1,0,1:3:0:0:
140,148,261047,1,0,1:3:0:0:
140,148,261110,1,8,1:3:0:0:
304,166,261238,6,0,P|390:155|426:71,1,170,4|0,1:2|1:3,0:3:0:0:
257,109,261620,2,0,P|233:139|243:205,1,85,8|0,0:3|1:3,0:3:0:0:
286,271,261875,1,8,0:3:0:0:
202,328,262002,1,0,1:3:0:0:
202,328,262066,1,0,1:3:0:0:
202,328,262129,1,8,1:3:0:0:
370,309,262257,6,0,P|384:269|350:203,1,85,0|8,1:3|0:3,0:3:0:0:
231,184,262511,2,0,B|166:168|119:191|119:191|86:185|52:148,1,170,0|0,1:3|1:3,0:3:0:0:
27,91,262894,1,8,0:3:0:0:
106,27,263021,1,0,1:3:0:0:
106,27,263085,1,0,1:3:0:0:
106,27,263148,1,8,1:3:0:0:
263,93,263276,6,0,L|252:268,1,170,4|0,1:2|1:3,0:3:0:0:
303,330,263658,1,8,0:3:0:0:
183,320,263785,2,0,P|165:278|175:221,1,85,0|8,1:3|0:3,0:3:0:0:
214,168,264040,1,0,1:3:0:0:
214,168,264104,1,0,1:3:0:0:
214,168,264168,1,8,1:3:0:0:
358,259,264295,6,0,P|379:213|373:149,1,85,0|8,1:3|0:3,0:3:0:0:
339,105,264550,1,0,1:3:0:0:
339,105,264613,1,0,1:3:0:0:
339,105,264677,1,8,1:3:0:0:
473,32,264804,2,0,B|456:71|456:71|401:98,1,85,0|8,1:3|0:3,0:3:0:0:
283,47,265059,2,0,B|300:86|300:86|355:113,1,85,0|8,1:3|0:3,0:3:0:0:
436,172,265314,6,0,L|479:199,1,42.5,2|0,0:3|0:3,0:3:0:0:
420,251,265441,2,0,L|443:295,1,42.5,2|0,1:3|0:3,0:3:0:0:
366,312,265569,2,0,L|364:362,1,42.5,2|0,1:3|0:3,0:3:0:0:
290,331,265696,2,0,L|263:373,1,42.5,10|0,0:3|0:3,0:3:0:0:
201,323,265824,2,0,B|168:346|168:346|181:269,1,85,2|0,1:3|0:3,0:3:0:0:
277,175,266078,1,10,0:3:0:0:
277,175,266206,1,2,0:3:0:0:
230,65,266333,5,10,1:3:0:0:
195,41,266397,1,0,0:3:0:0:
153,37,266461,1,2,0:3:0:0:
114,53,266524,1,0,0:3:0:0:
88,87,266588,2,0,L|74:146,3,42.5,10|0|2|0,0:3|0:3|0:3|0:3,0:3:0:0:
164,127,266843,1,8,0:3:0:0:
192,152,266906,1,0,0:3:0:0:
211,185,266970,1,0,0:3:0:0:
218,223,267034,1,0,0:3:0:0:
214,260,267097,1,8,0:3:0:0:
198,295,267161,1,0,0:3:0:0:
171,323,267225,1,0,0:3:0:0:
138,341,267289,1,0,0:3:0:0:
101,348,267352,6,0,B|67:329|56:295|56:295|75:175,1,170,4|0,1:2|1:3,0:3:0:0:
5,77,267732,2,0,B|4:115|28:142|28:142|141:186,1,170,8|8,0:3|0:3,0:3:0:0:
211,185,268113,1,0,1:3:0:0:
300,171,268240,1,8,0:3:0:0:
392,40,268367,6,0,L|405:124,1,85,0|8,1:3|0:3,0:3:0:0:
372,203,268621,1,0,1:3:0:0:
473,63,268747,2,0,B|483:126|483:126|476:160|476:160|497:264,1,170,8|8,0:3|0:3,0:3:0:0:
477,314,269128,2,0,P|436:317|387:286,1,85,0|8,1:3|0:3,0:3:0:0:
405,124,269382,6,0,P|330:88|247:129,1,170,4|0,1:2|1:3,0:3:0:0:
186,229,269763,2,0,B|166:189|166:189|162:126,1,85,8|0,0:3|1:3,0:3:0:0:
213,41,270016,1,8,0:3:0:0:
82,107,270143,1,0,1:3:0:0:
82,107,270207,1,0,1:3:0:0:
82,107,270270,1,8,0:3:0:0:
254,120,270397,6,0,B|274:160|274:160|278:223,1,85,0|8,1:3|0:3,0:3:0:0:
160,299,270651,1,0,1:3:0:0:
160,299,270714,1,0,1:3:0:0:
160,299,270778,1,8,1:3:0:0:
55,225,270905,2,0,P|85:194|132:174,1,85,0|8,1:3|0:3,0:3:0:0:
113,48,271159,2,0,P|143:79|190:99,1,85,0|8,1:3|0:3,0:3:0:0:
254,249,271412,6,0,L|284:75,1,170,4|0,1:2|1:3,0:3:0:0:
393,127,271793,2,0,B|352:145|352:145|306:147,1,85,8|0,0:3|1:3,0:3:0:0:
180,96,272047,1,8,0:3:0:0:
122,176,272174,1,0,1:3:0:0:
122,176,272237,1,0,1:3:0:0:
122,176,272301,1,8,1:3:0:0:
311,146,272428,6,0,L|282:313,1,170,0|0,1:3|1:3,0:3:0:0:
176,258,272808,2,0,B|217:240|217:240|263:238,1,85,8|0,0:3|1:3,0:3:0:0:
358,300,273062,1,8,0:3:0:0:
418,197,273189,2,0,L|415:97,1,85,0|8,1:3|0:3,0:3:0:0:
291,36,273443,6,0,P|275:82|234:114,1,85,4|8,1:2|0:3,0:3:0:0:
164,113,273697,1,0,1:3:0:0:
164,113,273760,1,0,1:3:0:0:
164,113,273824,1,8,1:3:0:0:
251,258,273950,2,0,P|235:211|194:179,1,85,0|8,1:3|0:3,0:3:0:0:
124,181,274204,1,0,1:3:0:0:
124,181,274268,1,0,1:3:0:0:
124,181,274331,1,8,1:3:0:0:
177,297,274458,5,0,1:3:0:0:
207,325,274522,1,0,0:3:0:0:
248,336,274585,1,8,0:3:0:0:
289,326,274648,1,0,0:3:0:0:
320,298,274712,2,0,P|328:273|332:236,1,42.5,8|0,0:3|0:3,0:3:0:0:
274,190,274839,1,8,0:3:0:0:
247,176,274902,1,0,0:3:0:0:
230,153,274966,1,8,0:3:0:0:
225,124,275029,1,0,0:3:0:0:
234,96,275093,1,8,0:3:0:0:
256,75,275156,1,0,0:3:0:0:
284,67,275220,1,8,0:3:0:0:
313,73,275283,1,0,0:3:0:0:
336,91,275346,1,8,0:3:0:0:
359,109,275410,1,0,0:3:0:0:
388,112,275473,6,0,B|439:117|488:90|488:90|397:54,1,170,4|0,1:2|1:3,0:3:0:0:
292,142,275854,2,0,B|281:272|281:272|242:218,1,170,8|8,0:3|0:3,0:3:0:0:
184,135,276235,2,0,P|139:177|143:237,1,85,0|8,1:3|0:3,0:3:0:0:
205,302,276489,6,0,P|271:349|361:284,1,170,0|0,1:3|1:3,0:3:0:0:
423,226,276869,2,0,P|388:193|380:124,1,85,8|0,0:3|1:3,0:3:0:0:
350,59,277123,1,8,0:3:0:0:
451,71,277250,1,0,1:3:0:0:
451,71,277313,1,0,1:3:0:0:
451,71,277377,1,8,1:3:0:0:
452,244,277504,6,0,P|384:285|297:262,1,170,4|0,1:2|1:3,0:3:0:0:
235,144,277884,2,0,L|217:242,1,85,8|0,0:3|1:3,0:3:0:0:
270,345,278138,1,8,0:3:0:0:
157,284,278265,1,0,1:3:0:0:
157,284,278329,1,0,1:3:0:0:
157,284,278392,1,8,1:3:0:0:
308,174,278519,6,0,P|312:129|280:73,1,85,0|8,1:3|0:3,0:3:0:0:
196,28,278773,1,0,1:3:0:0:
232,195,278900,2,0,P|284:250|373:216,1,170,8|8,0:3|0:3,0:3:0:0:
391,118,279280,1,0,1:3:0:0:
391,118,279344,1,0,1:3:0:0:
391,118,279407,1,8,1:3:0:0:
210,118,279534,6,0,L|192:299,1,170,4|0,1:2|1:3,0:3:0:0:
266,358,279915,1,8,0:3:0:0:
121,266,280042,2,0,P|143:229|211:218,1,85,0|8,1:3|0:3,0:3:0:0:
291,275,280296,1,0,1:3:0:0:
291,275,280359,1,0,1:3:0:0:
291,275,280423,1,8,1:3:0:0:
391,118,280549,6,0,P|369:155|301:166,1,85,0|8,1:3|0:3,0:3:0:0:
221,109,280803,1,0,1:3:0:0:
221,109,280867,1,0,1:3:0:0:
221,109,280930,1,8,1:3:0:0:
180,213,281057,2,0,P|135:185|115:142,1,85,0|8,1:3|0:3,0:3:0:0:
73,39,281311,2,0,L|52:122,1,85,0|8,1:3|0:3,0:3:0:0:
39,232,281565,5,8,0:3:0:0:
55,259,281628,1,8,0:3:0:0:
71,286,281692,1,8,0:3:0:0:
87,314,281755,1,8,0:3:0:0:
103,341,281819,2,0,L|161:355,3,42.5,8|0|0|0,0:3|0:3|0:3|0:3,0:3:0:0:
199,253,282072,2,0,L|230:315,3,42.5,8|0|0|0,0:3|0:3|0:3|0:3,0:3:0:0:
332,264,282326,2,0,L|315:331,3,42.5,8|0|0|0,0:3|0:3|0:3|0:3,0:3:0:0:
440,324,282580,5,8,0:3:0:0:
468,316,282643,1,0,0:3:0:0:
491,298,282707,1,8,0:3:0:0:
505,271,282770,1,0,0:3:0:0:
506,242,282834,1,8,0:3:0:0:
495,215,282897,1,0,0:3:0:0:
474,194,282961,1,8,0:3:0:0:
446,184,283024,1,0,0:3:0:0:
417,186,283088,5,8,0:3:0:0:
375,193,283151,1,0,0:3:0:0:
336,179,283214,1,8,0:3:0:0:
308,148,283278,1,0,0:3:0:0:
298,107,283341,1,8,0:3:0:0:
310,67,283405,1,0,0:3:0:0:
339,37,283468,1,8,0:3:0:0:
379,25,283532,1,0,0:3:0:0:
420,34,283595,6,0,B|492:71|492:71|372:118,1,203.999993774414,4|0,1:2|1:3,0:3:0:0:
233,170,283976,1,8,0:3:0:0:
448,124,284103,2,0,P|446:179|422:226,1,101.999996887207,0|8,1:3|0:3,0:3:0:0:
274,243,284357,1,0,1:3:0:0:
497,240,284483,6,0,P|468:287|423:315,1,101.999996887207,8|0,0:3|1:3,0:3:0:0:
205,291,284737,1,8,0:3:0:0:
85,99,284864,2,0,P|113:146|158:174,1,101.999996887207,0|8,1:3|0:3,0:3:0:0:
279,54,285118,1,0,1:3:0:0:
199,217,285245,2,0,P|185:169|201:108,1,101.999996887207,8|0,0:3|1:3,0:3:0:0:
212,99,285435,1,0,1:3:0:0:
212,99,285499,1,8,1:3:0:0:
151,293,285626,6,0,P|199:307|260:291,1,101.999996887207,0|8,1:3|0:3,0:3:0:0:
377,195,285879,1,0,1:3:0:0:
415,289,286006,1,8,0:3:0:0:
361,91,286133,2,0,P|313:77|252:93,1,101.999996887207,0|8,1:3|0:3,0:3:0:0:
199,217,286387,1,0,1:3:0:0:
199,217,286450,1,0,1:3:0:0:
199,217,286514,1,8,1:3:0:0:
164,35,286641,5,0,1:3:0:0:
90,168,286768,1,8,0:3:0:0:
283,161,286895,1,0,1:3:0:0:
283,161,286958,1,0,1:3:0:0:
283,161,287022,1,8,1:3:0:0:
125,232,287148,2,0,P|113:287|128:340,1,101.999996887207,0|8,1:3|0:3,0:3:0:0:
261,293,287402,1,8,1:3:0:0:
306,270,287466,1,0,1:3:0:0:
356,265,287529,1,8,1:3:0:0:
405,280,287593,1,0,1:3:0:0:
445,311,287656,6,0,P|457:256|442:203,1,101.999996887207,4|8,1:2|0:3,0:3:0:0:
386,82,287910,1,0,1:3:0:0:
386,82,287973,1,0,1:3:0:0:
386,82,288037,1,8,1:3:0:0:
208,184,288164,1,0,1:3:0:0:
240,45,288291,1,8,0:3:0:0:
330,156,288417,1,0,1:3:0:0:
330,156,288481,1,0,1:3:0:0:
330,156,288544,1,8,1:3:0:0:
132,108,288671,5,0,1:3:0:0:
148,250,288798,1,8,0:3:0:0:
256,123,288925,1,0,1:3:0:0:
256,123,288989,1,0,1:3:0:0:
256,123,289052,1,8,1:3:0:0:
345,233,289179,2,0,L|328:343,1,101.999996887207,0|8,1:3|0:3,0:3:0:0:
227,342,289433,1,0,1:3:0:0:
406,301,289560,1,8,0:3:0:0:
256,123,289687,6,0,L|274:238,1,101.999996887207,4|8,1:2|0:3,0:3:0:0:
329,333,289940,1,0,1:3:0:0:
329,333,290004,1,0,1:3:0:0:
329,333,290067,1,8,1:3:0:0:
417,221,290194,1,0,1:3:0:0:
336,102,290321,1,8,0:3:0:0:
271,223,290448,2,0,P|215:217|166:171,1,101.999996887207,0|8,1:3|0:3,0:3:0:0:
32,141,290702,6,0,P|88:135|137:89,1,101.999996887207,4|8,1:2|0:3,0:3:0:0:
192,37,290956,1,4,1:2:0:0:
192,37,291019,1,0,1:3:0:0:
192,37,291082,1,8,1:3:0:0:
255,116,291209,1,0,1:3:0:0:
262,165,291273,1,0,0:3:0:0:
240,211,291336,2,0,P|219:234|190:242,1,50.9999984436036,8|0,0:3|0:3,0:3:0:0:
100,211,291463,1,0,1:3:0:0:
96,249,291527,1,0,0:3:0:0:
92,287,291590,1,8,0:3:0:0:
89,325,291654,1,0,0:3:0:0:
85,363,291717,5,4,1:3:0:0:
267,341,291844,1,0,0:3:0:0:
267,341,291971,2,0,B|267:301|267:301|245:252,1,85,0|0,0:3|0:3,0:3:0:0:
302,115,292225,1,0,0:3:0:0:
302,115,292352,2,0,B|267:135|267:135|235:178,1,85,0|0,0:3|0:3,0:3:0:0:
88,197,292605,5,0,0:3:0:0:
88,197,292732,2,0,B|122:217|122:217|176:222,1,85,0|0,0:3|0:3,0:3:0:0:
327,235,292986,1,0,0:3:0:0:
327,235,293113,2,0,B|292:255|292:255|238:260,1,85,0|0,0:3|0:3,0:3:0:0:
97,295,293367,5,0,0:3:0:0:
170,315,293494,1,0,0:3:0:0:
243,332,293621,1,0,0:3:0:0:
316,348,293747,2,0,B|353:333|373:302|373:302|395:335|429:354|467:342|508:320|505:268|493:238|461:207|408:224|408:224|417:186|375:147|375:147|408:103|387:64|387:64|441:64|431:117|395:119,1,595,4|0,1:3|0:3,0:3:0:0:
321,94,294763,5,8,1:3:0:0:
310,93,294826,1,0,0:3:0:0:
299,91,294890,1,2,0:3:0:0:
289,88,294953,1,0,0:3:0:0:
279,84,295016,1,2,0:3:0:0:
270,79,295080,1,0,0:3:0:0:
261,73,295143,1,8,1:3:0:0:
253,66,295207,1,0,0:3:0:0:
246,58,295270,5,2,0:3:0:0:
213,84,295334,1,0,0:3:0:0:
200,123,295397,1,2,0:3:0:0:
211,164,295461,1,0,0:3:0:0:
242,191,295524,1,8,1:3:0:0:
277,215,295588,1,0,0:3:0:0:
292,254,295651,1,2,0:3:0:0:
283,295,295714,1,0,0:3:0:0:
253,324,295778,5,12,0:3:0:0:
419,105,295905,1,12,0:2:0:0:
256,192,296032,12,0,300854,0:0:0:0:
