osu file format v14

[General]
AudioFilename: Dragonforce_-_The_Fire_Still_Burns[www.MP3Fiber.com].mp3
AudioLeadIn: 0
PreviewTime: 143433
Countdown: 0
SampleSet: Normal
StackLeniency: 0.7
Mode: 0
LetterboxInBreaks: 1
WidescreenStoryboard: 0

[Editor]
Bookmarks: 114633,227358,232608,272883
DistanceSpacing: 1.4
BeatDivisor: 4
GridSize: 4
TimelineZoom: 2.5

[Metadata]
Title:The Fire Still Burns
TitleUnicode:The Fire Still Burns
Artist:DragonForce
ArtistUnicode:DragonForce
Creator:Sunfire
Version:Legend
Source:
Tags:metal electronic speedmetal powermetal deathstream rsi marathon
BeatmapID:787732
BeatmapSetID:358244

[Difficulty]
HPDrainRate:5.3
CircleSize:5
OverallDifficulty:8.5
ApproachRate:9.6
SliderMultiplier:1.7
SliderTickRate:2

[Events]
//Background and Video events
0,0,"Backround.jpg",0,0
//Break Periods
2,272933,291724
//Storyboard Layer 0 (Background)
//Storyboard Layer 1 (Fail)
//Storyboard Layer 2 (Pass)
//Storyboard Layer 3 (Foreground)
//Storyboard Sound Samples

[TimingPoints]
524.635068981094,333.330336700336,4,1,1,100,1,0
525,-100,4,1,1,50,0,0
2857,323.450134770889,4,1,1,50,1,0
4500,333.296300411065,4,1,1,50,1,0
13833,300.000336700337,4,1,1,50,1,0
13833,-90.9090909090909,4,1,1,65,0,0
16233,-83.3333333333333,4,1,1,50,0,0
19833,-100,4,1,1,50,0,0
20733,-83.3333333333333,4,1,1,50,0,0
23433,-76.9230769230769,4,1,1,50,0,0
25833,-90.9090909090909,4,1,1,50,0,0
27033,-90.9090909090909,4,1,1,65,0,0
30483,-90.9090909090909,4,1,1,50,0,0
33033,-90.9090909090909,4,1,1,65,0,0
35433,-90.9090909090909,4,1,1,50,0,0
53433,-90.9090909090909,4,1,1,50,0,0
54633,-76.9230769230769,4,1,1,65,0,1
61833,-76.9230769230769,4,1,1,50,0,1
63633,-83.3333333333333,4,1,1,50,0,1
64233,-76.9230769230769,4,1,1,50,0,0
71433,-76.9230769230769,4,1,1,65,0,0
74133,-76.9230769230769,4,1,1,50,0,0
81033,-71.4285714285714,4,1,1,65,0,0
83433,-71.4285714285714,4,1,1,50,0,0
83883,-76.9230769230769,4,1,1,50,0,0
84633,-71.4285714285714,4,1,1,50,0,0
85083,-76.9230769230769,4,1,1,50,0,0
87033,-76.9230769230769,4,1,1,65,0,0
88233,-71.4285714285714,4,1,1,50,0,0
88983,-76.9230769230769,4,1,1,50,0,0
89433,-71.4285714285714,4,1,1,50,0,0
89883,-76.9230769230769,4,1,1,50,0,0
91833,-76.9230769230769,4,1,1,50,0,0
93033,-76.9230769230769,4,1,1,50,0,0
97233,-76.9230769230769,4,1,1,65,0,0
97833,-76.9230769230769,4,1,1,50,0,0
100233,-71.4285714285714,4,1,1,65,0,0
102633,-76.9230769230769,4,1,1,50,0,0
106233,-76.9230769230769,4,1,1,65,0,0
106833,-76.9230769230769,4,1,1,50,0,0
111033,-76.9230769230769,4,1,1,50,0,0
114633,-71.4285714285714,4,1,1,65,0,1
119733,-76.9230769230769,4,1,1,50,0,0
121833,-71.4285714285714,4,1,1,65,0,0
124199,-76.9230769230769,4,1,1,50,0,0
128133,-76.9230769230769,4,1,1,65,0,0
129333,-76.9230769230769,4,1,1,50,0,0
132933,-71.4285714285714,4,1,1,65,0,0
134133,-76.9230769230769,4,1,1,50,0,0
137433,-76.9230769230769,4,1,1,65,0,0
138783,-76.9230769230769,4,1,1,50,0,0
141033,-71.4285714285714,4,1,1,65,0,0
143433,-76.9230769230769,4,1,1,50,0,0
147033,-71.4285714285714,4,1,1,65,0,0
148233,-71.4285714285714,4,1,1,50,0,0
149433,-71.4285714285714,4,1,1,65,0,0
151533,-100,4,1,1,50,0,0
153033,-83.3333333333333,4,1,1,65,0,1
155433,-83.3333333333333,4,1,1,50,0,1
157233,-90.9090909090909,4,1,1,50,0,1
157983,-83.3333333333333,4,1,1,65,0,1
162633,-76.9230769230769,4,1,1,50,0,1
162933,-83.3333333333333,4,1,1,65,0,1
165033,-83.3333333333333,4,1,1,50,0,1
166233,-83.3333333333333,4,1,1,50,0,1
167133,-76.9230769230769,4,1,1,50,0,1
168033,-76.9230769230769,4,1,1,65,0,1
169233,-100,4,1,1,50,0,1
169833,-71.4285714285714,4,1,1,65,0,1
170433,-71.4285714285714,4,1,1,70,0,1
172233,-76.9230769230769,4,1,1,50,0,0
174633,-71.4285714285714,4,1,1,50,0,0
177033,-76.9230769230769,4,1,1,50,0,0
180633,-90.9090909090909,4,1,1,65,0,0
181833,-90.9090909090909,4,1,1,50,0,0
182283,-76.9230769230769,4,1,1,50,0,0
184533,-71.4285714285714,4,1,1,65,0,0
185433,-76.9230769230769,4,1,1,50,0,0
192633,-83.3333333333333,4,1,1,50,0,0
193083,-76.9230769230769,4,1,1,50,0,0
193833,-76.9230769230769,4,1,1,65,0,0
195033,-76.9230769230769,4,1,1,50,0,0
196233,-71.4285714285714,4,1,1,50,0,0
196683,-76.9230769230769,4,1,1,50,0,0
197433,-71.4285714285714,4,1,1,50,0,0
197883,-76.9230769230769,4,1,1,50,0,0
199833,-76.9230769230769,4,1,1,65,0,0
201033,-71.4285714285714,4,1,1,50,0,0
201483,-76.9230769230769,4,1,1,50,0,0
202233,-71.4285714285714,4,1,1,50,0,0
202683,-76.9230769230769,4,1,1,50,0,0
209433,-76.9230769230769,4,1,1,65,0,0
211083,-76.9230769230769,4,1,1,50,0,0
213033,-90.9090909090909,4,1,1,65,0,0
215433,-76.9230769230769,4,1,1,50,0,0
219033,-76.9230769230769,4,1,1,65,0,0
222633,-76.9230769230769,4,1,1,50,0,0
226233,-83.3333333333333,4,1,1,50,0,0
227433,-76.9230769230769,4,1,1,65,0,1
232233,-76.9230769230769,4,1,1,50,0,0
234633,-76.9230769230769,4,1,1,65,0,0
237033,-76.9230769230769,4,1,1,50,0,0
240633,-76.9230769230769,4,1,1,65,0,0
241833,-76.9230769230769,4,1,1,50,0,0
244983,-66.6666666666667,4,1,1,50,0,0
246933,-71.4285714285714,4,1,1,50,0,0
250233,-71.4285714285714,4,1,1,65,0,0
251433,-71.4285714285714,4,1,1,50,0,0
253833,-71.4285714285714,4,1,1,65,0,0
256233,-76.9230769230769,4,1,1,50,0,0
259833,-76.9230769230769,4,1,1,65,0,0
261033,-71.4285714285714,4,1,1,50,0,0
262233,-71.4285714285714,4,1,1,65,0,0
264333,-83.3333333333333,4,1,1,50,0,0
265833,-76.9230769230769,4,1,1,65,0,0
268233,-90.9090909090909,4,1,1,50,0,0
270633,-200,4,1,1,50,0,0
272733,-200,4,1,1,25,0,0
273033,600,4,1,1,30,1,0
292233,-200,4,1,1,70,0,0
292833,-200,4,1,1,80,0,0
297033,-200,4,1,1,70,0,0
297633,-200,4,1,1,80,0,0
301833,-200,4,1,1,70,0,0
302433,-133.333333333333,4,1,1,80,0,0
306633,-133.333333333333,4,1,1,70,0,0
307233,-133.333333333333,4,1,1,80,0,0
311433,300,4,1,1,50,1,0
311433,-133.333333333333,4,1,1,50,0,0
313833,-83.3333333333333,4,1,1,50,0,0
315933,-90.9090909090909,4,1,1,65,0,0
317133,-200,4,1,1,80,0,0
318633,-200,4,1,1,65,0,0
321033,-100,4,1,1,50,0,0
323433,-100,4,1,1,80,0,0
327033,-100,4,1,1,80,0,1
330633,-83.3333333333333,4,1,1,75,0,1
331833,-100,4,1,1,70,0,1
332433,-100,4,1,1,75,0,1
333033,-100,4,1,1,80,0,1
333633,-100,4,1,1,85,0,1
334233,-100,4,1,1,75,0,1
335433,-83.3333333333333,4,1,1,80,0,1
336108,-83.3333333333333,4,1,1,65,0,1
341433,-83.3333333333333,4,1,1,80,0,1
342633,-83.3333333333333,4,1,1,75,0,1
343833,-83.3333333333333,4,1,1,80,0,1
344433,-83.3333333333333,4,1,1,70,0,1
345033,-83.3333333333333,4,1,1,85,0,1
345633,-83.3333333333333,4,1,1,80,0,1
346233,-83.3333333333333,4,1,1,65,0,1
349833,-83.3333333333333,4,1,1,75,0,1
350433,-83.3333333333333,4,1,1,80,0,1
351033,-83.3333333333333,4,1,1,65,0,1
353433,-83.3333333333333,4,1,1,85,0,1
354633,-83.3333333333333,4,1,1,75,0,1
355833,-83.3333333333333,4,1,1,80,0,1
358233,-83.3333333333333,4,1,1,65,0,1
360633,-83.3333333333333,4,1,1,80,0,1
361833,-83.3333333333333,4,1,1,75,0,1
363033,-83.3333333333333,4,1,1,80,0,1
364233,-83.3333333333333,4,1,1,75,0,1
365433,-83.3333333333333,4,1,1,65,0,1
367833,-83.3333333333333,4,1,1,80,0,1
369033,-83.3333333333333,4,1,1,85,0,1
370233,-83.3333333333333,4,1,1,75,0,1
371433,-83.3333333333333,4,1,1,80,0,1
372633,-83.3333333333333,4,1,1,95,0,0
375333,-83.3333333333333,4,1,1,65,0,1
377433,-83.3333333333333,4,1,1,80,0,1
378033,-83.3333333333333,4,1,1,82,0,1
378633,-83.3333333333333,4,1,1,65,0,1
382233,-83.3333333333333,4,1,1,80,0,1
382833,-83.3333333333333,4,1,1,85,0,1
383433,-83.3333333333333,4,1,1,75,0,1
384633,-83.3333333333333,4,1,1,80,0,1
385833,-83.3333333333333,4,1,1,85,0,1
387033,-83.3333333333333,4,1,1,65,0,1
389433,-83.3333333333333,4,1,1,75,0,1
391833,-83.3333333333333,4,1,1,80,0,1
393033,-83.3333333333333,4,1,1,85,0,1
393633,-83.3333333333333,4,1,1,87,0,1
394233,-76.9230769230769,4,1,1,55,0,0
401433,-76.9230769230769,4,1,1,70,0,0
403833,-76.9230769230769,4,1,1,50,0,0

[Colours]
Combo1 : 128,0,255
Combo2 : 255,0,0
Combo3 : 255,128,0
Combo4 : 255,255,0
Combo5 : 0,255,0
Combo6 : 0,0,255

[HitObjects]
144,96,524,6,0,P|108:168|96:264,1,170
204,308,1024,2,0,P|280:320|360:276,1,170
332,160,1524,1,0,0:0:0:0:
232,96,1691,1,0,0:0:0:0:
136,168,1857,2,0,P|108:228|132:284,1,127.5
176,228,2191,2,0,P|260:236|280:268,1,127.5
212,288,2524,2,0,P|272:332|344:308,1,127.5
256,192,2857,12,0,4312,0:0:0:0:
183,86,4500,6,0,P|124:115|116:211,1,170
183,165,4999,2,0,L|281:191,1,85
328,278,5333,1,0,0:0:0:0:
404,198,5499,1,0,0:0:0:0:
349,101,5666,1,0,0:0:0:0:
232,84,5833,2,0,P|156:128|142:238,2,170
284,224,6666,1,0,0:0:0:0:
218,172,6833,2,0,L|294:232,1,85
256,192,7166,12,0,8332,0:0:0:0:
108,272,8499,6,0,L|108:184,1,85
116,116,8832,1,0,0:0:0:0:
116,36,8999,2,0,P|180:80|176:176,1,170
220,260,9499,1,0,0:0:0:0:
316,296,9666,1,0,0:0:0:0:
400,236,9832,2,0,P|424:176|400:132,1,85
400,236,10166,1,0,0:0:0:0:
316,296,10332,2,0,L|200:316,1,85
256,148,11165,6,0,L|256:233,1,85
164,276,11499,1,0,0:0:0:0:
80,216,11665,2,0,P|92:160|196:96,1,170
280,76,12165,1,0,0:0:0:0:
344,156,12332,1,0,0:0:0:0:
300,229,12499,2,0,L|352:141,1,85
280,76,12832,2,0,P|216:96|176:132,1,85
104,72,13165,1,0,0:0:0:0:
52,160,13332,1,0,0:0:0:0:
120,240,13499,1,0,0:0:0:0:
120,240,13582,1,0,0:0:0:0:
120,240,13665,1,0,0:0:0:0:
201,283,13833,5,0,0:0:0:0:
233,302,13908,1,0,0:0:0:0:
268,313,13983,1,0,0:0:0:0:
305,314,14058,1,0,0:0:0:0:
341,306,14133,1,0,0:0:0:0:
375,291,14208,1,0,0:0:0:0:
405,269,14283,1,0,0:0:0:0:
424,236,14358,1,0,0:0:0:0:
436,201,14433,2,0,L|436:144,3,46.7500014266968
338,114,14733,5,0,0:0:0:0:
302,127,14808,1,0,0:0:0:0:
266,137,14883,1,0,0:0:0:0:
229,146,14958,1,0,0:0:0:0:
191,148,15033,1,0,0:0:0:0:
153,149,15108,1,0,0:0:0:0:
116,144,15183,1,0,0:0:0:0:
82,126,15258,1,0,0:0:0:0:
67,91,15333,1,0,0:0:0:0:
89,61,15408,5,0,0:0:0:0:
125,50,15483,1,0,0:0:0:0:
158,65,15558,1,0,0:0:0:0:
173,98,15633,1,0,0:0:0:0:
186,133,15708,1,0,0:0:0:0:
200,167,15783,1,0,0:0:0:0:
228,200,15858,1,0,0:0:0:0:
264,220,15933,1,0,0:0:0:0:
304,228,16008,1,0,0:0:0:0:
344,224,16083,1,0,0:0:0:0:
380,204,16158,1,0,0:0:0:0:
416,184,16233,2,0,L|456:152,2,46.7500014266968
296,112,16533,5,0,0:0:0:0:
160,152,16683,1,0,0:0:0:0:
168,296,16833,2,0,P|257:301|276:284,1,85
408,272,17133,2,0,P|448:224|440:184,1,101.999996887207
312,104,17433,2,0,L|200:56,1,101.999996887207
104,176,17733,1,0,0:0:0:0:
216,264,17883,1,0,0:0:0:0:
312,152,18033,2,0,L|408:96,1,101.999996887207
440,224,18333,1,0,0:0:0:0:
424,264,18408,1,0,0:0:0:0:
396,296,18483,1,0,0:0:0:0:
256,312,18633,6,0,P|174:315|152:288,1,101.999996887207
72,184,18933,1,0,0:0:0:0:
216,200,19083,1,0,0:0:0:0:
240,56,19233,1,0,0:0:0:0:
368,120,19383,2,0,P|368:160|336:232,1,101.999996887207
203,298,19683,1,0,0:0:0:0:
80,296,19833,2,0,B|160:136|384:344|248:72|440:56,1,425
428,180,20733,6,0,L|396:288,1,85
248,280,21033,1,0,0:0:0:0:
232,288,21108,1,0,0:0:0:0:
216,296,21183,2,0,L|120:336,1,101.999996887207
56,216,21483,2,0,P|32:160|128:72,1,203.999993774414
256,72,21933,1,0,0:0:0:0:
368,120,22083,1,0,0:0:0:0:
376,252,22233,2,0,P|352:308|312:332,1,101.999996887207
304,260,22533,2,0,P|248:240|228:188,1,101.999996887207
296,192,22833,5,0,0:0:0:0:
424,104,22983,1,0,0:0:0:0:
368,216,23133,1,0,0:0:0:0:
368,216,23208,1,0,0:0:0:0:
368,216,23283,1,0,0:0:0:0:
240,256,23433,2,0,L|192:208,3,55.2499974708558
176,280,23733,2,0,L|112:280,1,55.2499974708558
80,328,23883,2,0,L|32:288,3,55.2499974708558
72,240,24183,2,0,L|112:200,1,55.2499974708558
160,240,24333,2,0,L|208:280,3,55.2499974708558
248,296,24633,5,0,0:0:0:0:
288,296,24708,1,0,0:0:0:0:
324,288,24783,1,0,0:0:0:0:
360,268,24858,1,0,0:0:0:0:
388,240,24933,1,0,0:0:0:0:
404,204,25008,1,0,0:0:0:0:
412,168,25083,1,0,0:0:0:0:
412,128,25158,1,0,0:0:0:0:
312,96,25233,5,0,0:0:0:0:
300,98,25308,1,0,0:0:0:0:
289,100,25383,1,0,0:0:0:0:
280,104,25458,1,0,0:0:0:0:
272,104,25533,2,0,L|208:80,1,55.2499974708558
136,64,25683,2,0,L|64:96,1,55.2499974708558
64,176,25833,6,0,P|79:273|168:320,1,187.000005706787
144,232,26283,2,0,L|240:200,1,93.5000028533936
284,244,26583,2,0,P|300:184|252:140,1,93.5000028533936
184,104,26883,1,0,0:0:0:0:
80,184,27033,5,0,0:0:0:0:
80,228,27108,1,0,0:0:0:0:
96,268,27183,1,0,0:0:0:0:
124,300,27258,1,0,0:0:0:0:
156,324,27333,1,0,0:0:0:0:
196,340,27408,1,0,0:0:0:0:
240,340,27483,1,0,0:0:0:0:
280,332,27558,1,0,0:0:0:0:
320,320,27633,2,0,L|368:296,3,46.7500014266968
384,208,27933,5,0,0:0:0:0:
352,176,28008,1,0,0:0:0:0:
320,144,28083,1,0,0:0:0:0:
312,104,28158,1,0,0:0:0:0:
328,64,28233,1,0,0:0:0:0:
368,48,28308,1,0,0:0:0:0:
408,64,28383,1,0,0:0:0:0:
432,96,28458,1,0,0:0:0:0:
424,136,28533,5,0,0:0:0:0:
392,160,28608,1,0,0:0:0:0:
352,168,28683,1,0,0:0:0:0:
312,160,28758,1,0,0:0:0:0:
272,136,28833,1,0,0:0:0:0:
232,120,28908,1,0,0:0:0:0:
192,120,28983,1,0,0:0:0:0:
152,136,29058,1,0,0:0:0:0:
120,168,29133,2,0,L|88:232,3,46.7500014266968
152,264,29433,2,0,L|192:312,3,46.7500014266968
272,280,29733,5,0,0:0:0:0:
288,268,29808,1,0,0:0:0:0:
304,260,29883,1,0,0:0:0:0:
320,248,29958,1,0,0:0:0:0:
336,240,30033,2,0,P|392:216|400:88,1,187.000005706787
344,156,30483,1,0,0:0:0:0:
180,160,30633,1,0,0:0:0:0:
160,316,30783,1,0,0:0:0:0:
336,244,30933,1,0,0:0:0:0:
248,96,31083,2,0,B|192:80|152:96|152:96|96:120|80:168,1,187.000005706787
152,288,31533,6,0,L|256:320,1,93.5000028533936
384,288,31833,2,0,P|432:264|456:216,1,93.5000028533936
344,128,32133,1,0,0:0:0:0:
228,200,32283,2,0,B|152:160|108:264|44:216,1,187.000005706787
144,344,32733,2,0,L|184:260,1,93.5000028533936
104,232,33033,6,0,L|105:160,4,46.7500014266968
116,146,33408,1,0,0:0:0:0:
134,110,33483,1,0,0:0:0:0:
163,77,33558,1,0,0:0:0:0:
199,61,33633,1,0,0:0:0:0:
242,57,33708,1,0,0:0:0:0:
285,72,33783,1,0,0:0:0:0:
320,90,33858,1,0,0:0:0:0:
353,117,33933,5,0,0:0:0:0:
377,158,34008,1,0,0:0:0:0:
370,200,34083,1,0,0:0:0:0:
336,223,34158,1,0,0:0:0:0:
292,228,34233,1,0,0:0:0:0:
254,208,34308,1,0,0:0:0:0:
216,188,34383,1,0,0:0:0:0:
177,167,34458,1,0,0:0:0:0:
132,160,34533,1,0,0:0:0:0:
90,181,34608,1,0,0:0:0:0:
66,223,34683,1,0,0:0:0:0:
79,270,34758,1,0,0:0:0:0:
111,303,34833,2,0,L|172:312,4,46.7500014266968
203,293,35208,2,0,L|257:271,1,46.7500014266968
281,241,35358,2,0,L|298:174,1,46.7500014266968
256,232,39933,6,0,L|256:136,2,93.5000028533936
144,144,44133,5,0,0:0:0:0:
128,160,44208,1,0,0:0:0:0:
112,176,44283,2,0,P|80:264|96:288,1,93.5000028533936
144,240,44583,2,0,P|208:232|248:184,1,93.5000028533936
360,200,44883,1,0,0:0:0:0:
360,200,44958,1,0,0:0:0:0:
360,200,45033,1,0,0:0:0:0:
212,188,49533,6,0,P|272:197|315:158,2,93.5000028533936
120,160,53433,5,0,0:0:0:0:
120,160,53583,2,0,B|120:200|96:224|88:264,1,93.5000028533936
228,308,53883,1,0,0:0:0:0:
228,308,53958,1,0,0:0:0:0:
228,308,54033,1,0,0:0:0:0:
372,268,54183,2,0,P|408:216|389:161,1,93.5000028533936,0|0,2:0|2:0,2:0:0:0:
284,104,54483,1,0,0:0:0:0:
112,140,54633,5,0,0:0:0:0:
80,168,54708,1,0,0:0:0:0:
64,208,54783,1,0,0:0:0:0:
68,252,54858,1,0,0:0:0:0:
96,284,54933,1,0,0:0:0:0:
136,300,55008,1,0,0:0:0:0:
180,296,55083,1,0,0:0:0:0:
220,280,55158,1,0,0:0:0:0:
252,252,55233,2,0,L|292:204,3,55.2499974708558
316,176,55533,5,0,0:0:0:0:
336,136,55608,1,0,0:0:0:0:
316,96,55683,1,0,0:0:0:0:
276,76,55758,1,0,0:0:0:0:
232,84,55833,1,0,0:0:0:0:
204,116,55908,1,0,0:0:0:0:
194,159,55983,1,0,0:0:0:0:
205,201,56058,1,0,0:0:0:0:
235,233,56133,5,0,0:0:0:0:
252,273,56208,1,0,0:0:0:0:
237,314,56283,1,0,0:0:0:0:
200,339,56358,1,0,0:0:0:0:
155,336,56433,1,0,0:0:0:0:
114,317,56508,1,0,0:0:0:0:
91,278,56583,1,0,0:0:0:0:
84,234,56658,1,0,0:0:0:0:
80,189,56733,2,0,L|104:133,3,55.2499974708558
160,64,57033,5,0,0:0:0:0:
200,45,57108,1,0,0:0:0:0:
243,37,57183,1,0,0:0:0:0:
286,44,57258,1,0,0:0:0:0:
328,55,57333,1,0,0:0:0:0:
364,79,57408,1,0,0:0:0:0:
397,107,57483,1,0,0:0:0:0:
416,146,57558,1,0,0:0:0:0:
429,188,57633,2,0,L|437:252,3,55.2499974708558
408,256,57933,2,0,L|368:312,3,55.2499974708558
368,128,58233,6,0,P|376:104|368:72,1,55.2499974708558
304,209,58383,2,0,P|296:232|304:264,1,55.2499974708558
256,128,58533,2,0,P|244:100|256:72,1,55.2499974708558
208,209,58683,2,0,P|216:232|208:264,1,55.2499974708558
144,128,58833,2,0,P|136:100|144:72,1,55.2499974708558
80,216,58983,2,0,P|88:244|80:280,1,55.2499974708558
112,304,59133,2,0,L|168:328,3,55.2499974708558
248,320,59433,5,0,0:0:0:0:
281,300,59508,1,0,0:0:0:0:
312,278,59583,1,0,0:0:0:0:
339,251,59658,1,0,0:0:0:0:
357,216,59733,1,0,0:0:0:0:
365,178,59808,1,0,0:0:0:0:
357,139,59883,1,0,0:0:0:0:
357,100,59958,1,0,0:0:0:0:
376,66,60033,5,0,0:0:0:0:
410,47,60108,1,0,0:0:0:0:
447,58,60183,1,0,0:0:0:0:
469,89,60258,1,0,0:0:0:0:
470,127,60333,1,0,0:0:0:0:
446,157,60408,1,0,0:0:0:0:
407,157,60483,1,0,0:0:0:0:
369,149,60558,1,0,0:0:0:0:
335,129,60633,5,0,0:0:0:0:
301,109,60708,1,0,0:0:0:0:
262,107,60783,1,0,0:0:0:0:
226,121,60858,1,0,0:0:0:0:
199,149,60933,1,0,0:0:0:0:
188,186,61008,1,0,0:0:0:0:
194,224,61083,1,0,0:0:0:0:
207,260,61158,1,0,0:0:0:0:
235,285,61233,5,0,0:0:0:0:
272,295,61308,1,0,0:0:0:0:
309,284,61383,1,0,0:0:0:0:
342,264,61458,1,0,0:0:0:0:
363,231,61533,2,0,L|379:171,2,55.2499974708558
128,32,61833,6,0,P|77:65|69:149,1,110.499994941712
64,256,62133,2,0,P|83:306|129:334,1,110.499994941712
384,320,62433,2,0,P|430:291|449:241,1,110.499994941712
448,128,62733,2,0,P|428:77|382:49,1,110.499994941712
168,152,63033,2,0,L|124:260,1,110.499994941712
268,280,63333,1,0,0:0:0:0:
286,268,63408,1,0,0:0:0:0:
304,256,63483,1,0,0:0:0:0:
322,244,63558,1,0,0:0:0:0:
340,232,63633,2,0,B|356:196|356:196|308:208|304:148|304:148|248:180|268:116|268:116|208:160|212:80|212:80|160:156|136:96,1,407.999987548829
124,252,64383,5,0,0:0:0:0:
140,268,64458,1,0,0:0:0:0:
156,280,64533,2,0,L|248:348,1,110.499994941712
380,240,64833,2,0,L|448:144,1,110.499994941712
312,68,65133,1,0,0:0:0:0:
160,96,65283,1,0,0:0:0:0:
268,188,65433,1,0,0:0:0:0:
300,220,65508,1,0,0:0:0:0:
332,248,65583,1,0,0:0:0:0:
212,328,65733,2,0,P|136:316|124:292,1,110.499994941712
84,156,66033,2,0,P|120:96|164:84,1,110.499994941712
300,76,66333,5,0,0:0:0:0:
300,76,66483,2,0,L|404:140,1,110.499994941712
388,276,66783,2,0,P|364:332|304:312,1,110.499994941712
180,316,67083,1,0,0:0:0:0:
100,196,67233,1,0,0:0:0:0:
192,84,67383,1,0,0:0:0:0:
272,184,67533,2,0,L|184:260,1,110.499994941712
404,304,67833,5,0,0:0:0:0:
64,176,68133,1,0,0:0:0:0:
408,96,68433,1,0,0:0:0:0:
256,84,68733,1,0,0:0:0:0:
236,128,68808,1,0,0:0:0:0:
236,176,68883,1,0,0:0:0:0:
256,220,68958,1,0,0:0:0:0:
250,269,69033,2,0,P|187:301|115:276,1,110.499994941712
80,280,69333,6,0,P|128:232|176:228,1,110.499994941712
256,116,69633,1,0,0:0:0:0:
396,228,69783,1,0,0:0:0:0:
258,290,69933,2,0,L|162:222,1,110.499994941712
112,84,70233,1,0,0:0:0:0:
112,84,70308,1,0,0:0:0:0:
112,84,70383,1,0,0:0:0:0:
264,68,70533,2,0,P|332:72|364:116,1,110.499994941712
388,252,70833,2,0,L|256:296,1,110.499994941712
132,252,71133,1,0,0:0:0:0:
112,100,71283,1,0,0:0:0:0:
268,88,71433,5,0,0:0:0:0:
306,107,71508,1,0,0:0:0:0:
345,126,71583,1,0,0:0:0:0:
377,158,71658,1,0,0:0:0:0:
384,201,71733,2,0,L|363:277,3,55.2499974708558
272,296,72033,5,0,0:0:0:0:
232,280,72108,1,0,0:0:0:0:
196,252,72183,1,0,0:0:0:0:
176,212,72258,1,0,0:0:0:0:
164,168,72333,2,0,L|212:128,3,55.2499974708558
328,96,72633,5,0,0:0:0:0:
348,108,72708,1,0,0:0:0:0:
368,120,72783,1,0,0:0:0:0:
388,128,72858,1,0,0:0:0:0:
408,140,72933,2,0,L|432:208,1,55.2499974708558
416,244,73083,2,0,L|364:284,1,55.2499974708558
332,304,73233,2,0,L|256:280,3,55.2499974708558
192,264,73533,1,0,0:0:0:0:
184,256,73608,1,0,0:0:0:0:
176,248,73683,1,0,0:0:0:0:
168,240,73758,1,0,0:0:0:0:
160,232,73833,2,0,L|92:172,1,55.2499974708558
320,92,74133,5,0,0:0:0:0:
416,212,74283,1,0,0:0:0:0:
252,276,74433,2,0,P|180:264|96:144,1,220.999989883423
216,176,74883,1,0,0:0:0:0:
216,176,75033,2,0,L|286:81,1,110.499994941712
348,224,75333,1,0,0:0:0:0:
348,224,75483,1,0,0:0:0:0:
144,240,75633,1,0,0:0:0:0:
264,72,75783,2,0,P|326:100|333:158,2,110.499994941712
108,152,76233,5,0,0:0:0:0:
116,200,76308,1,0,0:0:0:0:
160,224,76383,1,0,0:0:0:0:
332,260,76533,1,0,0:0:0:0:
352,120,76683,2,0,B|304:96|288:156|212:84,1,110.499994941712
112,184,76983,2,0,L|92:296,1,110.499994941712
248,288,77283,1,0,0:0:0:0:
320,192,77433,6,0,P|373:195|446:171,1,110.499994941712
208,112,77733,2,0,P|299:103|352:146,1,110.499994941712
96,192,78033,2,0,P|187:200|240:157,1,110.499994941712
208,272,78333,2,0,P|299:281|352:238,1,110.499994941712
410,215,78633,2,0,B|433:166|469:180|479:127,1,110.499994941712
316,104,78933,2,0,B|280:128|232:128|192:96,2,110.499994941712
392,252,79383,1,0,0:0:0:0:
392,252,79533,2,0,L|296:320,1,110.499994941712
140,288,79833,5,0,0:0:0:0:
92,128,79983,1,0,0:0:0:0:
248,108,80133,2,0,L|332:192,1,110.499994941712
396,192,80433,2,0,B|392:244|312:264,2,110.499994941712
256,300,80883,1,0,0:0:0:0:
172,240,81033,5,0,0:0:0:0:
142,203,81108,1,0,0:0:0:0:
126,157,81183,1,0,0:0:0:0:
134,110,81258,1,0,0:0:0:0:
158,69,81333,1,0,0:0:0:0:
197,42,81408,1,0,0:0:0:0:
244,36,81483,1,0,0:0:0:0:
287,54,81558,1,0,0:0:0:0:
315,91,81633,2,0,L|323:155,3,59.4999981842042
314,196,81933,5,0,0:0:0:0:
288,236,82008,1,0,0:0:0:0:
278,282,82083,1,0,0:0:0:0:
291,327,82158,1,0,0:0:0:0:
333,348,82233,1,0,0:0:0:0:
380,342,82308,1,0,0:0:0:0:
414,308,82383,1,0,0:0:0:0:
423,261,82458,1,0,0:0:0:0:
393,223,82533,2,0,L|333:247,3,59.4999981842042
204,268,82833,5,0,0:0:0:0:
192,256,82908,1,0,0:0:0:0:
179,246,82983,1,0,0:0:0:0:
167,235,83058,1,0,0:0:0:0:
140,252,83133,1,0,0:0:0:0:
127,242,83208,1,0,0:0:0:0:
115,232,83283,1,0,0:0:0:0:
102,220,83358,1,0,0:0:0:0:
91,205,83433,2,0,B|78:127|157:123|157:123|183:57|255:73,1,237.999992736817
412,140,83883,6,0,P|438:224|407:273,1,110.499994941712
268,308,84183,1,0,0:0:0:0:
104,244,84333,1,0,0:0:0:0:
160,88,84483,1,0,0:0:0:0:
324,60,84633,2,0,B|389:56|404:125|404:125|482:141|457:216,1,237.999992736817
324,296,85083,2,0,P|278:336|204:347,1,110.499994941712
164,200,85383,1,0,0:0:0:0:
100,224,85533,2,0,P|112:160|192:140,1,110.499994941712
312,84,85833,6,0,B|326:133|370:142|387:184,1,110.499994941712
240,276,86133,2,0,L|272:385,2,110.499994941712
84,192,86583,1,0,0:0:0:0:
228,92,86733,1,0,0:0:0:0:
340,228,86883,1,0,0:0:0:0:
103,257,87033,5,0,0:0:0:0:
88,215,87108,1,0,0:0:0:0:
79,171,87183,1,0,0:0:0:0:
76,126,87258,1,0,0:0:0:0:
88,83,87333,1,0,0:0:0:0:
121,53,87408,1,0,0:0:0:0:
163,41,87483,1,0,0:0:0:0:
206,49,87558,1,0,0:0:0:0:
236,80,87633,5,0,0:0:0:0:
246,122,87708,1,0,0:0:0:0:
249,166,87783,1,0,0:0:0:0:
256,209,87858,1,0,0:0:0:0:
268,251,87933,1,0,0:0:0:0:
297,283,88008,1,0,0:0:0:0:
340,292,88083,1,0,0:0:0:0:
378,271,88158,1,0,0:0:0:0:
408,244,88233,6,0,B|444:202|422:131|422:131|361:157|328:152|303:116|333:62|333:62,1,237.999992736817
164,60,88683,2,0,B|157:91|136:127|63:120|66:185,1,118.999996368408
152,292,88983,1,0,0:0:0:0:
152,292,89133,2,0,P|201:341|255:320,1,110.499994941712
216,276,89433,2,0,B|214:220|280:266|277:179|277:179|326:181|348:224|372:176|336:104|336:104,1,237.999992736817
206,74,89883,2,0,P|138:104|103:170,1,110.499994941712
127,257,90183,2,0,P|160:312|216:324,1,110.499994941712
356,308,90483,1,0,0:0:0:0:
387,148,90633,5,0,0:0:0:0:
387,148,90708,1,0,0:0:0:0:
387,148,90783,1,0,0:0:0:0:
256,79,90933,1,0,0:0:0:0:
125,148,91083,1,0,0:0:0:0:
125,148,91158,1,0,0:0:0:0:
125,148,91233,1,0,0:0:0:0:
104,300,91383,2,0,P|204:280|228:248,1,110.499994941712
272,304,91683,2,0,P|269:253|213:209,1,110.499994941712
300,104,91983,5,8,1:0:0:0:
168,52,92133,1,8,1:0:0:0:
168,196,92283,1,8,1:0:0:0:
216,128,92433,5,8,1:0:0:0:
78,170,92583,1,8,1:0:0:0:
169,283,92733,1,8,1:0:0:0:
300,320,92883,1,8,1:0:0:0:
387,241,93033,6,8,B|370:295|291:248|291:248|203:323,1,220.999989883423,8|8,1:0|1:0,1:0:0:0:
61,247,93483,2,0,P|63:188|99:157,1,110.499994941712
208,69,93783,1,0,0:0:0:0:
352,128,93933,1,0,0:0:0:0:
212,192,94083,1,0,0:0:0:0:
148,332,94233,2,0,L|276:312,1,110.499994941712
405,307,94533,2,0,L|459:202,1,110.499994941712
408,93,94833,5,0,0:0:0:0:
408,93,94983,2,0,P|341:60|259:52,1,110.499994941712
175,87,95283,2,0,B|109:116|109:116|86:158,1,110.499994941712
200,260,95583,2,0,P|268:250|327:182,1,110.499994941712
200,128,95883,1,0,0:0:0:0:
170,153,95958,1,0,0:0:0:0:
142,177,96033,1,0,0:0:0:0:
260,264,96183,2,0,P|318:228|346:142,1,110.499994941712
208,142,96483,1,0,0:0:0:0:
190,177,96558,1,0,0:0:0:0:
174,210,96633,1,0,0:0:0:0:
64,216,96783,2,0,L|34:334,2,110.499994941712
132,72,97233,5,0,0:0:0:0:
170,94,97308,1,0,0:0:0:0:
213,103,97383,1,0,0:0:0:0:
256,93,97458,1,0,0:0:0:0:
297,76,97533,1,0,0:0:0:0:
340,69,97608,1,0,0:0:0:0:
381,83,97683,1,0,0:0:0:0:
415,109,97758,1,0,0:0:0:0:
440,144,97833,2,0,P|496:224|461:292,1,165.749992412568
425,229,98133,2,0,B|356:236|356:236|298:192,1,110.499994941712
188,248,98433,5,0,0:0:0:0:
188,248,98583,1,0,0:0:0:0:
160,96,98733,1,0,0:0:0:0:
160,96,98883,1,0,0:0:0:0:
272,136,99033,2,0,P|328:192|328:242,1,110.499994941712
400,272,99333,2,0,B|288:324|284:224|178:288,1,220.999989883423
145,164,99783,1,0,0:0:0:0:
146,75,99933,1,0,0:0:0:0:
215,119,100083,1,0,0:0:0:0:
310,120,100233,5,0,0:0:0:0:
323,162,100308,1,0,0:0:0:0:
324,204,100383,1,0,0:0:0:0:
316,244,100458,1,0,0:0:0:0:
308,284,100533,1,0,0:0:0:0:
316,324,100608,1,0,0:0:0:0:
352,348,100683,1,0,0:0:0:0:
392,344,100758,1,0,0:0:0:0:
428,324,100833,2,0,L|452:267,3,59.4999981842042
450,224,101133,5,0,0:0:0:0:
412,208,101208,1,0,0:0:0:0:
372,220,101283,1,0,0:0:0:0:
336,244,101358,1,0,0:0:0:0:
300,260,101433,1,0,0:0:0:0:
260,260,101508,1,0,0:0:0:0:
224,240,101583,1,0,0:0:0:0:
192,212,101658,1,0,0:0:0:0:
168,180,101733,2,0,L|127:129,3,59.4999981842042
140,82,102033,5,0,0:0:0:0:
176,60,102108,1,0,0:0:0:0:
216,64,102183,1,0,0:0:0:0:
244,96,102258,1,0,0:0:0:0:
256,136,102333,1,0,0:0:0:0:
264,176,102408,1,0,0:0:0:0:
276,216,102483,1,0,0:0:0:0:
308,244,102558,1,0,0:0:0:0:
348,236,102633,2,0,B|416:180|376:136|376:136|444:100|325:54,1,220.999989883423
232,60,103083,6,0,L|145:132,1,110.499994941712
107,223,103383,1,0,0:0:0:0:
107,223,103533,1,0,0:0:0:0:
180,298,103683,2,0,B|260:328|260:328|301:308,1,110.499994941712
228,244,103983,2,0,B|257:257|257:257|277:201|259:138,1,110.499994941712
110,138,104283,1,0,0:0:0:0:
222,54,104433,2,0,P|341:59|357:72,1,110.499994941712
432,160,104733,1,0,0:0:0:0:
421,203,104808,1,0,0:0:0:0:
391,234,104883,1,0,0:0:0:0:
356,320,105033,6,0,P|313:292|300:220,1,110.499994941712
112,188,105333,1,0,0:0:0:0:
231,97,105483,1,0,0:0:0:0:
302,242,105633,1,0,0:0:0:0:
388,221,105783,2,0,B|373:280|336:339|254:332|185:246,1,220.999989883423
93,242,106233,5,0,0:0:0:0:
82,199,106308,1,0,0:0:0:0:
76,155,106383,1,0,0:0:0:0:
94,114,106458,1,0,0:0:0:0:
129,87,106533,1,0,0:0:0:0:
171,73,106608,1,0,0:0:0:0:
214,81,106683,1,0,0:0:0:0:
248,109,106758,1,0,0:0:0:0:
274,144,106833,2,0,L|374:246,1,110.499994941712
178,209,107133,2,0,L|266:300,1,110.499994941712
86,308,107433,1,0,0:0:0:0:
85,307,109833,5,0,0:0:0:0:
85,307,109983,1,0,0:0:0:0:
212,220,110133,1,0,0:0:0:0:
212,220,110283,1,0,0:0:0:0:
92,124,110433,1,0,0:0:0:0:
92,124,110583,1,0,0:0:0:0:
232,56,110733,1,0,0:0:0:0:
232,56,110883,1,0,0:0:0:0:
166,164,111033,5,8,1:0:0:0:
354,167,111183,1,8,1:0:0:0:
254,299,111333,1,8,1:0:0:0:
169,62,111483,5,8,1:0:0:0:
362,255,111633,1,8,1:0:0:0:
99,291,111783,1,8,1:0:0:0:
361,76,111933,5,8,1:0:0:0:
220,310,112083,1,8,1:0:0:0:
121,63,112233,1,8,1:0:0:0:
254,191,113433,1,0,0:0:0:0:
254,191,113583,1,0,0:0:0:0:
346,119,114033,2,0,B|410:156|357:175|357:175|455:195|450:306,1,220.999989883423
86,98,114633,5,0,0:0:0:0:
125,71,114708,1,0,0:0:0:0:
170,58,114783,1,0,0:0:0:0:
217,51,114858,1,0,0:0:0:0:
263,59,114933,1,0,0:0:0:0:
303,83,115008,1,0,0:0:0:0:
329,122,115083,1,0,0:0:0:0:
327,169,115158,1,0,0:0:0:0:
322,216,115233,2,0,L|348:279,3,59.4999981842042
357,317,115533,5,0,0:0:0:0:
395,345,115608,1,0,0:0:0:0:
440,332,115683,1,0,0:0:0:0:
462,290,115758,1,0,0:0:0:0:
444,245,115833,1,0,0:0:0:0:
399,228,115908,1,0,0:0:0:0:
351,233,115983,1,0,0:0:0:0:
311,260,116058,1,0,0:0:0:0:
268,281,116133,5,0,0:0:0:0:
220,288,116208,1,0,0:0:0:0:
176,268,116283,1,0,0:0:0:0:
139,237,116358,1,0,0:0:0:0:
122,192,116433,1,0,0:0:0:0:
124,144,116508,1,0,0:0:0:0:
140,99,116583,1,0,0:0:0:0:
171,63,116658,1,0,0:0:0:0:
217,51,116733,2,0,L|292:57,3,59.4999981842042
324,64,117033,5,0,0:0:0:0:
361,93,117108,1,0,0:0:0:0:
361,140,117183,1,0,0:0:0:0:
334,179,117258,1,0,0:0:0:0:
295,206,117333,1,0,0:0:0:0:
247,202,117408,1,0,0:0:0:0:
205,176,117483,1,0,0:0:0:0:
173,139,117558,1,0,0:0:0:0:
128,154,117633,2,0,L|80:198,3,59.4999981842042
92,241,117933,5,0,0:0:0:0:
110,284,118008,1,0,0:0:0:0:
141,319,118083,1,0,0:0:0:0:
187,328,118158,1,0,0:0:0:0:
230,307,118233,1,0,0:0:0:0:
263,272,118308,1,0,0:0:0:0:
276,226,118383,1,0,0:0:0:0:
282,178,118458,1,0,0:0:0:0:
267,132,118533,2,0,L|234:79,3,59.4999981842042
191,64,118833,5,0,0:0:0:0:
153,93,118908,1,0,0:0:0:0:
130,134,118983,1,0,0:0:0:0:
122,181,119058,1,0,0:0:0:0:
145,222,119133,1,0,0:0:0:0:
187,242,119208,1,0,0:0:0:0:
229,219,119283,1,0,0:0:0:0:
262,184,119358,1,0,0:0:0:0:
212,134,119433,2,0,P|294:127|342:177,1,118.999996368408
336,304,119733,6,0,B|253:338|253:338|206:312,1,110.499994941712
124,252,120033,1,0,0:0:0:0:
99,213,120108,1,0,0:0:0:0:
90,166,120183,1,0,0:0:0:0:
196,68,120333,2,0,L|300:152,1,110.499994941712
356,136,120633,2,0,P|316:203|271:217,1,110.499994941712
208,280,120933,1,0,0:0:0:0:
92,216,121083,1,0,0:0:0:0:
204,144,121233,1,0,0:0:0:0:
80,92,121383,1,0,0:0:0:0:
204,48,121533,2,0,L|308:112,1,110.499994941712
376,256,121833,5,0,0:0:0:0:
360,265,121908,1,0,0:0:0:0:
349,268,121983,1,0,0:0:0:0:
334,277,122058,1,0,0:0:0:0:
320,280,122133,2,0,P|288:288|232:272,3,59.4999981842042
216,264,122433,2,0,P|160:248|134:270,3,59.4999981842042
120,216,122733,2,0,L|104:152,1,59.4999981842042
112,120,122883,2,0,L|144:64,1,59.4999981842042
184,56,123033,5,0,0:0:0:0:
227,37,123108,1,0,0:0:0:0:
272,51,123183,1,0,0:0:0:0:
291,94,123258,1,0,0:0:0:0:
297,141,123333,1,0,0:0:0:0:
273,182,123408,1,0,0:0:0:0:
254,225,123483,1,0,0:0:0:0:
260,272,123558,5,0,0:0:0:0:
300,297,123633,1,0,0:0:0:0:
346,287,123708,1,0,0:0:0:0:
374,248,123783,1,0,0:0:0:0:
376,200,123858,1,0,0:0:0:0:
344,164,123933,1,0,0:0:0:0:
297,141,124008,1,0,0:0:0:0:
250,151,124083,1,0,0:0:0:0:
252,60,124233,6,0,B|204:68|172:108|156:156|164:212|204:252,1,220.999989883423
312,312,124683,2,0,B|373:287|373:287|391:244,1,110.499994941712
324,236,124983,1,0,0:0:0:0:
248,196,125133,1,0,0:0:0:0:
228,132,125283,2,0,P|185:185|193:238,1,110.499994941712
105,322,125583,2,0,L|23:228,1,110.499994941712
68,112,125883,1,0,0:0:0:0:
68,112,125958,1,0,0:0:0:0:
68,112,126033,1,0,0:0:0:0:
232,72,126183,1,0,0:0:0:0:
348,88,126333,6,0,P|404:120|420:168,1,110.499994941712
352,160,126633,2,0,L|240:224,1,110.499994941712
112,256,126933,1,0,0:0:0:0:
144,120,127083,1,0,0:0:0:0:
144,120,127158,1,0,0:0:0:0:
144,120,127233,1,0,0:0:0:0:
296,96,127383,2,0,P|345:143|360:210,1,110.499994941712,0|0,2:0|2:0,2:0:0:0:
260,300,127683,1,0,0:0:0:0:
124,228,127833,2,0,L|116:108,1,110.499994941712
240,88,128133,5,0,0:0:0:0:
248,120,128208,1,0,0:0:0:0:
264,152,128283,1,0,0:0:0:0:
288,168,128358,1,0,0:0:0:0:
320,176,128433,1,0,0:0:0:0:
352,192,128508,1,0,0:0:0:0:
376,216,128583,1,0,0:0:0:0:
392,248,128658,1,0,0:0:0:0:
400,280,128733,2,0,L|360:320,3,55.2499974708558
328,320,129033,2,0,P|264:280|240:256,1,110.499994941712
128,192,129333,6,0,L|80:160,3,55.2499974708558
84,160,129633,2,0,P|100:96|148:80,1,110.499994941712
136,79,129858,2,0,P|200:112|244:84,1,110.499994941712
231,97,130083,2,0,P|312:72|360:112,1,110.499994941712
384,205,130383,1,0,0:0:0:0:
290,311,130533,1,0,0:0:0:0:
168,241,130683,1,0,0:0:0:0:
158,97,130833,2,0,P|200:56|261:47,1,110.499994941712
232,116,131133,2,0,L|296:216,1,110.499994941712
400,320,131433,5,0,0:0:0:0:
376,112,131583,1,0,0:0:0:0:
212,256,131733,1,0,0:0:0:0:
168,84,131883,1,0,0:0:0:0:
40,224,132183,1,0,0:0:0:0:
416,96,132483,1,0,0:0:0:0:
96,96,132783,1,0,0:0:0:0:
184,68,132933,2,0,L|228:112,1,59.4999981842042
268,128,133083,2,0,L|348:136,1,59.4999981842042
368,160,133233,5,0,0:0:0:0:
404,180,133308,1,0,0:0:0:0:
428,216,133383,1,0,0:0:0:0:
424,256,133458,1,0,0:0:0:0:
392,292,133533,1,0,0:0:0:0:
344,300,133608,1,0,0:0:0:0:
296,288,133683,1,0,0:0:0:0:
248,260,133758,1,0,0:0:0:0:
208,236,133833,2,0,P|156:220|144:156,1,118.999996368408
204,172,134133,6,0,P|303:201|322:229,1,110.499994941712
228,320,134433,1,0,0:0:0:0:
228,320,134583,6,0,P|124:312|100:288,1,110.499994941712
88,172,134883,2,0,P|104:120|160:84,1,110.499994941712
168,156,135183,1,0,0:0:0:0:
336,136,135333,1,0,0:0:0:0:
312,280,135483,1,0,0:0:0:0:
132,248,135633,2,0,L|104:136,1,110.499994941712
280,88,135933,5,0,0:0:0:0:
280,88,136008,1,0,0:0:0:0:
280,88,136083,1,0,0:0:0:0:
360,184,136233,1,0,0:0:0:0:
280,296,136383,1,0,0:0:0:0:
280,296,136458,1,0,0:0:0:0:
280,296,136533,1,0,0:0:0:0:
160,264,136683,2,0,B|144:220|104:208|88:160,1,110.499994941712
176,64,136983,2,0,L|292:32,1,110.499994941712
360,180,137283,1,0,0:0:0:0:
256,272,137433,5,0,0:0:0:0:
208,264,137508,1,0,0:0:0:0:
164,244,137583,1,0,0:0:0:0:
128,212,137658,1,0,0:0:0:0:
108,168,137733,1,0,0:0:0:0:
112,120,137808,1,0,0:0:0:0:
132,76,137883,1,0,0:0:0:0:
168,44,137958,1,0,0:0:0:0:
216,28,138033,5,0,0:0:0:0:
264,44,138108,1,0,0:0:0:0:
296,80,138183,1,0,0:0:0:0:
292,128,138258,1,0,0:0:0:0:
268,168,138333,1,0,0:0:0:0:
248,212,138408,1,0,0:0:0:0:
244,260,138483,1,0,0:0:0:0:
260,308,138558,1,0,0:0:0:0:
304,332,138633,1,0,0:0:0:0:
424,236,138783,5,0,0:0:0:0:
320,120,138933,1,0,0:0:0:0:
192,176,139083,2,0,L|80:248,1,110.499994941712
220,328,139383,2,0,P|272:336|352:320,1,110.499994941712
352,168,139683,2,0,P|396:120|404:64,2,110.499994941712
164,144,140133,2,0,P|112:188|100:248,1,110.499994941712
208,292,140433,1,0,0:0:0:0:
254,293,140508,1,0,0:0:0:0:
300,279,140583,1,0,0:0:0:0:
332,172,140733,2,0,L|216:156,1,110.499994941712
124,88,141033,5,0,0:0:0:0:
159,56,141108,1,0,0:0:0:0:
204,41,141183,1,0,0:0:0:0:
251,42,141258,1,0,0:0:0:0:
292,64,141333,1,0,0:0:0:0:
309,108,141408,1,0,0:0:0:0:
289,151,141483,1,0,0:0:0:0:
254,183,141558,1,0,0:0:0:0:
224,228,141633,5,0,0:0:0:0:
220,281,141708,1,0,0:0:0:0:
258,318,141783,1,0,0:0:0:0:
311,311,141858,1,0,0:0:0:0:
352,277,141933,1,0,0:0:0:0:
353,223,142008,1,0,0:0:0:0:
316,183,142083,1,0,0:0:0:0:
266,163,142158,1,0,0:0:0:0:
204,136,142233,5,0,0:0:0:0:
192,124,142308,1,0,0:0:0:0:
179,114,142383,1,0,0:0:0:0:
167,103,142458,1,0,0:0:0:0:
140,120,142533,1,0,0:0:0:0:
127,110,142608,1,0,0:0:0:0:
115,100,142683,1,0,0:0:0:0:
102,88,142758,1,0,0:0:0:0:
88,72,142833,2,0,L|180:20,3,59.4999981842042
184,80,143133,2,0,L|252:120,1,59.4999981842042
284,96,143283,2,0,L|376:72,1,59.4999981842042
392,104,143433,6,0,B|445:128|479:166|409:202|409:202|463:226|442:307,1,220.999989883423
368,264,143883,2,0,B|341:299|303:284|303:284|285:244|285:244|241:241|258:215|258:215|265:176|191:183,1,220.999989883423
152,152,144333,2,0,P|193:111|255:109,1,110.499994941712
408,100,144633,2,0,P|422:160|408:224,1,110.499994941712
336,284,144933,2,0,L|420:204,1,110.499994941712
356,100,145233,2,0,B|304:104|272:64|232:80,1,110.499994941712
64,112,145533,5,0,0:0:0:0:
176,192,145683,1,0,0:0:0:0:
60,272,145833,1,0,0:0:0:0:
240,320,145983,2,0,P|340:284|344:248,1,110.499994941712
272,256,146283,2,0,B|252:196|252:196|216:156,1,110.499994941712
144,72,146583,1,0,0:0:0:0:
64,180,146733,1,0,0:0:0:0:
64,180,146808,1,0,0:0:0:0:
64,180,146883,1,0,0:0:0:0:
184,304,147033,6,0,P|234:273|236:236,3,59.4999981842042
224,232,147333,2,0,P|244:213|276:208,3,59.4999981842042
306,191,147633,1,0,0:0:0:0:
323,178,147708,1,0,0:0:0:0:
340,166,147783,1,0,0:0:0:0:
354,151,147858,1,0,0:0:0:0:
342,133,147933,1,0,0:0:0:0:
356,119,148008,1,0,0:0:0:0:
370,104,148083,1,0,0:0:0:0:
384,89,148158,1,0,0:0:0:0:
400,72,148233,2,0,B|328:84|328:84|324:32|256:80|244:128|172:48,1,237.999992736817
40,148,148683,2,0,B|32:192|120:180|80:208|100:244|100:244|88:268|44:268|76:336|152:352,1,237.999992736817
152,284,149133,2,0,L|296:264,1,118.999996368408
424,184,149433,5,0,0:0:0:0:
404,136,149508,1,0,0:0:0:0:
368,96,149583,1,0,0:0:0:0:
324,64,149658,1,0,0:0:0:0:
272,52,149733,1,0,0:0:0:0:
220,64,149808,1,0,0:0:0:0:
180,96,149883,1,0,0:0:0:0:
156,144,149958,1,0,0:0:0:0:
148,196,150033,5,0,0:0:0:0:
160,248,150108,1,0,0:0:0:0:
200,280,150183,1,0,0:0:0:0:
252,284,150258,1,0,0:0:0:0:
296,256,150333,1,0,0:0:0:0:
328,212,150408,1,0,0:0:0:0:
320,160,150483,1,0,0:0:0:0:
288,120,150558,1,0,0:0:0:0:
236,108,150633,1,0,0:0:0:0:
236,108,150933,1,0,0:0:0:0:
162,176,151533,6,0,B|136:201|96:208|100:252|124:280|105:306|52:300,2,170
176,248,152433,1,0,0:0:0:0:
288,112,153033,5,0,0:0:0:0:
276,161,153108,1,0,0:0:0:0:
280,211,153183,1,0,0:0:0:0:
298,258,153258,1,0,0:0:0:0:
329,298,153333,1,0,0:0:0:0:
377,314,153408,1,0,0:0:0:0:
427,304,153483,1,0,0:0:0:0:
463,268,153558,1,0,0:0:0:0:
451,225,153633,5,0,0:0:0:0:
416,202,153708,1,0,0:0:0:0:
375,195,153783,1,0,0:0:0:0:
335,204,153858,1,0,0:0:0:0:
301,226,153933,1,0,0:0:0:0:
267,249,154008,1,0,0:0:0:0:
230,267,154083,1,0,0:0:0:0:
191,279,154158,1,0,0:0:0:0:
150,273,154233,5,0,0:0:0:0:
122,245,154308,1,0,0:0:0:0:
114,205,154383,1,0,0:0:0:0:
126,165,154458,1,0,0:0:0:0:
154,133,154533,1,0,0:0:0:0:
190,113,154608,1,0,0:0:0:0:
222,89,154683,1,0,0:0:0:0:
210,49,154758,1,0,0:0:0:0:
166,41,154833,2,0,L|106:37,3,50.9999984436036
94,77,155133,2,0,L|61:145,1,50.9999984436036
70,163,155283,2,0,L|102:235,1,50.9999984436036
176,304,155433,6,0,P|248:336|296:320,1,101.999996887207
367,279,155733,1,0,0:0:0:0:
408,120,155883,1,0,0:0:0:0:
264,144,156033,2,0,L|368:240,1,101.999996887207
416,200,156333,2,0,P|384:272|328:280,1,101.999996887207
224,264,156633,2,0,P|191:225|188:176,1,101.999996887207
252,200,156933,1,0,0:0:0:0:
104,88,157083,1,0,0:0:0:0:
80,200,157233,2,0,B|168:244|152:292|92:304|92:304|144:348|144:348|220:376|276:320,1,374.000011413575
376,260,157983,6,0,L|416:192,1,50.9999984436036
412,172,158133,1,0,0:0:0:0:
404,128,158208,1,0,0:0:0:0:
380,92,158283,1,0,0:0:0:0:
344,64,158358,1,0,0:0:0:0:
300,52,158433,1,0,0:0:0:0:
256,64,158508,1,0,0:0:0:0:
220,92,158583,1,0,0:0:0:0:
204,136,158658,1,0,0:0:0:0:
216,180,158733,5,0,0:0:0:0:
244,220,158808,1,0,0:0:0:0:
272,260,158883,1,0,0:0:0:0:
292,308,158958,1,0,0:0:0:0:
272,356,159033,1,0,0:0:0:0:
224,368,159108,1,0,0:0:0:0:
172,360,159183,1,0,0:0:0:0:
144,320,159258,1,0,0:0:0:0:
132,272,159333,2,0,L|160:228,3,50.9999984436036
140,180,159633,6,0,L|96:156,1,50.9999984436036
72,112,159783,2,0,L|112:80,1,50.9999984436036
148,44,159933,2,0,L|204:72,1,50.9999984436036
208,116,160083,2,0,L|232:168,1,50.9999984436036
332,96,160233,5,0,0:0:0:0:
372,132,160308,1,0,0:0:0:0:
400,180,160383,1,0,0:0:0:0:
404,232,160458,1,0,0:0:0:0:
376,280,160533,1,0,0:0:0:0:
328,300,160608,1,0,0:0:0:0:
276,304,160683,1,0,0:0:0:0:
228,280,160758,1,0,0:0:0:0:
288,147,160833,6,0,P|280:180|260:216,1,50.9999984436036
160,176,160983,2,0,P|168:136|196:104,1,50.9999984436036
303,163,161133,6,0,P|282:190|250:215,1,50.9999984436036
173,139,161283,2,0,P|196:106|235:87,1,50.9999984436036
120,40,161433,5,0,0:0:0:0:
160,28,161508,1,0,0:0:0:0:
200,28,161583,1,0,0:0:0:0:
236,44,161658,1,0,0:0:0:0:
268,72,161733,1,0,0:0:0:0:
276,112,161808,1,0,0:0:0:0:
268,152,161883,1,0,0:0:0:0:
244,184,161958,1,0,0:0:0:0:
224,224,162033,5,0,0:0:0:0:
224,268,162108,1,0,0:0:0:0:
252,304,162183,1,0,0:0:0:0:
296,320,162258,1,0,0:0:0:0:
340,316,162333,1,0,0:0:0:0:
380,296,162408,1,0,0:0:0:0:
408,260,162483,1,0,0:0:0:0:
420,216,162558,1,0,0:0:0:0:
428,144,162633,2,0,B|394:146|360:160|352:196|348:228,1,110.499994941712
202,77,162933,6,0,L|128:108,1,50.9999984436036
120,120,163083,1,0,0:0:0:0:
104,155,163158,1,0,0:0:0:0:
104,193,163233,1,0,0:0:0:0:
114,230,163308,1,0,0:0:0:0:
134,263,163383,1,0,0:0:0:0:
166,283,163458,1,0,0:0:0:0:
204,288,163533,1,0,0:0:0:0:
239,275,163608,2,0,L|284:236,3,50.9999984436036
300,208,163908,5,0,0:0:0:0:
328,182,163983,1,0,0:0:0:0:
365,170,164058,1,0,0:0:0:0:
404,177,164133,1,0,0:0:0:0:
439,195,164208,1,0,0:0:0:0:
461,226,164283,1,0,0:0:0:0:
472,262,164358,1,0,0:0:0:0:
475,300,164433,1,0,0:0:0:0:
442,317,164508,2,0,L|380:316,1,50.9999984436036
363,282,164658,2,0,L|288:236,1,50.9999984436036
285,276,164808,2,0,L|224:312,2,50.9999984436036
192,344,165033,6,0,P|188:268|214:241,1,101.999996887207
148,124,165333,1,0,0:0:0:0:
248,52,165483,1,0,0:0:0:0:
264,172,165633,1,0,0:0:0:0:
356,252,165783,2,0,L|416:160,1,101.999996887207
316,92,166083,1,0,0:0:0:0:
220,120,166233,2,0,L|272:200,1,50.9999984436036
172,206,166383,2,0,L|144:164,1,50.9999984436036
72,212,166533,2,0,L|112:280,1,50.9999984436036
227,319,166683,2,0,L|200:276,1,50.9999984436036
300,256,166833,2,0,B|340:236|360:200|368:172|360:148|340:116|304:100|264:100,1,203.999993774414
148,172,167433,2,0,B|157:110|169:73|225:82|225:82|265:136|325:89,1,220.999989883423
367,236,167883,1,0,0:0:0:0:
162,286,168033,5,0,0:0:0:0:
131,254,168108,1,0,0:0:0:0:
122,210,168183,1,0,0:0:0:0:
135,167,168258,1,0,0:0:0:0:
164,132,168333,1,0,0:0:0:0:
200,108,168408,1,0,0:0:0:0:
244,96,168483,1,0,0:0:0:0:
288,100,168558,1,0,0:0:0:0:
324,124,168633,5,0,0:0:0:0:
360,156,168708,1,0,0:0:0:0:
408,176,168783,1,0,0:0:0:0:
456,164,168858,1,0,0:0:0:0:
484,124,168933,1,0,0:0:0:0:
464,80,169008,1,0,0:0:0:0:
424,52,169083,1,0,0:0:0:0:
376,36,169158,1,0,0:0:0:0:
332,36,169233,2,0,B|272:28|172:52|92:108|72:160,1,297.5
84,196,169833,5,0,0:0:0:0:
100,232,169908,1,0,0:0:0:0:
128,260,169983,1,0,0:0:0:0:
164,280,170058,1,0,0:0:0:0:
204,288,170133,1,0,0:0:0:0:
244,284,170208,1,0,0:0:0:0:
284,268,170283,1,0,0:0:0:0:
316,244,170358,1,0,0:0:0:0:
348,212,170433,6,0,L|388:160,3,59.4999981842042
388,116,170733,2,0,L|352:64,3,59.4999981842042
272,60,171033,2,0,L|214:96,1,59.4999981842042
238,172,171183,2,0,L|313:180,1,59.4999981842042
302,261,171333,2,0,L|233:304,1,59.4999981842042
124,331,171483,2,0,L|181:294,1,59.4999981842042
158,218,171633,2,0,L|82:209,1,59.4999981842042
94,129,171783,2,0,L|162:85,1,59.4999981842042
92,32,171933,2,0,P|48:48|24:88,2,59.4999981842042
40,180,172233,6,0,P|40:248|76:304,1,110.499994941712
256,304,172833,2,0,L|312:200,1,110.499994941712
192,128,173433,1,0,0:0:0:0:
320,128,173583,1,0,0:0:0:0:
256,240,173733,1,0,0:0:0:0:
160,80,173883,1,0,0:0:0:0:
352,80,174033,1,0,0:0:0:0:
256,288,174183,1,0,0:0:0:0:
256,176,174333,1,0,0:0:0:0:
380,296,174633,6,0,B|371:264|371:264|362:295|362:295|356:259|356:259|347:290|347:290|341:255|341:255|332:286|332:286|325:250|325:250|316:281|316:281|310:246|310:246|301:277|301:277|295:241|295:241|286:272|286:272|279:237|279:237|270:268|270:268|264:232|264:232|255:263|255:263|249:228|249:228|240:259|240:259|224:144|96:236|112:96,1,832.999974578858
192,124,175833,1,0,0:0:0:0:
192,124,175983,1,0,0:0:0:0:
192,124,176133,2,0,B|328:76|368:148|368:148|448:140|448:140|432:268|320:172|256:236|224:364,1,594.999981842042
104,224,177033,5,0,0:0:0:0:
192,124,177183,1,0,0:0:0:0:
140,80,177333,2,0,P|192:56|245:80,1,110.499994941712
360,188,177633,1,0,0:0:0:0:
260,292,177783,2,0,L|148:260,1,110.499994941712
68,176,178083,1,0,0:0:0:0:
164,96,178233,2,0,B|244:120|260:56|292:28|340:40|372:96,1,220.999989883423
304,120,178683,2,0,B|272:184|272:184|184:208,1,110.499994941712
268,276,178983,5,0,0:0:0:0:
268,276,179058,1,0,0:0:0:0:
268,276,179133,1,0,0:0:0:0:
296,208,179283,1,0,0:0:0:0:
360,232,179433,2,0,P|304:272|240:264,1,110.499994941712
120,232,179733,1,0,0:0:0:0:
112,216,179808,1,0,0:0:0:0:
104,200,179883,2,0,P|80:128|88:88,1,110.499994941712
264,40,180183,2,0,L|296:168,1,110.499994941712
200,256,180483,1,0,0:0:0:0:
312,288,180633,5,0,0:0:0:0:
326,277,180708,1,0,0:0:0:0:
340,266,180783,1,0,0:0:0:0:
354,255,180858,1,0,0:0:0:0:
360,224,180933,2,0,P|384:192|408:184,2,46.7500014266968
424,176,181158,2,0,P|444:140|426:113,2,46.7500014266968
424,96,181383,2,0,L|352:48,1,46.7500014266968
336,88,181533,2,0,L|280:128,1,46.7500014266968
248,104,181683,2,0,L|192:56,1,46.7500014266968
160,80,181833,2,0,B|88:112|56:168|56:264,1,187.000005706787
224,200,182283,5,0,0:0:0:0:
239,244,182358,1,0,0:0:0:0:
264,275,182433,1,0,0:0:0:0:
273,340,182583,2,0,P|341:272|339:223,1,110.499994941712
354,231,182808,1,0,0:0:0:0:
351,197,182883,1,0,0:0:0:0:
224,96,183033,1,0,0:0:0:0:
112,136,183183,1,0,0:0:0:0:
192,216,183333,1,0,0:0:0:0:
80,272,183483,1,0,0:0:0:0:
216,304,183633,1,0,0:0:0:0:
216,304,183708,1,0,0:0:0:0:
216,304,183783,2,0,B|304:328|304:200|416:256,1,220.999989883423
384,128,184233,2,0,L|320:96,1,55.2499974708558
248,104,184383,2,0,L|160:136,1,55.2499974708558
120,184,184533,5,0,0:0:0:0:
131,203,184608,1,0,0:0:0:0:
143,222,184683,1,0,0:0:0:0:
155,241,184758,1,0,0:0:0:0:
192,240,184833,5,0,0:0:0:0:
203,259,184908,1,0,0:0:0:0:
215,278,184983,1,0,0:0:0:0:
227,297,185058,1,0,0:0:0:0:
256,304,185133,2,0,L|332:312,3,59.4999981842042
348,300,185433,1,0,0:0:0:0:
256,96,186033,1,0,0:0:0:0:
256,192,186183,1,0,0:0:0:0:
112,240,186633,5,0,0:0:0:0:
140,272,186708,1,0,0:0:0:0:
176,296,186783,2,0,L|308:300,1,110.499994941712
400,228,187083,2,0,P|428:168|400:120,1,110.499994941712
260,84,187383,2,0,L|144:160,1,110.499994941712
144,288,187683,1,0,0:0:0:0:
316,268,187833,1,0,0:0:0:0:
316,268,187908,1,0,0:0:0:0:
316,268,187983,1,0,0:0:0:0:
312,140,188133,1,0,0:0:0:0:
376,140,188283,6,0,P|352:88|280:88,2,110.499994941712
332,280,188733,2,0,L|212:240,1,110.499994941712
196,152,189033,1,0,0:0:0:0:
76,96,189183,1,0,0:0:0:0:
204,56,189333,1,0,0:0:0:0:
316,108,189483,1,0,0:0:0:0:
348,248,189633,2,0,P|312:336|256:352,1,110.499994941712
280,272,189933,2,0,L|164:192,1,110.499994941712
188,108,190233,1,0,0:0:0:0:
188,108,190308,1,0,0:0:0:0:
188,108,190383,2,0,P|248:76|304:80,2,110.499994941712
152,212,190833,5,0,0:0:0:0:
272,220,190983,1,0,0:0:0:0:
248,328,191133,1,0,0:0:0:0:
384,276,191283,1,0,0:0:0:0:
388,112,191433,2,0,P|313:87|266:100,1,110.499994941712
120,96,191733,1,0,0:0:0:0:
144,248,191883,2,0,L|272:272,1,110.499994941712
316,304,192183,2,0,B|336:268|324:224|271:201,1,110.499994941712
196,100,192483,1,0,0:0:0:0:
196,100,192633,6,0,B|132:128|108:176|96:228|96:296,1,203.999993774414
256,296,193083,2,0,P|328:284|348:256,1,110.499994941712
344,144,193383,1,0,0:0:0:0:
344,120,193458,1,0,0:0:0:0:
344,96,193533,2,0,P|296:64|216:64,1,110.499994941712
128,148,193833,5,0,0:0:0:0:
124,196,193908,1,0,0:0:0:0:
144,244,193983,1,0,0:0:0:0:
184,276,194058,1,0,0:0:0:0:
232,284,194133,1,0,0:0:0:0:
280,276,194208,1,0,0:0:0:0:
320,248,194283,1,0,0:0:0:0:
340,204,194358,1,0,0:0:0:0:
344,156,194433,1,0,0:0:0:0:
324,112,194508,1,0,0:0:0:0:
280,88,194583,1,0,0:0:0:0:
232,88,194658,1,0,0:0:0:0:
184,104,194733,2,0,L|116:132,2,55.2499974708558
64,192,195033,5,0,0:0:0:0:
160,288,195183,1,0,0:0:0:0:
256,192,195333,1,0,0:0:0:0:
352,288,195483,1,0,0:0:0:0:
416,192,195633,1,0,0:0:0:0:
352,96,195783,1,0,0:0:0:0:
256,192,195933,1,0,0:0:0:0:
160,96,196083,1,0,0:0:0:0:
64,192,196233,6,0,B|140:200|68:280|128:280|192:264|192:264|204:312|272:336,1,237.999992736817
356,192,196683,2,0,P|335:100|290:75,1,110.499994941712
295,157,196983,1,0,0:0:0:0:
255,177,197058,1,0,0:0:0:0:
248,224,197133,2,0,P|285:287|329:290,1,110.499994941712
296,360,197433,2,0,B|365:367|392:309|392:309|340:247|416:210|416:210,1,237.999992736817
312,128,197883,6,0,B|230:160|162:83|188:209|94:242,1,220.999989883423
228,208,198333,2,0,L|316:300,1,110.499994941712
392,208,198633,1,0,0:0:0:0:
280,160,198783,1,0,0:0:0:0:
392,112,198933,1,0,0:0:0:0:
280,64,199083,1,0,0:0:0:0:
160,120,199233,1,0,0:0:0:0:
160,120,199383,2,0,L|112:244,1,110.499994941712
248,276,199683,1,0,0:0:0:0:
356,228,199833,6,0,L|307:167,4,55.2499974708558
284,149,200208,1,0,0:0:0:0:
246,123,200283,1,0,0:0:0:0:
208,98,200358,1,0,0:0:0:0:
172,72,200433,2,0,P|148:48|109:44,1,55.2499974708558
84,131,200583,2,0,P|108:152|134:153,1,55.2499974708558
172,72,200733,2,0,P|148:48|109:44,1,55.2499974708558
84,131,200883,2,0,P|108:152|134:153,1,55.2499974708558
152,262,201033,6,0,B|201:304|218:222|254:299|254:299|291:227|327:291|392:239,1,237.999992736817
368,104,201483,2,0,P|308:64|244:64,1,110.499994941712
184,176,201783,1,0,0:0:0:0:
180,184,201858,1,0,0:0:0:0:
176,192,201933,2,0,P|117:260|131:302,1,110.499994941712
280,260,202233,2,0,B|232:216|284:168|276:108|192:136|176:88|196:56,1,237.999992736817
332,56,202683,2,0,L|472:84,1,110.499994941712
388,208,202983,1,0,0:0:0:0:
388,208,203058,1,0,0:0:0:0:
388,208,203133,1,0,0:0:0:0:
272,296,203283,5,0,0:0:0:0:
272,296,203433,2,0,P|176:276|144:252,1,110.499994941712
96,124,203733,2,0,L|208:76,1,110.499994941712
332,124,204033,1,0,0:0:0:0:
352,152,204108,1,0,0:0:0:0:
368,180,204183,1,0,0:0:0:0:
296,272,204333,2,0,P|196:296|140:288,1,110.499994941712
132,152,204633,5,8,1:0:0:0:
236,36,204783,1,8,1:0:0:0:
308,172,204933,1,8,1:0:0:0:
176,96,205083,5,8,1:0:0:0:
330,73,205233,1,8,1:0:0:0:
297,224,205383,1,8,1:0:0:0:
144,292,205533,1,8,1:0:0:0:
144,292,205683,1,8,1:0:0:0:
80,176,205833,2,8,B|136:172|168:144|168:144|160:100|180:56|236:56|284:80,1,220.999989883423,8|8,1:0|1:0,1:0:0:0:
408,184,206283,5,0,0:0:0:0:
408,184,206433,2,0,L|312:252,1,110.499994941712
312,320,206733,2,0,P|259:281|240:240,1,110.499994941712
120,104,207033,2,0,B|182:130|182:130|252:67|328:116,1,220.999989883423
416,220,207483,1,0,2:0:0:0:
400,262,207558,1,0,2:0:0:0:
374,300,207633,1,0,2:0:0:0:
200,288,207783,2,0,P|196:220|220:156,1,110.499994941712
184,112,208083,6,0,P|248:120|288:168,1,110.499994941712
340,276,208383,1,0,0:0:0:0:
340,276,208533,2,0,B|297:273|261:318|218:302,1,110.499994941712
104,240,208833,2,0,P|64:200|88:120,1,110.499994941712
132,176,209133,1,0,0:0:0:0:
244,104,209283,1,0,0:0:0:0:
364,68,209433,5,0,0:0:0:0:
384,92,209508,1,0,0:0:0:0:
404,120,209583,1,0,0:0:0:0:
416,152,209658,1,0,0:0:0:0:
420,184,209733,1,0,0:0:0:0:
420,216,209808,1,0,0:0:0:0:
416,248,209883,1,0,0:0:0:0:
412,280,209958,1,0,0:0:0:0:
400,312,210033,5,0,0:0:0:0:
356,300,210108,1,0,0:0:0:0:
312,304,210183,1,0,0:0:0:0:
272,316,210258,1,0,0:0:0:0:
228,324,210333,1,0,0:0:0:0:
184,316,210408,1,0,0:0:0:0:
144,304,210483,1,0,0:0:0:0:
108,280,210558,1,0,0:0:0:0:
72,252,210633,2,0,B|124:212|124:212|88:179|114:129|114:129|145:105|184:104|217:139,1,220.999989883423
356,88,211083,5,0,0:0:0:0:
360,92,211158,1,0,0:0:0:0:
364,96,211233,2,0,P|432:164|432:192,1,110.499994941712
396,296,211533,2,0,L|276:236,1,110.499994941712
240,148,211833,1,0,0:0:0:0:
260,40,211983,1,0,0:0:0:0:
116,96,212133,1,0,0:0:0:0:
152,224,212283,1,0,0:0:0:0:
276,304,212433,2,0,B|340:276|340:276|360:232,1,110.499994941712
272,92,212733,2,0,B|230:94|213:129|164:136,1,110.499994941712
52,232,213033,5,0,0:0:0:0:
72,272,213108,1,0,0:0:0:0:
108,304,213183,1,0,0:0:0:0:
152,320,213258,1,0,0:0:0:0:
200,324,213333,1,0,0:0:0:0:
244,304,213408,1,0,0:0:0:0:
280,276,213483,1,0,0:0:0:0:
324,264,213558,1,0,0:0:0:0:
368,284,213633,5,0,0:0:0:0:
404,312,213708,1,0,0:0:0:0:
452,308,213783,1,0,0:0:0:0:
476,268,213858,1,0,0:0:0:0:
464,224,213933,1,0,0:0:0:0:
428,196,214008,1,0,0:0:0:0:
388,176,214083,1,0,0:0:0:0:
348,156,214158,1,0,0:0:0:0:
304,144,214233,2,0,L|220:120,3,46.7500014266968
212,132,214533,2,0,L|136:172,3,46.7500014266968
104,204,214833,5,0,0:0:0:0:
99,217,214908,1,0,0:0:0:0:
95,230,214983,1,0,0:0:0:0:
90,244,215058,1,0,0:0:0:0:
88,280,215133,2,0,L|144:340,1,46.7500014266968
164,328,215283,2,0,L|244:316,1,46.7500014266968
264,328,215433,2,0,B|322:342|384:320|384:320|414:267|421:193,1,220.999989883423
468,172,215883,2,0,P|416:152|364:168,1,110.499994941712
200,132,216183,2,0,L|260:232,1,110.499994941712
261,303,216483,5,0,0:0:0:0:
261,303,216558,1,0,0:0:0:0:
261,303,216633,2,0,P|319:261|332:221,1,110.499994941712
328,156,216933,1,0,0:0:0:0:
408,140,217083,2,0,B|354:85|354:85|304:87,1,110.499994941712
184,144,217383,1,0,0:0:0:0:
108,256,217533,1,0,0:0:0:0:
236,316,217683,1,0,0:0:0:0:
372,248,217833,2,0,P|432:168|404:128,1,110.499994941712
356,184,218133,2,0,L|232:208,1,110.499994941712
176,292,218433,1,0,0:0:0:0:
176,292,218508,1,0,0:0:0:0:
181,292,218583,2,0,P|242:301|295:272,1,110.499994941712
420,256,218883,1,0,0:0:0:0:
428,136,219033,5,0,0:0:0:0:
388,116,219108,1,0,0:0:0:0:
344,104,219183,1,0,0:0:0:0:
304,120,219258,1,0,0:0:0:0:
264,100,219333,1,0,0:0:0:0:
224,80,219408,1,0,0:0:0:0:
184,100,219483,1,0,0:0:0:0:
148,76,219558,1,0,0:0:0:0:
108,52,219633,2,0,L|92:124,3,55.2499974708558
88,148,219933,2,0,L|144:176,1,55.2499974708558
168,204,220083,2,0,L|208:156,1,55.2499974708558
228,196,220233,2,0,L|260:248,1,55.2499974708558
156,296,222633,5,0,0:0:0:0:
156,296,222783,1,0,0:0:0:0:
336,228,222933,1,0,0:0:0:0:
336,228,223083,1,0,0:0:0:0:
172,136,223233,1,0,0:0:0:0:
172,136,223383,1,0,0:0:0:0:
344,76,223533,1,0,0:0:0:0:
344,76,223683,1,0,0:0:0:0:
120,84,223833,5,0,0:0:0:0:
64,204,223983,1,0,0:0:0:0:
132,316,224133,1,0,0:0:0:0:
160,60,224283,5,0,0:0:0:0:
104,208,224433,1,0,0:0:0:0:
200,328,224583,1,0,0:0:0:0:
232,56,224733,5,0,0:0:0:0:
152,201,224883,1,0,0:0:0:0:
252,334,225033,1,0,0:0:0:0:
160,132,226233,6,0,L|160:236,1,101.999996887207
160,234,226833,6,0,B|168:190|168:190|228:198|264:166|264:166|288:198|320:262|364:250|376:198|376:198,1,305.999990661621
320,68,227433,5,0,0:0:0:0:
280,48,227508,1,0,0:0:0:0:
236,44,227583,1,0,0:0:0:0:
196,60,227658,1,0,0:0:0:0:
160,88,227733,1,0,0:0:0:0:
140,128,227808,1,0,0:0:0:0:
136,172,227883,1,0,0:0:0:0:
152,212,227958,1,0,0:0:0:0:
188,236,228033,5,0,0:0:0:0:
232,244,228108,1,0,0:0:0:0:
272,228,228183,1,0,0:0:0:0:
304,196,228258,1,0,0:0:0:0:
336,168,228333,1,0,0:0:0:0:
376,152,228408,1,0,0:0:0:0:
420,152,228483,1,0,0:0:0:0:
460,172,228558,1,0,0:0:0:0:
472,216,228633,2,0,P|464:256|444:276,3,55.2499974708558
356,316,228933,5,0,0:0:0:0:
312,324,229008,1,0,0:0:0:0:
268,332,229083,1,0,0:0:0:0:
224,324,229158,1,0,0:0:0:0:
184,308,229233,1,0,0:0:0:0:
148,280,229308,1,0,0:0:0:0:
124,240,229383,1,0,0:0:0:0:
124,196,229458,1,0,0:0:0:0:
136,152,229533,5,0,0:0:0:0:
168,120,229608,1,0,0:0:0:0:
212,108,229683,1,0,0:0:0:0:
256,116,229758,1,0,0:0:0:0:
304,144,229833,2,0,L|304:220,1,55.2499974708558
384,200,229983,2,0,L|384:136,1,55.2499974708558
416,64,230133,2,0,P|385:48|348:55,3,55.2499974708558
320,40,230433,5,0,0:0:0:0:
275,37,230508,1,0,0:0:0:0:
230,43,230583,1,0,0:0:0:0:
191,64,230658,1,0,0:0:0:0:
167,100,230733,1,0,0:0:0:0:
154,140,230808,1,0,0:0:0:0:
151,185,230883,1,0,0:0:0:0:
164,227,230958,1,0,0:0:0:0:
198,256,231033,2,0,P|232:276|279:273,3,55.2499974708558
320,272,231333,5,0,0:0:0:0:
324,268,231408,1,0,0:0:0:0:
328,264,231483,1,0,0:0:0:0:
332,260,231558,1,0,0:0:0:0:
336,256,231633,1,0,0:0:0:0:
340,252,231708,1,0,0:0:0:0:
344,248,231783,1,0,0:0:0:0:
348,244,231858,1,0,0:0:0:0:
352,240,231933,1,0,0:0:0:0:
356,236,232008,1,0,0:0:0:0:
360,232,232083,1,0,0:0:0:0:
364,228,232158,1,0,0:0:0:0:
368,224,232233,2,0,B|352:180|304:180|304:180|268:152|288:96|288:96|248:112|220:80,1,220.999989883423
108,184,232683,5,0,0:0:0:0:
100,204,232758,1,0,0:0:0:0:
92,224,232833,2,0,P|112:288|168:320,1,110.499994941712
264,252,233133,2,0,P|341:247|368:217,1,110.499994941712
435,211,233433,2,0,P|387:163|314:165,1,110.499994941712
200,80,233733,1,0,0:0:0:0:
76,124,233883,1,0,0:0:0:0:
200,168,234033,1,0,0:0:0:0:
72,208,234183,1,0,0:0:0:0:
144,292,234333,2,0,P|218:316|273:298,1,110.499994941712
368,224,234633,5,0,0:0:0:0:
368,220,234708,1,0,0:0:0:0:
368,216,234783,1,0,0:0:0:0:
368,212,234858,1,0,0:0:0:0:
368,208,234933,2,0,P|356:177|319:142,3,55.2499974708558
308,132,235233,2,0,P|262:95|259:66,3,55.2499974708558
224,80,235533,2,0,L|168:84,1,55.2499974708558
132,104,235683,2,0,L|96:148,1,55.2499974708558
96,192,235833,5,0,0:0:0:0:
104,236,235908,1,0,0:0:0:0:
136,268,235983,1,0,0:0:0:0:
180,272,236058,1,0,0:0:0:0:
224,260,236133,1,0,0:0:0:0:
256,232,236208,1,0,0:0:0:0:
284,196,236283,1,0,0:0:0:0:
316,164,236358,1,0,0:0:0:0:
356,148,236433,5,0,0:0:0:0:
400,156,236508,1,0,0:0:0:0:
436,180,236583,1,0,0:0:0:0:
452,220,236658,1,0,0:0:0:0:
436,260,236733,1,0,0:0:0:0:
412,296,236808,1,0,0:0:0:0:
372,312,236883,1,0,0:0:0:0:
328,308,236958,1,0,0:0:0:0:
328,240,237033,6,0,B|310:238|279:235|262:257|276:297|247:331|210:315|210:315|195:334|157:282,1,220.999989883423
200,88,237483,1,0,0:0:0:0:
200,88,237558,1,0,0:0:0:0:
200,88,237633,2,0,L|328:80,1,110.499994941712
376,200,237933,1,0,0:0:0:0:
272,304,238083,1,0,0:0:0:0:
120,272,238233,2,0,P|88:208|104:168,1,110.499994941712
156,212,238533,2,0,L|266:141,1,110.499994941712
248,153,238758,1,0,0:0:0:0:
248,153,238833,1,0,0:0:0:0:
400,264,238983,6,0,B|388:296|356:302|356:302|334:349|272:280|272:280|200:336,1,220.999989883423
112,208,239433,1,0,0:0:0:0:
112,208,239508,1,0,0:0:0:0:
112,208,239583,2,0,P|113:148|163:116,1,110.499994941712
272,68,239883,2,0,P|344:84|384:124,1,110.499994941712
300,140,240183,1,0,0:0:0:0:
306,247,240333,1,0,0:0:0:0:
206,195,240483,1,0,0:0:0:0:
184,288,240633,5,0,0:0:0:0:
152,256,240708,1,0,0:0:0:0:
132,216,240783,1,0,0:0:0:0:
124,172,240858,1,0,0:0:0:0:
144,132,240933,1,0,0:0:0:0:
172,100,241008,1,0,0:0:0:0:
172,56,241083,1,0,0:0:0:0:
132,32,241158,1,0,0:0:0:0:
88,36,241233,5,0,0:0:0:0:
64,72,241308,1,0,0:0:0:0:
72,116,241383,1,0,0:0:0:0:
112,136,241458,1,0,0:0:0:0:
156,136,241533,1,0,0:0:0:0:
200,124,241608,1,0,0:0:0:0:
244,116,241683,1,0,0:0:0:0:
288,116,241758,1,0,0:0:0:0:
332,128,241833,2,0,P|388:176|400:224,1,110.499994941712
320,304,242133,6,0,L|240:272,3,55.2499974708558
224,280,242433,2,0,P|136:284|112:240,1,110.499994941712
128,272,242658,2,0,P|135:218|101:177,1,110.499994941712
101,177,242883,2,0,P|144:120|132:80,1,110.499994941712
272,64,243183,1,0,0:0:0:0:
376,160,243333,1,0,0:0:0:0:
304,280,243483,1,0,0:0:0:0:
160,288,243633,2,0,L|112:184,1,110.499994941712
195,74,243933,1,0,0:0:0:0:
227,65,244008,1,0,0:0:0:0:
256,64,244083,1,0,0:0:0:0:
384,192,244233,5,0,0:0:0:0:
256,320,244383,1,0,0:0:0:0:
128,192,244533,1,0,0:0:0:0:
256,64,244683,1,0,0:0:0:0:
256,64,244983,2,0,L|260:192,1,127.500004863739
328,224,245283,2,0,P|279:258|201:243,1,127.500004863739
128,200,245583,2,0,L|128:72,1,127.500004863739
256,64,245883,1,0,0:0:0:0:
360,136,246033,1,0,0:0:0:0:
360,264,246183,1,0,0:0:0:0:
256,336,246333,2,0,B|204:332|204:288|152:320|152:320|160:256|92:264|92:264|112:224|76:200|76:200,1,255.000009727478
196,140,246933,5,0,0:0:0:0:
304,188,247083,1,0,0:0:0:0:
196,236,247233,1,0,0:0:0:0:
308,276,247383,1,0,0:0:0:0:
220,304,247533,2,0,P|128:280|100:248,1,118.999996368408
164,124,247833,1,0,0:0:0:0:
174,111,247908,1,0,0:0:0:0:
185,99,247983,2,0,L|301:155,1,118.999996368408
368,160,248283,2,0,P|312:219|247:220,1,118.999996368408
332,288,248583,5,0,0:0:0:0:
196,328,248733,1,0,0:0:0:0:
68,264,248883,1,0,0:0:0:0:
192,128,249033,1,0,0:0:0:0:
192,128,249108,1,0,0:0:0:0:
192,128,249183,1,0,0:0:0:0:
256,192,249333,1,0,0:0:0:0:
320,128,249483,1,0,0:0:0:0:
320,128,249558,1,0,0:0:0:0:
320,128,249633,1,0,0:0:0:0:
256,192,249783,1,0,0:0:0:0:
200,244,249933,2,0,P|256:264|312:244,1,118.999996368408
404,192,250233,5,0,0:0:0:0:
416,148,250308,1,0,0:0:0:0:
412,100,250383,1,0,0:0:0:0:
388,60,250458,1,0,0:0:0:0:
348,32,250533,1,0,0:0:0:0:
300,36,250608,1,0,0:0:0:0:
264,68,250683,1,0,0:0:0:0:
248,112,250758,1,0,0:0:0:0:
256,160,250833,5,0,0:0:0:0:
280,200,250908,1,0,0:0:0:0:
308,240,250983,1,0,0:0:0:0:
312,288,251058,1,0,0:0:0:0:
280,324,251133,1,0,0:0:0:0:
232,332,251208,1,0,0:0:0:0:
188,312,251283,1,0,0:0:0:0:
160,276,251358,1,0,0:0:0:0:
88,256,251433,2,0,P|136:215|213:213,1,118.999996368408
228,44,251733,5,0,0:0:0:0:
356,104,251883,1,0,0:0:0:0:
210,163,252033,2,0,L|212:292,1,118.999996368408
156,328,252333,2,0,P|216:344|288:316,1,118.999996368408
368,216,252633,2,0,B|372:156|360:120|360:120|328:88|328:88|280:52|220:44,1,237.999992736817
128,144,253083,2,0,P|76:188|64:256,1,118.999996368408
188,300,253383,1,0,0:0:0:0:
232,320,253458,1,0,0:0:0:0:
280,324,253533,1,0,0:0:0:0:
368,288,253683,1,0,0:0:0:0:
252,212,253833,5,0,0:0:0:0:
212,200,253908,1,0,0:0:0:0:
172,196,253983,1,0,0:0:0:0:
132,188,254058,1,0,0:0:0:0:
96,168,254133,1,0,0:0:0:0:
80,132,254208,1,0,0:0:0:0:
88,92,254283,1,0,0:0:0:0:
112,60,254358,1,0,0:0:0:0:
152,48,254433,1,0,0:0:0:0:
160,156,254508,6,0,L|184:220,1,59.4999981842042
288,212,254658,2,0,L|308:152,1,59.4999981842042
412,164,254808,2,0,L|432:220,1,59.4999981842042
400,324,254958,2,0,L|304:332,1,59.4999981842042
296,340,255108,5,0,0:0:0:0:
248,348,255183,1,0,0:0:0:0:
200,336,255258,1,0,0:0:0:0:
160,312,255333,1,0,0:0:0:0:
128,276,255408,1,0,0:0:0:0:
116,232,255483,1,0,0:0:0:0:
116,184,255558,1,0,0:0:0:0:
132,100,255633,5,0,0:0:0:0:
140,88,255708,1,0,0:0:0:0:
148,76,255783,1,0,0:0:0:0:
156,64,255858,1,0,0:0:0:0:
164,52,255933,1,0,0:0:0:0:
176,44,256008,2,0,L|252:72,2,59.4999981842042
280,80,256233,6,0,B|333:55|384:53|367:130|367:130|420:104|468:172,1,220.999989883423
392,192,256683,2,0,B|393:236|354:248|354:248|315:227|315:227|278:252|276:221|276:221|257:186|203:237|218:266,1,220.999989883423
164,232,257133,2,0,P|180:176|224:144,1,110.499994941712
380,120,257433,2,0,P|436:148|476:200,1,110.499994941712
340,304,257733,5,0,0:0:0:0:
160,272,257883,2,0,L|212:164,1,110.499994941712
184,100,258183,2,0,P|256:120|284:152,1,110.499994941712
348,260,258483,1,0,0:0:0:0:
348,260,258558,1,0,0:0:0:0:
348,260,258633,2,0,L|208:300,1,110.499994941712
248,160,258933,1,0,0:0:0:0:
236,64,259083,2,0,P|295:82|341:131,1,110.499994941712
328,284,259383,1,0,0:0:0:0:
328,284,259533,2,0,L|192:300,1,110.499994941712
56,228,259833,5,0,0:0:0:0:
72,200,259908,1,0,0:0:0:0:
96,176,259983,1,0,0:0:0:0:
128,160,260058,1,0,0:0:0:0:
160,152,260133,1,0,0:0:0:0:
192,160,260208,1,0,0:0:0:0:
224,184,260283,1,0,0:0:0:0:
248,216,260358,1,0,0:0:0:0:
272,248,260433,5,0,0:0:0:0:
312,256,260508,1,0,0:0:0:0:
352,240,260583,1,0,0:0:0:0:
384,208,260658,1,0,0:0:0:0:
392,160,260733,1,0,0:0:0:0:
360,120,260808,1,0,0:0:0:0:
312,104,260883,1,0,0:0:0:0:
264,120,260958,1,0,0:0:0:0:
232,152,261033,2,0,B|200:176|208:228|208:228|158:201|153:238|153:238|122:227|89:249|85:295,1,237.999992736817
280,284,261483,2,0,B|260:257|286:233|321:239|321:239|359:241|352:201|352:201|328:175|328:175|377:173|384:158,1,237.999992736817
260,184,261933,2,0,L|160:112,1,118.999996368408
260,68,262233,5,0,0:0:0:0:
308,88,262308,1,0,0:0:0:0:
352,120,262383,1,0,0:0:0:0:
380,164,262458,1,0,0:0:0:0:
376,216,262533,1,0,0:0:0:0:
340,256,262608,1,0,0:0:0:0:
288,268,262683,1,0,0:0:0:0:
236,252,262758,1,0,0:0:0:0:
192,220,262833,5,0,0:0:0:0:
144,196,262908,1,0,0:0:0:0:
92,192,262983,1,0,0:0:0:0:
48,220,263058,1,0,0:0:0:0:
28,268,263133,1,0,0:0:0:0:
56,312,263208,1,0,0:0:0:0:
104,332,263283,1,0,0:0:0:0:
152,304,263358,1,0,0:0:0:0:
172,252,263433,1,0,0:0:0:0:
172,252,263733,1,0,0:0:0:0:
248,128,264333,6,0,B|276:116|300:132|328:152|328:180|328:180|312:204|344:212|344:212|380:196|408:204|404:236,2,203.999993774414
260,192,265233,1,0,0:0:0:0:
280,300,265833,5,0,0:0:0:0:
285,300,265908,1,0,0:0:0:0:
291,300,265983,1,0,0:0:0:0:
296,301,266058,1,0,0:0:0:0:
302,301,266133,1,0,0:0:0:0:
308,302,266208,1,0,0:0:0:0:
312,304,266283,2,0,L|392:280,1,55.2499974708558
372,244,266433,2,0,L|392:188,1,55.2499974708558
428,168,266583,2,0,L|384:112,1,55.2499974708558
408,84,266733,2,0,P|384:64|348:68,3,55.2499974708558
304,64,267033,5,0,0:0:0:0:
264,64,267108,1,0,0:0:0:0:
228,80,267183,1,0,0:0:0:0:
200,108,267258,1,0,0:0:0:0:
180,140,267333,1,0,0:0:0:0:
148,164,267408,1,0,0:0:0:0:
112,176,267483,1,0,0:0:0:0:
76,168,267558,1,0,0:0:0:0:
48,144,267633,1,0,0:0:0:0:
40,108,267708,1,0,0:0:0:0:
56,64,267783,2,0,P|80:44|128:40,4,55.2499974708558
128,144,268233,6,0,P|112:192|128:240,1,93.5000028533936
272,232,268533,2,0,L|272:128,1,93.5000028533936
424,144,268833,2,0,P|440:192|424:240,1,93.5000028533936
304,288,269133,2,0,P|246:299|193:260,1,93.5000028533936
96,176,269433,5,0,0:0:0:0:
184,80,269583,1,0,0:0:0:0:
312,80,269733,1,0,0:0:0:0:
416,176,269883,1,0,0:0:0:0:
312,304,270033,1,0,0:0:0:0:
184,304,270183,1,0,0:0:0:0:
96,176,270333,1,0,0:0:0:0:
184,80,270483,1,0,0:0:0:0:
96,176,270633,2,0,B|109:194|129:209|153:222|176:230|201:234|224:238|250:238|280:236|313:226|339:214|360:200|379:187|395:174|409:158|417:135|419:115|420:89|415:67|392:46|367:33|338:32|310:39|295:60|280:88|286:120|309:128|328:121|346:108,1,595
188,192,292233,5,0,0:0:0:0:
188,192,292383,1,0,0:0:0:0:
188,196,292683,1,0,0:0:0:0:
240,72,292833,2,0,P|64:196|252:324,1,510
324,192,297033,5,0,0:0:0:0:
324,192,297183,1,0,0:0:0:0:
324,196,297483,1,0,0:0:0:0:
272,324,297633,2,0,P|448:200|260:72,1,510
256,192,301833,5,0,0:0:0:0:
256,192,301983,1,0,0:0:0:0:
256,192,302283,1,0,0:0:0:0:
180,48,302433,2,0,B|208:68|240:52|240:52|268:104|308:132|368:112|368:112|392:240|268:316|268:316|140:276|124:164|124:164|164:156|200:116,1,765.000029182435
288,236,306633,5,0,0:0:0:0:
288,236,306783,1,0,0:0:0:0:
288,236,307083,1,0,0:0:0:0:
440,204,307233,2,0,B|412:152|336:120|288:180|228:176|228:176|116:140|192:0|288:52|248:164|248:164|208:256|136:332|68:284|112:216|144:248,1,765.000029182435
47,280,311433,5,0,0:0:0:0:
75,324,311583,1,0,0:0:0:0:
121,342,311733,1,0,0:0:0:0:
97,202,311883,5,0,0:0:0:0:
102,272,312033,1,0,0:0:0:0:
155,316,312183,1,0,0:0:0:0:
177,151,312333,5,0,0:0:0:0:
163,237,312483,1,0,0:0:0:0:
228,293,312633,1,0,0:0:0:0:
280,101,312783,5,0,0:0:0:0:
221,206,312933,1,0,0:0:0:0:
304,289,313083,1,0,0:0:0:0:
369,37,313233,5,0,0:0:0:0:
301,155,313383,1,0,0:0:0:0:
359,281,313533,1,0,0:0:0:0:
472,152,313683,5,0,0:0:0:0:
301,155,313833,2,0,L|197:215,1,101.999996887207
256,120,315933,6,0,L|256:248,1,93.5000028533936
256,213,316233,1,0,0:0:0:0:
256,213,316383,1,0,0:0:0:0:
256,213,316533,1,0,0:0:0:0:
124,249,317133,6,0,B|168:328|208:352|256:360|312:352|344:328|389:239,1,340
256,256,318633,1,0,0:0:0:0:
256,256,318783,1,0,0:0:0:0:
256,256,318933,1,0,0:0:0:0:
164,224,321033,5,0,0:0:0:0:
96,224,321183,2,0,P|119:277|152:291,1,85
164,224,321483,2,0,L|228:164,1,85
316,104,321783,1,0,0:0:0:0:
404,26,321933,1,0,0:0:0:0:
439,141,322083,1,0,0:0:0:0:
412,256,322233,2,0,P|380:304|316:320,1,85
268,232,322533,1,0,0:0:0:0:
208,144,322683,1,0,0:0:0:0:
104,208,322833,2,0,P|112:264|152:312,1,85
180,232,323133,2,0,L|284:200,1,85
440,128,323433,6,0,L|426:168,1,42.5
344,164,323583,2,0,L|330:204,1,42.5
248,201,323733,2,0,L|235:241,1,42.5
153,237,323883,2,0,L|139:277,1,42.5
81,197,324033,6,0,L|94:156,1,42.5
177,161,324183,2,0,L|190:120,1,42.5
273,124,324333,2,0,L|286:83,1,42.5
369,88,324483,2,0,L|382:47,1,42.5
256,192,324633,12,0,325758,0:0:0:0:
256,192,325833,12,0,326883,0:0:0:0:
48,88,327033,5,0,0:0:0:0:
81,71,327108,1,0,0:0:0:0:
118,63,327183,1,0,0:0:0:0:
155,59,327258,1,0,0:0:0:0:
190,66,327333,1,0,0:0:0:0:
225,86,327408,1,0,0:0:0:0:
260,98,327483,1,0,0:0:0:0:
297,90,327558,1,0,0:0:0:0:
327,69,327633,1,0,0:0:0:0:
364,56,327708,1,0,0:0:0:0:
401,52,327783,1,0,0:0:0:0:
440,60,327858,1,0,0:0:0:0:
476,72,327933,6,0,P|496:100|484:140,3,42.5
464,132,328233,1,0,0:0:0:0:
432,148,328308,1,0,0:0:0:0:
404,176,328383,1,0,0:0:0:0:
392,212,328458,1,0,0:0:0:0:
392,256,328533,5,0,0:0:0:0:
352,248,328608,1,0,0:0:0:0:
312,240,328683,1,0,0:0:0:0:
268,244,328758,1,0,0:0:0:0:
232,268,328833,1,0,0:0:0:0:
204,300,328908,1,0,0:0:0:0:
168,320,328983,1,0,0:0:0:0:
128,328,329058,1,0,0:0:0:0:
88,320,329133,1,0,0:0:0:0:
60,288,329208,1,0,0:0:0:0:
64,244,329283,1,0,0:0:0:0:
88,208,329358,1,0,0:0:0:0:
72,132,329433,6,0,P|56:92|72:64,3,42.5
128,68,329733,2,0,P|156:53|165:10,3,42.5
200,112,330033,2,0,L|264:160,3,42.5
292,80,330333,2,0,L|324:20,3,42.5
396,80,330633,2,0,L|440:136,1,50.9999984436036
380,176,330783,2,0,L|360:244,1,50.9999984436036
444,276,330933,2,0,L|468:328,1,50.9999984436036
376,336,331083,2,0,L|312:296,1,50.9999984436036
256,256,331233,6,0,L|224:208,1,50.9999984436036
136,204,331383,2,0,L|172:124,1,50.9999984436036
248,140,331533,2,0,L|220:52,1,50.9999984436036
140,84,331683,2,0,L|176:12,1,50.9999984436036
264,36,331833,5,0,0:0:0:0:
292,44,331908,1,0,0:0:0:0:
320,56,331983,1,0,0:0:0:0:
340,80,332058,1,0,0:0:0:0:
348,108,332133,1,0,0:0:0:0:
344,140,332208,1,0,0:0:0:0:
332,168,332283,1,0,0:0:0:0:
316,192,332358,1,0,0:0:0:0:
252,220,332433,5,0,0:0:0:0:
224,248,332508,1,0,0:0:0:0:
204,284,332583,1,0,0:0:0:0:
208,324,332658,1,0,0:0:0:0:
240,352,332733,1,0,0:0:0:0:
280,356,332808,1,0,0:0:0:0:
316,336,332883,1,0,0:0:0:0:
332,300,332958,1,0,0:0:0:0:
352,200,333033,5,0,0:0:0:0:
380,164,333108,1,0,0:0:0:0:
396,120,333183,1,0,0:0:0:0:
380,76,333258,1,0,0:0:0:0:
348,44,333333,1,0,0:0:0:0:
304,32,333408,1,0,0:0:0:0:
260,40,333483,1,0,0:0:0:0:
224,72,333558,1,0,0:0:0:0:
236,144,333633,5,0,0:0:0:0:
272,180,333708,1,0,0:0:0:0:
300,224,333783,1,0,0:0:0:0:
308,276,333858,1,0,0:0:0:0:
276,316,333933,1,0,0:0:0:0:
228,328,334008,1,0,0:0:0:0:
180,308,334083,1,0,0:0:0:0:
156,264,334158,1,0,0:0:0:0:
148,180,334233,6,0,P|159:151|180:130,5,42.5
236,92,334683,2,0,P|271:98|296:128,5,42.5
268,184,335133,2,0,L|224:224,1,42.5
320,276,335283,2,0,L|376:280,1,42.5
416,196,335433,5,0,0:0:0:0:
408,168,335508,1,0,0:0:0:0:
396,140,335583,1,0,0:0:0:0:
380,116,335658,1,0,0:0:0:0:
360,92,335733,1,0,0:0:0:0:
336,72,335808,1,0,0:0:0:0:
308,56,335883,1,0,0:0:0:0:
280,48,335958,1,0,0:0:0:0:
248,52,336033,1,0,0:0:0:0:
220,64,336108,2,0,B|184:76|152:100|140:140|140:196|152:232|176:268|204:288,1,255
344,280,336633,6,0,B|400:248|364:188|364:188|420:188|436:92,1,203.999993774414
292,84,337083,2,0,B|268:56|216:52|172:68|136:104|136:152,1,203.999993774414
188,280,337533,2,0,L|312:296,1,101.999996887207
408,216,337833,1,0,0:0:0:0:
268,180,337983,1,0,0:0:0:0:
400,128,338133,1,0,0:0:0:0:
268,76,338283,1,0,0:0:0:0:
136,128,338433,2,0,P|92:168|80:224,1,101.999996887207
152,200,338733,2,0,P|200:248|272:252,1,101.999996887207
368,192,339033,6,0,B|344:156|300:108|236:88|196:80,1,203.999993774414
96,180,339483,2,0,P|112:264|160:292,1,101.999996887207
164,212,339783,2,0,P|216:204|260:160,2,101.999996887207
184,144,340233,1,0,0:0:0:0:
292,52,340383,1,0,0:0:0:0:
308,200,340533,1,0,0:0:0:0:
376,188,340683,2,0,P|356:248|284:264,1,101.999996887207
168,184,340983,1,0,0:0:0:0:
100,204,341133,2,0,P|112:148|188:116,1,101.999996887207
316,112,341433,5,0,0:0:0:0:
340,72,341508,1,0,0:0:0:0:
380,52,341583,1,0,0:0:0:0:
424,48,341658,1,0,0:0:0:0:
464,72,341733,1,0,0:0:0:0:
476,116,341808,1,0,0:0:0:0:
468,160,341883,1,0,0:0:0:0:
448,200,341958,1,0,0:0:0:0:
420,244,342033,5,0,0:0:0:0:
384,280,342108,1,0,0:0:0:0:
336,300,342183,1,0,0:0:0:0:
284,304,342258,1,0,0:0:0:0:
240,280,342333,1,0,0:0:0:0:
220,232,342408,1,0,0:0:0:0:
232,184,342483,1,0,0:0:0:0:
268,148,342558,1,0,0:0:0:0:
284,100,342633,6,0,P|248:64|220:76,3,50.9999984436036
200,72,342933,2,0,P|148:92|136:72,3,50.9999984436036
108,144,343233,2,0,L|64:200,1,50.9999984436036
36,244,343383,2,0,L|88:316,1,50.9999984436036
124,240,343533,2,0,L|200:236,1,50.9999984436036
160,308,343683,2,0,L|212:348,1,50.9999984436036
256,336,343833,5,0,0:0:0:0:
308,332,343908,1,0,0:0:0:0:
356,316,343983,1,0,0:0:0:0:
396,284,344058,1,0,0:0:0:0:
416,236,344133,1,0,0:0:0:0:
412,184,344208,1,0,0:0:0:0:
392,136,344283,1,0,0:0:0:0:
352,104,344358,1,0,0:0:0:0:
248,88,344433,2,0,L|184:128,1,50.9999984436036
120,168,344583,2,0,L|160:208,1,50.9999984436036
256,224,344733,2,0,L|208:272,1,50.9999984436036
120,280,344883,2,0,L|168:327,1,50.9999984436036
256,328,345033,5,0,0:0:0:0:
320,336,345108,1,0,0:0:0:0:
384,328,345183,1,0,0:0:0:0:
440,296,345258,1,0,0:0:0:0:
464,240,345333,1,0,0:0:0:0:
464,176,345408,1,0,0:0:0:0:
440,120,345483,1,0,0:0:0:0:
400,72,345558,1,0,0:0:0:0:
344,56,345633,5,0,0:0:0:0:
312,88,345708,1,0,0:0:0:0:
272,104,345783,1,0,0:0:0:0:
224,96,345858,1,0,0:0:0:0:
184,80,345933,1,0,0:0:0:0:
144,64,346008,1,0,0:0:0:0:
96,64,346083,1,0,0:0:0:0:
56,88,346158,1,0,0:0:0:0:
48,160,346233,6,0,P|32:224|56:288,1,101.999996887207
184,264,346533,1,0,0:0:0:0:
320,224,346683,2,0,L|400:136,1,101.999996887207
168,116,346983,2,0,L|192:216,1,101.999996887207
348,212,347283,1,0,0:0:0:0:
336,304,347433,2,0,P|408:272|408:144,1,203.999993774414
348,220,347883,2,0,L|252:152,1,101.999996887207
136,236,348183,2,0,P|172:275|254:307,1,101.999996887207
264,184,348483,5,0,0:0:0:0:
256,80,348633,2,0,P|320:112|344:248,1,203.999993774414
264,184,349083,2,0,P|240:240|180:252,1,101.999996887207
180,184,349383,1,0,0:0:0:0:
260,64,349533,1,0,0:0:0:0:
344,180,349683,1,0,0:0:0:0:
360,312,349833,5,0,0:0:0:0:
332,327,349908,1,0,0:0:0:0:
301,342,349983,1,0,0:0:0:0:
268,350,350058,1,0,0:0:0:0:
236,350,350133,1,0,0:0:0:0:
204,345,350208,1,0,0:0:0:0:
172,337,350283,1,0,0:0:0:0:
142,328,350358,1,0,0:0:0:0:
112,312,350433,5,0,0:0:0:0:
130,271,350508,1,0,0:0:0:0:
133,226,350583,1,0,0:0:0:0:
126,185,350658,1,0,0:0:0:0:
124,140,350733,1,0,0:0:0:0:
120,96,350808,1,0,0:0:0:0:
128,56,350883,1,0,0:0:0:0:
136,16,350958,1,0,0:0:0:0:
176,16,351033,6,0,P|229:35|263:89,1,101.999996887207
376,152,351333,1,0,0:0:0:0:
320,280,351483,2,0,L|200:328,1,101.999996887207
128,216,351783,2,0,P|88:184|72:120,1,101.999996887207
152,144,352083,1,0,0:0:0:0:
280,128,352233,2,0,B|256:184|328:208|296:248,1,101.999996887207
340,288,352533,2,0,P|264:284|220:232,1,101.999996887207
144,168,352833,1,0,0:0:0:0:
320,156,352983,1,0,0:0:0:0:
331,88,353133,2,0,P|380:129|375:201,1,101.999996887207
320,312,353433,5,0,0:0:0:0:
256,320,353508,1,0,0:0:0:0:
192,312,353583,1,0,0:0:0:0:
136,288,353658,1,0,0:0:0:0:
104,232,353733,1,0,0:0:0:0:
104,168,353808,1,0,0:0:0:0:
128,112,353883,1,0,0:0:0:0:
184,80,353958,1,0,0:0:0:0:
248,72,354033,5,0,0:0:0:0:
304,96,354108,1,0,0:0:0:0:
344,144,354183,1,0,0:0:0:0:
336,208,354258,1,0,0:0:0:0:
288,248,354333,1,0,0:0:0:0:
224,256,354408,1,0,0:0:0:0:
168,232,354483,1,0,0:0:0:0:
144,176,354558,1,0,0:0:0:0:
152,112,354633,6,0,B|208:80|208:80|256:88,1,101.999996887207
248,248,354933,5,0,0:0:0:0:
256,295,355008,1,0,0:0:0:0:
246,341,355083,1,0,0:0:0:0:
304,144,355233,5,0,0:0:0:0:
328,101,355308,1,0,0:0:0:0:
365,72,355383,1,0,0:0:0:0:
160,156,355533,5,0,0:0:0:0:
113,148,355608,1,0,0:0:0:0:
72,125,355683,1,0,0:0:0:0:
248,256,355833,5,0,0:0:0:0:
272,296,355908,1,0,0:0:0:0:
312,328,355983,1,0,0:0:0:0:
360,336,356058,1,0,0:0:0:0:
408,336,356133,1,0,0:0:0:0:
456,320,356208,1,0,0:0:0:0:
488,280,356283,1,0,0:0:0:0:
496,232,356358,1,0,0:0:0:0:
488,184,356433,5,0,0:0:0:0:
464,136,356508,1,0,0:0:0:0:
432,96,356583,1,0,0:0:0:0:
392,72,356658,1,0,0:0:0:0:
344,64,356733,1,0,0:0:0:0:
296,80,356808,1,0,0:0:0:0:
272,128,356883,1,0,0:0:0:0:
264,176,356958,1,0,0:0:0:0:
272,224,357033,5,0,0:0:0:0:
296,272,357108,1,0,0:0:0:0:
296,320,357183,1,0,0:0:0:0:
264,360,357258,1,0,0:0:0:0:
216,368,357333,1,0,0:0:0:0:
168,344,357408,1,0,0:0:0:0:
160,296,357483,1,0,0:0:0:0:
176,248,357558,1,0,0:0:0:0:
192,200,357633,5,0,0:0:0:0:
184,152,357708,1,0,0:0:0:0:
144,120,357783,1,0,0:0:0:0:
112,80,357858,1,0,0:0:0:0:
120,32,357933,1,0,0:0:0:0:
160,8,358008,1,0,0:0:0:0:
208,16,358083,1,0,0:0:0:0:
256,32,358158,1,0,0:0:0:0:
320,68,358233,6,0,P|275:102|211:95,1,101.999996887207
196,244,358533,1,0,0:0:0:0:
76,164,358683,1,0,0:0:0:0:
36,100,358833,2,0,P|92:92|156:132,1,101.999996887207
264,176,359133,1,0,0:0:0:0:
340,156,359283,2,0,P|316:228|260:260,1,101.999996887207
168,236,359583,2,0,L|88:172,1,101.999996887207
208,88,359883,2,0,B|224:64|256:48|256:48|280:40|317:39|317:39|344:56|349:79|349:79|284:113|282:154|310:177|339:192|339:192|372:191|400:160|432:160,1,407.999987548829
344,296,360633,5,0,0:0:0:0:
288,312,360708,1,0,0:0:0:0:
232,320,360783,1,0,0:0:0:0:
176,312,360858,1,0,0:0:0:0:
128,288,360933,1,0,0:0:0:0:
96,248,361008,1,0,0:0:0:0:
72,200,361083,1,0,0:0:0:0:
72,144,361158,1,0,0:0:0:0:
96,96,361233,5,0,0:0:0:0:
136,56,361308,1,0,0:0:0:0:
192,40,361383,1,0,0:0:0:0:
248,40,361458,1,0,0:0:0:0:
304,56,361533,1,0,0:0:0:0:
344,88,361608,1,0,0:0:0:0:
368,136,361683,1,0,0:0:0:0:
360,192,361758,1,0,0:0:0:0:
344,248,361833,6,0,P|336:280|336:312,3,50.9999984436036
292,280,362133,2,0,P|281:314|254:333,3,50.9999984436036
168,280,362433,2,0,L|144:224,1,50.9999984436036
216,168,362583,2,0,L|240:112,1,50.9999984436036
320,88,362733,2,0,L|392:64,1,50.9999984436036
416,152,362883,2,0,L|448:224,1,50.9999984436036
388,288,363033,5,0,0:0:0:0:
340,334,363108,1,0,0:0:0:0:
278,357,363183,1,0,0:0:0:0:
211,352,363258,1,0,0:0:0:0:
149,326,363333,1,0,0:0:0:0:
107,274,363408,1,0,0:0:0:0:
77,214,363483,1,0,0:0:0:0:
79,147,363558,1,0,0:0:0:0:
134,110,363633,5,0,0:0:0:0:
151,46,363708,1,0,0:0:0:0:
91,16,363783,1,0,0:0:0:0:
26,32,363858,1,0,0:0:0:0:
5,95,363933,1,0,0:0:0:0:
37,152,364008,1,0,0:0:0:0:
99,172,364083,1,0,0:0:0:0:
163,157,364158,1,0,0:0:0:0:
224,132,364233,2,0,P|256:92|316:88,1,101.999996887207
364,208,364533,5,0,0:0:0:0:
364,208,364608,1,0,0:0:0:0:
364,208,364683,1,0,0:0:0:0:
368,72,364833,2,0,B|440:128|456:192|456:192|444:260|384:344,1,305.999990661621
364,208,365433,2,0,L|260:204,1,101.999996887207
132,124,365733,1,0,0:0:0:0:
256,56,365883,1,0,0:0:0:0:
368,144,366033,2,0,L|400:248,2,101.999996887207
432,64,366483,2,0,P|324:84|264:200,1,203.999993774414
196,304,366933,5,0,0:0:0:0:
104,176,367083,1,0,0:0:0:0:
236,72,367233,1,0,0:0:0:0:
400,164,367383,1,0,0:0:0:0:
424,96,367533,2,0,P|460:136|460:208,1,101.999996887207
344,232,367833,5,0,0:0:0:0:
288,232,367908,1,0,0:0:0:0:
232,216,367983,1,0,0:0:0:0:
192,184,368058,1,0,0:0:0:0:
144,160,368133,1,0,0:0:0:0:
88,168,368208,1,0,0:0:0:0:
48,208,368283,1,0,0:0:0:0:
40,264,368358,1,0,0:0:0:0:
80,304,368433,1,0,0:0:0:0:
136,304,368508,1,0,0:0:0:0:
184,272,368583,1,0,0:0:0:0:
224,232,368658,1,0,0:0:0:0:
272,208,368733,1,0,0:0:0:0:
328,216,368808,1,0,0:0:0:0:
376,240,368883,1,0,0:0:0:0:
432,224,368958,1,0,0:0:0:0:
460,188,369033,5,0,0:0:0:0:
472,144,369108,1,0,0:0:0:0:
456,100,369183,1,0,0:0:0:0:
420,72,369258,1,0,0:0:0:0:
380,52,369333,1,0,0:0:0:0:
336,48,369408,1,0,0:0:0:0:
292,60,369483,1,0,0:0:0:0:
256,92,369558,1,0,0:0:0:0:
240,136,369633,1,0,0:0:0:0:
244,180,369708,1,0,0:0:0:0:
248,224,369783,1,0,0:0:0:0:
224,264,369858,1,0,0:0:0:0:
188,296,369933,1,0,0:0:0:0:
144,300,370008,1,0,0:0:0:0:
104,280,370083,1,0,0:0:0:0:
88,236,370158,1,0,0:0:0:0:
60,140,370233,6,0,P|80:92|116:84,3,50.9999984436036
112,76,370533,2,0,L|176:60,3,50.9999984436036
208,116,370833,2,0,L|272:148,1,50.9999984436036
253,242,370983,2,0,L|208:220,1,50.9999984436036
324,180,371133,2,0,L|369:202,1,50.9999984436036
376,297,371283,2,0,L|332:272,1,50.9999984436036
448,184,371433,5,0,0:0:0:0:
428,132,371508,1,0,0:0:0:0:
392,88,371583,1,0,0:0:0:0:
348,52,371658,1,0,0:0:0:0:
292,40,371733,1,0,0:0:0:0:
236,48,371808,1,0,0:0:0:0:
188,76,371883,1,0,0:0:0:0:
176,132,371958,1,0,0:0:0:0:
224,172,372033,5,0,0:0:0:0:
268,216,372108,1,0,0:0:0:0:
272,276,372183,1,0,0:0:0:0:
220,308,372258,1,0,0:0:0:0:
160,304,372333,1,0,0:0:0:0:
112,268,372408,1,0,0:0:0:0:
100,208,372483,1,0,0:0:0:0:
128,152,372558,1,0,0:0:0:0:
184,124,372633,5,0,0:0:0:0:
408,300,372933,1,0,0:0:0:0:
68,76,373233,1,0,0:0:0:0:
468,160,373533,1,0,0:0:0:0:
72,260,373833,1,0,0:0:0:0:
400,20,374133,1,0,0:0:0:0:
204,328,374433,1,0,0:0:0:0:
240,24,374733,1,0,0:0:0:0:
72,104,375033,1,0,0:0:0:0:
72,104,375333,6,0,L|76:216,1,101.999996887207
32,268,375633,2,0,P|112:272|152:240,1,101.999996887207
220,152,375933,2,0,L|304:216,1,101.999996887207
320,296,376233,2,0,P|375:232|289:120,1,203.999993774414
196,96,376683,1,0,0:0:0:0:
92,196,376833,1,0,0:0:0:0:
228,240,376983,1,0,0:0:0:0:
308,140,377133,2,0,P|324:88|300:21,1,101.999996887207
256,88,377433,5,0,0:0:0:0:
226,97,377508,1,0,0:0:0:0:
199,112,377583,1,0,0:0:0:0:
175,131,377658,1,0,0:0:0:0:
155,154,377733,1,0,0:0:0:0:
139,180,377808,1,0,0:0:0:0:
127,208,377883,1,0,0:0:0:0:
118,237,377958,1,0,0:0:0:0:
104,296,378033,5,0,0:0:0:0:
143,319,378108,1,0,0:0:0:0:
187,330,378183,1,0,0:0:0:0:
230,316,378258,1,0,0:0:0:0:
274,305,378333,1,0,0:0:0:0:
317,319,378408,1,0,0:0:0:0:
358,339,378483,1,0,0:0:0:0:
403,338,378558,1,0,0:0:0:0:
448,334,378633,2,0,L|456:214,1,101.999996887207
320,160,378933,1,0,0:0:0:0:
192,216,379083,1,0,0:0:0:0:
104,168,379233,2,0,B|153:99|220:67|316:127|298:229|118:230|168:54|244:43|352:80,1,407.999987548829
424,200,380133,5,0,0:0:0:0:
312,288,380283,2,0,L|204:256,1,101.999996887207
144,276,380583,2,0,P|176:196|232:180,1,101.999996887207
284,140,380883,2,0,P|336:152|368:204,1,101.999996887207
296,212,381183,1,0,0:0:0:0:
136,192,381333,1,0,0:0:0:0:
232,88,381483,1,0,0:0:0:0:
352,160,381633,2,0,L|320:280,1,101.999996887207
160,256,381933,2,0,P|124:206|121:148,1,101.999996887207
128,56,382233,5,0,0:0:0:0:
160,40,382308,1,0,0:0:0:0:
192,32,382383,1,0,0:0:0:0:
224,32,382458,1,0,0:0:0:0:
256,40,382533,1,0,0:0:0:0:
288,56,382608,1,0,0:0:0:0:
312,80,382683,1,0,0:0:0:0:
328,112,382758,1,0,0:0:0:0:
312,184,382833,5,0,0:0:0:0:
296,224,382908,1,0,0:0:0:0:
288,264,382983,1,0,0:0:0:0:
296,304,383058,1,0,0:0:0:0:
328,328,383133,1,0,0:0:0:0:
368,336,383208,1,0,0:0:0:0:
408,320,383283,1,0,0:0:0:0:
432,288,383358,1,0,0:0:0:0:
432,224,383433,2,0,L|384:184,4,50.9999984436036
352,168,383808,2,0,L|376:112,4,50.9999984436036
296,103,384183,2,0,L|264:64,1,50.9999984436036
264,207,384333,2,0,L|232:168,1,50.9999984436036
232,311,384483,2,0,L|200:272,1,50.9999984436036
104,232,384633,5,0,0:0:0:0:
112,184,384708,1,0,0:0:0:0:
128,136,384783,1,0,0:0:0:0:
160,96,384858,1,0,0:0:0:0:
200,64,384933,1,0,0:0:0:0:
248,48,385008,1,0,0:0:0:0:
296,56,385083,1,0,0:0:0:0:
332,92,385158,1,0,0:0:0:0:
344,144,385233,1,0,0:0:0:0:
316,188,385308,1,0,0:0:0:0:
264,188,385383,1,0,0:0:0:0:
220,160,385458,1,0,0:0:0:0:
172,140,385533,1,0,0:0:0:0:
120,144,385608,1,0,0:0:0:0:
80,176,385683,1,0,0:0:0:0:
60,224,385758,1,0,0:0:0:0:
68,276,385833,5,0,0:0:0:0:
104,312,385908,1,0,0:0:0:0:
156,320,385983,1,0,0:0:0:0:
204,304,386058,1,0,0:0:0:0:
240,268,386133,1,0,0:0:0:0:
260,220,386208,1,0,0:0:0:0:
256,168,386283,1,0,0:0:0:0:
260,116,386358,1,0,0:0:0:0:
288,76,386433,1,0,0:0:0:0:
332,52,386508,1,0,0:0:0:0:
384,48,386583,1,0,0:0:0:0:
428,72,386658,1,0,0:0:0:0:
448,120,386733,1,0,0:0:0:0:
440,172,386808,1,0,0:0:0:0:
412,212,386883,1,0,0:0:0:0:
372,244,386958,1,0,0:0:0:0:
328,268,387033,6,0,P|280:296|216:280,1,101.999996887207
268,232,387333,2,0,L|208:132,1,101.999996887207
296,56,387633,1,0,0:0:0:0:
272,232,387783,1,0,0:0:0:0:
200,276,387933,2,0,L|84:260,1,101.999996887207
200,124,388233,1,0,0:0:0:0:
200,124,388308,1,0,0:0:0:0:
200,124,388383,1,0,0:0:0:0:
134,93,388533,2,0,P|184:53|247:71,1,101.999996887207
308,216,388833,2,0,L|200:208,1,101.999996887207
152,248,389133,2,0,P|140:196|196:140,1,101.999996887207
320,84,389433,5,0,0:0:0:0:
360,60,389508,1,0,0:0:0:0:
404,60,389583,1,0,0:0:0:0:
392,204,389733,1,0,0:0:0:0:
272,280,389883,5,0,0:0:0:0:
236,310,389958,1,0,0:0:0:0:
193,318,390033,1,0,0:0:0:0:
152,180,390183,1,0,0:0:0:0:
280,120,390333,2,0,L|380:76,1,101.999996887207
344,220,390633,5,0,0:0:0:0:
312,254,390708,1,0,0:0:0:0:
270,267,390783,1,0,0:0:0:0:
132,308,390933,1,0,0:0:0:0:
132,184,391083,5,0,0:0:0:0:
105,145,391158,1,0,0:0:0:0:
102,101,391233,1,0,0:0:0:0:
204,200,391383,1,0,0:0:0:0:
102,101,391533,2,0,L|186:33,1,101.999996887207
264,36,391833,5,0,0:0:0:0:
315,57,391908,1,0,0:0:0:0:
360,89,391983,1,0,0:0:0:0:
388,137,392058,1,0,0:0:0:0:
377,192,392133,1,0,0:0:0:0:
338,233,392208,1,0,0:0:0:0:
282,237,392283,1,0,0:0:0:0:
229,216,392358,1,0,0:0:0:0:
183,183,392433,5,0,0:0:0:0:
132,158,392508,1,0,0:0:0:0:
76,152,392583,1,0,0:0:0:0:
34,190,392658,1,0,0:0:0:0:
46,244,392733,1,0,0:0:0:0:
93,273,392808,1,0,0:0:0:0:
145,252,392883,1,0,0:0:0:0:
176,205,392958,1,0,0:0:0:0:
184,144,393033,5,0,0:0:0:0:
214,90,393108,1,0,0:0:0:0:
272,70,393183,1,0,0:0:0:0:
328,93,393258,1,0,0:0:0:0:
369,137,393333,1,0,0:0:0:0:
388,195,393408,1,0,0:0:0:0:
381,255,393483,1,0,0:0:0:0:
343,303,393558,1,0,0:0:0:0:
278,319,393633,5,0,0:0:0:0:
224,279,393708,1,0,0:0:0:0:
207,214,393783,1,0,0:0:0:0:
200,148,393858,1,0,0:0:0:0:
156,97,393933,1,0,0:0:0:0:
92,77,394008,1,0,0:0:0:0:
33,109,394083,1,0,0:0:0:0:
17,173,394158,1,0,0:0:0:0:
29,244,394233,6,0,P|52:320|113:344,1,110.499994941712
100,272,394533,2,0,L|208:216,1,110.499994941712
308,164,394833,1,0,0:0:0:0:
378,150,394983,2,0,P|340:107|262:100,1,110.499994941712
156,172,395283,1,0,0:0:0:0:
244,292,395433,2,0,L|356:264,1,110.499994941712
352,264,395658,1,0,0:0:0:0:
352,264,395733,1,0,0:0:0:0:
316,136,395883,5,0,0:0:0:0:
208,56,396033,1,0,0:0:0:0:
156,180,396183,1,0,0:0:0:0:
176,304,396333,2,0,B|232:324|232:324|308:320,1,110.499994941712
372,232,396633,2,0,P|400:128|280:64,1,220.999989883423
324,160,397083,2,0,L|200:144,1,110.499994941712
260,300,397383,2,0,P|319:314|366:278,1,110.499994941712
324,160,397683,1,0,0:0:0:0:
204,168,397833,2,0,L|162:303,1,110.499994941712
171,273,398058,1,0,0:0:0:0:
171,273,398133,1,0,0:0:0:0:
296,328,398283,6,0,P|340:292|336:236,1,110.499994941712
356,120,398583,1,0,0:0:0:0:
244,72,398733,1,0,0:0:0:0:
164,164,398883,1,0,0:0:0:0:
104,80,399033,2,0,P|166:169|283:137,1,220.999989883423
196,100,399483,2,0,L|136:236,1,110.499994941712
252,284,399783,6,0,P|296:256|336:204,1,110.499994941712
280,64,400083,1,0,0:0:0:0:
232,56,400158,1,0,0:0:0:0:
184,60,400233,2,0,P|100:116|80:248,1,220.999989883423
36,292,400683,2,0,P|96:296|152:240,1,110.499994941712
240,156,400983,1,0,0:0:0:0:
288,96,401133,2,0,P|196:92|164:116,1,110.499994941712
96,192,401433,5,0,0:0:0:0:
100,213,401508,1,0,0:0:0:0:
109,232,401583,1,0,0:0:0:0:
121,250,401658,1,0,0:0:0:0:
135,266,401733,1,0,0:0:0:0:
153,278,401808,1,0,0:0:0:0:
172,287,401883,2,0,P|199:298|233:291,1,55.2499974708558
268,295,402033,2,0,L|306:256,3,55.2499974708558
350,245,402333,2,0,L|399:211,3,55.2499974708558
405,134,402633,5,0,0:0:0:0:
394,116,402708,1,0,0:0:0:0:
378,101,402783,1,0,0:0:0:0:
361,89,402858,1,0,0:0:0:0:
342,79,402933,1,0,0:0:0:0:
321,74,403008,1,0,0:0:0:0:
300,73,403083,2,0,P|271:72|241:91,1,55.2499974708558
140,100,403233,2,0,L|104:144,1,55.2499974708558
56,240,403383,2,0,L|128:232,1,55.2499974708558
220,216,403533,2,0,L|204:292,1,55.2499974708558
292,344,403683,2,0,L|336:312,1,55.2499974708558
396,220,403833,2,0,P|376:128|248:92,1,220.999989883423
