osu file format v14

[General]
AudioFilename: audio.mp3
AudioLeadIn: 0
PreviewTime: 232
Countdown: 0
SampleSet: Normal
StackLeniency: 0.7
Mode: 1
LetterboxInBreaks: 0
EpilepsyWarning: 1
WidescreenStoryboard: 1

[Editor]
Bookmarks: 257721,263060
DistanceSpacing: 0.4
BeatDivisor: 8
GridSize: 4
TimelineZoom: 4.099999

[Metadata]
Title:Symphony of the Night
TitleUnicode:Symphony of the Night
Artist:DragonForce
ArtistUnicode:DragonForce
Creator:Raiden
Version:Tatsujin
Source:
Tags:speed power metal maximum overload tasuke912 dgf
BeatmapID:1174919
BeatmapSetID:555073

[Difficulty]
HPDrainRate:5
CircleSize:2
OverallDifficulty:6
ApproachRate:10
SliderMultiplier:1.4
SliderTickRate:1

[Events]
//Background and Video events
0,0,"bg.png",0,0
//Break Periods
//Storyboard Layer 0 (Background)
//Storyboard Layer 1 (Fail)
//Storyboard Layer 2 (Pass)
//Storyboard Layer 3 (Foreground)
//Storyboard Sound Samples

[TimingPoints]
402,338.983050847458,4,1,1,35,1,0
402,-133.333333333333,4,1,1,35,0,0
10486,-128.205128205128,4,1,1,35,0,0
10656,-123.456790123457,4,1,1,35,0,0
10825,-119.047619047619,4,1,1,35,0,0
10995,-114.942528735632,4,1,1,35,0,0
11249,-111.111111111111,4,1,3,55,0,0
11673,-111.111111111111,4,1,2,55,0,0
19427,-111.111111111111,4,3,0,5,0,0
22096,-100,4,1,3,75,0,0
54639,-90.9090909090909,4,1,6,100,0,1
65486,-90.9090909090909,4,1,3,100,0,1
70910,-90.9090909090909,4,1,6,100,0,1
76334,-100,4,1,6,75,0,0
85825,-100,4,1,3,75,0,0
108876,-90.9090909090909,4,1,6,100,0,1
119724,-90.9090909090909,4,1,3,100,0,1
125147,-90.9090909090909,4,1,6,100,0,1
127859,-90.9090909090909,4,1,3,100,0,1
130571,-90.9090909090909,4,1,3,85,0,0
131842,-111.111111111111,4,1,3,40,0,0
136249,-111.111111111111,4,1,6,40,0,0
137266,-111.111111111111,4,1,3,40,0,0
137435,-111.111111111111,4,1,6,40,0,0
138622,-111.111111111111,4,1,3,40,0,0
144130,413.793103448276,4,1,1,50,1,8
144336,-100,4,1,1,50,0,8
144420,413.793103448276,4,1,1,50,1,0
144523,-100,4,3,0,5,0,0
147730,-100,4,1,1,30,0,0
160868,-100,4,1,1,5,0,0
162575,-98.0392156862745,4,1,1,5,0,0
163402,-96.1538461538461,4,1,1,5,0,0
164230,-94.3396226415094,4,1,1,5,0,0
167540,-100,4,1,1,5,0,0
169195,-98.0392156862745,4,1,1,5,0,0
169816,-96.1538461538461,4,1,1,30,0,0
170023,-96.1538461538461,4,1,1,5,0,0
170851,-94.3396226415094,4,1,1,5,0,0
173592,-100,4,1,2,50,0,0
174109,-95.2380952380952,4,1,2,65,0,0
187454,-95.2380952380952,4,1,0,85,0,0
243730,338.983050847458,4,1,3,60,1,8
243738,338.983050847458,4,1,3,75,1,0
254585,-100,4,1,6,100,0,1
274924,-100,4,1,3,100,0,1
277636,-100,4,1,6,60,0,0
278992,-90.9090909090909,4,1,6,100,0,1
288483,-90.9090909090909,4,1,3,100,0,1
293907,-90.9090909090909,4,1,6,100,0,1
302043,-90.9090909090909,4,1,3,100,0,1
304754,530.973451327434,4,1,3,60,1,0
304754,-66.6666666666667,4,1,3,60,0,0
306877,563.380281690141,4,1,3,60,1,0
306877,-66.6666666666667,4,1,3,60,0,0
308003,991.735537190083,4,1,3,60,1,0
308003,-50,4,1,3,60,0,0
308994,1188.11881188119,4,1,3,60,1,8
308994,-50,4,1,3,60,0,0
310182,1206.03015075377,4,1,3,60,1,0
310182,-50,4,1,3,60,0,0
310332,-50,4,3,0,5,0,0
315006,545.454545454546,4,1,3,60,1,0

[HitObjects]
428,360,402,5,2,0:0:0:0:
192,88,571,1,0,0:0:0:0:
192,88,740,1,0,0:0:0:0:
384,300,910,1,2,0:0:0:0:
216,144,1079,1,0,0:0:0:0:
216,144,1249,1,0,0:0:0:0:
404,324,1418,1,2,0:0:0:0:
404,324,1503,1,2,0:0:0:0:
404,324,1588,1,2,0:0:0:0:
404,324,1673,1,2,0:0:0:0:
200,136,1757,1,0,0:0:0:0:
392,328,1927,1,8,0:0:0:0:
392,328,2096,1,8,0:0:0:0:
132,108,2266,1,0,0:0:0:0:
352,316,2435,1,8,0:0:0:0:
352,316,2605,1,8,0:0:0:0:
188,112,2774,5,0,0:0:0:0:
388,308,2859,1,8,0:0:0:0:
388,308,2944,1,8,0:0:0:0:
388,308,3029,1,8,0:0:0:0:
136,96,3113,1,0,0:0:0:0:
400,340,3283,1,8,0:0:0:0:
184,144,3452,1,0,0:0:0:0:
184,144,3622,1,0,0:0:0:0:
368,308,3791,1,8,0:0:0:0:
92,56,3961,1,0,0:0:0:0:
408,320,4130,1,8,0:0:0:0:
376,296,4215,1,8,0:0:0:0:
172,152,4300,1,0,0:0:0:0:
164,148,4385,1,0,0:0:0:0:
396,324,4469,1,8,0:0:0:0:
140,76,4639,1,0,0:0:0:0:
152,92,4808,1,0,0:0:0:0:
344,304,4978,1,8,0:0:0:0:
184,124,5147,1,0,0:0:0:0:
336,324,5317,1,8,0:0:0:0:
280,284,5486,1,8,0:0:0:0:
160,116,5571,1,0,0:0:0:0:
376,320,5656,1,8,0:0:0:0:
376,320,5740,1,8,0:0:0:0:
164,120,5825,5,0,0:0:0:0:
376,308,5995,1,8,0:0:0:0:
376,308,6164,1,8,0:0:0:0:
176,136,6334,1,0,0:0:0:0:
412,348,6503,1,8,0:0:0:0:
152,120,6673,1,0,0:0:0:0:
404,340,6842,1,8,0:0:0:0:
392,320,6927,1,8,0:0:0:0:
152,128,7012,1,0,0:0:0:0:
152,128,7096,1,0,0:0:0:0:
152,128,7181,1,0,0:0:0:0:
400,308,7351,1,8,0:0:0:0:
144,128,7520,1,0,0:0:0:0:
152,120,7690,1,0,0:0:0:0:
396,304,7859,1,8,0:0:0:0:
152,128,8029,1,0,0:0:0:0:
416,336,8198,1,8,0:0:0:0:
416,336,8283,1,8,0:0:0:0:
156,140,8368,1,0,0:0:0:0:
156,140,8452,1,0,0:0:0:0:
344,296,8537,1,8,0:0:0:0:
160,148,8707,1,0,0:0:0:0:
160,148,8876,1,0,0:0:0:0:
420,348,9046,1,8,0:0:0:0:
100,104,9215,1,0,0:0:0:0:
100,104,9385,1,0,0:0:0:0:
392,340,9554,1,8,0:0:0:0:
392,340,9639,1,8,0:0:0:0:
92,104,9724,1,0,0:0:0:0:
92,104,9808,1,0,0:0:0:0:
92,104,9893,5,0,0:0:0:0:
136,160,10063,1,0,0:0:0:0:
428,344,10232,1,8,0:0:0:0:
176,136,10402,1,0,0:0:0:0:
408,312,10571,1,8,0:0:0:0:
144,116,10740,1,0,0:0:0:0:
408,312,10910,1,8,0:0:0:0:
384,320,11079,1,8,0:0:0:0:
108,288,11249,5,4,0:0:0:0:
336,308,11757,1,8,0:0:0:0:
176,164,12266,1,0,0:0:0:0:
176,164,12351,1,0,0:0:0:0:
176,164,12435,1,0,0:0:0:0:
176,164,12520,1,0,0:0:0:0:
176,164,12605,1,0,0:0:0:0:
400,320,13113,1,8,0:0:0:0:
156,164,13452,1,0,0:0:0:0:
308,308,13622,1,8,0:0:0:0:
140,128,13791,1,0,0:0:0:0:
140,128,13961,1,0,0:0:0:0:
392,328,14469,1,8,0:0:0:0:
116,132,14978,1,0,0:0:0:0:
120,132,15063,1,0,0:0:0:0:
120,132,15147,1,0,0:0:0:0:
120,132,15232,1,0,0:0:0:0:
120,132,15317,1,0,0:0:0:0:
436,360,15825,1,8,0:0:0:0:
128,108,15995,1,0,0:0:0:0:
128,108,16164,1,0,0:0:0:0:
300,280,16334,1,8,0:0:0:0:
136,148,16503,1,0,0:0:0:0:
136,148,16673,5,0,0:0:0:0:
417,334,17181,1,8,0:0:0:0:
141,130,17520,1,0,0:0:0:0:
109,122,17859,1,0,0:0:0:0:
109,122,18029,1,0,0:0:0:0:
361,279,18537,1,8,0:0:0:0:
104,96,18876,1,0,0:0:0:0:
104,96,18961,1,0,0:0:0:0:
104,96,19046,1,0,0:0:0:0:
104,96,19130,1,0,0:0:0:0:
104,96,19215,1,0,0:0:0:0:
104,96,19300,1,0,0:0:0:0:
104,96,19385,1,0,0:0:0:0:
256,192,19469,12,8,21757,0:0:0:0:
104,296,22096,5,4,0:0:0:0:
368,320,22266,1,8,0:0:0:0:
139,131,22351,1,0,0:0:0:0:
179,157,22520,1,0,0:0:0:0:
385,317,22605,1,8,0:0:0:0:
161,140,22774,1,0,0:0:0:0:
348,317,22944,1,8,0:0:0:0:
348,317,23029,1,8,0:0:0:0:
131,138,23113,1,0,0:0:0:0:
130,125,23198,1,0,0:0:0:0:
369,288,23283,1,8,0:0:0:0:
126,110,23452,1,0,0:0:0:0:
344,307,23622,1,8,0:0:0:0:
129,154,23707,1,0,0:0:0:0:
129,154,23876,1,0,0:0:0:0:
331,305,23961,1,8,0:0:0:0:
129,129,24130,1,0,0:0:0:0:
368,341,24300,1,8,0:0:0:0:
368,341,24385,1,8,0:0:0:0:
131,128,24554,1,0,0:0:0:0:
346,307,24639,1,8,0:0:0:0:
71,104,24808,5,0,0:0:0:0:
71,104,24893,1,0,0:0:0:0:
320,284,24978,1,8,0:0:0:0:
176,138,25063,1,0,0:0:0:0:
200,147,25147,1,0,0:0:0:0:
200,147,25232,1,0,0:0:0:0:
332,310,25317,1,8,0:0:0:0:
333,270,25402,1,8,0:0:0:0:
200,147,25486,1,0,0:0:0:0:
200,147,25571,1,0,0:0:0:0:
332,310,25656,1,8,0:0:0:0:
176,138,25740,1,0,0:0:0:0:
200,147,25825,1,0,0:0:0:0:
200,147,25910,1,0,0:0:0:0:
332,310,25995,1,8,0:0:0:0:
176,138,26079,1,0,0:0:0:0:
200,147,26164,1,0,0:0:0:0:
444,276,26249,1,8,0:0:0:0:
332,310,26334,1,8,0:0:0:0:
178,109,26418,1,0,0:0:0:0:
321,273,26503,1,8,0:0:0:0:
123,112,26588,1,0,0:0:0:0:
352,319,26673,1,8,0:0:0:0:
134,119,26757,1,0,0:0:0:0:
375,298,26842,1,8,0:0:0:0:
376,302,26927,1,8,0:0:0:0:
145,135,27012,1,0,0:0:0:0:
146,127,27096,1,0,0:0:0:0:
388,300,27181,1,8,0:0:0:0:
237,209,27266,1,0,0:0:0:0:
376,333,27351,1,8,0:0:0:0:
378,322,27435,1,8,0:0:0:0:
104,296,27520,5,0,0:0:0:0:
368,320,27690,1,8,0:0:0:0:
139,131,27774,1,0,0:0:0:0:
179,157,27944,1,0,0:0:0:0:
385,317,28029,1,8,0:0:0:0:
340,360,28198,1,8,0:0:0:0:
348,317,28368,1,8,0:0:0:0:
348,317,28452,1,8,0:0:0:0:
136,84,28537,1,0,0:0:0:0:
130,125,28622,1,0,0:0:0:0:
369,288,28707,1,8,0:0:0:0:
296,272,28876,1,8,0:0:0:0:
344,307,29046,1,8,0:0:0:0:
129,154,29130,1,0,0:0:0:0:
129,154,29300,1,0,0:0:0:0:
331,305,29385,1,8,0:0:0:0:
428,356,29554,1,8,0:0:0:0:
368,341,29724,1,8,0:0:0:0:
368,341,29808,1,8,0:0:0:0:
131,128,29978,1,0,0:0:0:0:
346,307,30063,1,8,0:0:0:0:
200,147,30232,5,0,0:0:0:0:
178,109,30317,1,0,0:0:0:0:
332,310,30402,1,8,0:0:0:0:
308,240,30486,1,8,0:0:0:0:
321,273,30571,1,8,0:0:0:0:
392,268,30656,1,8,0:0:0:0:
171,88,30740,1,0,0:0:0:0:
134,119,30825,1,0,0:0:0:0:
375,298,30910,1,8,0:0:0:0:
376,302,30995,1,8,0:0:0:0:
288,248,31079,1,8,0:0:0:0:
388,300,31164,1,8,0:0:0:0:
146,127,31249,1,0,0:0:0:0:
237,209,31334,1,0,0:0:0:0:
376,333,31418,1,8,0:0:0:0:
378,322,31503,1,8,0:0:0:0:
104,296,31588,5,0,0:0:0:0:
132,120,31673,1,0,0:0:0:0:
340,320,31757,1,8,0:0:0:0:
340,320,31842,1,8,0:0:0:0:
340,320,31927,1,8,0:0:0:0:
352,272,32012,1,8,0:0:0:0:
140,128,32096,1,0,0:0:0:0:
140,128,32181,1,0,0:0:0:0:
348,320,32266,1,8,0:0:0:0:
156,148,32351,1,0,0:0:0:0:
356,308,32435,1,8,0:0:0:0:
356,308,32520,1,8,0:0:0:0:
128,144,32605,1,0,0:0:0:0:
128,140,32690,1,0,0:0:0:0:
388,336,32774,1,8,0:0:0:0:
376,308,32859,1,8,0:0:0:0:
136,104,32944,5,0,0:0:0:0:
368,320,33113,1,8,0:0:0:0:
139,131,33198,1,0,0:0:0:0:
179,157,33368,1,0,0:0:0:0:
385,317,33452,1,8,0:0:0:0:
161,140,33622,1,0,0:0:0:0:
348,317,33791,1,8,0:0:0:0:
348,317,33876,1,8,0:0:0:0:
131,138,33961,1,0,0:0:0:0:
130,125,34046,1,0,0:0:0:0:
369,288,34130,1,8,0:0:0:0:
126,110,34300,1,0,0:0:0:0:
344,307,34469,1,8,0:0:0:0:
129,154,34554,1,0,0:0:0:0:
129,154,34724,1,0,0:0:0:0:
331,305,34808,1,8,0:0:0:0:
129,129,34978,1,0,0:0:0:0:
368,341,35147,1,8,0:0:0:0:
368,341,35232,1,8,0:0:0:0:
131,128,35402,1,0,0:0:0:0:
346,307,35486,1,8,0:0:0:0:
71,104,35656,5,0,0:0:0:0:
140,96,35740,1,0,0:0:0:0:
352,324,35825,1,8,0:0:0:0:
152,108,35910,1,0,0:0:0:0:
152,108,35995,1,0,0:0:0:0:
152,108,36079,1,0,0:0:0:0:
352,324,36164,1,8,0:0:0:0:
200,128,36249,1,0,0:0:0:0:
400,292,36334,1,8,0:0:0:0:
352,324,36418,1,8,0:0:0:0:
88,116,36503,1,0,0:0:0:0:
88,124,36588,1,0,0:0:0:0:
336,284,36673,1,8,0:0:0:0:
88,124,36757,1,0,0:0:0:0:
376,324,36842,1,8,0:0:0:0:
376,324,36927,1,8,0:0:0:0:
372,296,37012,1,8,0:0:0:0:
88,124,37096,1,0,0:0:0:0:
352,288,37181,1,8,0:0:0:0:
88,124,37266,1,0,0:0:0:0:
88,124,37351,1,0,0:0:0:0:
88,124,37435,1,0,0:0:0:0:
352,288,37520,1,8,0:0:0:0:
376,308,37605,1,8,0:0:0:0:
100,104,37690,1,0,0:0:0:0:
100,104,37774,1,0,0:0:0:0:
352,288,37859,1,8,0:0:0:0:
152,104,37944,1,0,0:0:0:0:
356,312,38029,1,8,0:0:0:0:
144,92,38113,1,0,0:0:0:0:
360,312,38198,1,8,0:0:0:0:
360,296,38283,1,8,0:0:0:0:
160,96,38368,5,0,0:0:0:0:
368,320,38537,1,8,0:0:0:0:
139,131,38622,1,0,0:0:0:0:
179,157,38791,1,0,0:0:0:0:
385,317,38876,1,8,0:0:0:0:
304,364,39046,1,8,0:0:0:0:
348,317,39215,1,8,0:0:0:0:
348,317,39300,1,8,0:0:0:0:
131,138,39385,1,0,0:0:0:0:
130,125,39469,1,0,0:0:0:0:
369,288,39554,1,8,0:0:0:0:
312,256,39724,1,8,0:0:0:0:
344,307,39893,1,8,0:0:0:0:
129,154,39978,1,0,0:0:0:0:
129,154,40147,1,0,0:0:0:0:
331,305,40232,1,8,0:0:0:0:
368,341,40402,1,8,0:0:0:0:
360,296,40571,1,8,0:0:0:0:
335,280,40656,1,8,0:0:0:0:
131,128,40825,1,0,0:0:0:0:
346,307,40910,1,8,0:0:0:0:
156,152,41079,5,0,0:0:0:0:
156,152,41164,1,0,0:0:0:0:
416,304,41249,1,8,0:0:0:0:
156,152,41334,1,0,0:0:0:0:
156,152,41418,1,0,0:0:0:0:
156,152,41503,1,0,0:0:0:0:
416,304,41588,1,8,0:0:0:0:
424,316,41673,1,8,0:0:0:0:
120,160,41757,1,0,0:0:0:0:
120,160,41842,1,0,0:0:0:0:
416,304,41927,1,8,0:0:0:0:
120,160,42012,1,0,0:0:0:0:
416,304,42096,1,8,0:0:0:0:
396,324,42181,1,8,0:0:0:0:
416,304,42266,1,8,0:0:0:0:
380,288,42351,1,8,0:0:0:0:
100,116,42435,5,0,0:0:0:0:
152,120,42605,1,0,0:0:0:0:
336,288,42774,1,8,0:0:0:0:
336,288,42859,1,8,0:0:0:0:
136,120,42944,1,0,0:0:0:0:
144,120,43113,1,0,0:0:0:0:
312,268,43283,1,8,0:0:0:0:
312,268,43368,1,8,0:0:0:0:
220,136,43452,1,0,0:0:0:0:
176,144,43537,1,0,0:0:0:0:
272,248,43622,1,8,0:0:0:0:
312,260,43707,1,8,0:0:0:0:
124,284,43791,5,0,0:0:0:0:
356,324,45147,1,8,0:0:0:0:
356,324,45317,1,8,0:0:0:0:
356,324,45486,1,8,0:0:0:0:
104,304,45656,1,4,0:0:0:0:
140,104,45995,1,0,0:0:0:0:
140,104,46164,1,0,0:0:0:0:
140,104,46334,1,0,0:0:0:0:
352,288,46503,1,12,0:0:0:0:
160,120,46729,1,0,0:0:0:0:
160,120,46955,1,0,0:0:0:0:
380,312,47181,1,12,0:0:0:0:
172,124,47407,1,0,0:0:0:0:
132,268,47633,1,0,0:0:0:0:
312,248,47859,1,12,0:0:0:0:
132,268,48537,5,4,0:0:0:0:
396,312,48707,1,8,0:0:0:0:
396,312,48791,1,8,0:0:0:0:
396,312,48876,1,8,0:0:0:0:
396,312,48961,1,8,0:0:0:0:
396,312,49046,1,8,0:0:0:0:
396,312,49130,1,8,0:0:0:0:
160,144,49215,1,0,0:0:0:0:
180,136,49300,1,0,0:0:0:0:
336,284,49385,1,8,0:0:0:0:
152,128,49469,1,0,0:0:0:0:
152,128,49554,1,0,0:0:0:0:
152,128,49639,1,0,0:0:0:0:
364,296,49724,1,8,0:0:0:0:
408,292,49808,1,8,0:0:0:0:
156,164,49893,1,0,0:0:0:0:
156,164,49978,1,0,0:0:0:0:
384,304,50063,1,8,0:0:0:0:
168,148,50147,1,0,0:0:0:0:
168,148,50232,1,0,0:0:0:0:
168,152,50317,1,0,0:0:0:0:
384,304,50402,1,8,0:0:0:0:
324,280,50486,1,8,0:0:0:0:
144,88,50571,1,0,0:0:0:0:
144,88,50656,1,0,0:0:0:0:
384,304,50740,1,8,0:0:0:0:
352,260,50825,1,8,0:0:0:0:
148,112,50910,1,0,0:0:0:0:
400,304,50995,1,8,0:0:0:0:
384,304,51079,1,8,0:0:0:0:
132,132,51164,1,0,0:0:0:0:
372,252,51249,1,8,0:0:0:0:
372,252,51334,1,8,0:0:0:0:
384,304,51418,1,8,0:0:0:0:
168,112,51503,1,0,0:0:0:0:
168,112,51588,1,0,0:0:0:0:
168,112,51673,1,0,0:0:0:0:
384,304,51757,1,8,0:0:0:0:
168,112,51842,1,0,0:0:0:0:
384,304,51927,1,8,0:0:0:0:
168,112,52012,1,0,0:0:0:0:
168,112,52096,1,0,0:0:0:0:
404,340,52181,1,8,0:0:0:0:
168,120,52266,1,0,0:0:0:0:
168,120,52351,1,0,0:0:0:0:
404,340,52435,1,8,0:0:0:0:
168,120,52520,1,0,0:0:0:0:
404,340,52605,1,8,0:0:0:0:
392,324,52690,1,8,0:0:0:0:
380,316,52774,1,8,0:0:0:0:
380,316,52859,1,8,0:0:0:0:
136,108,52944,1,0,0:0:0:0:
136,108,53029,1,0,0:0:0:0:
136,108,53113,1,0,0:0:0:0:
136,108,53198,1,0,0:0:0:0:
352,288,53283,5,8,0:0:0:0:
360,296,54639,5,8,0:0:0:0:
156,124,54724,1,0,0:0:0:0:
368,288,54808,1,8,0:0:0:0:
124,72,54893,1,0,0:0:0:0:
124,72,54978,1,0,0:0:0:0:
124,72,55063,1,0,0:0:0:0:
372,280,55147,1,8,0:0:0:0:
168,92,55232,1,0,0:0:0:0:
372,280,55317,1,8,0:0:0:0:
388,304,55402,1,8,0:0:0:0:
172,124,55486,1,0,0:0:0:0:
172,124,55571,1,0,0:0:0:0:
372,280,55656,1,8,0:0:0:0:
176,120,55740,1,0,0:0:0:0:
119,84,55825,1,0,0:0:0:0:
112,120,55910,1,0,0:0:0:0:
352,248,55995,1,8,0:0:0:0:
112,120,56079,1,0,0:0:0:0:
157,92,56164,1,0,0:0:0:0:
160,124,56249,1,0,0:0:0:0:
322,264,56334,1,8,0:0:0:0:
160,124,56418,1,0,0:0:0:0:
384,308,56503,1,8,0:0:0:0:
376,296,56588,1,8,0:0:0:0:
294,245,56673,1,8,0:0:0:0:
160,112,56757,1,0,0:0:0:0:
158,86,56842,1,0,0:0:0:0:
108,80,56927,1,0,0:0:0:0:
392,288,57012,1,8,0:0:0:0:
368,268,57096,1,8,0:0:0:0:
112,92,57181,1,0,0:0:0:0:
112,92,57266,1,0,0:0:0:0:
392,288,57351,1,8,0:0:0:0:
129,142,57435,1,0,0:0:0:0:
129,142,57520,1,0,0:0:0:0:
129,142,57605,1,0,0:0:0:0:
389,272,57690,1,8,0:0:0:0:
129,142,57774,1,0,0:0:0:0:
389,272,57859,1,8,0:0:0:0:
129,142,57944,1,0,0:0:0:0:
389,272,58029,1,8,0:0:0:0:
155,153,58113,1,0,0:0:0:0:
155,153,58198,1,0,0:0:0:0:
389,272,58283,1,8,0:0:0:0:
155,153,58368,1,0,0:0:0:0:
155,153,58452,1,0,0:0:0:0:
389,272,58537,1,8,0:0:0:0:
162,155,58622,1,0,0:0:0:0:
389,272,58707,1,8,0:0:0:0:
368,268,58791,1,8,0:0:0:0:
368,268,58876,1,8,0:0:0:0:
368,268,58961,1,8,0:0:0:0:
138,87,59046,1,0,0:0:0:0:
138,87,59130,1,0,0:0:0:0:
138,87,59215,1,0,0:0:0:0:
171,133,59300,1,0,0:0:0:0:
361,243,59385,1,8,0:0:0:0:
370,256,59469,1,8,0:0:0:0:
387,280,59554,1,8,0:0:0:0:
387,280,59639,1,8,0:0:0:0:
130,110,59724,1,0,0:0:0:0:
96,114,59808,1,0,0:0:0:0:
96,114,59893,1,0,0:0:0:0:
96,114,59978,1,0,0:0:0:0:
359,278,60063,1,8,0:0:0:0:
396,308,60147,1,8,0:0:0:0:
74,110,60232,1,0,0:0:0:0:
74,110,60317,1,0,0:0:0:0:
74,110,60402,1,0,0:0:0:0:
74,110,60486,1,0,0:0:0:0:
373,269,60571,1,8,0:0:0:0:
146,130,60656,1,0,0:0:0:0:
373,269,60740,1,8,0:0:0:0:
347,278,60825,1,8,0:0:0:0:
138,159,60910,1,0,0:0:0:0:
137,154,60995,1,0,0:0:0:0:
373,269,61079,1,8,0:0:0:0:
137,154,61164,1,0,0:0:0:0:
373,269,61249,1,8,0:0:0:0:
137,154,61334,1,0,0:0:0:0:
373,269,61418,1,8,0:0:0:0:
347,278,61503,1,8,0:0:0:0:
138,159,61588,1,0,0:0:0:0:
172,112,61673,1,0,0:0:0:0:
137,154,61757,1,0,0:0:0:0:
137,154,61842,1,0,0:0:0:0:
373,269,61927,1,8,0:0:0:0:
137,154,62012,1,0,0:0:0:0:
373,269,62096,1,8,0:0:0:0:
373,242,62181,1,8,0:0:0:0:
136,117,62266,1,0,0:0:0:0:
136,117,62351,1,0,0:0:0:0:
412,288,62435,1,8,0:0:0:0:
412,288,62520,1,8,0:0:0:0:
412,288,62605,1,8,0:0:0:0:
114,96,62690,1,0,0:0:0:0:
412,288,62774,1,8,0:0:0:0:
154,104,62859,1,0,0:0:0:0:
154,104,62944,1,0,0:0:0:0:
154,104,63029,1,0,0:0:0:0:
430,315,63113,1,8,0:0:0:0:
154,104,63198,1,0,0:0:0:0:
430,315,63283,1,8,0:0:0:0:
408,298,63368,1,8,0:0:0:0:
99,103,63452,1,0,0:0:0:0:
99,103,63537,1,0,0:0:0:0:
99,103,63622,1,0,0:0:0:0:
99,103,63707,1,0,0:0:0:0:
430,315,63791,1,8,0:0:0:0:
393,289,63876,1,8,0:0:0:0:
75,61,63961,1,0,0:0:0:0:
75,61,64046,1,0,0:0:0:0:
416,303,64130,1,8,0:0:0:0:
118,108,64215,1,0,0:0:0:0:
314,241,64300,1,8,0:0:0:0:
314,241,64385,1,8,0:0:0:0:
79,92,64469,1,0,0:0:0:0:
79,92,64554,1,0,0:0:0:0:
371,291,64639,1,8,0:0:0:0:
171,151,64724,1,0,0:0:0:0:
347,268,64808,1,8,0:0:0:0:
352,286,64978,1,8,0:0:0:0:
111,114,65063,1,0,0:0:0:0:
305,319,65147,1,8,0:0:0:0:
320,311,65232,1,8,0:0:0:0:
320,311,65317,1,8,0:0:0:0:
320,311,65402,1,8,0:0:0:0:
130,107,65486,5,0,0:0:0:0:
408,328,65656,1,8,0:0:0:0:
144,120,65740,1,0,0:0:0:0:
144,120,65910,1,0,0:0:0:0:
400,300,65995,1,8,0:0:0:0:
136,68,66164,1,0,0:0:0:0:
172,120,66249,1,0,0:0:0:0:
384,292,66334,1,8,0:0:0:0:
132,88,66418,1,0,0:0:0:0:
132,88,66503,1,0,0:0:0:0:
356,280,66673,1,8,0:0:0:0:
116,88,66842,1,0,0:0:0:0:
348,284,67012,1,8,0:0:0:0:
348,284,67096,1,8,0:0:0:0:
104,80,67181,1,0,0:0:0:0:
96,76,67266,1,0,0:0:0:0:
372,260,67351,1,8,0:0:0:0:
136,56,67520,1,0,0:0:0:0:
368,284,67690,1,8,0:0:0:0:
152,100,67774,1,0,0:0:0:0:
340,288,67859,1,8,0:0:0:0:
152,100,67944,1,0,0:0:0:0:
264,224,68029,1,8,0:0:0:0:
340,288,68113,1,8,0:0:0:0:
156,136,68198,5,0,0:0:0:0:
368,284,68368,1,8,0:0:0:0:
168,124,68452,1,0,0:0:0:0:
168,124,68622,1,0,0:0:0:0:
312,240,68707,1,8,0:0:0:0:
176,120,68876,1,0,0:0:0:0:
176,120,68961,1,0,0:0:0:0:
324,256,69046,1,8,0:0:0:0:
156,80,69130,1,0,0:0:0:0:
332,264,69215,1,8,0:0:0:0:
196,140,69385,1,0,0:0:0:0:
360,280,69554,1,8,0:0:0:0:
400,312,69639,1,8,0:0:0:0:
328,288,69724,1,8,0:0:0:0:
388,348,69808,1,8,0:0:0:0:
136,160,69893,1,0,0:0:0:0:
168,112,69978,1,0,0:0:0:0:
140,124,70063,1,0,0:0:0:0:
172,136,70147,1,0,0:0:0:0:
336,284,70232,1,8,0:0:0:0:
196,120,70402,1,0,0:0:0:0:
152,128,70486,1,0,0:0:0:0:
356,280,70571,1,8,0:0:0:0:
300,264,70656,1,8,0:0:0:0:
384,324,70740,1,8,0:0:0:0:
384,324,70825,1,8,0:0:0:0:
152,128,70910,1,0,0:0:0:0:
152,128,70995,1,0,0:0:0:0:
168,116,71079,1,0,0:0:0:0:
128,80,71164,1,0,0:0:0:0:
128,80,71249,1,0,0:0:0:0:
128,80,71334,1,0,0:0:0:0:
344,276,71418,1,8,0:0:0:0:
344,276,71503,1,8,0:0:0:0:
128,80,71588,1,0,0:0:0:0:
128,80,71673,1,0,0:0:0:0:
128,80,71757,1,0,0:0:0:0:
128,80,71842,1,0,0:0:0:0:
344,260,71927,1,8,0:0:0:0:
344,260,72012,1,8,0:0:0:0:
164,112,72096,1,0,0:0:0:0:
164,112,72181,1,0,0:0:0:0:
344,260,72266,1,8,0:0:0:0:
360,264,72351,1,8,0:0:0:0:
360,264,72435,1,8,0:0:0:0:
360,264,72520,1,8,0:0:0:0:
152,104,72605,1,0,0:0:0:0:
152,100,72690,1,0,0:0:0:0:
184,80,72774,1,0,0:0:0:0:
184,80,72859,1,0,0:0:0:0:
356,220,72944,1,8,0:0:0:0:
356,220,73029,1,8,0:0:0:0:
180,120,73113,1,0,0:0:0:0:
180,120,73198,1,0,0:0:0:0:
352,272,73283,1,8,0:0:0:0:
180,120,73368,1,8,0:0:0:0:
208,104,73452,1,0,0:0:0:0:
188,88,73537,1,0,0:0:0:0:
344,288,73622,5,8,0:0:0:0:
132,40,73707,1,0,0:0:0:0:
132,40,73791,1,0,0:0:0:0:
320,252,73876,1,8,0:0:0:0:
132,40,73961,1,0,0:0:0:0:
132,40,74046,1,0,0:0:0:0:
364,280,74130,1,8,0:0:0:0:
132,40,74215,1,0,0:0:0:0:
304,224,74300,1,8,0:0:0:0:
344,252,74385,1,8,0:0:0:0:
344,252,74469,1,8,0:0:0:0:
344,252,74554,1,8,0:0:0:0:
140,96,74639,1,0,0:0:0:0:
140,96,74724,1,0,0:0:0:0:
300,240,74808,1,8,0:0:0:0:
128,80,74893,1,0,0:0:0:0:
344,252,74978,1,8,0:0:0:0:
356,268,75063,1,8,0:0:0:0:
132,120,75147,1,0,0:0:0:0:
132,120,75232,1,0,0:0:0:0:
344,252,75317,1,8,0:0:0:0:
344,252,75402,1,8,0:0:0:0:
344,252,75486,1,8,0:0:0:0:
344,252,75571,1,8,0:0:0:0:
164,120,75656,1,0,0:0:0:0:
132,104,75740,1,0,0:0:0:0:
248,212,75825,1,8,0:0:0:0:
328,236,75910,1,8,0:0:0:0:
172,120,75995,1,0,0:0:0:0:
132,120,76334,5,0,0:0:0:0:
108,88,76418,1,0,0:0:0:0:
408,292,76503,1,8,0:0:0:0:
108,88,76588,1,0,0:0:0:0:
408,292,76673,1,8,0:0:0:0:
392,288,76757,1,8,0:0:0:0:
392,304,76842,1,8,0:0:0:0:
160,100,76927,1,0,0:0:0:0:
392,304,77012,1,8,0:0:0:0:
152,108,77096,1,0,0:0:0:0:
352,264,77181,1,8,0:0:0:0:
352,264,77266,1,8,0:0:0:0:
132,132,77351,1,0,0:0:0:0:
132,132,77435,1,0,0:0:0:0:
264,252,77520,1,8,0:0:0:0:
344,276,77605,1,8,0:0:0:0:
172,132,77690,1,0,0:0:0:0:
160,100,77774,1,0,0:0:0:0:
368,276,77859,1,8,0:0:0:0:
376,300,77944,1,8,0:0:0:0:
368,276,78029,1,8,0:0:0:0:
156,112,78113,1,0,0:0:0:0:
364,284,78198,1,8,0:0:0:0:
156,112,78283,1,0,0:0:0:0:
460,324,78368,1,8,0:0:0:0:
364,260,78452,1,8,0:0:0:0:
120,108,78537,1,0,0:0:0:0:
132,96,78622,1,0,0:0:0:0:
368,276,78707,1,8,0:0:0:0:
128,120,78791,1,0,0:0:0:0:
376,272,78876,1,8,0:0:0:0:
376,304,78961,1,8,0:0:0:0:
96,80,79046,1,0,0:0:0:0:
140,80,79130,1,0,0:0:0:0:
164,104,79215,1,0,0:0:0:0:
140,80,79300,1,0,0:0:0:0:
364,284,79385,1,8,0:0:0:0:
108,64,79469,1,0,0:0:0:0:
356,264,79554,1,8,0:0:0:0:
388,280,79639,1,8,0:0:0:0:
184,136,79724,1,0,0:0:0:0:
360,268,79808,1,8,0:0:0:0:
424,312,79893,1,8,0:0:0:0:
144,68,79978,1,0,0:0:0:0:
424,312,80063,1,8,0:0:0:0:
136,112,80147,1,0,0:0:0:0:
424,312,80232,1,8,0:0:0:0:
372,304,80317,1,8,0:0:0:0:
152,124,80402,1,0,0:0:0:0:
176,128,80486,1,0,0:0:0:0:
384,280,80571,1,8,0:0:0:0:
344,260,80656,1,8,0:0:0:0:
136,104,80740,1,0,0:0:0:0:
172,128,80825,1,0,0:0:0:0:
392,288,80910,1,8,0:0:0:0:
168,124,80995,1,0,0:0:0:0:
392,288,81079,1,8,0:0:0:0:
392,288,81164,1,8,0:0:0:0:
160,104,81249,1,0,0:0:0:0:
160,104,81334,1,0,0:0:0:0:
376,280,81418,1,8,0:0:0:0:
376,280,81503,1,8,0:0:0:0:
364,264,81588,1,8,0:0:0:0:
364,264,81673,1,8,0:0:0:0:
132,120,81757,5,0,0:0:0:0:
108,88,81842,1,0,0:0:0:0:
408,292,81927,1,8,0:0:0:0:
108,88,82012,1,0,0:0:0:0:
408,292,82096,1,8,0:0:0:0:
392,288,82181,1,8,0:0:0:0:
392,304,82266,1,8,0:0:0:0:
160,100,82351,1,0,0:0:0:0:
392,304,82435,1,8,0:0:0:0:
152,108,82520,1,0,0:0:0:0:
352,264,82605,1,8,0:0:0:0:
352,264,82690,1,8,0:0:0:0:
132,132,82774,1,0,0:0:0:0:
132,132,82859,1,0,0:0:0:0:
264,252,82944,1,8,0:0:0:0:
344,276,83029,1,8,0:0:0:0:
172,132,83113,1,0,0:0:0:0:
160,100,83198,1,0,0:0:0:0:
368,276,83283,1,8,0:0:0:0:
376,300,83368,1,8,0:0:0:0:
368,276,83452,1,8,0:0:0:0:
156,112,83537,1,0,0:0:0:0:
364,284,83622,1,8,0:0:0:0:
156,112,83707,1,0,0:0:0:0:
460,324,83791,1,8,0:0:0:0:
364,260,83876,1,8,0:0:0:0:
120,108,83961,1,0,0:0:0:0:
132,96,84046,1,0,0:0:0:0:
368,276,84130,1,8,0:0:0:0:
128,120,84215,1,0,0:0:0:0:
376,272,84300,1,8,0:0:0:0:
200,132,84385,1,0,0:0:0:0:
356,272,84469,1,8,0:0:0:0:
400,272,84554,1,8,0:0:0:0:
424,296,84639,1,8,0:0:0:0:
400,272,84724,1,8,0:0:0:0:
92,64,84808,1,0,0:0:0:0:
108,64,84893,1,0,0:0:0:0:
356,264,84978,1,8,0:0:0:0:
376,296,85063,1,8,0:0:0:0:
184,136,85147,1,0,0:0:0:0:
156,68,85232,1,0,0:0:0:0:
424,312,85317,1,8,0:0:0:0:
388,280,85402,1,8,0:0:0:0:
424,312,85486,1,8,0:0:0:0:
328,272,85571,1,8,0:0:0:0:
132,100,85656,1,0,0:0:0:0:
100,280,85825,5,4,0:0:0:0:
128,232,86503,1,4,0:0:0:0:
88,304,87181,5,4,0:0:0:0:
368,320,87351,1,8,0:0:0:0:
139,131,87435,1,0,0:0:0:0:
179,157,87605,1,0,0:0:0:0:
385,317,87690,1,8,0:0:0:0:
161,140,87859,1,0,0:0:0:0:
348,317,88029,1,8,0:0:0:0:
120,104,88113,1,0,0:0:0:0:
130,125,88198,1,0,0:0:0:0:
328,304,88283,1,0,0:0:0:0:
369,288,88368,1,8,0:0:0:0:
126,110,88537,1,0,0:0:0:0:
344,307,88707,1,8,0:0:0:0:
129,154,88791,1,0,0:0:0:0:
129,154,88961,1,0,0:0:0:0:
331,305,89046,1,8,0:0:0:0:
129,129,89215,1,0,0:0:0:0:
368,341,89385,1,8,0:0:0:0:
368,341,89469,1,8,0:0:0:0:
131,128,89639,1,0,0:0:0:0:
346,307,89724,1,8,0:0:0:0:
71,104,89893,5,0,0:0:0:0:
140,96,89978,1,0,0:0:0:0:
352,324,90063,1,8,0:0:0:0:
152,108,90147,1,0,0:0:0:0:
152,108,90232,1,0,0:0:0:0:
152,108,90317,1,0,0:0:0:0:
352,324,90402,1,8,0:0:0:0:
372,336,90486,1,0,0:0:0:0:
400,292,90571,1,8,0:0:0:0:
352,324,90656,1,8,0:0:0:0:
88,116,90740,1,0,0:0:0:0:
88,124,90825,1,0,0:0:0:0:
336,284,90910,1,8,0:0:0:0:
88,124,90995,1,0,0:0:0:0:
376,324,91079,1,8,0:0:0:0:
376,324,91164,1,8,0:0:0:0:
372,296,91249,1,8,0:0:0:0:
88,124,91334,1,0,0:0:0:0:
352,288,91418,1,8,0:0:0:0:
88,124,91503,1,0,0:0:0:0:
88,124,91588,1,0,0:0:0:0:
88,124,91673,1,0,0:0:0:0:
352,288,91757,1,8,0:0:0:0:
376,308,91842,1,8,0:0:0:0:
100,104,91927,1,0,0:0:0:0:
100,104,92012,1,0,0:0:0:0:
352,288,92096,1,8,0:0:0:0:
152,104,92181,1,0,0:0:0:0:
356,312,92266,1,8,0:0:0:0:
144,92,92351,1,0,0:0:0:0:
360,312,92435,1,8,0:0:0:0:
360,296,92520,1,8,0:0:0:0:
160,96,92605,5,0,0:0:0:0:
368,320,92774,1,8,0:0:0:0:
139,131,92859,1,0,0:0:0:0:
179,157,93029,1,0,0:0:0:0:
385,317,93113,1,8,0:0:0:0:
161,140,93283,1,0,0:0:0:0:
348,317,93452,1,8,0:0:0:0:
348,317,93537,1,8,0:0:0:0:
131,138,93622,1,0,0:0:0:0:
344,272,93707,1,8,0:0:0:0:
369,288,93791,1,8,0:0:0:0:
126,110,93961,1,0,0:0:0:0:
344,307,94130,1,8,0:0:0:0:
129,154,94215,1,0,0:0:0:0:
129,154,94385,1,0,0:0:0:0:
331,305,94469,1,8,0:0:0:0:
368,341,94639,1,8,0:0:0:0:
129,129,94808,1,0,0:0:0:0:
368,341,94893,1,8,0:0:0:0:
316,304,95063,1,8,0:0:0:0:
346,307,95147,1,8,0:0:0:0:
156,152,95317,5,0,0:0:0:0:
156,152,95402,1,0,0:0:0:0:
416,304,95486,1,8,0:0:0:0:
156,152,95571,1,0,0:0:0:0:
156,152,95656,1,0,0:0:0:0:
156,152,95740,1,0,0:0:0:0:
416,304,95825,1,8,0:0:0:0:
120,160,95910,1,0,0:0:0:0:
424,316,95995,1,8,0:0:0:0:
120,160,96079,1,0,0:0:0:0:
416,304,96164,1,8,0:0:0:0:
120,160,96249,1,0,0:0:0:0:
416,304,96334,1,8,0:0:0:0:
396,324,96418,1,8,0:0:0:0:
128,104,96503,1,0,0:0:0:0:
164,120,96588,1,0,0:0:0:0:
360,308,96673,5,8,0:0:0:0:
396,324,96757,1,8,0:0:0:0:
380,352,96842,1,8,0:0:0:0:
336,288,96927,1,8,0:0:0:0:
168,92,97012,1,0,0:0:0:0:
136,120,97096,1,0,0:0:0:0:
384,284,97181,1,8,0:0:0:0:
152,88,97266,1,0,0:0:0:0:
196,144,97351,1,0,0:0:0:0:
176,104,97435,1,0,0:0:0:0:
312,268,97520,1,8,0:0:0:0:
312,268,97605,1,8,0:0:0:0:
220,136,97690,1,0,0:0:0:0:
176,144,97774,1,0,0:0:0:0:
272,248,97859,1,8,0:0:0:0:
312,260,97944,1,8,0:0:0:0:
124,284,98029,5,0,0:0:0:0:
364,272,98198,1,8,0:0:0:0:
364,272,98283,1,8,0:0:0:0:
112,104,98368,1,0,0:0:0:0:
112,104,98452,1,0,0:0:0:0:
400,300,98537,1,8,0:0:0:0:
184,88,98707,1,0,0:0:0:0:
288,216,98876,1,8,0:0:0:0:
300,248,98961,1,8,0:0:0:0:
176,132,99046,1,0,0:0:0:0:
176,132,99130,1,0,0:0:0:0:
256,188,99215,1,8,0:0:0:0:
100,92,99300,1,0,0:0:0:0:
100,92,99385,1,0,0:0:0:0:
328,276,99554,1,8,0:0:0:0:
100,92,99639,1,0,0:0:0:0:
104,104,99808,1,0,0:0:0:0:
312,288,99893,1,8,0:0:0:0:
356,304,99978,1,8,0:0:0:0:
96,104,100063,1,0,0:0:0:0:
360,272,100232,1,8,0:0:0:0:
356,272,100317,1,8,0:0:0:0:
96,124,100402,1,0,0:0:0:0:
96,124,100486,1,0,0:0:0:0:
288,252,100571,1,8,0:0:0:0:
288,252,100656,1,8,0:0:0:0:
96,84,100740,1,0,0:0:0:0:
336,296,100910,1,8,0:0:0:0:
148,152,100995,1,0,0:0:0:0:
148,160,101164,1,0,0:0:0:0:
332,276,101249,1,8,0:0:0:0:
340,284,101418,1,8,0:0:0:0:
128,112,101588,1,0,0:0:0:0:
344,312,101673,1,8,0:0:0:0:
384,312,101842,1,0,0:0:0:0:
384,312,101927,1,8,0:0:0:0:
384,312,102096,1,8,0:0:0:0:
152,108,102266,1,0,0:0:0:0:
152,108,102351,1,0,0:0:0:0:
304,264,102435,1,8,0:0:0:0:
304,264,102520,1,8,0:0:0:0:
140,84,102605,1,0,0:0:0:0:
132,268,102774,5,4,0:0:0:0:
396,312,102944,1,8,0:0:0:0:
396,312,103029,1,8,0:0:0:0:
396,312,103198,1,8,0:0:0:0:
396,312,103283,1,8,0:0:0:0:
160,144,103452,1,0,0:0:0:0:
180,136,103537,1,0,0:0:0:0:
336,284,103622,1,8,0:0:0:0:
152,128,103707,1,0,0:0:0:0:
152,128,103791,1,0,0:0:0:0:
152,128,103876,1,0,0:0:0:0:
364,296,103961,1,8,0:0:0:0:
408,292,104046,1,8,0:0:0:0:
156,164,104130,1,0,0:0:0:0:
156,164,104215,1,0,0:0:0:0:
384,304,104300,1,8,0:0:0:0:
168,148,104385,1,0,0:0:0:0:
168,148,104469,1,0,0:0:0:0:
168,152,104554,1,0,0:0:0:0:
384,304,104639,1,8,0:0:0:0:
144,88,104724,1,0,0:0:0:0:
324,280,104808,1,8,0:0:0:0:
400,304,104893,1,8,0:0:0:0:
384,304,104978,1,8,0:0:0:0:
352,260,105063,1,8,0:0:0:0:
148,112,105147,1,0,0:0:0:0:
144,88,105232,1,0,0:0:0:0:
384,304,105317,1,8,0:0:0:0:
132,132,105402,1,0,0:0:0:0:
372,252,105486,1,8,0:0:0:0:
372,252,105571,1,8,0:0:0:0:
384,304,105656,1,8,0:0:0:0:
168,112,105740,1,0,0:0:0:0:
168,112,105825,1,0,0:0:0:0:
168,112,105910,1,0,0:0:0:0:
384,304,105995,1,8,0:0:0:0:
168,112,106079,1,0,0:0:0:0:
384,304,106164,5,8,0:0:0:0:
404,340,106249,1,8,0:0:0:0:
364,256,106334,1,8,0:0:0:0:
364,256,106418,1,8,0:0:0:0:
320,280,106503,1,8,0:0:0:0:
396,292,106588,1,8,0:0:0:0:
176,160,106673,1,0,0:0:0:0:
144,84,106757,1,0,0:0:0:0:
380,312,106842,1,8,0:0:0:0:
392,324,106927,1,8,0:0:0:0:
380,316,107012,1,8,0:0:0:0:
380,316,107096,1,8,0:0:0:0:
136,108,107181,1,0,0:0:0:0:
136,108,107266,1,0,0:0:0:0:
136,108,107351,1,0,0:0:0:0:
136,108,107435,1,0,0:0:0:0:
352,288,107520,5,8,0:0:0:0:
360,296,108876,5,8,0:0:0:0:
156,124,108961,1,0,0:0:0:0:
368,288,109046,1,8,0:0:0:0:
124,72,109130,1,0,0:0:0:0:
124,72,109215,1,0,0:0:0:0:
124,72,109300,1,0,0:0:0:0:
372,280,109385,1,8,0:0:0:0:
168,92,109469,1,0,0:0:0:0:
372,280,109554,1,8,0:0:0:0:
388,304,109639,1,8,0:0:0:0:
172,124,109724,1,0,0:0:0:0:
172,124,109808,1,0,0:0:0:0:
372,280,109893,1,8,0:0:0:0:
176,120,109978,1,0,0:0:0:0:
119,84,110063,1,0,0:0:0:0:
112,120,110147,1,0,0:0:0:0:
352,248,110232,1,8,0:0:0:0:
112,120,110317,1,0,0:0:0:0:
157,92,110402,1,0,0:0:0:0:
160,124,110486,1,0,0:0:0:0:
322,264,110571,1,8,0:0:0:0:
160,124,110656,1,0,0:0:0:0:
384,308,110740,1,8,0:0:0:0:
376,296,110825,1,8,0:0:0:0:
294,245,110910,1,8,0:0:0:0:
160,112,110995,1,0,0:0:0:0:
158,86,111079,1,0,0:0:0:0:
108,80,111164,1,0,0:0:0:0:
392,288,111249,1,8,0:0:0:0:
368,268,111334,1,8,0:0:0:0:
112,92,111418,1,0,0:0:0:0:
112,92,111503,1,0,0:0:0:0:
392,288,111588,1,8,0:0:0:0:
129,142,111673,1,0,0:0:0:0:
129,142,111757,1,0,0:0:0:0:
129,142,111842,1,0,0:0:0:0:
389,272,111927,1,8,0:0:0:0:
129,142,112012,1,0,0:0:0:0:
389,272,112096,1,8,0:0:0:0:
129,142,112181,1,0,0:0:0:0:
389,272,112266,1,8,0:0:0:0:
155,153,112351,1,0,0:0:0:0:
155,153,112435,1,0,0:0:0:0:
389,272,112520,1,8,0:0:0:0:
155,153,112605,1,0,0:0:0:0:
155,153,112690,1,0,0:0:0:0:
389,272,112774,1,8,0:0:0:0:
162,155,112859,1,0,0:0:0:0:
389,272,112944,1,8,0:0:0:0:
368,268,113029,1,8,0:0:0:0:
368,268,113113,1,8,0:0:0:0:
368,268,113198,1,8,0:0:0:0:
138,87,113283,1,0,0:0:0:0:
138,87,113368,1,0,0:0:0:0:
138,87,113452,1,0,0:0:0:0:
171,133,113537,1,0,0:0:0:0:
361,243,113622,1,8,0:0:0:0:
370,256,113707,1,8,0:0:0:0:
387,280,113791,1,8,0:0:0:0:
387,280,113876,1,8,0:0:0:0:
130,110,113961,1,0,0:0:0:0:
96,114,114046,1,0,0:0:0:0:
96,114,114130,1,0,0:0:0:0:
96,114,114215,1,0,0:0:0:0:
359,278,114300,1,8,0:0:0:0:
396,308,114385,1,8,0:0:0:0:
74,110,114469,1,0,0:0:0:0:
74,110,114554,1,0,0:0:0:0:
74,110,114639,1,0,0:0:0:0:
74,110,114724,1,0,0:0:0:0:
373,269,114808,1,8,0:0:0:0:
146,130,114893,1,0,0:0:0:0:
373,269,114978,1,8,0:0:0:0:
347,278,115063,1,8,0:0:0:0:
138,159,115147,1,0,0:0:0:0:
137,154,115232,1,0,0:0:0:0:
373,269,115317,1,8,0:0:0:0:
137,154,115402,1,0,0:0:0:0:
373,269,115486,1,8,0:0:0:0:
137,154,115571,1,0,0:0:0:0:
373,269,115656,1,8,0:0:0:0:
248,244,115740,1,8,0:0:0:0:
138,159,115825,1,0,0:0:0:0:
188,140,115910,1,0,0:0:0:0:
137,154,115995,1,0,0:0:0:0:
137,154,116079,1,0,0:0:0:0:
373,269,116164,1,8,0:0:0:0:
137,154,116249,1,0,0:0:0:0:
373,269,116334,1,8,0:0:0:0:
373,242,116418,1,8,0:0:0:0:
136,117,116503,1,0,0:0:0:0:
136,117,116588,1,0,0:0:0:0:
412,288,116673,1,8,0:0:0:0:
412,288,116757,1,8,0:0:0:0:
412,288,116842,1,8,0:0:0:0:
114,96,116927,1,0,0:0:0:0:
412,288,117012,1,8,0:0:0:0:
154,104,117096,1,0,0:0:0:0:
154,104,117181,1,0,0:0:0:0:
154,104,117266,1,0,0:0:0:0:
430,315,117351,1,8,0:0:0:0:
154,104,117435,1,0,0:0:0:0:
430,315,117520,1,8,0:0:0:0:
408,298,117605,1,8,0:0:0:0:
99,103,117690,1,0,0:0:0:0:
99,103,117774,1,0,0:0:0:0:
99,103,117859,1,0,0:0:0:0:
99,103,117944,1,0,0:0:0:0:
430,315,118029,1,8,0:0:0:0:
393,289,118113,1,8,0:0:0:0:
75,61,118198,1,0,0:0:0:0:
75,61,118283,1,0,0:0:0:0:
416,303,118368,1,8,0:0:0:0:
118,108,118452,1,0,0:0:0:0:
314,241,118537,1,8,0:0:0:0:
314,241,118622,1,8,0:0:0:0:
79,92,118707,1,0,0:0:0:0:
79,92,118791,1,0,0:0:0:0:
371,291,118876,1,8,0:0:0:0:
347,268,118961,1,8,0:0:0:0:
171,151,119046,1,0,0:0:0:0:
168,96,119130,1,0,0:0:0:0:
352,286,119215,1,8,0:0:0:0:
305,319,119300,1,8,0:0:0:0:
111,114,119385,1,0,0:0:0:0:
320,311,119469,1,8,0:0:0:0:
320,311,119554,1,8,0:0:0:0:
320,311,119639,1,8,0:0:0:0:
130,107,119724,5,0,0:0:0:0:
408,328,119893,1,8,0:0:0:0:
144,120,119978,1,0,0:0:0:0:
144,120,120147,1,0,0:0:0:0:
400,300,120232,1,8,0:0:0:0:
136,68,120402,1,0,0:0:0:0:
172,120,120486,1,0,0:0:0:0:
384,292,120571,1,8,0:0:0:0:
132,88,120656,1,0,0:0:0:0:
132,88,120740,1,0,0:0:0:0:
356,280,120910,1,8,0:0:0:0:
116,88,121079,1,0,0:0:0:0:
348,284,121249,1,8,0:0:0:0:
348,284,121334,1,8,0:0:0:0:
104,80,121418,1,0,0:0:0:0:
96,76,121503,1,0,0:0:0:0:
372,260,121588,1,8,0:0:0:0:
136,56,121757,1,0,0:0:0:0:
368,284,121927,1,8,0:0:0:0:
152,100,122012,1,0,0:0:0:0:
340,288,122096,1,8,0:0:0:0:
152,100,122181,1,0,0:0:0:0:
264,224,122266,1,8,0:0:0:0:
340,288,122351,1,8,0:0:0:0:
156,136,122435,5,0,0:0:0:0:
368,284,122605,1,8,0:0:0:0:
168,124,122690,1,0,0:0:0:0:
168,124,122859,1,0,0:0:0:0:
312,240,122944,1,8,0:0:0:0:
176,120,123113,1,0,0:0:0:0:
176,120,123198,1,0,0:0:0:0:
324,256,123283,1,8,0:0:0:0:
156,80,123368,1,0,0:0:0:0:
332,264,123452,1,8,0:0:0:0:
192,108,123622,1,0,0:0:0:0:
360,280,123791,1,8,0:0:0:0:
372,312,123961,1,8,0:0:0:0:
204,152,124130,1,0,0:0:0:0:
172,136,124215,1,0,0:0:0:0:
404,292,124300,1,8,0:0:0:0:
172,136,124385,1,8,0:0:0:0:
184,144,124469,1,8,0:0:0:0:
196,120,124639,1,0,0:0:0:0:
152,128,124724,1,0,0:0:0:0:
356,280,124808,1,8,0:0:0:0:
312,276,124893,1,8,0:0:0:0:
384,324,124978,1,8,0:0:0:0:
384,324,125063,1,8,0:0:0:0:
152,128,125147,1,0,0:0:0:0:
152,128,125232,1,0,0:0:0:0:
168,116,125317,1,0,0:0:0:0:
128,80,125402,1,0,0:0:0:0:
128,80,125486,1,0,0:0:0:0:
128,80,125571,1,0,0:0:0:0:
344,276,125656,1,8,0:0:0:0:
344,276,125740,1,8,0:0:0:0:
128,80,125825,1,0,0:0:0:0:
128,80,125910,1,0,0:0:0:0:
128,80,125995,1,0,0:0:0:0:
128,80,126079,1,0,0:0:0:0:
344,260,126164,1,8,0:0:0:0:
344,260,126249,1,8,0:0:0:0:
164,112,126334,1,0,0:0:0:0:
164,112,126418,1,0,0:0:0:0:
344,260,126503,1,8,0:0:0:0:
360,264,126588,1,8,0:0:0:0:
360,264,126673,1,8,0:0:0:0:
360,264,126757,1,8,0:0:0:0:
152,104,126842,1,0,0:0:0:0:
152,100,126927,1,0,0:0:0:0:
184,80,127012,1,0,0:0:0:0:
184,80,127096,1,0,0:0:0:0:
356,220,127181,1,8,0:0:0:0:
356,220,127266,1,8,0:0:0:0:
180,120,127351,1,0,0:0:0:0:
180,120,127435,1,0,0:0:0:0:
352,272,127520,1,8,0:0:0:0:
180,120,127605,1,8,0:0:0:0:
372,288,127690,1,8,0:0:0:0:
352,272,127774,1,8,0:0:0:0:
140,64,127859,5,0,0:0:0:0:
132,40,127944,1,0,0:0:0:0:
404,296,128029,1,8,0:0:0:0:
320,252,128113,1,8,0:0:0:0:
364,280,128198,1,8,0:0:0:0:
356,268,128283,1,8,0:0:0:0:
132,40,128368,1,0,0:0:0:0:
132,40,128452,1,0,0:0:0:0:
304,224,128537,1,8,0:0:0:0:
344,252,128622,1,8,0:0:0:0:
344,252,128707,1,8,0:0:0:0:
344,252,128791,1,8,0:0:0:0:
140,96,128876,1,0,0:0:0:0:
140,96,128961,1,0,0:0:0:0:
300,240,129046,1,8,0:0:0:0:
344,252,129130,1,8,0:0:0:0:
128,80,129215,1,0,0:0:0:0:
132,120,129300,1,0,0:0:0:0:
344,252,129385,1,8,0:0:0:0:
344,252,129469,1,8,0:0:0:0:
356,268,129554,1,8,0:0:0:0:
344,252,129639,1,8,0:0:0:0:
132,120,129724,1,0,0:0:0:0:
164,120,129808,1,0,0:0:0:0:
344,252,129893,1,8,0:0:0:0:
328,236,129978,1,8,0:0:0:0:
248,212,130063,1,8,0:0:0:0:
352,256,130147,1,8,0:0:0:0:
172,120,130232,1,0,0:0:0:0:
148,96,130317,1,0,0:0:0:0:
336,208,130402,1,8,0:0:0:0:
336,208,130486,1,8,0:0:0:0:
172,96,130571,1,0,0:0:0:0:
132,292,131927,5,4,0:0:0:0:
132,292,132096,5,4,0:0:0:0:
136,260,133283,5,4,0:0:0:0:
136,260,134639,1,4,0:0:0:0:
136,260,134808,1,4,0:0:0:0:
136,260,135995,1,4,0:0:0:0:
312,296,136334,1,8,0:0:0:0:
312,296,136418,1,8,0:0:0:0:
132,160,136503,1,0,0:0:0:0:
316,284,136673,1,8,0:0:0:0:
124,132,136842,1,0,0:0:0:0:
124,128,137012,1,0,0:0:0:0:
304,244,137181,1,8,0:0:0:0:
120,296,137351,1,4,0:0:0:0:
340,300,137690,1,8,0:0:0:0:
336,288,137774,1,8,0:0:0:0:
128,112,137859,1,0,0:0:0:0:
128,112,137944,1,0,0:0:0:0:
356,276,138029,1,8,0:0:0:0:
144,96,138198,1,0,0:0:0:0:
144,96,138368,1,0,0:0:0:0:
344,284,138537,1,8,0:0:0:0:
128,288,138707,1,4,0:0:0:0:
408,328,139046,1,12,0:0:0:0:
408,328,139385,1,12,0:0:0:0:
368,304,139724,1,12,0:0:0:0:
112,256,140063,1,4,0:0:0:0:
116,112,140232,1,0,0:0:0:0:
432,132,140402,1,12,0:0:0:0:
116,112,140571,1,0,0:0:0:0:
404,312,140740,1,12,0:0:0:0:
116,112,140910,1,0,0:0:0:0:
404,312,141079,1,12,0:0:0:0:
120,260,141249,1,0,0:0:0:0:
388,304,141418,1,12,0:0:0:0:
352,280,144420,5,12,0:0:0:0:
256,192,144523,12,0,147523,0:0:0:0:
344,296,147730,5,8,0:0:0:0:
160,96,147937,1,0,0:0:0:0:
48,108,148144,1,0,0:0:0:0:
380,268,148351,1,8,0:0:0:0:
156,132,148764,1,0,0:0:0:0:
340,288,148971,1,8,0:0:0:0:
152,120,149385,1,0,0:0:0:0:
172,112,149592,1,0,0:0:0:0:
352,292,149799,1,8,0:0:0:0:
332,280,150006,1,8,0:0:0:0:
188,148,150420,1,0,0:0:0:0:
360,296,150626,1,8,0:0:0:0:
336,268,151040,1,8,0:0:0:0:
128,112,151247,1,0,0:0:0:0:
128,112,151454,1,0,0:0:0:0:
352,256,151661,1,8,0:0:0:0:
164,92,152075,1,0,0:0:0:0:
384,288,152282,1,8,0:0:0:0:
240,152,152488,1,0,0:0:0:0:
376,248,152695,1,8,0:0:0:0:
152,136,153109,1,0,0:0:0:0:
300,236,153316,1,8,0:0:0:0:
168,108,153730,1,0,0:0:0:0:
352,292,153937,1,8,0:0:0:0:
344,296,154351,5,8,0:0:0:0:
48,108,154764,1,0,0:0:0:0:
380,268,154971,1,8,0:0:0:0:
156,132,155385,1,0,0:0:0:0:
340,288,155592,1,8,0:0:0:0:
152,120,156006,1,0,0:0:0:0:
56,88,156420,1,0,0:0:0:0:
332,280,156626,1,8,0:0:0:0:
188,148,157040,1,0,0:0:0:0:
360,296,157247,1,8,0:0:0:0:
336,268,157661,1,8,0:0:0:0:
128,112,158075,1,0,0:0:0:0:
352,256,158282,1,8,0:0:0:0:
164,92,158695,1,0,0:0:0:0:
384,288,158902,1,8,0:0:0:0:
376,248,159316,1,8,0:0:0:0:
136,112,159523,1,0,0:0:0:0:
152,136,159730,1,0,0:0:0:0:
300,236,159937,1,8,0:0:0:0:
168,108,160351,1,0,0:0:0:0:
352,292,160557,1,8,0:0:0:0:
256,192,160971,12,0,162420,0:0:0:0:
256,192,162626,12,0,163247,0:0:0:0:
256,192,163454,12,0,164075,0:0:0:0:
256,192,164282,12,0,167385,0:0:0:0:
256,192,167592,12,0,169040,0:0:0:0:
256,192,169247,12,0,169661,0:0:0:0:
400,292,169868,5,8,0:0:0:0:
392,288,169971,1,8,0:0:0:0:
256,192,170075,12,0,170695,0:0:0:0:
256,192,170902,12,0,173385,0:0:0:0:
148,128,173592,5,0,0:0:0:0:
352,296,173799,1,8,0:0:0:0:
132,272,174213,5,4,0:0:0:0:
436,292,174626,1,8,0:0:0:0:
120,132,174833,1,0,0:0:0:0:
120,132,175247,1,0,0:0:0:0:
436,292,175454,1,8,0:0:0:0:
120,132,175868,1,0,0:0:0:0:
164,88,176075,1,0,0:0:0:0:
436,292,176282,1,8,0:0:0:0:
120,132,176695,1,0,0:0:0:0:
164,88,176902,1,0,0:0:0:0:
436,292,177109,1,8,0:0:0:0:
160,104,177316,1,0,0:0:0:0:
160,104,177523,1,0,0:0:0:0:
436,292,177937,1,8,0:0:0:0:
160,104,178144,1,0,0:0:0:0:
160,104,178557,1,0,0:0:0:0:
416,288,178764,1,8,0:0:0:0:
160,104,179178,1,0,0:0:0:0:
160,104,179385,1,0,0:0:0:0:
416,288,179592,1,8,0:0:0:0:
160,104,180006,1,0,0:0:0:0:
152,72,180213,1,0,0:0:0:0:
416,288,180420,1,8,0:0:0:0:
128,136,180626,1,0,0:0:0:0:
172,272,180833,5,4,0:0:0:0:
360,252,181247,1,8,0:0:0:0:
120,136,181454,1,0,0:0:0:0:
120,136,181868,1,0,0:0:0:0:
360,252,182075,1,8,0:0:0:0:
120,136,182488,1,0,0:0:0:0:
120,136,182695,1,0,0:0:0:0:
360,252,182902,1,8,0:0:0:0:
400,280,183109,1,8,0:0:0:0:
400,288,183213,1,8,0:0:0:0:
128,104,183316,1,0,0:0:0:0:
120,140,183523,1,0,0:0:0:0:
360,252,183730,1,8,0:0:0:0:
120,140,183937,1,0,0:0:0:0:
120,140,184144,1,0,0:0:0:0:
360,252,184557,1,8,0:0:0:0:
120,140,184764,1,0,0:0:0:0:
120,140,185178,1,0,0:0:0:0:
360,252,185385,1,8,0:0:0:0:
120,140,185799,1,0,0:0:0:0:
404,324,186006,1,8,0:0:0:0:
360,252,186213,1,8,0:0:0:0:
120,152,186420,1,0,0:0:0:0:
376,260,186626,1,8,0:0:0:0:
424,320,186833,1,8,0:0:0:0:
424,320,186937,1,8,0:0:0:0:
160,96,187040,1,0,0:0:0:0:
404,292,187247,1,8,0:0:0:0:
112,40,187351,1,0,0:0:0:0:
116,48,187454,5,0,0:0:0:0:
160,108,187661,1,0,0:0:0:0:
372,300,187868,1,8,0:0:0:0:
372,300,188075,1,8,0:0:0:0:
372,300,188282,1,8,0:0:0:0:
152,120,188488,1,0,0:0:0:0:
400,316,188695,1,8,0:0:0:0:
376,292,188902,1,8,0:0:0:0:
136,68,189109,1,0,0:0:0:0:
136,68,189316,1,0,0:0:0:0:
340,252,189523,1,8,0:0:0:0:
156,96,189730,1,0,0:0:0:0:
320,248,189937,1,8,0:0:0:0:
172,96,190144,1,0,0:0:0:0:
360,324,190351,1,8,0:0:0:0:
360,320,190557,1,8,0:0:0:0:
144,104,190764,1,0,0:0:0:0:
164,112,190971,1,0,0:0:0:0:
344,284,191178,1,8,0:0:0:0:
148,128,191385,1,0,0:0:0:0:
392,312,191488,1,8,0:0:0:0:
144,88,191592,1,0,0:0:0:0:
144,88,191799,1,0,0:0:0:0:
368,320,192006,1,8,0:0:0:0:
144,88,192213,1,0,0:0:0:0:
424,292,192316,1,8,0:0:0:0:
416,288,192420,1,8,0:0:0:0:
136,116,192626,1,0,0:0:0:0:
416,320,192833,1,8,0:0:0:0:
344,284,193040,1,8,0:0:0:0:
344,284,193144,1,8,0:0:0:0:
344,284,193247,1,8,0:0:0:0:
136,116,193454,1,0,0:0:0:0:
380,304,193661,1,12,0:0:0:0:
380,312,193868,1,8,0:0:0:0:
116,48,194075,5,4,0:0:0:0:
160,108,194282,1,0,0:0:0:0:
372,300,194488,1,8,0:0:0:0:
372,300,194695,1,8,0:0:0:0:
372,300,194902,1,8,0:0:0:0:
152,120,195109,1,0,0:0:0:0:
400,316,195316,1,8,0:0:0:0:
376,292,195523,1,8,0:0:0:0:
304,228,195730,1,8,0:0:0:0:
136,68,195937,1,0,0:0:0:0:
340,252,196144,1,8,0:0:0:0:
320,248,196351,1,8,0:0:0:0:
156,96,196557,1,0,0:0:0:0:
360,324,196764,1,8,0:0:0:0:
360,320,196971,1,8,0:0:0:0:
172,96,197178,1,0,0:0:0:0:
144,104,197385,1,0,0:0:0:0:
152,108,197592,1,0,0:0:0:0:
400,272,197799,1,8,0:0:0:0:
140,112,198006,1,0,0:0:0:0:
140,112,198213,1,0,0:0:0:0:
148,104,198420,1,0,0:0:0:0:
368,228,198626,1,8,0:0:0:0:
328,260,198833,1,8,0:0:0:0:
160,152,198937,1,0,0:0:0:0:
184,64,199040,5,0,0:0:0:0:
100,96,199247,1,0,0:0:0:0:
120,56,199454,1,0,0:0:0:0:
180,120,199661,1,0,0:0:0:0:
84,112,199868,1,0,0:0:0:0:
0,60,200075,1,0,0:0:0:0:
352,340,200282,1,8,0:0:0:0:
208,152,200488,1,0,0:0:0:0:
364,260,200695,1,8,0:0:0:0:
132,100,200799,1,0,0:0:0:0:
132,100,200902,1,0,0:0:0:0:
388,248,201006,1,8,0:0:0:0:
160,120,201109,1,0,0:0:0:0:
384,232,201213,1,8,0:0:0:0:
340,240,201316,1,8,0:0:0:0:
340,240,201420,1,8,0:0:0:0:
164,100,201523,1,0,0:0:0:0:
328,216,201626,1,8,0:0:0:0:
176,92,201730,1,0,0:0:0:0:
148,68,201833,1,0,0:0:0:0:
292,192,201937,1,8,0:0:0:0:
144,64,202040,1,0,0:0:0:0:
332,228,202144,1,8,0:0:0:0:
336,228,202247,1,8,0:0:0:0:
136,80,202351,1,0,0:0:0:0:
132,108,202454,1,0,0:0:0:0:
316,248,202557,1,8,0:0:0:0:
104,88,202661,1,0,0:0:0:0:
328,296,202764,1,8,0:0:0:0:
148,108,202868,1,0,0:0:0:0:
328,256,202971,1,8,0:0:0:0:
316,248,203075,1,8,0:0:0:0:
176,136,203178,1,0,0:0:0:0:
360,284,203282,1,8,0:0:0:0:
144,88,203385,1,0,0:0:0:0:
144,88,203488,1,0,0:0:0:0:
368,328,203592,1,8,0:0:0:0:
152,132,203799,1,0,0:0:0:0:
340,260,204006,1,8,0:0:0:0:
172,112,204109,1,0,0:0:0:0:
328,248,204213,1,8,0:0:0:0:
328,248,204316,1,8,0:0:0:0:
316,232,204420,1,8,0:0:0:0:
140,112,204523,1,0,0:0:0:0:
344,280,204626,1,8,0:0:0:0:
344,280,204730,1,8,0:0:0:0:
272,236,204833,1,8,0:0:0:0:
156,96,204937,1,0,0:0:0:0:
152,108,205040,1,0,0:0:0:0:
156,104,205144,1,0,0:0:0:0:
272,216,205247,1,8,0:0:0:0:
284,264,205351,1,8,0:0:0:0:
156,96,205454,1,0,0:0:0:0:
172,120,205557,1,0,0:0:0:0:
328,272,205661,1,8,0:0:0:0:
148,108,205868,1,0,0:0:0:0:
308,228,206006,1,8,0:0:0:0:
372,288,206144,1,8,0:0:0:0:
128,88,206282,1,0,0:0:0:0:
156,100,206488,1,0,0:0:0:0:
192,68,206626,1,0,0:0:0:0:
408,264,206764,1,8,0:0:0:0:
384,252,206902,1,8,0:0:0:0:
136,124,207109,1,0,0:0:0:0:
348,256,207316,5,8,0:0:0:0:
388,288,207420,1,8,0:0:0:0:
388,288,207523,1,8,0:0:0:0:
388,288,207626,1,8,0:0:0:0:
128,112,207730,1,0,0:0:0:0:
128,112,207833,1,0,0:0:0:0:
128,112,207937,1,0,0:0:0:0:
128,112,208040,1,0,0:0:0:0:
372,288,208144,1,8,0:0:0:0:
312,256,208247,1,8,0:0:0:0:
332,272,208351,1,8,0:0:0:0:
332,264,208454,1,8,0:0:0:0:
112,112,208557,1,0,0:0:0:0:
112,112,208661,1,0,0:0:0:0:
384,292,208764,1,8,0:0:0:0:
380,272,208868,1,8,0:0:0:0:
164,124,208971,1,0,0:0:0:0:
328,260,209075,1,8,0:0:0:0:
140,104,209178,1,0,0:0:0:0:
140,104,209282,1,0,0:0:0:0:
408,356,209385,1,8,0:0:0:0:
152,108,209488,1,0,0:0:0:0:
388,324,209592,1,8,0:0:0:0:
372,280,209695,1,8,0:0:0:0:
56,68,209799,1,0,0:0:0:0:
448,280,209902,1,8,0:0:0:0:
380,268,210006,1,8,0:0:0:0:
144,144,210109,1,0,0:0:0:0:
328,260,210213,1,8,0:0:0:0:
136,128,210316,1,0,0:0:0:0:
344,288,210420,1,8,0:0:0:0:
364,304,210523,1,8,0:0:0:0:
120,128,210626,1,0,0:0:0:0:
104,80,210730,1,0,0:0:0:0:
376,304,210833,1,8,0:0:0:0:
168,136,210937,1,0,0:0:0:0:
352,292,211040,1,8,0:0:0:0:
384,280,211144,1,8,0:0:0:0:
100,120,211247,1,0,0:0:0:0:
340,264,211351,1,8,0:0:0:0:
132,120,211454,1,0,0:0:0:0:
120,104,211557,1,0,0:0:0:0:
336,264,211661,1,8,0:0:0:0:
132,104,211764,1,0,0:0:0:0:
348,280,211868,1,8,0:0:0:0:
140,116,211971,1,0,0:0:0:0:
356,288,212075,1,8,0:0:0:0:
356,288,212178,1,8,0:0:0:0:
88,128,212282,1,0,0:0:0:0:
124,136,212385,1,0,0:0:0:0:
360,312,212488,1,8,0:0:0:0:
368,312,212592,1,8,0:0:0:0:
368,312,212695,1,8,0:0:0:0:
368,308,212799,1,8,0:0:0:0:
136,104,212902,1,0,0:0:0:0:
136,104,213006,1,0,0:0:0:0:
300,240,213109,1,8,0:0:0:0:
344,272,213213,1,8,0:0:0:0:
300,240,213316,1,0,0:0:0:0:
120,112,213420,1,0,0:0:0:0:
392,312,213523,1,8,0:0:0:0:
392,312,213626,1,8,0:0:0:0:
392,312,213730,1,8,0:0:0:0:
380,304,213833,1,8,0:0:0:0:
148,160,213937,5,0,0:0:0:0:
156,112,214144,1,0,0:0:0:0:
308,248,214351,1,8,0:0:0:0:
148,136,214557,1,0,0:0:0:0:
348,288,214764,1,8,0:0:0:0:
172,136,214971,1,0,0:0:0:0:
376,312,215178,1,8,0:0:0:0:
136,108,215385,1,0,0:0:0:0:
380,280,215592,1,8,0:0:0:0:
192,172,215799,1,0,0:0:0:0:
192,172,216006,1,0,0:0:0:0:
372,288,216213,1,8,0:0:0:0:
192,112,216626,1,0,0:0:0:0:
452,296,216833,1,8,0:0:0:0:
436,264,217040,1,8,0:0:0:0:
136,104,217144,1,0,0:0:0:0:
396,268,217247,1,8,0:0:0:0:
380,264,217351,1,8,0:0:0:0:
228,156,217454,1,0,0:0:0:0:
172,136,217557,1,0,0:0:0:0:
408,288,217661,1,8,0:0:0:0:
160,104,217764,1,0,0:0:0:0:
368,260,217868,1,8,0:0:0:0:
368,260,217971,1,8,0:0:0:0:
368,260,218075,1,8,0:0:0:0:
180,132,218178,1,0,0:0:0:0:
368,268,218282,1,8,0:0:0:0:
368,260,218385,1,8,0:0:0:0:
208,120,218488,1,0,0:0:0:0:
468,304,218592,1,8,0:0:0:0:
200,128,218695,1,0,0:0:0:0:
200,128,218799,1,0,0:0:0:0:
372,248,218902,1,8,0:0:0:0:
332,232,219109,1,8,0:0:0:0:
196,136,219316,1,0,0:0:0:0:
424,332,219523,1,8,0:0:0:0:
192,116,219730,1,0,0:0:0:0:
368,288,219937,1,8,0:0:0:0:
368,288,220040,1,8,0:0:0:0:
388,284,220144,1,8,0:0:0:0:
388,284,220247,1,8,0:0:0:0:
388,284,220351,1,8,0:0:0:0:
388,284,220454,1,8,0:0:0:0:
188,160,220557,5,0,0:0:0:0:
376,296,220971,1,8,0:0:0:0:
376,296,221178,1,8,0:0:0:0:
128,116,221592,1,0,0:0:0:0:
440,296,221799,1,8,0:0:0:0:
144,104,222213,1,0,0:0:0:0:
392,288,222420,1,8,0:0:0:0:
192,104,222523,1,0,0:0:0:0:
400,276,222626,1,8,0:0:0:0:
144,112,222833,1,0,0:0:0:0:
400,216,223040,1,8,0:0:0:0:
400,244,223109,1,8,0:0:0:0:
400,244,223178,1,8,0:0:0:0:
216,120,223247,1,0,0:0:0:0:
120,92,223351,1,0,0:0:0:0:
380,272,223454,1,8,0:0:0:0:
140,96,223557,1,0,0:0:0:0:
380,256,223661,1,8,0:0:0:0:
380,256,223764,1,8,0:0:0:0:
144,108,223868,1,0,0:0:0:0:
404,288,223971,1,8,0:0:0:0:
352,276,224075,1,8,0:0:0:0:
140,108,224178,1,0,0:0:0:0:
344,272,224282,1,8,0:0:0:0:
352,284,224385,1,8,0:0:0:0:
136,96,224488,1,0,0:0:0:0:
348,264,224592,1,8,0:0:0:0:
316,232,224695,1,8,0:0:0:0:
316,232,224799,1,8,0:0:0:0:
132,108,224902,1,0,0:0:0:0:
264,192,225006,1,8,0:0:0:0:
316,232,225109,1,8,0:0:0:0:
316,232,225213,1,8,0:0:0:0:
156,116,225316,1,0,0:0:0:0:
148,112,225420,1,0,0:0:0:0:
272,196,225523,1,8,0:0:0:0:
336,240,225626,1,8,0:0:0:0:
88,104,225730,1,0,0:0:0:0:
136,128,225937,1,0,0:0:0:0:
360,280,226144,1,8,0:0:0:0:
360,280,226247,1,8,0:0:0:0:
96,116,226351,1,0,0:0:0:0:
136,100,226557,1,0,0:0:0:0:
408,304,226764,1,8,0:0:0:0:
408,304,226868,1,8,0:0:0:0:
408,276,226971,1,8,0:0:0:0:
408,276,227075,1,8,0:0:0:0:
352,256,227178,5,8,0:0:0:0:
148,112,227385,1,0,0:0:0:0:
300,280,227592,1,8,0:0:0:0:
300,280,227799,1,8,0:0:0:0:
300,280,228006,1,8,0:0:0:0:
176,144,228213,1,0,0:0:0:0:
348,332,228420,1,8,0:0:0:0:
324,264,228626,1,8,0:0:0:0:
144,104,228833,1,0,0:0:0:0:
152,104,229040,1,0,0:0:0:0:
436,304,229247,1,8,0:0:0:0:
392,276,229454,1,8,0:0:0:0:
392,276,229661,1,8,0:0:0:0:
160,132,229868,1,0,0:0:0:0:
436,372,230075,1,8,0:0:0:0:
432,364,230282,1,8,0:0:0:0:
104,292,230488,5,4,0:0:0:0:
100,116,230695,1,0,0:0:0:0:
148,88,230799,1,0,0:0:0:0:
100,116,230902,1,0,0:0:0:0:
336,264,231109,1,8,0:0:0:0:
140,108,231316,1,0,0:0:0:0:
148,108,231420,1,0,0:0:0:0:
140,108,231523,1,0,0:0:0:0:
376,268,231730,1,8,0:0:0:0:
172,104,231937,1,0,0:0:0:0:
160,104,232040,1,0,0:0:0:0:
352,240,232144,1,8,0:0:0:0:
364,240,232351,1,8,0:0:0:0:
128,104,232557,1,0,0:0:0:0:
368,260,232764,1,8,0:0:0:0:
116,136,232971,1,0,0:0:0:0:
128,104,233178,1,0,0:0:0:0:
372,232,233385,1,8,0:0:0:0:
128,288,233799,5,4,0:0:0:0:
156,108,234006,1,0,0:0:0:0:
376,256,234213,1,8,0:0:0:0:
376,256,234420,1,8,0:0:0:0:
376,256,234626,1,8,0:0:0:0:
144,140,234833,1,0,0:0:0:0:
332,272,235040,1,8,0:0:0:0:
336,304,235247,1,8,0:0:0:0:
128,120,235454,1,0,0:0:0:0:
188,136,235661,1,0,0:0:0:0:
116,104,235868,1,0,0:0:0:0:
360,296,236075,1,8,0:0:0:0:
360,296,236282,1,8,0:0:0:0:
360,296,236488,1,8,0:0:0:0:
360,296,236695,1,8,0:0:0:0:
140,84,236902,1,0,0:0:0:0:
160,232,237109,5,8,0:0:0:0:
400,320,237213,1,8,0:0:0:0:
152,128,237316,1,0,0:0:0:0:
160,112,237420,1,0,0:0:0:0:
320,232,237523,1,8,0:0:0:0:
188,116,237626,1,0,0:0:0:0:
372,272,237730,1,8,0:0:0:0:
360,304,237833,1,8,0:0:0:0:
188,116,237937,1,0,0:0:0:0:
184,144,238040,1,0,0:0:0:0:
324,292,238144,1,8,0:0:0:0:
160,116,238247,1,0,0:0:0:0:
316,240,238351,1,8,0:0:0:0:
180,96,238455,1,0,0:0:0:0:
160,108,238558,1,0,0:0:0:0:
376,292,238661,1,8,0:0:0:0:
324,248,238764,1,8,0:0:0:0:
200,148,238868,1,0,0:0:0:0:
432,288,238971,1,8,0:0:0:0:
432,324,239075,1,8,0:0:0:0:
192,128,239178,1,0,0:0:0:0:
160,104,239282,1,0,0:0:0:0:
408,288,239385,1,8,0:0:0:0:
144,144,239488,1,0,0:0:0:0:
408,288,239592,1,8,0:0:0:0:
360,272,239695,1,8,0:0:0:0:
360,272,239799,1,8,0:0:0:0:
360,272,239902,1,8,0:0:0:0:
168,116,240006,1,0,0:0:0:0:
100,260,240420,5,4,0:0:0:0:
108,292,243738,5,4,0:0:0:0:
120,240,246449,1,4,0:0:0:0:
148,240,247805,1,4,0:0:0:0:
144,224,248483,1,4,0:0:0:0:
144,224,248822,1,4,0:0:0:0:
144,224,249161,5,0,0:0:0:0:
160,112,249246,1,0,0:0:0:0:
328,240,249331,1,8,0:0:0:0:
328,240,249415,1,8,0:0:0:0:
328,240,249500,1,8,0:0:0:0:
300,248,249585,1,8,0:0:0:0:
128,104,249670,1,0,0:0:0:0:
152,96,249754,1,0,0:0:0:0:
328,240,249839,1,8,0:0:0:0:
328,240,249924,1,8,0:0:0:0:
328,240,250009,1,8,0:0:0:0:
328,240,250093,1,8,0:0:0:0:
104,80,250178,1,0,0:0:0:0:
116,80,250263,1,0,0:0:0:0:
368,272,250348,1,8,0:0:0:0:
368,272,250432,1,8,0:0:0:0:
368,272,250517,1,8,0:0:0:0:
368,272,250602,1,8,0:0:0:0:
124,76,250687,1,0,0:0:0:0:
124,76,250771,1,0,0:0:0:0:
312,208,250856,1,8,0:0:0:0:
312,208,250941,1,8,0:0:0:0:
312,208,251026,1,8,0:0:0:0:
328,216,251110,1,8,0:0:0:0:
160,88,251195,1,0,0:0:0:0:
356,300,251365,1,8,0:0:0:0:
360,300,251449,1,8,0:0:0:0:
96,76,251534,1,0,0:0:0:0:
344,264,251704,1,8,0:0:0:0:
356,296,251873,5,8,0:0:0:0:
100,88,251958,1,0,0:0:0:0:
100,88,252043,1,0,0:0:0:0:
384,280,252127,1,8,0:0:0:0:
88,124,252212,1,0,0:0:0:0:
108,136,252297,1,0,0:0:0:0:
384,280,252382,1,8,0:0:0:0:
132,136,252466,1,0,0:0:0:0:
376,296,252551,1,8,0:0:0:0:
388,304,252636,1,8,0:0:0:0:
384,304,252721,1,8,0:0:0:0:
384,304,252805,1,8,0:0:0:0:
200,176,252890,1,0,0:0:0:0:
148,144,252975,1,0,0:0:0:0:
392,296,253060,1,8,0:0:0:0:
152,132,253144,1,0,0:0:0:0:
392,296,253229,1,8,0:0:0:0:
352,272,253314,1,8,0:0:0:0:
152,128,253399,1,0,0:0:0:0:
152,128,253483,1,0,0:0:0:0:
376,264,253568,1,8,0:0:0:0:
376,264,253653,1,8,0:0:0:0:
340,268,253738,1,8,0:0:0:0:
340,268,253823,1,8,0:0:0:0:
88,112,253908,1,0,0:0:0:0:
104,112,253992,1,0,0:0:0:0:
120,108,254076,1,0,0:0:0:0:
120,108,254161,1,0,0:0:0:0:
384,292,254246,1,8,0:0:0:0:
384,292,254331,1,8,0:0:0:0:
116,108,254415,1,0,0:0:0:0:
116,108,254500,1,0,0:0:0:0:
100,120,254585,5,0,0:0:0:0:
156,136,254670,1,0,0:0:0:0:
364,296,254754,1,8,0:0:0:0:
140,124,254839,1,0,0:0:0:0:
392,312,254924,1,8,0:0:0:0:
156,120,255009,1,0,0:0:0:0:
360,276,255093,1,8,0:0:0:0:
360,272,255178,1,8,0:0:0:0:
104,88,255263,1,0,0:0:0:0:
348,248,255348,1,8,0:0:0:0:
124,80,255432,1,0,0:0:0:0:
132,56,255517,1,0,0:0:0:0:
344,268,255602,1,8,0:0:0:0:
324,228,255687,1,8,0:0:0:0:
164,100,255771,1,0,0:0:0:0:
324,228,255856,1,8,0:0:0:0:
160,144,255941,1,0,0:0:0:0:
120,88,256026,1,0,0:0:0:0:
372,316,256110,1,8,0:0:0:0:
164,100,256195,1,0,0:0:0:0:
372,316,256280,1,8,0:0:0:0:
368,276,256365,1,8,0:0:0:0:
192,112,256449,1,0,0:0:0:0:
164,100,256534,1,0,0:0:0:0:
356,248,256619,1,8,0:0:0:0:
372,304,256704,1,8,0:0:0:0:
176,124,256788,1,0,0:0:0:0:
204,88,256873,1,0,0:0:0:0:
368,276,256958,1,8,0:0:0:0:
176,124,257043,1,0,0:0:0:0:
368,276,257127,1,8,0:0:0:0:
384,292,257212,1,8,0:0:0:0:
336,256,257297,1,8,0:0:0:0:
104,96,257382,1,0,0:0:0:0:
336,256,257466,1,8,0:0:0:0:
336,256,257551,1,8,0:0:0:0:
108,108,257636,1,0,0:0:0:0:
104,96,257721,1,0,0:0:0:0:
328,256,257805,1,8,0:0:0:0:
184,104,257890,1,0,0:0:0:0:
360,248,257975,1,8,0:0:0:0:
144,80,258060,1,0,0:0:0:0:
288,212,258144,1,8,0:0:0:0:
176,132,258229,1,0,0:0:0:0:
176,132,258314,1,0,0:0:0:0:
152,120,258399,1,0,0:0:0:0:
304,236,258483,1,8,0:0:0:0:
304,236,258568,1,8,0:0:0:0:
160,96,258653,1,0,0:0:0:0:
380,308,258822,1,8,0:0:0:0:
380,308,258907,1,8,0:0:0:0:
88,144,258992,1,0,0:0:0:0:
148,124,259076,1,0,0:0:0:0:
320,256,259161,1,8,0:0:0:0:
88,116,259246,1,0,0:0:0:0:
344,288,259331,1,8,0:0:0:0:
400,292,259415,1,8,0:0:0:0:
160,128,259500,1,0,0:0:0:0:
288,240,259585,1,8,0:0:0:0:
428,288,259670,1,8,0:0:0:0:
328,252,259839,1,8,0:0:0:0:
140,136,260009,5,0,0:0:0:0:
152,104,260093,1,0,0:0:0:0:
376,296,260178,1,8,0:0:0:0:
364,296,260263,1,8,0:0:0:0:
68,144,260348,1,0,0:0:0:0:
128,112,260432,1,0,0:0:0:0:
356,264,260517,1,8,0:0:0:0:
184,132,260602,1,0,0:0:0:0:
312,252,260687,1,8,0:0:0:0:
336,312,260771,1,8,0:0:0:0:
372,260,260856,1,8,0:0:0:0:
152,104,260941,1,0,0:0:0:0:
152,104,261026,1,0,0:0:0:0:
152,104,261110,1,0,0:0:0:0:
388,224,261195,1,8,0:0:0:0:
360,292,261280,1,8,0:0:0:0:
36,80,261365,1,0,0:0:0:0:
360,296,261449,1,8,0:0:0:0:
360,288,261534,1,8,0:0:0:0:
184,144,261619,1,0,0:0:0:0:
312,240,261704,1,8,0:0:0:0:
188,112,261788,1,0,0:0:0:0:
344,284,261873,1,8,0:0:0:0:
344,284,261958,1,8,0:0:0:0:
124,120,262043,1,0,0:0:0:0:
124,120,262127,1,0,0:0:0:0:
292,240,262212,1,8,0:0:0:0:
184,144,262297,1,0,0:0:0:0:
340,252,262382,1,8,0:0:0:0:
344,256,262466,1,8,0:0:0:0:
168,140,262551,1,0,0:0:0:0:
128,112,262636,1,0,0:0:0:0:
364,280,262721,1,8,0:0:0:0:
168,120,262805,1,0,0:0:0:0:
388,292,262890,1,8,0:0:0:0:
388,292,262975,1,8,0:0:0:0:
104,116,263060,5,0,0:0:0:0:
360,312,263144,1,8,0:0:0:0:
92,100,263229,1,0,0:0:0:0:
88,104,263314,1,0,0:0:0:0:
344,272,263399,1,8,0:0:0:0:
192,156,263483,1,0,0:0:0:0:
192,156,263568,1,0,0:0:0:0:
336,264,263653,1,8,0:0:0:0:
360,284,263738,1,8,0:0:0:0:
168,136,263822,1,0,0:0:0:0:
340,256,263907,1,8,0:0:0:0:
340,256,263992,1,8,0:0:0:0:
124,140,264076,1,0,0:0:0:0:
144,116,264161,1,0,0:0:0:0:
352,252,264246,1,8,0:0:0:0:
352,252,264331,1,8,0:0:0:0:
352,252,264415,1,8,0:0:0:0:
352,252,264500,1,8,0:0:0:0:
144,100,264585,1,0,0:0:0:0:
136,92,264670,1,0,0:0:0:0:
364,276,264754,1,8,0:0:0:0:
364,276,264839,1,8,0:0:0:0:
152,116,264924,1,0,0:0:0:0:
148,116,265009,1,0,0:0:0:0:
148,116,265093,1,0,0:0:0:0:
148,116,265178,1,0,0:0:0:0:
304,248,265263,1,8,0:0:0:0:
304,248,265348,1,8,0:0:0:0:
124,88,265432,5,0,0:0:0:0:
124,88,265517,1,0,0:0:0:0:
364,284,265602,1,8,0:0:0:0:
212,168,265687,1,0,0:0:0:0:
300,240,265771,1,8,0:0:0:0:
176,128,265856,1,0,0:0:0:0:
348,256,265941,1,8,0:0:0:0:
352,264,266026,1,8,0:0:0:0:
144,128,266110,1,0,0:0:0:0:
304,260,266195,1,8,0:0:0:0:
304,260,266280,1,8,0:0:0:0:
140,108,266365,1,0,0:0:0:0:
288,224,266449,1,8,0:0:0:0:
192,136,266534,1,0,0:0:0:0:
308,240,266619,1,8,0:0:0:0:
312,244,266704,1,8,0:0:0:0:
148,156,266788,1,0,0:0:0:0:
148,156,266873,1,0,0:0:0:0:
324,264,266958,1,8,0:0:0:0:
328,264,267043,1,8,0:0:0:0:
324,260,267127,1,8,0:0:0:0:
128,120,267212,1,0,0:0:0:0:
300,260,267297,1,8,0:0:0:0:
300,260,267382,1,8,0:0:0:0:
116,108,267466,1,0,0:0:0:0:
164,100,267551,1,0,0:0:0:0:
300,216,267636,1,8,0:0:0:0:
300,216,267721,1,8,0:0:0:0:
324,228,267805,1,8,0:0:0:0:
324,228,267890,1,8,0:0:0:0:
88,128,267975,1,0,0:0:0:0:
88,128,268060,1,0,0:0:0:0:
336,256,268144,1,8,0:0:0:0:
136,152,268314,1,0,0:0:0:0:
344,276,268399,1,8,0:0:0:0:
168,128,268568,1,0,0:0:0:0:
368,296,268653,1,8,0:0:0:0:
408,316,268738,1,8,0:0:0:0:
168,128,268822,1,0,0:0:0:0:
96,140,268992,1,0,0:0:0:0:
432,328,269076,1,8,0:0:0:0:
424,316,269246,1,8,0:0:0:0:
424,316,269331,1,8,0:0:0:0:
168,128,269500,1,0,0:0:0:0:
412,336,269670,1,8,0:0:0:0:
148,104,269754,1,0,0:0:0:0:
140,112,269924,1,0,0:0:0:0:
408,308,270009,1,8,0:0:0:0:
408,308,270178,1,8,0:0:0:0:
184,128,270263,1,0,0:0:0:0:
184,128,270348,1,0,0:0:0:0:
356,268,270432,1,8,0:0:0:0:
172,120,270517,1,0,0:0:0:0:
172,120,270602,1,0,0:0:0:0:
320,228,270687,1,8,0:0:0:0:
320,228,270771,1,8,0:0:0:0:
344,268,270856,1,8,0:0:0:0:
172,140,270941,1,0,0:0:0:0:
332,268,271026,1,8,0:0:0:0:
400,268,271110,1,8,0:0:0:0:
172,120,271195,1,0,0:0:0:0:
172,120,271280,1,0,0:0:0:0:
344,252,271365,1,8,0:0:0:0:
144,64,271449,1,0,0:0:0:0:
332,268,271534,1,8,0:0:0:0:
196,112,271619,1,0,0:0:0:0:
332,268,271704,1,8,0:0:0:0:
332,268,271788,1,8,0:0:0:0:
104,112,271873,1,0,0:0:0:0:
152,92,271958,1,0,0:0:0:0:
324,256,272043,1,8,0:0:0:0:
144,116,272127,1,0,0:0:0:0:
368,292,272212,1,8,0:0:0:0:
316,268,272297,1,8,0:0:0:0:
316,268,272382,1,8,0:0:0:0:
156,128,272466,1,0,0:0:0:0:
316,272,272551,1,8,0:0:0:0:
100,140,272636,1,0,0:0:0:0:
316,252,272721,1,8,0:0:0:0:
332,288,272805,1,8,0:0:0:0:
144,144,272890,1,0,0:0:0:0:
180,152,272975,1,0,0:0:0:0:
360,260,273060,1,8,0:0:0:0:
176,140,273144,1,0,0:0:0:0:
156,128,273229,1,0,0:0:0:0:
128,88,273314,1,0,0:0:0:0:
312,236,273399,1,8,0:0:0:0:
184,140,273483,1,0,0:0:0:0:
344,280,273568,1,8,0:0:0:0:
360,236,273653,1,8,0:0:0:0:
176,116,273738,1,0,0:0:0:0:
304,232,273822,1,8,0:0:0:0:
304,232,273907,1,8,0:0:0:0:
180,56,273992,1,0,0:0:0:0:
352,264,274076,1,8,0:0:0:0:
132,52,274161,1,0,0:0:0:0:
344,272,274246,1,8,0:0:0:0:
344,260,274331,1,8,0:0:0:0:
344,260,274415,1,8,0:0:0:0:
140,116,274500,1,0,0:0:0:0:
304,232,274585,1,8,0:0:0:0:
328,276,274670,1,8,0:0:0:0:
64,108,274754,1,0,0:0:0:0:
176,276,274924,5,4,0:0:0:0:
144,204,275263,1,4,0:0:0:0:
360,144,275602,1,12,0:0:0:0:
392,112,275941,1,12,0:0:0:0:
432,284,276280,1,8,0:0:0:0:
432,284,276365,1,8,0:0:0:0:
144,100,276449,1,0,0:0:0:0:
144,100,276534,1,0,0:0:0:0:
380,292,276619,1,8,0:0:0:0:
420,324,276704,1,8,0:0:0:0:
192,152,276788,1,0,0:0:0:0:
320,264,276873,1,0,0:0:0:0:
320,280,276958,1,8,0:0:0:0:
400,236,277043,1,8,0:0:0:0:
188,124,277127,1,0,0:0:0:0:
112,92,277212,1,0,0:0:0:0:
400,256,277297,1,8,0:0:0:0:
320,328,277382,1,8,0:0:0:0:
324,316,277466,1,8,0:0:0:0:
340,308,277551,1,8,0:0:0:0:
128,88,277636,1,0,0:0:0:0:
352,248,278992,5,8,0:0:0:0:
112,120,279077,1,0,0:0:0:0:
157,92,279162,1,0,0:0:0:0:
160,124,279246,1,0,0:0:0:0:
322,264,279331,1,8,0:0:0:0:
160,124,279416,1,0,0:0:0:0:
384,308,279500,1,8,0:0:0:0:
376,296,279585,1,8,0:0:0:0:
294,245,279670,1,8,0:0:0:0:
160,112,279755,1,0,0:0:0:0:
158,86,279839,1,0,0:0:0:0:
108,80,279924,1,0,0:0:0:0:
392,288,280009,1,8,0:0:0:0:
368,268,280094,1,8,0:0:0:0:
112,92,280178,1,0,0:0:0:0:
112,92,280263,1,0,0:0:0:0:
392,288,280348,1,8,0:0:0:0:
129,142,280433,1,0,0:0:0:0:
129,142,280517,1,0,0:0:0:0:
129,142,280602,1,0,0:0:0:0:
389,272,280687,1,8,0:0:0:0:
129,142,280772,1,0,0:0:0:0:
389,272,280856,1,8,0:0:0:0:
129,142,280941,1,0,0:0:0:0:
389,272,281026,1,8,0:0:0:0:
155,153,281111,1,0,0:0:0:0:
155,153,281195,1,0,0:0:0:0:
389,272,281280,1,8,0:0:0:0:
155,153,281365,1,0,0:0:0:0:
155,153,281450,1,0,0:0:0:0:
389,272,281534,1,8,0:0:0:0:
162,155,281619,1,0,0:0:0:0:
389,272,281704,1,8,0:0:0:0:
368,268,281789,1,8,0:0:0:0:
368,268,281873,1,8,0:0:0:0:
368,268,281958,1,8,0:0:0:0:
138,87,282043,1,0,0:0:0:0:
138,87,282128,1,0,0:0:0:0:
138,87,282212,1,0,0:0:0:0:
171,133,282297,1,0,0:0:0:0:
361,243,282382,1,8,0:0:0:0:
370,256,282467,1,8,0:0:0:0:
387,280,282551,1,8,0:0:0:0:
387,280,282636,1,8,0:0:0:0:
130,110,282721,1,0,0:0:0:0:
96,114,282806,1,0,0:0:0:0:
96,114,282890,1,0,0:0:0:0:
96,114,282975,1,0,0:0:0:0:
359,278,283060,1,8,0:0:0:0:
396,308,283145,1,8,0:0:0:0:
74,110,283229,1,0,0:0:0:0:
74,110,283314,1,0,0:0:0:0:
74,110,283399,1,0,0:0:0:0:
74,110,283484,1,0,0:0:0:0:
373,269,283568,1,8,0:0:0:0:
146,130,283653,1,0,0:0:0:0:
373,269,283738,1,8,0:0:0:0:
347,278,283823,1,8,0:0:0:0:
138,159,283907,1,0,0:0:0:0:
137,154,283992,1,0,0:0:0:0:
373,269,284077,1,8,0:0:0:0:
137,154,284162,1,0,0:0:0:0:
373,269,284246,1,8,0:0:0:0:
137,154,284331,1,0,0:0:0:0:
373,269,284416,1,8,0:0:0:0:
248,244,284500,1,8,0:0:0:0:
138,159,284585,1,0,0:0:0:0:
188,140,284670,1,0,0:0:0:0:
137,154,284755,1,0,0:0:0:0:
137,154,284839,1,0,0:0:0:0:
373,269,284924,1,8,0:0:0:0:
137,154,285009,1,0,0:0:0:0:
373,269,285094,1,8,0:0:0:0:
373,242,285178,1,8,0:0:0:0:
136,117,285263,1,0,0:0:0:0:
136,117,285348,1,0,0:0:0:0:
412,288,285433,1,8,0:0:0:0:
412,288,285517,1,8,0:0:0:0:
412,288,285602,1,8,0:0:0:0:
114,96,285687,1,0,0:0:0:0:
412,288,285772,1,8,0:0:0:0:
154,104,285856,1,0,0:0:0:0:
154,104,285941,1,0,0:0:0:0:
154,104,286026,1,0,0:0:0:0:
430,315,286111,1,8,0:0:0:0:
154,104,286195,1,0,0:0:0:0:
430,315,286280,1,8,0:0:0:0:
408,298,286365,1,8,0:0:0:0:
99,103,286450,1,0,0:0:0:0:
99,103,286534,1,0,0:0:0:0:
99,103,286619,1,0,0:0:0:0:
99,103,286704,1,0,0:0:0:0:
430,315,286789,1,8,0:0:0:0:
393,289,286873,1,8,0:0:0:0:
75,61,286958,1,0,0:0:0:0:
75,61,287043,1,0,0:0:0:0:
416,303,287128,1,8,0:0:0:0:
118,108,287212,1,0,0:0:0:0:
314,241,287297,1,8,0:0:0:0:
314,241,287382,1,8,0:0:0:0:
79,92,287467,1,0,0:0:0:0:
79,92,287551,1,0,0:0:0:0:
371,291,287636,1,8,0:0:0:0:
171,151,287721,1,0,0:0:0:0:
347,268,287806,1,8,0:0:0:0:
168,96,287890,1,0,0:0:0:0:
352,286,287975,1,8,0:0:0:0:
305,319,288060,1,8,0:0:0:0:
111,114,288145,1,0,0:0:0:0:
160,108,288229,1,0,0:0:0:0:
320,311,288314,1,8,0:0:0:0:
320,311,288399,1,8,0:0:0:0:
130,107,288484,5,0,0:0:0:0:
408,328,288653,1,8,0:0:0:0:
144,120,288738,1,0,0:0:0:0:
144,120,288907,1,0,0:0:0:0:
400,300,288992,1,8,0:0:0:0:
136,68,289162,1,0,0:0:0:0:
172,120,289246,1,0,0:0:0:0:
384,292,289331,1,8,0:0:0:0:
132,88,289416,1,0,0:0:0:0:
132,88,289500,1,0,0:0:0:0:
356,280,289670,1,8,0:0:0:0:
116,88,289839,1,0,0:0:0:0:
348,284,290009,1,8,0:0:0:0:
348,284,290094,1,8,0:0:0:0:
104,80,290178,1,0,0:0:0:0:
96,76,290263,1,0,0:0:0:0:
372,260,290348,1,8,0:0:0:0:
136,56,290517,1,0,0:0:0:0:
368,284,290687,1,8,0:0:0:0:
152,100,290772,1,0,0:0:0:0:
340,288,290856,1,8,0:0:0:0:
152,100,290941,1,0,0:0:0:0:
264,224,291026,1,8,0:0:0:0:
340,288,291111,1,8,0:0:0:0:
156,136,291195,5,0,0:0:0:0:
368,284,291365,1,8,0:0:0:0:
168,124,291450,1,0,0:0:0:0:
168,124,291619,1,0,0:0:0:0:
312,240,291704,1,8,0:0:0:0:
176,120,291873,1,0,0:0:0:0:
176,120,291958,1,0,0:0:0:0:
324,256,292043,1,8,0:0:0:0:
156,80,292128,1,0,0:0:0:0:
332,264,292212,1,8,0:0:0:0:
120,96,292382,1,0,0:0:0:0:
360,280,292551,1,8,0:0:0:0:
360,296,292721,1,8,0:0:0:0:
160,152,292805,1,0,0:0:0:0:
388,348,292890,1,8,0:0:0:0:
384,276,292975,1,8,0:0:0:0:
172,136,293060,1,0,0:0:0:0:
172,136,293145,1,0,0:0:0:0:
336,284,293229,1,8,0:0:0:0:
360,296,293314,1,8,0:0:0:0:
196,120,293399,1,0,0:0:0:0:
152,128,293484,1,0,0:0:0:0:
356,280,293568,1,8,0:0:0:0:
312,276,293653,1,8,0:0:0:0:
384,324,293738,1,8,0:0:0:0:
384,324,293823,1,8,0:0:0:0:
152,128,293907,1,0,0:0:0:0:
152,128,293992,1,0,0:0:0:0:
168,116,294077,1,0,0:0:0:0:
128,80,294162,1,0,0:0:0:0:
128,80,294246,1,0,0:0:0:0:
128,80,294331,1,0,0:0:0:0:
344,276,294416,1,8,0:0:0:0:
344,276,294500,1,8,0:0:0:0:
128,80,294585,1,0,0:0:0:0:
128,80,294670,1,0,0:0:0:0:
128,80,294755,1,0,0:0:0:0:
128,80,294839,1,0,0:0:0:0:
344,260,294924,1,8,0:0:0:0:
344,260,295009,1,8,0:0:0:0:
164,112,295094,1,0,0:0:0:0:
164,112,295178,1,0,0:0:0:0:
344,260,295263,1,8,0:0:0:0:
360,264,295348,1,8,0:0:0:0:
360,264,295433,1,8,0:0:0:0:
360,264,295517,1,8,0:0:0:0:
152,104,295602,1,0,0:0:0:0:
152,100,295687,1,0,0:0:0:0:
184,80,295772,1,0,0:0:0:0:
184,80,295856,1,0,0:0:0:0:
356,220,295941,1,8,0:0:0:0:
356,220,296026,1,8,0:0:0:0:
180,120,296111,1,8,0:0:0:0:
352,272,296196,1,8,0:0:0:0:
180,120,296281,1,0,0:0:0:0:
180,120,296365,1,0,0:0:0:0:
208,104,296450,1,0,0:0:0:0:
188,88,296534,1,0,0:0:0:0:
348,244,296619,5,8,0:0:0:0:
344,264,296704,1,8,0:0:0:0:
156,120,296788,1,0,0:0:0:0:
156,120,296873,1,0,0:0:0:0:
296,232,296958,1,8,0:0:0:0:
296,232,297043,1,8,0:0:0:0:
156,120,297127,1,0,0:0:0:0:
156,120,297212,1,0,0:0:0:0:
296,232,297297,1,8,0:0:0:0:
296,232,297382,1,8,0:0:0:0:
156,120,297466,1,0,0:0:0:0:
156,120,297551,1,0,0:0:0:0:
296,232,297636,1,8,0:0:0:0:
296,232,297721,1,8,0:0:0:0:
112,112,297805,1,0,0:0:0:0:
112,112,297890,1,0,0:0:0:0:
316,236,297975,1,8,0:0:0:0:
316,236,298060,1,8,0:0:0:0:
316,236,298144,1,8,0:0:0:0:
316,236,298229,1,8,0:0:0:0:
124,132,298314,1,0,0:0:0:0:
336,228,298653,1,8,0:0:0:0:
336,228,298738,1,8,0:0:0:0:
336,228,298822,1,8,0:0:0:0:
336,228,298907,1,8,0:0:0:0:
144,84,298992,1,0,0:0:0:0:
144,84,299076,1,0,0:0:0:0:
144,84,299161,1,0,0:0:0:0:
144,84,299246,1,0,0:0:0:0:
408,304,299331,1,8,0:0:0:0:
408,304,299416,1,8,0:0:0:0:
168,116,299501,1,0,0:0:0:0:
128,80,299586,1,0,0:0:0:0:
128,80,299670,1,0,0:0:0:0:
128,80,299755,1,0,0:0:0:0:
344,276,299840,1,8,0:0:0:0:
344,276,299924,1,8,0:0:0:0:
128,80,300009,1,0,0:0:0:0:
128,80,300094,1,0,0:0:0:0:
128,80,300179,1,0,0:0:0:0:
128,80,300263,1,0,0:0:0:0:
344,260,300348,1,8,0:0:0:0:
344,260,300433,1,8,0:0:0:0:
164,112,300518,1,0,0:0:0:0:
164,112,300602,1,0,0:0:0:0:
344,260,300687,1,8,0:0:0:0:
360,264,300772,1,8,0:0:0:0:
360,264,300857,1,8,0:0:0:0:
360,264,300941,1,8,0:0:0:0:
152,104,301026,1,0,0:0:0:0:
152,100,301111,1,0,0:0:0:0:
184,80,301196,1,0,0:0:0:0:
184,80,301280,1,0,0:0:0:0:
356,220,301365,1,8,0:0:0:0:
356,220,301450,1,8,0:0:0:0:
180,120,301535,1,0,0:0:0:0:
180,120,301619,1,0,0:0:0:0:
352,272,301704,1,8,0:0:0:0:
180,120,301789,1,8,0:0:0:0:
208,104,301874,1,0,0:0:0:0:
188,88,301958,1,0,0:0:0:0:
140,64,302043,5,0,0:0:0:0:
192,132,302212,1,0,0:0:0:0:
368,272,302382,1,8,0:0:0:0:
368,272,302466,1,8,0:0:0:0:
156,104,302551,1,0,0:0:0:0:
156,104,302721,1,0,0:0:0:0:
316,240,302890,1,8,0:0:0:0:
316,240,302975,1,8,0:0:0:0:
144,108,303060,1,0,0:0:0:0:
144,108,303144,1,0,0:0:0:0:
340,252,303229,1,8,0:0:0:0:
340,252,303314,1,8,0:0:0:0:
332,244,303399,1,8,0:0:0:0:
324,240,303483,1,8,0:0:0:0:
336,224,303568,1,8,0:0:0:0:
336,224,303653,1,8,0:0:0:0:
176,120,303738,1,0,0:0:0:0:
168,116,304076,1,0,0:0:0:0:
392,264,304415,1,8,0:0:0:0:
116,112,304754,5,4,0:0:0:0:
376,344,305815,1,8,0:0:0:0:
368,284,306346,1,8,0:0:0:0:
136,288,306877,1,4,0:0:0:0:
120,120,307440,1,0,0:0:0:0:
388,296,308003,1,8,0:0:0:0:
112,104,308994,1,0,0:0:0:0:
168,328,310182,1,4,0:0:0:0:
256,192,310483,12,0,314403,0:0:0:0:
148,248,315006,5,4,0:0:0:0:
148,248,315278,1,4,0:0:0:0:
