osu file format v14

[General]
AudioFilename: audio.mp3
AudioLeadIn: 0
PreviewTime: 107359
Countdown: 1
SampleSet: Normal
StackLeniency: 0.7
Mode: 0
LetterboxInBreaks: 0
WidescreenStoryboard: 0

[Editor]
DistanceSpacing: 1
BeatDivisor: 4
GridSize: 8
TimelineZoom: 1

[Metadata]
Title:Symphony Of The Night
TitleUnicode:Symphony Of The Night
Artist:DragonForce
ArtistUnicode:DragonForce
Creator:Evil_Twilight
Version:Legend
Source:
Tags:Killer Elite Maximum Overload
BeatmapID:1007546
BeatmapSetID:469148

[Difficulty]
HPDrainRate:6
CircleSize:5
OverallDifficulty:8
ApproachRate:8
SliderMultiplier:1.6
SliderTickRate:2

[Events]
//Background and Video events
0,0,"bg.png",0,0
//Break Periods
2,76542,83577
2,152911,160087
//Storyboard Layer 0 (Background)
//Storyboard Layer 1 (Fail)
//Storyboard Layer 2 (Pass)
//Storyboard Layer 3 (Foreground)
//Storyboard Sound Samples

[TimingPoints]
410,338.983050847458,4,2,1,40,1,0
22104,-100,4,1,0,60,0,1
22189,-100,4,1,0,60,0,0
32952,-100,4,1,0,40,0,0
54647,-100,4,1,0,60,0,1
76342,-100,4,1,0,60,0,0
84477,-100,4,1,0,40,0,0
108884,-100,4,1,0,60,0,1
130579,-133.333333333333,4,1,0,60,0,0
136342,-100,4,2,0,60,0,0
137359,-100,4,1,0,60,0,0
137698,-100,4,2,0,60,0,0
138715,-100,4,1,0,60,0,0
144436,413.793103448276,4,1,0,40,1,0
147746,-100,4,2,0,30,0,0
149401,-100,4,2,0,20,0,0
151056,-100,4,2,0,10,0,0
160987,-133.333333333333,4,2,0,20,0,0
173608,-133.333333333333,4,2,1,20,0,0
174229,-100,4,2,1,60,0,0
200711,-100,4,2,1,60,0,1
213953,-100,4,2,0,60,0,0
243642,-100,4,2,0,10,0,0
243742,338.983050847458,4,1,0,60,1,0
254589,-100,4,1,0,60,0,1
265436,-100,4,1,0,60,0,0
269504,-200,4,1,0,60,0,0
270182,-100,4,1,0,60,0,0
275097,-100,4,1,0,10,0,0
275267,-80,4,1,0,60,0,0
275436,-80,4,1,0,10,0,0
275606,-66.6666666666667,4,1,0,60,0,0
275775,-66.6666666666667,4,1,0,10,0,0
275945,-57.1428571428571,4,1,0,60,0,0
276114,-57.1428571428571,4,1,0,10,0,0
276284,-100,4,1,0,60,0,0
278996,-100,4,1,0,60,0,1
304758,535.714285714286,4,1,0,60,1,0
306365,504.201680672269,4,1,0,60,1,0
306869,566.037735849057,4,1,0,60,1,0
308002,967.741935483871,4,1,0,60,1,0
308969,1224.48979591837,4,1,0,60,1,0
310193,1206.03015075377,4,1,0,60,1,0
315017,1052.63157894737,4,1,0,60,1,0

[Colours]
Combo1 : 224,224,224
Combo2 : 150,150,150

[HitObjects]
368,208,410,6,0,B|448:179|444:70|444:70|444:70,2,160,0|2|0,0:0|0:0|0:0,0:0:0:0:
296,232,1257,1,0,0:0:0:0:
240,176,1426,2,0,P|204:154|154:157,1,80
112,96,1765,2,0,B|41:146|58:249|58:249|58:249,1,160
143,376,2443,2,0,B|211:325|195:221|195:221|195:221,1,160,0|2,0:0|0:0,0:0:0:0:
184,152,2952,1,0,0:0:0:0:
264,120,3121,6,0,P|295:94|337:85,1,80
392,36,3460,2,0,L|440:100,1,80
488,160,3799,1,0,0:0:0:0:
432,216,3969,1,0,0:0:0:0:
480,280,4138,1,0,0:0:0:0:
424,336,4308,1,0,0:0:0:0:
360,296,4477,70,0,B|301:243|205:263|205:263|204:263,1,160
160,320,4986,1,0,0:0:0:0:
80,320,5155,2,0,B|7:280|15:176|15:176|16:176,1,160,0|2,0:0|0:0,0:0:0:0:
104,48,5833,5,0,0:0:0:0:
104,48,6003,1,0,0:0:0:0:
152,112,6172,2,0,B|238:139|320:48|320:48|320:48,1,160
368,32,6681,1,0,0:0:0:0:
440,64,6850,2,0,P|459:98|464:144,1,80
504,208,7189,2,0,B|426:228|395:330|395:330|395:330,2,160,0|0|2,0:0|0:0|0:0,0:0:0:0:
440,160,8037,1,0,0:0:0:0:
368,192,8206,2,0,L|264:168,1,80
224,128,8545,69,2,0:0:0:0:
381,100,8884,1,0,0:0:0:0:
447,242,9223,1,2,0:0:0:0:
337,359,9562,1,0,0:0:0:0:
195,287,9901,2,0,B|136:238|38:274|38:274|38:274,1,160,2|0,0:0|0:0,0:0:0:0:
166,170,10579,2,0,B|160:170|265:169|306:100|306:100|306:100,1,160
344,40,11087,1,0,0:0:0:0:
440,80,11257,6,0,P|476:87|512:120,1,80,4|0,0:1|0:0,0:0:0:0:
504,192,11596,1,0,0:0:0:0:
432,232,11765,2,0,P|412:266|407:305,1,80,0|0,1:0|0:0,0:0:0:0:
344,352,12104,1,0,0:0:0:0:
280,304,12274,1,8,0:0:0:0:
241,292,12359,1,8,0:0:0:0:
204,307,12443,1,8,0:0:0:0:
176,336,12528,1,8,0:0:0:0:
136,342,12613,70,0,B|134:249|30:211|30:211|30:211,1,160,8|0,0:0|0:0,0:0:0:0:
24,144,13121,1,0,1:0:0:0:
88,96,13291,2,0,P|108:56|112:0,2,80,0|0|0,0:0|0:0|1:0,0:0:0:0:
136,160,13799,1,8,0:0:0:0:
224,64,13969,6,0,L|312:32,1,80,8|0,0:0|0:0,0:0:0:0:
384,128,14308,2,0,L|472:160,1,80,0|0,0:0|1:0,0:0:0:0:
504,224,14647,2,0,B|507:315|413:370|413:370|413:370,1,160,0|8,0:0|0:0,0:0:0:0:
393,371,15071,1,8,0:0:0:0:
353,367,15155,1,8,0:0:0:0:
318,346,15240,1,8,0:0:0:0:
304,308,15325,70,0,P|270:282|225:279,1,80,8|0,0:0|0:0,0:0:0:0:
160,312,15664,1,0,0:0:0:0:
120,376,15833,1,0,1:0:0:0:
56,328,16003,2,0,P|77:288|72:232,1,80,8|8,0:0|0:0,0:0:0:0:
40,184,16342,1,0,1:0:0:0:
64,104,16511,1,8,0:0:0:0:
144,40,16681,6,0,B|240:-4|291:83|291:83|291:83,1,160,8|0,0:0|0:0,0:0:0:0:
328,144,17189,1,0,1:0:0:0:
408,160,17359,2,0,P|448:153|487:119,2,80,0|8|0,0:0|0:0|1:0,0:0:0:0:
352,216,17867,1,8,0:0:0:0:
248,240,18037,70,0,B|221:326|308:382|308:382|308:382,1,160,8|0,0:0|0:0,0:0:0:0:
224,352,18545,2,0,P|184:360|145:388,1,80,0|0,1:0|0:0,0:0:0:0:
72,344,18884,1,8,0:0:0:0:
99,314,18969,1,8,0:0:0:0:
114,277,19054,1,8,0:0:0:0:
116,237,19138,1,8,0:0:0:0:
104,198,19223,1,8,0:0:0:0:
78,166,19308,1,8,0:0:0:0:
41,148,19393,1,12,0:0:0:0:
72,56,22104,6,0,P|118:57|156:84,1,80,6|0,0:0|0:0,0:0:0:0:
184,56,22359,2,2,L|199:134,1,80,2|0,0:0|0:0,0:0:0:0:
192,176,22613,1,2,0:0:0:0:
256,256,22782,70,0,P|299:255|344:224,1,80,2|0,0:0|0:0,0:0:0:0:
352,200,23037,2,2,L|368:112,1,80,2|0,0:0|0:0,0:0:0:0:
392,88,23291,1,2,0:0:0:0:
496,168,23460,6,0,P|500:209|472:256,1,80,2|0,0:0|0:0,0:0:0:0:
456,272,23715,2,2,L|472:360,1,80,2|0,0:0|0:0,0:0:0:0:
448,384,23969,1,2,0:0:0:0:
304,336,24138,70,0,P|267:315|224:312,1,80,2|0,0:0|0:0,0:0:0:0:
192,328,24393,2,2,L|96:304,1,80,2|0,0:0|0:0,0:0:0:0:
72,320,24647,1,2,0:0:0:0:
0,216,24816,6,2,B|-24:121|64:80|64:80|64:80,1,160,2|0,0:0|0:0,0:0:0:0:
136,80,25325,1,0,0:0:0:0:
200,128,25494,2,2,B|292:144|344:56|344:56|344:56,1,160,2|0,0:0|0:0,0:0:0:0:
408,24,26003,1,0,0:0:0:0:
464,80,26172,69,0,0:0:0:0:
480,116,26257,1,0,0:0:0:0:
473,155,26342,1,0,0:0:0:0:
453,189,26426,1,0,0:0:0:0:
417,208,26511,1,0,0:0:0:0:
418,248,26596,1,0,0:0:0:0:
405,286,26681,1,0,0:0:0:0:
373,309,26765,1,0,0:0:0:0:
332,311,26850,5,0,0:0:0:0:
295,294,26935,1,0,0:0:0:0:
266,265,27020,1,0,0:0:0:0:
248,229,27104,1,0,0:0:0:0:
210,215,27189,1,0,0:0:0:0:
169,215,27274,1,0,0:0:0:0:
133,233,27359,1,0,0:0:0:0:
106,262,27443,1,0,0:0:0:0:
101,301,27528,70,0,P|85:259|56:232,1,80,6|0,0:0|0:0,0:0:0:0:
24,216,27782,2,2,P|4:181|1:141,1,80,2|0,0:0|0:0,0:0:0:0:
24,104,28037,1,2,0:0:0:0:
112,48,28206,6,0,L|200:24,1,80,2|0,0:0|0:0,0:0:0:0:
224,8,28460,2,2,P|258:28|304:40,1,80,2|0,0:0|0:0,0:0:0:0:
336,32,28715,1,2,0:0:0:0:
416,128,28884,70,0,P|373:131|327:157,1,80,2|0,0:0|0:0,0:0:0:0:
312,176,29138,2,2,L|296:256,1,80,2|0,0:0|0:0,0:0:0:0:
304,296,29393,1,2,0:0:0:0:
160,352,29562,6,0,P|122:347|88:312,1,80,2|0,0:0|0:0,0:0:0:0:
80,280,29816,2,2,P|74:234|41:198,1,80,2|0,0:0|0:0,0:0:0:0:
24,184,30071,1,2,0:0:0:0:
40,56,30240,69,2,0:0:0:0:
71,80,30325,1,0,0:0:0:0:
110,87,30410,1,0,0:0:0:0:
146,71,30494,1,0,0:0:0:0:
182,55,30579,1,2,0:0:0:0:
222,55,30664,1,0,0:0:0:0:
259,69,30748,1,0,0:0:0:0:
283,100,30833,1,0,0:0:0:0:
291,139,30918,5,2,0:0:0:0:
279,177,31003,1,0,0:0:0:0:
245,198,31087,1,0,0:0:0:0:
205,189,31172,1,0,0:0:0:0:
169,207,31257,1,2,0:0:0:0:
150,242,31342,1,0,0:0:0:0:
150,281,31426,1,0,0:0:0:0:
160,319,31511,1,0,0:0:0:0:
189,346,31596,69,2,0:0:0:0:
228,353,31681,1,0,0:0:0:0:
264,338,31765,1,0,0:0:0:0:
300,322,31850,1,0,0:0:0:0:
339,330,31935,2,0,P|363:340|383:359,3,40,2|0|0|0,0:0|0:0|0:0|0:0,0:0:0:0:
413,348,32274,5,2,0:0:0:0:
444,322,32359,1,0,0:0:0:0:
448,282,32443,1,0,0:0:0:0:
436,243,32528,1,0,0:0:0:0:
449,205,32613,2,0,P|458:181|473:164,3,40,2|0|0|0,0:0|0:0|0:0|0:0,0:0:0:0:
499,146,32952,70,0,P|470:114|464:64,1,80,6|0,0:0|0:0,0:0:0:0:
464,40,33206,2,2,B|419:84|336:72|336:72|336:72,1,120
272,144,33630,6,0,P|236:118|194:114,1,80,2|0,0:0|0:0,0:0:0:0:
184,80,33884,2,2,B|124:109|120:182|120:182|120:182,1,120
184,288,34308,70,0,P|153:314|101:324,1,80,2|0,0:0|0:0,0:0:0:0:
80,336,34562,2,2,B|144:332|200:376|200:376|200:376,1,120
336,320,34986,6,0,P|369:294|418:292,1,80,2|0,0:0|0:0,0:0:0:0:
440,312,35240,2,2,B|498:271|479:192|479:192|479:192,1,120
512,80,35664,70,2,B|468:-1|343:44|343:44|343:44,1,160,2|0,0:0|0:0,0:0:0:0:
320,96,36172,1,0,0:0:0:0:
240,112,36342,2,0,P|233:156|264:208,1,80,2|2,0:0|0:0,0:0:0:0:
330,340,36681,2,0,P|343:302|336:264,1,80,0|2,0:0|0:0,0:0:0:0:
216,304,37020,5,2,0:0:0:0:
192,335,37104,1,0,0:0:0:0:
151,334,37189,1,0,0:0:0:0:
120,308,37274,1,0,0:0:0:0:
125,268,37359,1,0,0:0:0:0:
144,233,37443,1,0,0:0:0:0:
131,194,37528,1,0,0:0:0:0:
93,181,37613,1,0,0:0:0:0:
53,188,37698,70,0,L|42:140,3,40
28,112,38037,2,0,L|39:64,3,40
40,32,38376,6,0,P|80:23|114:2,1,80,6|0,0:0|0:0,0:0:0:0:
152,8,38630,1,2,0:0:0:0:
192,80,38799,2,0,L|232:96,1,40,0|2,0:0|0:0,0:0:0:0:
328,56,39054,70,0,P|366:41|408:40,1,80,2|0,0:0|0:0,0:0:0:0:
440,64,39308,1,2,0:0:0:0:
440,168,39477,2,0,L|456:208,1,40,0|2,0:0|0:0,0:0:0:0:
408,328,39732,6,0,P|362:329|320:312,1,80,2|0,0:0|0:0,0:0:0:0:
304,288,39986,1,2,0:0:0:0:
240,176,40155,2,0,L|200:144,1,40,0|2,0:0|0:0,0:0:0:0:
96,48,40410,70,0,P|81:87|48:120,1,80,2|0,0:0|0:0,0:0:0:0:
16,136,40664,1,2,0:0:0:0:
128,240,40833,2,0,L|144:288,1,40,0|2,0:0|0:0,0:0:0:0:
232,368,41087,6,2,B|328:392|383:298|383:298|383:298,1,160,2|0,0:0|0:0,0:0:0:0:
384,240,41596,1,0,0:0:0:0:
440,184,41765,2,0,L|472:96,1,80,2|2,0:0|0:0,0:0:0:0:
336,120,42104,2,0,L|304:32,1,80,0|2,0:0|0:0,0:0:0:0:
208,48,42443,69,2,0:0:0:0:
128,24,42613,1,0,0:0:0:0:
88,88,42782,1,0,0:0:0:0:
88,88,42867,1,0,0:0:0:0:
88,88,42952,1,0,0:0:0:0:
128,160,43121,1,0,0:0:0:0:
104,232,43291,1,0,0:0:0:0:
73,258,43376,1,0,0:0:0:0:
62,295,43460,1,0,0:0:0:0:
72,334,43545,1,0,0:0:0:0:
101,360,43630,1,0,0:0:0:0:
141,367,43715,1,0,0:0:0:0:
179,358,43799,5,4,0:0:0:0:
179,358,45155,69,0,0:0:0:0:
264,264,45325,1,0,0:0:0:0:
392,240,45494,1,0,0:0:0:0:
496,312,45664,2,0,B|434:242|476:139|476:139|476:139,1,160,4|0,0:0|0:0,0:0:0:0:
408,112,46172,1,0,0:0:0:0:
432,40,46342,1,0,0:0:0:0:
352,56,46511,5,4,0:0:0:0:
48,160,47189,1,4,0:0:0:0:
456,320,47867,2,0,B|412:269|283:286|337:385|207:411|148:348,1,320,4|0,0:0|0:0,0:0:0:0:
120,296,48715,1,0,0:0:0:0:
104,259,48799,1,0,0:0:0:0:
70,237,48884,1,0,0:0:0:0:
31,227,48969,1,0,0:0:0:0:
6,195,49054,1,0,0:0:0:0:
7,155,49138,1,0,0:0:0:0:
32,120,49223,69,6,0:0:0:0:
112,104,49393,2,0,P|144:75|163:28,1,80
232,8,49732,1,2,0:0:0:0:
272,104,49901,2,2,B|338:166|425:130|425:130|424:130,1,160,2|0,0:0|0:0,0:0:0:0:
488,96,50410,1,0,0:0:0:0:
488,176,50579,5,2,0:0:0:0:
467,210,50664,1,0,0:0:0:0:
469,249,50748,1,0,0:0:0:0:
485,289,50833,1,0,0:0:0:0:
486,329,50918,1,2,0:0:0:0:
465,363,51003,1,0,0:0:0:0:
427,377,51087,1,0,0:0:0:0:
388,367,51172,1,0,0:0:0:0:
354,345,51257,69,2,0:0:0:0:
343,306,51342,1,0,0:0:0:0:
347,266,51426,1,0,0:0:0:0:
364,229,51511,1,0,0:0:0:0:
394,202,51596,1,2,0:0:0:0:
414,167,51681,1,0,0:0:0:0:
411,127,51765,1,0,0:0:0:0:
399,88,51850,1,0,0:0:0:0:
371,58,51935,5,4,0:2:0:0:
216,32,52189,1,4,0:2:0:0:
272,176,52443,1,4,0:2:0:0:
168,160,52613,69,0,0:0:0:0:
140,188,52698,1,0,0:0:0:0:
133,227,52782,1,0,0:0:0:0:
144,265,52867,1,0,0:0:0:0:
129,302,52952,5,0,0:0:0:0:
95,324,53037,1,0,0:0:0:0:
56,315,53121,1,0,0:0:0:0:
8,224,53291,69,0,0:0:0:0:
152,96,54647,22,0,B|112:46|37:50|37:50|37:50,2,120,6|2|2,0:0|0:0|0:0,0:0:0:0:
192,192,55325,2,2,B|284:214|340:113|340:113|340:113,1,160
376,72,55833,1,0,0:0:0:0:
472,112,56003,2,2,B|524:199|432:280|432:280|432:280,1,160,2|4,0:0|0:2,0:0:0:0:
376,248,56511,2,0,L|392:336,1,80,0|4,0:0|0:2,0:0:0:0:
320,368,56850,1,0,0:0:0:0:
256,320,57020,2,2,P|220:298|176:296,1,80,2|0,0:0|0:0,0:0:0:0:
56,304,57359,6,2,B|30:202|113:159|113:159|113:159,1,160,6|2,0:0|0:0,0:0:0:0:
168,112,57867,1,2,0:0:0:0:
248,112,58037,2,0,P|251:51|224:0,2,120,2|2|2,0:0|0:0|0:0,0:0:0:0:
224,192,58715,69,2,0:0:0:0:
254,217,58799,1,0,0:0:0:0:
293,223,58884,1,0,0:0:0:0:
331,213,58969,1,0,0:0:0:0:
359,184,59054,2,0,P|379:166|407:154,3,40
417,130,59393,5,0,0:0:0:0:
456,123,59477,1,0,0:0:0:0:
490,143,59562,1,0,0:0:0:0:
509,178,59647,1,0,0:0:0:0:
505,217,59732,2,0,P|506:246|515:273,3,40
496,294,60071,70,2,B|443:364|342:328|342:328|342:328,1,160,6|0,0:0|0:0,0:0:0:0:
304,272,60579,1,2,0:0:0:0:
328,192,60748,2,2,P|330:148|346:101,1,80,2|0,0:0|0:0,0:0:0:0:
392,56,61087,1,2,0:0:0:0:
320,88,61257,1,0,0:0:0:0:
224,48,61426,6,2,B|173:-12|56:16|56:16|56:16,1,160,6|0,0:0|0:0,0:0:0:0:
8,56,61935,1,2,0:0:0:0:
40,128,62104,2,2,P|30:164|10:204,1,80,2|0,0:0|0:0,0:0:0:0:
120,208,62443,2,2,P|129:244|149:284,1,80
240,336,62782,5,4,0:2:0:0:
276,319,62867,1,0,0:0:0:0:
316,316,62952,1,0,0:0:0:0:
352,332,63037,1,0,0:0:0:0:
373,365,63121,5,4,0:2:0:0:
370,324,63206,1,0,0:0:0:0:
387,288,63291,1,0,0:0:0:0:
416,261,63376,1,0,0:0:0:0:
442,231,63460,5,4,0:2:0:0:
421,196,63545,1,0,0:0:0:0:
417,156,63630,1,0,0:0:0:0:
424,116,63715,1,0,0:0:0:0:
449,85,63799,6,0,B|357:99|296:16|296:16|296:16,1,160,4|4,0:2|0:2,0:0:0:0:
192,88,64308,2,4,B|100:74|39:157|39:157|39:157,1,160,4|4,0:2|0:2,0:2:0:0:
24,216,64816,1,4,0:2:0:0:
96,248,64986,1,0,0:0:0:0:
135,256,65071,1,0,0:0:0:0:
164,282,65155,1,0,0:0:0:0:
173,321,65240,1,0,0:0:0:0:
196,353,65325,1,0,0:0:0:0:
234,365,65410,1,0,0:0:0:0:
273,358,65494,6,0,B|328:325|392:342|392:342|392:342,2,120,6|2|2,0:0|0:0|0:0,0:0:0:0:
173,321,66172,2,2,B|81:334|30:252|30:252|30:252,1,160
32,176,66681,1,0,0:0:0:0:
88,88,66850,2,2,B|179:74|230:156|230:156|230:156,1,160,2|0,0:0|0:0,0:0:0:0:
272,216,67359,2,0,L|352:248,1,80
416,288,67698,1,0,0:0:0:0:
480,232,67867,2,2,P|504:197|504:152,1,80,2|0,0:0|0:0,0:0:0:0:
496,32,68206,6,2,B|413:-13|336:72|336:72|336:72,1,160,6|0,0:0|0:0,0:0:0:0:
312,128,68715,1,2,0:0:0:0:
208,144,68884,2,0,P|169:129|128:96,1,80,2|0,0:0|0:0,0:0:0:0:
2,154,69223,2,0,P|39:168|72:192,1,80,2|2,0:0|0:0,0:0:0:0:
104,288,69562,5,2,0:0:0:0:
138,307,69647,1,0,0:0:0:0:
178,308,69732,1,0,0:0:0:0:
213,289,69816,1,0,0:0:0:0:
243,262,69901,1,2,0:0:0:0:
278,243,69986,1,0,0:0:0:0:
318,243,70071,1,0,0:0:0:0:
350,264,70155,1,0,0:0:0:0:
371,298,70240,5,2,0:0:0:0:
369,257,70325,1,0,0:0:0:0:
388,222,70410,1,0,0:0:0:0:
424,206,70494,1,0,0:0:0:0:
401,172,70579,1,2,0:0:0:0:
395,132,70664,1,0,0:0:0:0:
406,94,70748,1,0,0:0:0:0:
429,61,70833,1,0,0:0:0:0:
463,41,70918,6,2,B|395:104|298:58|298:58|298:58,1,160,6|0,0:0|0:0,0:0:0:0:
240,24,71426,1,2,0:0:0:0:
168,56,71596,2,0,P|138:82|120:128,1,80
160,192,71935,1,2,0:0:0:0:
96,240,72104,1,0,0:0:0:0:
160,352,72274,6,2,B|250:389|314:304|314:304|314:304,1,160
312,240,72782,1,0,0:0:0:0:
360,176,72952,2,0,P|381:137|416:112,1,80,2|0,0:0|0:0,0:0:0:0:
400,32,73291,1,2,0:0:0:0:
336,80,73460,1,0,0:0:0:0:
256,96,73630,5,2,0:0:0:0:
216,100,73715,1,0,0:0:0:0:
176,94,73799,1,0,0:0:0:0:
146,66,73884,1,0,0:0:0:0:
119,36,73969,1,0,0:0:0:0:
78,37,74054,1,0,0:0:0:0:
45,60,74138,1,2,0:0:0:0:
33,98,74223,1,0,0:0:0:0:
45,135,74308,5,0,0:0:0:0:
78,157,74393,1,0,0:0:0:0:
118,158,74477,1,0,0:0:0:0:
151,179,74562,1,0,0:0:0:0:
171,213,74647,1,2,0:0:0:0:
172,253,74732,1,0,0:0:0:0:
150,285,74816,1,0,0:0:0:0:
153,324,74901,1,0,0:0:0:0:
180,352,74986,5,2,0:0:0:0:
219,347,75071,1,0,0:0:0:0:
248,320,75155,1,0,0:0:0:0:
256,280,75240,1,0,0:0:0:0:
281,248,75325,1,0,0:0:0:0:
319,237,75410,1,0,0:0:0:0:
357,248,75494,1,2,0:0:0:0:
382,278,75579,1,0,0:0:0:0:
421,284,75664,5,0,0:0:0:0:
457,267,75748,1,0,0:0:0:0:
475,231,75833,1,0,0:0:0:0:
473,190,75918,1,0,0:0:0:0:
453,155,76003,1,2,0:0:0:0:
421,129,76087,1,0,0:0:0:0:
399,94,76172,1,0,0:0:0:0:
398,53,76257,1,0,0:0:0:0:
419,18,76342,5,4,0:0:0:0:
112,48,84477,5,0,0:0:0:0:
80,73,84562,1,0,0:0:0:0:
68,111,84647,1,0,0:0:0:0:
73,150,84732,1,0,0:0:0:0:
94,182,84816,1,0,0:0:0:0:
176,176,84986,1,0,0:0:0:0:
176,176,85071,1,0,0:0:0:0:
176,176,85155,1,0,0:0:0:0:
240,224,85325,1,0,0:0:0:0:
243,263,85410,1,0,0:0:0:0:
218,293,85494,1,0,0:0:0:0:
232,368,85664,1,0,0:0:0:0:
288,312,85833,5,4,0:0:0:0:
368,296,86003,1,0,0:0:0:0:
448,320,86172,2,0,P|476:288|496:232,1,80
480,112,86511,5,4,0:0:0:0:
408,72,86681,1,0,0:0:0:0:
352,128,86850,2,0,P|368:164|395:193,1,80
491,254,87189,6,0,P|474:290|447:319,1,80,6|0,0:0|0:0,0:0:0:0:
416,384,87443,2,2,P|355:376|296:328,1,120
288,240,87867,6,0,P|275:196|249:162,1,80,2|0,0:0|0:0,0:0:0:0:
288,104,88121,2,2,P|240:62|181:49,1,120
136,168,88545,6,0,P|102:189|56:192,1,80,2|0,0:0|0:0,0:0:0:0:
0,232,88799,2,2,P|55:237|122:272,1,120
248,336,89223,6,0,P|286:329|336:296,1,80,2|0,0:0|0:0,0:0:0:0:
344,240,89477,2,2,P|361:181|402:133,1,120
512,72,89901,6,2,B|426:96|360:24|360:24|360:24,1,160,2|0,0:0|0:0,0:0:0:0:
288,64,90410,1,2,0:0:0:0:
208,48,90579,2,2,P|168:52|128:80,1,80
208,243,90918,2,0,P|223:207|223:167,1,80,0|2,0:0|0:0,0:0:0:0:
96,192,91257,5,2,0:0:0:0:
71,223,91342,1,0,0:0:0:0:
59,261,91426,1,0,0:0:0:0:
66,300,91511,1,0,0:0:0:0:
88,333,91596,1,0,0:0:0:0:
122,353,91681,1,0,0:0:0:0:
161,359,91765,1,0,0:0:0:0:
200,350,91850,1,0,0:0:0:0:
230,324,91935,5,0,0:0:0:0:
265,304,92020,1,0,0:0:0:0:
304,298,92104,1,0,0:0:0:0:
342,310,92189,1,0,0:0:0:0:
374,334,92274,5,0,0:0:0:0:
412,343,92359,1,0,0:0:0:0:
449,328,92443,1,0,0:0:0:0:
474,296,92528,1,0,0:0:0:0:
473,255,92613,5,6,0:0:0:0:
448,176,92782,1,0,0:0:0:0:
448,176,92867,1,2,0:0:0:0:
392,232,93037,1,0,0:0:0:0:
392,232,93121,1,2,0:0:0:0:
296,200,93291,5,2,0:0:0:0:
208,144,93460,1,0,0:0:0:0:
208,144,93545,1,2,0:0:0:0:
288,80,93715,1,0,0:0:0:0:
288,80,93799,1,2,0:0:0:0:
176,16,93969,5,2,0:0:0:0:
48,40,94138,1,0,0:0:0:0:
48,40,94223,1,2,0:0:0:0:
64,168,94393,1,0,0:0:0:0:
64,168,94477,1,2,0:0:0:0:
32,320,94647,5,2,0:0:0:0:
176,368,94816,1,0,0:0:0:0:
176,368,94901,1,2,0:0:0:0:
320,312,95071,1,0,0:0:0:0:
320,312,95155,1,2,0:0:0:0:
472,336,95325,6,2,B|529:263|502:183|502:183|502:183,1,160,2|0,0:0|0:0,0:0:0:0:
464,120,95833,1,2,0:0:0:0:
392,144,96003,2,0,P|353:131|320:96,1,80,2|2,0:0|0:0,0:0:0:0:
200,2,96342,2,0,P|208:41|200:80,1,80,0|2,0:0|0:0,0:0:0:0:
240,200,96681,5,2,0:0:0:0:
206,220,96765,1,0,0:0:0:0:
165,222,96850,1,0,0:0:0:0:
128,204,96935,1,0,0:0:0:0:
104,171,97020,1,0,0:0:0:0:
102,131,97104,1,0,0:0:0:0:
93,91,97189,1,0,0:0:0:0:
60,67,97274,1,0,0:0:0:0:
20,73,97359,5,0,0:0:0:0:
2,108,97443,1,0,0:0:0:0:
3,148,97528,1,0,0:0:0:0:
25,181,97613,1,0,0:0:0:0:
52,210,97698,1,0,0:0:0:0:
67,246,97782,1,0,0:0:0:0:
63,285,97867,1,0,0:0:0:0:
38,316,97952,1,0,0:0:0:0:
0,312,98037,5,6,0:0:0:0:
136,256,98206,2,2,B|228:227|298:308|298:308|298:308,1,160,2|0,0:0|0:0,0:0:0:0:
320,360,98715,1,2,0:0:0:0:
368,296,98884,1,0,0:0:0:0:
352,216,99054,2,0,P|356:176|377:142,1,80,0|2,0:0|0:0,0:0:0:0:
456,72,99393,6,2,B|413:-1|312:8|312:8|312:8,1,160,2|0,0:0|0:0,0:0:0:0:
256,56,99901,1,0,0:0:0:0:
256,56,100071,2,2,B|190:109|98:66|98:66|98:66,1,160,2|0,0:0|0:0,0:0:0:0:
24,72,100579,1,0,0:0:0:0:
0,152,100748,6,0,P|-1:192|22:232,1,80,6|0,0:0|0:0,0:0:0:0:
84,259,101003,2,2,P|145:255|200:209,1,120
240,88,101426,6,0,P|256:44|300:17,1,80,6|0,0:0|0:0,0:0:0:0:
354,7,101681,2,2,P|414:16|465:66,1,120
488,192,102104,6,2,L|456:352,1,160,6|0,0:0|0:0,0:0:0:0:
376,368,102613,1,0,0:0:0:0:
320,312,102782,5,2,0:0:0:0:
104,352,103037,1,2,0:0:0:0:
192,152,103291,1,2,0:0:0:0:
224,56,103460,6,2,B|290:-4|393:39|393:39|393:39,1,160,6|0,0:0|0:0,0:0:0:0:
416,96,103969,1,2,0:0:0:0:
416,176,104138,2,0,P|446:201|484:214,2,80,2|0|0,0:0|0:0|0:0,0:0:0:0:
344,136,104647,1,0,0:0:0:0:
264,136,104816,5,2,0:0:0:0:
233,162,104901,1,0,0:0:0:0:
233,202,104986,1,0,0:0:0:0:
256,234,105071,1,0,0:0:0:0:
269,271,105155,2,0,P|266:293|255:321,3,40,2|0|0|0,0:0|0:0|0:0|0:0,0:0:0:0:
229,335,105494,5,2,0:0:0:0:
189,340,105579,1,0,0:0:0:0:
151,324,105664,1,0,0:0:0:0:
128,291,105748,1,0,0:0:0:0:
101,261,105833,2,0,P|81:250|58:250,3,40,2|0|0|0,0:0|0:0|0:0|0:0,0:0:0:0:
28,266,106172,5,0,0:0:0:0:
50,233,106257,1,0,0:0:0:0:
49,192,106342,1,0,0:0:0:0:
36,154,106426,1,0,0:0:0:0:
9,123,106511,1,0,0:0:0:0:
3,83,106596,1,0,0:0:0:0:
21,47,106681,1,0,0:0:0:0:
53,23,106765,1,0,0:0:0:0:
92,18,106850,5,0,0:0:0:0:
131,27,106935,1,0,0:0:0:0:
160,54,107020,1,0,0:0:0:0:
169,92,107104,1,0,0:0:0:0:
161,131,107189,1,0,0:0:0:0:
168,170,107274,1,0,0:0:0:0:
188,204,107359,1,0,0:0:0:0:
222,223,107443,1,0,0:0:0:0:
262,225,107528,5,0,0:0:0:0:
304,104,108884,6,0,P|348:97|382:66,1,80,6|0,0:0|0:0,0:0:0:0:
432,32,109138,2,2,P|400:75|400:152,1,120
456,224,109562,2,2,B|471:315|400:384|400:384|400:384,1,160
328,384,110071,1,0,0:0:0:0:
264,304,110240,2,2,B|218:227|107:256|107:256|107:256,1,160,2|4,0:0|0:2,0:0:0:0:
56,296,110748,2,0,L|32:208,1,80,0|4,0:0|0:2,0:0:0:0:
0,144,111087,1,0,0:0:0:0:
72,112,111257,2,2,P|82:74|111:41,1,80,2|0,0:0|0:0,0:0:0:0:
248,72,111596,6,2,B|264:162|188:217|188:217|188:217,1,160,6|2,0:0|0:0,0:0:0:0:
120,240,112104,1,2,0:0:0:0:
128,320,112274,2,2,P|171:361|256:368,1,120
280,320,112613,2,0,P|312:294|355:285,1,80,2|0,0:0|0:0,0:0:0:0:
448,320,112952,5,2,0:0:0:0:
424,216,113121,1,0,0:0:0:0:
488,136,113291,1,0,0:0:0:0:
488,136,113376,1,0,0:0:0:0:
488,136,113460,1,0,0:0:0:0:
472,32,113630,1,0,0:0:0:0:
368,16,113799,1,0,0:0:0:0:
368,16,113884,1,0,0:0:0:0:
368,16,113969,1,0,0:0:0:0:
344,120,114138,1,0,0:0:0:0:
224,200,114308,6,2,B|128:216|88:124|88:124|88:124,1,160,6|0,0:0|0:0,0:0:0:0:
112,56,114816,1,2,0:0:0:0:
192,72,114986,2,2,P|216:42|220:-8,2,80,2|0|2,0:0|0:0|0:0,0:0:0:0:
112,56,115494,1,0,0:0:0:0:
32,176,115664,6,2,B|2:271|93:322|93:322|93:322,1,160,6|0,0:0|0:0,0:0:0:0:
160,336,116172,1,2,0:0:0:0:
208,272,116342,2,2,P|238:241|296:232,1,80,2|0,0:0|0:0,0:0:0:0:
352,248,116681,1,2,0:0:0:0:
400,312,116850,1,2,0:0:0:0:
472,280,117020,5,2,0:0:0:0:
452,245,117104,1,0,0:0:0:0:
445,205,117189,1,0,0:0:0:0:
456,168,117274,1,0,0:0:0:0:
472,128,117359,1,2,0:0:0:0:
488,88,117443,1,2,0:0:0:0:
475,49,117528,1,0,0:0:0:0:
441,26,117613,1,0,0:0:0:0:
401,34,117698,5,0,0:0:0:0:
381,68,117782,1,0,0:0:0:0:
389,107,117867,1,0,0:0:0:0:
365,139,117952,1,0,0:0:0:0:
325,144,118037,1,2,0:0:0:0:
291,122,118121,1,0,0:0:0:0:
279,83,118206,1,0,0:0:0:0:
242,65,118291,1,0,0:0:0:0:
205,82,118376,5,2,0:0:0:0:
193,119,118460,1,0,0:0:0:0:
211,154,118545,1,0,0:0:0:0:
220,193,118630,1,0,0:0:0:0:
209,231,118715,1,2,0:0:0:0:
183,261,118799,1,0,0:0:0:0:
144,272,118884,1,0,0:0:0:0:
109,251,118969,1,0,0:0:0:0:
97,212,119054,5,2,0:0:0:0:
110,174,119138,1,0,0:0:0:0:
146,156,119223,1,0,0:0:0:0:
186,159,119308,1,0,0:0:0:0:
221,177,119393,1,0,0:0:0:0:
244,208,119477,1,0,0:0:0:0:
262,243,119562,1,0,0:0:0:0:
299,257,119647,1,0,0:0:0:0:
338,248,119732,6,0,P|375:224|422:224,1,80,6|0,0:0|0:0,0:0:0:0:
472,256,119986,2,2,P|433:216|426:142,1,120
456,56,120410,2,2,B|393:110|303:80|303:80|303:80,1,160,2|0,0:0|0:0,0:0:0:0:
248,24,120918,1,0,0:0:0:0:
152,64,121087,2,2,B|114:152|200:216|200:216|200:216,1,160,2|0,0:0|0:0,0:0:0:0:
120,168,121596,2,0,P|86:147|46:143,1,80
0,208,121935,1,0,0:0:0:0:
8,288,122104,2,2,P|41:308|81:312,1,80,2|0,0:0|0:0,0:0:0:0:
216,368,122443,6,2,B|295:313|257:213|257:213|257:213,1,160,6|0,0:0|0:0,0:0:0:0:
224,160,122952,1,2,0:0:0:0:
184,96,123121,2,0,P|197:56|224:16,1,80,2|0,0:0|0:0,0:0:0:0:
344,64,123460,2,0,L|424:48,1,80,2|2,0:0|0:0,0:0:0:0:
440,176,123799,6,2,B|510:225|484:335|484:335|484:335,1,160
400,376,124308,1,0,0:0:0:0:
320,304,124477,2,2,B|252:261|164:279|164:279|164:279,1,160
80,344,124986,1,0,0:0:0:0:
32,256,125155,6,2,B|108:205|93:95|93:95|93:95,1,160,6|0,0:0|0:0,0:0:0:0:
32,32,125664,2,2,B|83:108|193:93|193:93|193:93,1,160,2|0,0:0|0:0,0:0:0:0:
240,56,126172,2,2,P|277:42|328:40,1,80,2|0,0:0|0:0,0:0:0:0:
431,12,126511,6,2,P|425:52|408:88,1,80,2|0,0:0|0:0,0:0:0:0:
320,144,126850,2,2,B|302:236|378:291|378:291|378:291,1,160
296,264,127359,1,0,0:0:0:0:
216,248,127528,2,2,P|171:257|136:280,1,80,2|0,0:0|0:0,0:0:0:0:
40,264,127867,5,2,0:0:0:0:
14,232,127952,1,0,0:0:0:0:
9,192,128037,1,0,0:0:0:0:
13,152,128121,1,0,0:0:0:0:
32,116,128206,1,0,0:0:0:0:
63,91,128291,1,0,0:0:0:0:
101,78,128376,1,2,0:0:0:0:
139,87,128460,1,0,0:0:0:0:
172,108,128545,5,0,0:0:0:0:
209,121,128630,1,0,0:0:0:0:
248,115,128715,1,0,0:0:0:0:
280,92,128799,1,0,0:0:0:0:
307,63,128884,2,0,L|316:24,3,40,2|0|0|0,0:0|0:0|0:0|0:0,0:0:0:0:
351,6,129223,5,2,0:0:0:0:
390,12,129308,1,0,0:0:0:0:
422,35,129393,1,0,0:0:0:0:
440,70,129477,1,0,0:0:0:0:
435,109,129562,1,0,0:0:0:0:
418,145,129647,1,0,0:0:0:0:
385,167,129732,1,2,0:0:0:0:
358,196,129816,1,0,0:0:0:0:
346,234,129901,5,0,0:0:0:0:
345,274,129986,1,0,0:0:0:0:
358,311,130071,1,0,0:0:0:0:
381,342,130155,1,0,0:0:0:0:
417,359,130240,2,0,L|465:343,3,40,2|0|0|0,0:0|0:0|0:0|0:0,0:0:0:0:
485,319,130579,6,0,B|446:217|255:224|305:406|141:428|71:321,1,480.000018310548,4|0,0:0|0:0,0:0:0:0:
48,200,132104,1,0,0:0:0:0:
48,200,133291,6,0,B|136:203|162:118|162:118|185:250|376:254|402:142,1,480.000018310548,4|0,0:0|0:0,0:0:0:0:
432,16,134816,1,0,0:0:0:0:
432,16,136003,5,0,0:0:0:0:
472,168,136342,6,0,L|520:152,2,40,2|2|2,0:0|0:0|0:0,0:0:0:0:
392,152,136681,1,2,0:0:0:0:
320,184,136850,2,0,P|283:172|240:168,1,80,0|2,0:0|0:0,0:0:0:0:
176,208,137189,1,2,0:0:0:0:
72,136,137359,5,0,0:0:0:0:
40,288,137698,6,0,L|-8:280,2,40,2|2|2,0:0|0:0|0:0,0:0:0:0:
104,336,138037,1,2,0:0:0:0:
176,304,138206,2,0,P|214:312|256:336,1,80,0|2,0:0|0:0,0:0:0:0:
328,304,138545,1,2,0:0:0:0:
392,224,138715,5,0,0:0:0:0:
328,80,139054,1,0,0:0:0:0:
176,136,139393,1,0,0:0:0:0:
240,280,139732,1,0,0:0:0:0:
392,224,140071,5,0,0:0:0:0:
376,16,140410,1,0,0:0:0:0:
168,32,140748,1,0,0:0:0:0:
184,240,141087,1,0,0:0:0:0:
392,224,141426,5,4,0:0:0:0:
256,192,141511,12,0,144436,0:0:0:0:
256,192,144539,12,0,152711,0:0:0:0:
48,48,160987,6,0,B|235:-36|226:180|394:100,1,360.000013732911,2|0,0:0|0:0,0:0:0:0:
504,256,162642,2,0,B|473:197|350:169|288:220,1,240.000009155274,2|2,0:0|0:0,0:0:0:0:
88,352,164298,2,0,B|152:308|121:231|121:231|30:211|6:59|157:-13|237:73,1,480.000018310548,2|0,0:0|0:0,0:0:0:0:
368,80,167608,6,0,B|267:178|373:362|501:328,1,360.000013732911,2|0,0:0|0:0,0:0:0:0:
312,262,169263,2,0,B|257:239|181:262|157:325,1,180.000006866455,2|2,0:0|0:0,0:0:0:0:
159,319,169987,1,2,0:0:0:0:
165,325,170091,2,0,B|143:294|99:282|49:297,1,120.000004577637,2|0,0:0|0:0,0:0:0:0:
128,200,170918,2,0,B|173:231|263:191|272:129|272:129|385:227|496:71|376:1,1,480.000018310548,2|2,0:0|0:0,0:0:0:0:
352,80,173608,5,8,0:0:0:0:
352,80,173815,1,0,1:0:0:0:
352,80,174229,5,4,0:0:0:0:
280,48,174436,1,2,0:0:0:0:
208,72,174642,2,0,L|120:56,1,80,2|0,1:2|0:0,0:0:0:0:
120,136,175056,2,0,L|32:152,1,80,2|0,0:0|0:0,0:0:0:0:
8,224,175470,1,0,1:0:0:0:
56,288,175677,1,2,0:0:0:0:
136,304,175884,5,0,0:0:0:0:
208,264,176091,1,0,0:0:0:0:
240,192,176298,2,0,B|230:89|341:43|341:43|341:43,1,160,2|2,1:2|0:0,0:0:0:0:
392,64,176918,1,0,0:0:0:0:
456,112,177125,2,0,L|472:200,1,80,0|2,1:0|0:0,0:0:0:0:
456,296,177539,5,2,0:0:0:0:
384,328,177746,1,0,0:0:0:0:
312,296,177953,2,0,P|293:258|288:208,1,80,0|0,1:0|0:0,0:0:0:0:
320,152,178367,1,0,0:0:0:0:
304,72,178573,2,0,P|279:36|232:8,1,80,0|0,0:0|1:0,0:0:0:0:
176,48,178987,1,0,0:0:0:0:
152,120,179194,6,0,B|73:152|-10:66|-10:66|-10:66,2,160,0|0|0,0:0|1:0|0:0,0:0:0:0:
232,144,180229,1,0,0:0:0:0:
312,136,180436,2,0,P|342:166|363:207,1,80,4|0,1:2|0:0,0:0:0:0:
440,264,180849,5,4,0:0:0:0:
384,320,181056,1,0,0:0:0:0:
304,336,181263,2,0,P|260:331|208:312,1,80,2|0,1:2|0:0,0:0:0:0:
144,336,181677,2,0,L|104:248,1,80,2|0,0:0|0:0,0:0:0:0:
136,184,182091,1,0,1:0:0:0:
96,112,182298,1,2,0:0:0:0:
152,24,182504,6,0,B|243:-8|308:86|308:86|308:86,1,160,0|2,0:0|1:2,0:0:0:0:
336,136,183125,2,0,P|374:127|406:103,1,80,0|2,0:0|0:0,0:0:0:0:
480,136,183539,1,0,0:0:0:0:
440,200,183746,2,0,P|448:238|472:270,1,80,0|2,1:0|0:0,0:0:0:0:
384,368,184160,6,0,B|362:281|276:238|276:238|276:238,1,160,2|0,0:0|1:0,0:0:0:0:
208,248,184780,1,0,0:0:0:0:
144,296,184987,1,0,0:0:0:0:
88,240,185194,2,0,P|80:200|90:154,1,80,0|4,0:0|1:2,0:0:0:0:
128,96,185608,1,0,0:0:0:0:
200,64,185815,5,0,0:0:0:0:
272,88,186022,1,4,1:2:0:0:
272,88,186229,1,4,1:2:0:0:
352,64,186436,2,0,P|391:75|424:104,1,80,0|0,0:0|1:0,0:0:0:0:
504,112,186849,1,0,1:0:0:0:
504,112,186953,1,0,1:0:0:0:
504,112,187056,2,0,L|496:160,3,40,0|0|0|0,1:0|1:0|1:0|1:0,0:0:0:0:
464,216,187470,5,4,0:0:0:0:
464,296,187677,1,2,0:0:0:0:
392,328,187884,2,0,P|347:322|312:304,1,80,0|2,1:0|0:0,0:0:0:0:
272,240,188298,1,2,0:0:0:0:
304,168,188504,1,0,0:0:0:0:
248,112,188711,2,2,P|242:72|227:35,1,80,2|2,1:2|0:0,0:0:0:0:
152,8,189125,5,2,0:0:0:0:
72,64,189332,1,0,0:0:0:0:
32,168,189539,1,2,1:2:0:0:
40,296,189746,1,2,0:0:0:0:
144,224,189953,5,2,0:0:0:0:
256,224,190160,1,0,0:0:0:0:
344,264,190367,1,2,1:2:0:0:
384,336,190573,1,2,0:0:0:0:
464,272,190780,6,0,B|393:199|431:116|431:116|431:116,1,160,2|0,0:0|1:0,0:0:0:0:
472,56,191401,1,2,0:0:0:0:
472,56,191504,1,2,0:0:0:0:
472,56,191608,2,0,B|413:137|313:103|313:103|313:103,1,160,2|0,0:0|1:0,0:0:0:0:
264,64,192229,1,2,0:0:0:0:
264,64,192332,1,2,0:0:0:0:
264,64,192436,2,0,B|209:-1|104:32|104:32|104:32,1,160,2|0,0:0|1:0,0:0:0:0:
48,64,193056,1,2,0:0:0:0:
48,64,193160,1,2,0:0:0:0:
48,64,193263,2,0,P|28:103|24:152,1,80,2|0,0:0|0:0,0:0:0:0:
0,264,193677,2,0,P|39:257|74:239,1,80,2|0,1:2|0:0,0:0:0:0:
136,144,194091,5,4,0:0:0:0:
216,128,194298,1,2,0:0:0:0:
280,176,194504,2,0,P|280:218|248:272,1,80,0|2,1:0|0:0,0:0:0:0:
216,320,194918,1,2,0:0:0:0:
280,368,195125,1,0,0:0:0:0:
360,344,195332,2,2,P|397:324|448:320,1,80,2|2,1:2|0:0,0:0:0:0:
488,256,195746,5,2,0:0:0:0:
400,216,195953,1,0,0:0:0:0:
344,120,196160,1,2,1:2:0:0:
408,8,196367,1,2,0:0:0:0:
320,96,196573,5,2,0:0:0:0:
216,136,196780,1,0,0:0:0:0:
120,120,196987,1,2,1:2:0:0:
64,64,197194,1,2,0:0:0:0:
168,64,197401,6,0,B|187:160|104:219|104:219|104:219,1,160,6|2,0:0|1:2,0:0:0:0:
56,256,198022,1,0,0:0:0:0:
104,320,198229,2,0,P|140:303|179:302,1,80,2|0,0:0|0:0,0:0:0:0:
323,361,198642,2,0,P|284:360|248:344,1,80,2|0,1:2|0:0,0:0:0:0:
248,264,199056,5,8,0:0:0:0:
248,264,199263,1,8,0:0:0:0:
296,168,199470,1,8,0:0:0:0:
296,168,199677,1,8,0:0:0:0:
376,104,199884,1,8,0:0:0:0:
376,104,200091,1,8,0:0:0:0:
480,88,200298,1,8,0:0:0:0:
480,88,200504,1,0,0:0:0:0:
440,184,200711,5,6,0:0:0:0:
419,203,200815,1,0,0:0:0:0:
392,210,200918,1,2,0:0:0:0:
363,208,201022,1,0,0:0:0:0:
336,199,201125,1,0,1:0:0:0:
317,177,201229,1,0,0:0:0:0:
306,150,201332,1,2,0:0:0:0:
307,121,201436,1,0,0:0:0:0:
318,95,201539,5,0,0:0:0:0:
317,67,201642,1,0,0:0:0:0:
304,42,201746,1,0,0:0:0:0:
279,28,201849,1,0,0:0:0:0:
251,24,201953,1,2,1:2:0:0:
224,30,202056,1,0,0:0:0:0:
201,47,202160,1,0,0:0:0:0:
185,70,202263,1,0,0:0:0:0:
177,97,202367,6,0,L|181:141,3,40,2|0|0|0,0:0|0:0|0:0|0:0,0:0:0:0:
193,161,202780,2,0,L|167:197,3,40,2|0|0|0,1:2|0:0|0:0|0:0,0:0:0:0:
144,206,203194,5,2,0:0:0:0:
115,208,203298,1,2,0:0:0:0:
88,199,203401,1,0,0:0:0:0:
67,180,203504,1,2,0:0:0:0:
58,153,203608,2,0,P|73:189|75:229,1,80,2|0,1:2|0:0,0:0:0:0:
24,320,204022,5,2,0:0:0:0:
47,335,204125,1,0,0:0:0:0:
74,339,204229,1,2,0:0:0:0:
101,337,204332,1,0,0:0:0:0:
124,321,204436,2,0,P|143:303|167:289,3,40,0|2|0|0,1:0|0:0|0:0|0:0,0:0:0:0:
183,290,204849,5,2,0:0:0:0:
211,289,204953,1,0,0:0:0:0:
235,276,205056,1,0,0:0:0:0:
253,254,205160,1,0,0:0:0:0:
266,229,205263,2,0,P|267:207|265:190,3,40,2|0|0|0,1:2|0:0|0:0|0:0,0:0:0:0:
242,155,205677,5,2,0:0:0:0:
168,80,205884,1,2,0:0:0:0:
272,48,206091,2,0,L|291:-2,2,53.3333333333333,2|0|2,1:2|0:0|0:0,0:0:0:0:
328,88,206504,5,2,0:0:0:0:
384,128,206642,2,0,L|370:184,1,53.3333333333333
408,240,206918,2,0,P|419:279|447:313,1,80,2|0,1:2|0:0,0:0:0:0:
344,336,207332,6,0,L|312:344,7,20
256,352,207746,2,0,L|232:344,7,20,0|0|0|0|0|0|0|0,1:0|0:0|0:0|0:0|0:0|0:0|0:0|0:0,0:0:0:0:
168,336,208160,2,0,L|151:317,7,20
96,288,208573,2,0,L|90:263,7,20,0|0|0|0|0|0|0|0,1:0|0:0|0:0|0:0|0:0|0:0|0:0|0:0,0:0:0:0:
95,248,208987,5,2,0:0:0:0:
112,211,209091,1,0,0:0:0:0:
114,171,209194,1,0,0:0:0:0:
94,135,209298,1,0,0:0:0:0:
103,96,209401,1,2,1:2:0:0:
138,78,209504,1,0,0:0:0:0:
177,82,209608,1,2,0:0:0:0:
207,107,209711,1,0,0:0:0:0:
225,142,209815,5,2,0:0:0:0:
262,154,209918,1,0,0:0:0:0:
288,184,210022,1,0,0:0:0:0:
293,223,210125,1,0,0:0:0:0:
269,255,210229,1,2,1:2:0:0:
268,294,210332,1,0,0:0:0:0:
293,325,210436,1,0,0:0:0:0:
331,335,210539,1,0,0:0:0:0:
370,327,210642,5,2,0:0:0:0:
399,299,210746,1,0,0:0:0:0:
406,259,210849,1,0,0:0:0:0:
424,223,210953,1,0,0:0:0:0:
454,197,211056,2,0,P|465:177|484:157,3,40,0|0|0|0,1:0|0:0|0:0|0:0,0:0:0:0:
488,125,211470,5,2,0:0:0:0:
487,85,211573,1,0,0:0:0:0:
454,60,211677,1,0,0:0:0:0:
414,66,211780,1,0,0:0:0:0:
383,93,211884,2,0,P|381:120|389:145,3,40,4|0|0|0,1:2|0:0|0:0|0:0,0:0:0:0:
380,173,212298,5,8,0:0:0:0:
327,168,212401,1,8,0:0:0:0:
285,136,212504,2,0,L|252:103,1,40,8|8,0:0|0:0,0:0:0:0:
222,22,212711,5,8,0:0:0:0:
171,33,212815,1,8,0:0:0:0:
147,77,212918,2,8,L|175:105,1,40
225,184,213125,5,8,0:0:0:0:
214,235,213229,1,8,0:0:0:0:
169,259,213332,2,8,L|140:230,1,40
75,165,213539,5,8,0:0:0:0:
24,176,213643,1,8,0:0:0:0:
0,220,213746,2,8,L|28:248,1,40
56,336,213953,6,0,P|96:338|144:352,1,80,4|0,0:0|0:0,0:0:0:0:
216,368,214367,2,0,L|296:320,1,80,2|0,1:2|0:0,0:0:0:0:
360,312,214780,2,0,P|349:271|351:223,1,80
328,160,215194,2,0,L|360:72,1,80,2|0,1:2|0:0,0:0:0:0:
248,88,215608,6,2,P|208:80|172:64,1,80
80,16,216022,1,0,1:0:0:0:
8,96,216229,2,0,B|70:146|54:249|54:249|54:249,1,160,2|2,0:0|0:0,0:0:0:0:
128,320,216849,1,2,1:2:0:0:
192,240,217056,1,2,0:0:0:0:
296,224,217263,5,2,0:0:0:0:
320,192,217367,1,0,0:0:0:0:
358,179,217470,1,0,0:0:0:0:
397,183,217573,1,0,0:0:0:0:
430,204,217677,1,2,1:2:0:0:
453,237,217780,1,0,0:0:0:0:
456,277,217884,1,2,0:0:0:0:
438,311,217987,1,0,0:0:0:0:
398,305,218091,5,2,0:0:0:0:
382,268,218194,1,0,0:0:0:0:
394,229,218298,1,2,0:0:0:0:
422,200,218401,1,0,0:0:0:0:
440,164,218504,1,2,1:2:0:0:
442,123,218608,1,0,0:0:0:0:
424,87,218711,1,0,0:0:0:0:
394,60,218815,1,0,0:0:0:0:
354,62,218918,6,2,P|313:55|266:35,1,80
176,8,219332,1,0,1:0:0:0:
80,48,219539,2,0,B|49:144|136:203|136:203|136:202,1,160,2|0,0:0|1:0,0:0:0:0:
157,207,220056,1,2,1:2:0:0:
196,212,220160,1,0,1:0:0:0:
231,193,220263,1,0,1:0:0:0:
262,167,220367,1,2,1:2:0:0:
301,161,220470,1,0,1:0:0:0:
337,176,220573,6,0,B|368:272|281:331|281:331|281:330,1,160,4|2,0:0|1:2,0:0:0:0:
176,280,221194,2,0,B|145:184|232:125|232:125|232:126,1,160,2|2,0:0|0:0,0:0:0:0:
120,48,221815,2,0,B|187:-26|282:18|282:18|281:19,1,160,2|2,1:2|0:0,0:0:0:0:
344,80,222436,1,2,0:0:0:0:
448,88,222642,2,0,P|449:128|480:176,1,80,0|2,1:0|0:0,0:0:0:0:
496,264,223056,1,2,0:0:0:0:
459,246,223160,1,0,0:0:0:0:
419,252,223263,1,2,0:0:0:0:
392,281,223367,1,0,0:0:0:0:
362,307,223470,1,2,1:2:0:0:
322,311,223573,1,2,0:0:0:0:
286,292,223677,1,0,0:0:0:0:
273,254,223780,1,2,0:0:0:0:
290,217,223884,5,2,0:0:0:0:
326,200,223987,1,0,0:0:0:0:
342,163,224091,1,0,0:0:0:0:
335,123,224194,1,0,0:0:0:0:
301,100,224298,1,2,1:2:0:0:
261,99,224401,1,0,0:0:0:0:
223,113,224504,2,0,L|177:103,1,40,2|0,0:0|0:0,0:0:0:0:
112,66,224711,5,2,0:0:0:0:
72,58,224815,1,0,0:0:0:0:
34,70,224918,1,2,0:0:0:0:
7,99,225022,1,0,0:0:0:0:
4,138,225125,1,2,1:2:0:0:
13,176,225229,1,0,0:0:0:0:
36,207,225332,1,0,0:0:0:0:
73,221,225436,1,0,0:0:0:0:
112,216,225539,5,0,1:0:0:0:
112,216,225642,1,0,1:0:0:0:
112,216,225746,1,0,1:0:0:0:
200,168,225953,1,4,0:0:0:0:
280,232,226160,1,0,1:0:0:0:
280,232,226263,1,0,1:0:0:0:
280,232,226367,1,0,1:0:0:0:
248,328,226573,1,4,0:1:0:0:
344,376,226780,1,0,1:0:0:0:
384,373,226884,1,0,1:0:0:0:
417,351,226987,1,0,1:0:0:0:
432,313,227091,1,0,1:0:0:0:
431,273,227194,5,4,1:0:0:0:
456,200,227401,1,2,0:0:0:0:
432,120,227608,2,0,P|444:78|448:24,1,80,0|2,1:0|0:0,0:0:0:0:
352,0,228022,1,2,0:0:0:0:
288,48,228229,1,0,0:0:0:0:
280,128,228436,2,2,P|268:170|264:224,1,80,2|2,1:2|0:0,0:0:0:0:
304,304,228849,5,2,0:0:0:0:
232,328,229056,1,0,0:0:0:0:
160,296,229263,2,2,P|132:267|96:248,1,80,2|2,1:2|0:0,0:0:0:0:
16,272,229677,5,2,0:0:0:0:
72,184,229884,1,2,0:0:0:0:
56,80,230091,1,2,1:2:0:0:
144,24,230298,1,2,0:0:0:0:
224,88,230504,5,4,0:0:0:0:
304,64,230711,1,2,0:0:0:0:
368,112,230918,2,0,P|359:150|334:184,1,80,0|2,1:0|0:0,0:0:0:0:
272,232,231332,1,2,0:0:0:0:
192,216,231539,2,0,P|152:212|114:224,2,80,0|2|0,0:0|1:2|0:0,0:0:0:0:
272,232,232160,5,2,0:0:0:0:
296,312,232367,2,0,P|313:347|342:375,1,80,2|0,0:0|1:0,0:0:0:0:
424,368,232780,1,2,0:0:0:0:
496,328,232987,2,0,B|481:227|389:194|389:194|389:194,1,160,2|4,0:0|1:2,0:0:0:0:
344,56,233815,5,4,0:0:0:0:
264,72,234022,1,2,0:0:0:0:
208,128,234229,2,0,P|165:125|112:112,1,80,0|2,1:0|0:0,0:0:0:0:
24,104,234642,1,2,0:0:0:0:
56,176,234849,1,0,0:0:0:0:
48,256,235056,2,0,P|86:262|136:288,1,80,2|2,1:2|0:0,0:0:0:0:
192,360,235470,5,2,0:0:0:0:
256,304,235677,1,0,0:0:0:0:
280,224,235884,2,0,L|264:128,1,80,2|2,1:2|0:0,0:0:0:0:
200,64,236298,5,2,0:0:0:0:
288,8,236504,1,2,0:0:0:0:
392,16,236711,1,2,1:2:0:0:
480,80,236918,1,2,0:0:0:0:
480,184,237125,5,2,1:2:0:0:
455,215,237229,1,0,1:0:0:0:
455,254,237332,1,0,1:0:0:0:
469,291,237436,1,0,0:0:0:0:
474,330,237539,2,0,L|457:368,3,40,2|0|2|0,1:2|1:0|1:2|1:0,0:0:0:0:
418,376,237953,5,2,1:2:0:0:
379,365,238056,1,0,1:0:0:0:
350,336,238160,1,2,1:2:0:0:
313,319,238263,1,0,0:0:0:0:
273,325,238367,2,0,P|253:329|230:340,3,40,2|0|0|0,1:2|1:0|1:0|1:0,0:0:0:0:
203,361,238780,5,2,1:2:0:0:
163,366,238884,1,0,1:0:0:0:
125,351,238987,1,2,1:2:0:0:
107,314,239091,1,0,1:0:0:0:
110,274,239194,1,0,1:0:0:0:
89,239,239298,1,0,1:0:0:0:
51,226,239401,1,2,1:2:0:0:
18,202,239504,1,0,1:0:0:0:
5,163,239608,5,2,1:2:0:0:
6,123,239711,1,0,1:0:0:0:
22,86,239815,1,0,1:0:0:0:
52,60,239918,1,0,1:0:0:0:
90,47,240022,1,2,1:2:0:0:
129,51,240125,1,0,1:0:0:0:
164,69,240229,1,0,1:0:0:0:
189,100,240332,1,0,1:0:0:0:
194,139,240436,5,4,1:2:0:0:
256,192,240539,12,0,243642,0:0:0:0:
256,192,243742,5,0,0:0:0:0:
256,192,246453,5,4,0:0:0:0:
256,192,247809,1,4,0:0:0:0:
256,192,248487,1,0,0:0:0:0:
256,192,248826,1,0,0:0:0:0:
52,92,249165,5,0,0:0:0:0:
42,132,249250,1,0,0:0:0:0:
62,168,249335,1,0,0:0:0:0:
99,182,249419,1,0,0:0:0:0:
136,170,249504,1,0,0:0:0:0:
216,104,249674,5,0,0:0:0:0:
253,92,249759,1,0,0:0:0:0:
290,106,249843,1,0,0:0:0:0:
310,142,249928,1,0,0:0:0:0:
300,182,250013,1,0,0:0:0:0:
280,280,250182,5,0,0:0:0:0:
270,320,250267,1,0,0:0:0:0:
290,356,250352,1,0,0:0:0:0:
327,370,250436,1,0,0:0:0:0:
364,358,250521,1,0,0:0:0:0:
400,264,250691,5,0,0:0:0:0:
400,224,250775,1,0,0:0:0:0:
419,188,250860,1,0,0:0:0:0:
454,169,250945,1,0,0:0:0:0:
481,140,251030,1,0,0:0:0:0:
490,101,251114,1,0,0:0:0:0:
477,62,251199,5,0,0:0:0:0:
445,37,251284,1,0,0:0:0:0:
406,26,251369,1,0,0:0:0:0:
368,39,251453,1,0,0:0:0:0:
338,66,251538,1,0,0:0:0:0:
298,74,251623,1,0,0:0:0:0:
258,65,251708,1,0,0:0:0:0:
225,42,251792,1,0,0:0:0:0:
187,28,251877,5,4,0:0:0:0:
147,35,251962,1,0,0:0:0:0:
116,60,252047,1,0,0:0:0:0:
103,97,252131,1,0,0:0:0:0:
105,137,252216,1,0,0:0:0:0:
123,172,252301,1,0,0:0:0:0:
160,186,252386,5,0,0:0:0:0:
199,182,252470,1,0,0:0:0:0:
234,200,252555,1,0,0:0:0:0:
257,232,252640,1,0,0:0:0:0:
263,271,252725,1,0,0:0:0:0:
252,309,252809,1,0,0:0:0:0:
225,338,252894,5,0,0:0:0:0:
184,340,252979,1,0,0:0:0:0:
150,317,253064,1,0,0:0:0:0:
135,279,253148,1,0,0:0:0:0:
144,240,253233,1,0,0:0:0:0:
177,217,253318,1,0,0:0:0:0:
216,207,253403,1,0,0:0:0:0:
253,219,253487,1,0,0:0:0:0:
285,242,253572,6,0,L|331:232,3,40
394,273,253911,6,0,L|440:263,3,40
421,142,254250,6,0,L|460:133,3,40
484,101,254589,5,6,0:0:0:0:
485,60,254674,1,0,0:0:0:0:
459,29,254758,1,0,0:0:0:0:
420,17,254843,1,0,0:0:0:0:
380,23,254928,2,0,P|359:29|345:41,3,40
330,78,255267,5,2,0:0:0:0:
336,117,255352,1,0,0:0:0:0:
361,147,255436,1,0,0:0:0:0:
400,155,255521,1,0,0:0:0:0:
437,169,255606,2,0,P|447:185|448:213,3,40
441,245,255945,5,2,0:0:0:0:
405,264,256030,1,0,0:0:0:0:
367,252,256114,1,0,0:0:0:0:
331,270,256199,1,0,0:0:0:0:
305,300,256284,2,0,P|308:320|314:338,3,40
289,370,256623,5,2,0:0:0:0:
248,372,256708,1,0,0:0:0:0:
209,364,256792,1,0,0:0:0:0:
182,333,256877,1,0,0:0:0:0:
181,292,256962,2,0,L|189:252,3,40,2|0|0|0,0:0|0:0|0:0|0:0,0:0:0:0:
212,220,257301,5,2,0:0:0:0:
210,179,257386,1,0,0:0:0:0:
188,145,257470,1,0,0:0:0:0:
203,108,257555,1,0,0:0:0:0:
238,88,257640,1,2,0:0:0:0:
274,106,257725,1,0,0:0:0:0:
287,143,257809,1,2,0:0:0:0:
288,183,257894,1,0,0:0:0:0:
317,210,257979,5,0,0:0:0:0:
356,205,258064,1,0,0:0:0:0:
374,170,258148,1,2,0:0:0:0:
374,129,258233,1,0,0:0:0:0:
355,93,258318,1,0,0:0:0:0:
356,52,258403,1,0,0:0:0:0:
381,21,258487,1,2,0:0:0:0:
421,23,258572,1,0,0:0:0:0:
450,49,258657,5,2,0:0:0:0:
463,86,258742,1,0,0:0:0:0:
455,125,258826,1,0,0:0:0:0:
437,161,258911,1,0,0:0:0:0:
435,201,258996,1,2,0:0:0:0:
453,236,259080,1,0,0:0:0:0:
479,266,259165,1,0,0:0:0:0:
483,305,259250,1,0,0:0:0:0:
465,341,259335,1,2,0:0:0:0:
427,353,259419,1,0,0:0:0:0:
387,356,259504,1,0,0:0:0:0:
350,338,259589,1,0,0:0:0:0:
327,304,259674,2,2,P|292:277|249:272,1,80,2|0,0:0|0:0,0:0:0:0:
160,312,260013,5,2,0:0:0:0:
121,321,260097,1,0,0:0:0:0:
83,305,260182,1,0,0:0:0:0:
68,267,260267,1,2,0:0:0:0:
68,226,260352,1,0,0:0:0:0:
94,196,260436,1,0,0:0:0:0:
55,183,260521,1,0,0:0:0:0:
26,154,260606,1,0,0:0:0:0:
13,116,260691,5,2,0:0:0:0:
13,76,260775,1,0,0:0:0:0:
32,40,260860,1,0,0:0:0:0:
67,21,260945,1,0,0:0:0:0:
107,18,261030,1,2,0:0:0:0:
145,27,261114,1,0,0:0:0:0:
171,57,261199,1,0,0:0:0:0:
182,95,261284,1,0,0:0:0:0:
202,129,261369,5,2,0:0:0:0:
240,138,261453,1,0,0:0:0:0:
277,122,261538,1,2,0:0:0:0:
302,91,261623,1,0,0:0:0:0:
339,76,261708,2,0,P|358:78|382:93,3,40
405,115,262047,5,2,0:0:0:0:
411,154,262131,1,0,0:0:0:0:
393,190,262216,1,0,0:0:0:0:
357,209,262301,1,0,0:0:0:0:
317,204,262386,2,0,P|298:199|278:198,3,40,2|0|0|0,0:0|0:0|0:0|0:0,0:0:0:0:
241,215,262725,5,2,0:0:0:0:
219,248,262809,1,0,0:0:0:0:
218,288,262894,1,0,0:0:0:0:
243,319,262979,1,0,0:0:0:0:
231,357,263064,1,0,0:0:0:0:
193,370,263148,1,0,0:0:0:0:
155,356,263233,1,0,0:0:0:0:
147,316,263318,1,0,0:0:0:0:
126,281,263403,5,2,0:0:0:0:
94,257,263487,1,0,0:0:0:0:
86,217,263572,1,0,0:0:0:0:
101,179,263657,1,0,0:0:0:0:
136,160,263742,1,0,0:0:0:0:
175,162,263826,1,0,0:0:0:0:
211,146,263911,1,0,0:0:0:0:
231,111,263996,1,0,0:0:0:0:
228,71,264080,5,2,0:0:0:0:
251,38,264165,1,0,0:0:0:0:
288,25,264250,1,0,0:0:0:0:
327,29,264335,1,0,0:0:0:0:
356,55,264419,2,0,P|375:66|397:75,3,40,2|0|0|0,0:0|0:0|0:0|0:0,0:0:0:0:
430,64,264758,5,2,0:0:0:0:
466,81,264843,1,0,0:0:0:0:
482,117,264928,1,0,0:0:0:0:
477,156,265013,1,0,0:0:0:0:
455,189,265097,1,2,0:0:0:0:
415,197,265182,1,0,0:0:0:0:
381,218,265267,1,0,0:0:0:0:
369,256,265352,1,0,0:0:0:0:
373,295,265436,6,0,P|381:317|397:333,3,40,4|0|0|0,0:0|0:0|0:0|0:0,0:0:0:0:
290,267,265775,2,0,P|286:290|291:311,3,40
232,200,266114,2,0,P|216:218|211:239,3,40
216,113,266453,2,0,P|193:121|177:136,3,40
115,87,266792,5,2,0:0:0:0:
76,99,266877,1,0,0:0:0:0:
58,135,266962,1,0,0:0:0:0:
61,174,267047,1,0,0:0:0:0:
14,197,267131,5,2,0:0:0:0:
27,234,267216,1,0,0:0:0:0:
63,251,267301,1,0,0:0:0:0:
102,246,267386,1,0,0:0:0:0:
127,290,267470,5,2,0:0:0:0:
167,290,267555,1,0,0:0:0:0:
195,261,267640,1,0,0:0:0:0:
202,221,267725,1,0,0:0:0:0:
177,175,267809,5,2,0:0:0:0:
177,134,267894,1,0,0:0:0:0:
205,104,267979,1,0,0:0:0:0:
244,97,268064,1,0,0:0:0:0:
283,134,268148,6,2,B|425:214|471:67|471:67|471:67,1,240,6|0,0:0|0:0,0:0:0:0:
467,64,268742,1,0,0:0:0:0:
464,59,268826,2,2,P|463:101|484:145,1,80,2|0,0:0|0:0,0:0:0:0:
458,211,269080,2,2,P|452:275|416:336,1,120
298,345,269504,6,2,L|178:319,1,120,2|0,0:0|0:0,0:0:0:0:
88,272,270182,5,2,0:0:0:0:
88,272,270267,1,0,0:0:0:0:
88,272,270352,1,0,0:0:0:0:
88,272,270436,1,0,0:0:0:0:
88,272,270521,1,2,0:0:0:0:
88,272,270606,1,0,0:0:0:0:
88,272,270691,1,0,0:0:0:0:
88,272,270775,1,0,0:0:0:0:
88,272,270860,5,6,0:0:0:0:
75,233,270945,1,0,0:0:0:0:
86,194,271030,1,0,0:0:0:0:
120,174,271114,1,0,0:0:0:0:
159,181,271199,1,0,0:0:0:0:
196,166,271284,1,0,0:0:0:0:
224,138,271369,1,0,0:0:0:0:
234,99,271453,1,0,0:0:0:0:
215,63,271538,5,2,0:0:0:0:
176,52,271623,1,0,0:0:0:0:
139,68,271708,1,0,0:0:0:0:
124,105,271792,1,0,0:0:0:0:
129,144,271877,2,0,P|143:163|164:173,3,40,2|0|0|0,0:0|0:0|0:0|0:0,0:0:0:0:
196,176,272216,5,2,0:0:0:0:
234,164,272301,1,0,0:0:0:0:
261,135,272386,1,0,0:0:0:0:
266,95,272470,1,0,0:0:0:0:
299,72,272555,1,0,0:0:0:0:
338,78,272640,1,0,0:0:0:0:
366,106,272725,1,0,0:0:0:0:
369,145,272809,1,0,0:0:0:0:
356,183,272894,5,2,0:0:0:0:
374,218,272979,1,0,0:0:0:0:
409,235,273064,1,0,0:0:0:0:
433,266,273148,1,0,0:0:0:0:
450,301,273233,2,0,P|451:321|441:345,3,40,2|0|0|0,0:0|0:0|0:0|0:0,0:0:0:0:
411,363,273572,5,2,0:0:0:0:
411,363,273657,1,0,0:0:0:0:
411,363,273742,1,0,0:0:0:0:
296,304,273911,1,2,0:0:0:0:
176,344,274080,1,2,0:0:0:0:
176,344,274165,1,0,0:0:0:0:
176,344,274250,1,0,0:0:0:0:
88,248,274419,1,2,0:0:0:0:
61,217,274504,1,0,0:0:0:0:
61,176,274589,1,0,0:0:0:0:
85,143,274674,1,0,0:0:0:0:
124,149,274758,1,0,0:0:0:0:
144,114,274843,1,0,0:0:0:0:
136,74,274928,6,0,P|178:66|211:41,1,80,2|0,0:0|0:0,0:0:0:0:
424,144,275267,6,0,P|375:137|328:104,1,100,2|0,0:0|0:0,0:0:0:0:
80,272,275606,6,0,P|142:254|199:202,1,120.000004577637,2|0,0:0|0:0,0:0:0:0:
464,360,275945,6,0,P|393:329|344:276,1,140.000001335144,2|0,0:0|0:0,0:0:0:0:
160,96,276284,6,0,L|136:64,2,40,2|0|0,0:0|0:0|0:0,0:0:0:0:
387,156,276623,2,0,L|426:152,2,40,2|0|0,0:0|0:0|0:0,0:0:0:0:
220,323,276962,2,0,L|205:359,2,40,2|0|0,0:0|0:0|0:0,0:0:0:0:
264,200,277301,5,2,0:0:0:0:
264,200,277386,1,0,0:0:0:0:
264,200,277470,1,0,0:0:0:0:
264,200,277640,5,4,0:0:0:0:
56,280,278996,6,2,B|105:361|228:314|228:314|228:314,1,160,6|4,0:0|0:2,0:0:0:0:
248,232,279504,2,0,P|277:198|310:182,1,80,0|4,0:0|0:2,0:0:0:0:
376,104,279843,1,0,0:0:0:0:
480,104,280013,2,2,P|499:138|504:200,1,80,2|0,0:0|0:0,0:0:0:0:
448,312,280352,6,2,B|366:359|291:281|291:281|291:281,1,160
272,216,280860,1,2,0:0:0:0:
208,136,281030,2,0,P|201:74|168:16,2,120,2|2|2,0:0|0:0|0:0,0:0:0:0:
144,216,281708,5,0,0:0:0:0:
40,232,281877,1,0,0:0:0:0:
40,336,282047,1,2,0:0:0:0:
40,336,282131,1,0,0:0:0:0:
40,336,282216,1,0,0:0:0:0:
136,384,282386,1,2,0:0:0:0:
208,304,282555,1,2,0:0:0:0:
208,304,282640,1,0,0:0:0:0:
208,304,282725,1,0,0:0:0:0:
312,312,282894,1,2,0:0:0:0:
424,248,283064,6,2,B|423:149|345:114|345:114|345:114,1,160,6|0,0:0|0:0,0:0:0:0:
272,136,283572,1,2,0:0:0:0:
208,80,283742,2,0,P|223:43|247:11,2,80,2|0|2,0:0|0:0|0:0,0:0:0:0:
240,152,284250,1,2,0:0:0:0:
176,280,284419,6,2,B|74:307|32:193|32:193|32:192,1,160,2|0,0:0|0:0,0:0:0:0:
96,104,284928,1,2,0:0:0:0:
96,104,285097,2,2,B|198:77|240:191|240:191|240:192,1,160,2|0,0:0|0:0,0:0:0:0:
256,240,285606,1,2,0:0:0:0:
400,224,285775,6,0,P|428:190|459:172,1,80,4|0,0:2|0:0,0:0:0:0:
376,16,286114,2,0,P|361:57|338:85,1,80,4|0,0:2|0:0,0:0:0:0:
224,216,286453,2,0,P|223:171|235:138,1,80,4|0,0:2|0:0,0:0:0:0:
96,32,286792,2,0,P|111:73|111:109,1,80,4|0,0:2|0:0,0:0:0:0:
32,176,287131,5,4,2:0:0:0:
48,280,287301,2,0,B|151:253|208:352|208:352|208:352,1,160,4|0,2:0|0:0,0:0:0:0:
264,296,287809,1,4,0:2:0:0:
248,216,287979,1,0,0:0:0:0:
272,183,288064,1,0,0:0:0:0:
311,181,288148,1,0,0:0:0:0:
337,211,288233,1,0,0:0:0:0:
372,230,288318,1,0,0:0:0:0:
409,216,288403,1,0,0:0:0:0:
425,179,288487,6,0,P|436:139|461:111,1,80,6|0,0:0|0:0,0:0:0:0:
512,56,288742,2,2,P|453:59|397:30,1,120
272,16,289165,2,2,B|234:103|318:177|318:177|318:177,1,160
368,216,289674,1,0,0:0:0:0:
320,336,289843,2,2,B|235:395|167:289|167:289|167:289,1,160,2|0,0:0|0:0,0:0:0:0:
104,288,290352,2,0,L|88:208,1,80
56,136,290691,1,0,0:0:0:0:
120,80,290860,2,2,P|128:41|155:11,1,80,2|0,0:0|0:0,0:0:0:0:
296,32,291199,6,2,B|357:107|296:210|198:189,1,240,6|2,0:0|0:0,0:0:0:0:
136,112,291877,1,2,0:0:0:0:
40,160,292047,1,0,0:0:0:0:
88,256,292216,1,2,0:0:0:0:
72,360,292386,1,2,0:0:0:0:
168,320,292555,5,2,0:0:0:0:
272,344,292725,1,0,0:0:0:0:
360,296,292894,1,2,0:0:0:0:
400,294,292979,1,0,0:0:0:0:
427,265,293064,1,0,0:0:0:0:
423,225,293148,1,0,0:0:0:0:
392,198,293233,1,2,0:0:0:0:
351,204,293318,1,0,0:0:0:0:
322,232,293403,1,0,0:0:0:0:
281,228,293487,1,0,0:0:0:0:
255,197,293572,1,2,0:0:0:0:
261,157,293657,1,0,0:0:0:0:
289,129,293742,1,0,0:0:0:0:
328,121,293826,1,0,0:0:0:0:
364,134,293911,6,2,B|275:159|209:80|209:80|209:80,1,160,6|0,0:0|0:0,0:0:0:0:
128,40,294419,2,2,B|27:74|80:192|80:192|80:192,1,160,2|0,0:0|0:0,0:0:0:0:
88,248,294928,2,2,P|52:230|12:228,1,80,2|0,0:0|0:0,0:0:0:0:
100,331,295267,6,2,P|140:329|176:312,1,80,2|0,0:0|0:0,0:0:0:0:
232,224,295606,2,2,B|324:197|388:273|388:273|388:273,1,160
456,240,296114,1,0,0:0:0:0:
440,160,296284,2,2,P|453:123|456:80,1,80,2|0,0:0|0:0,0:0:0:0:
344,24,296623,6,2,B|261:-9|191:61|191:61|191:61,1,160,2|0,0:0|0:0,0:0:0:0:
96,32,297131,2,2,B|53:117|126:184|126:184|126:184,1,160,2|0,0:0|0:0,0:0:0:0:
184,232,297640,2,2,P|222:211|273:206,1,80,2|0,0:0|0:0,0:0:0:0:
328,240,297979,5,2,0:0:0:0:
348,274,298064,1,0,0:0:0:0:
344,313,298148,1,0,0:0:0:0:
327,349,298233,1,0,0:0:0:0:
293,371,298318,1,0,0:0:0:0:
252,373,298403,1,0,0:0:0:0:
215,356,298487,1,2,0:0:0:0:
196,320,298572,1,0,0:0:0:0:
191,280,298657,5,0,0:0:0:0:
204,242,298742,1,0,0:0:0:0:
232,213,298826,1,0,0:0:0:0:
267,194,298911,1,0,0:0:0:0:
300,172,298996,1,2,0:0:0:0:
315,135,299080,1,0,0:0:0:0:
318,95,299165,1,0,0:0:0:0:
303,57,299250,1,0,0:0:0:0:
271,32,299335,6,2,B|184:0|119:74|119:74|119:74,1,160,6|0,0:0|0:0,0:0:0:0:
48,224,299843,2,2,B|135:256|200:182|200:182|200:182,1,160,2|0,0:0|0:0,0:0:0:0:
216,112,300352,1,2,0:0:0:0:
272,56,300521,1,0,0:0:0:0:
352,48,300691,6,0,P|380:80|416:96,1,80,2|0,0:0|0:0,0:0:0:0:
496,216,301030,2,0,P|458:195|419:192,1,80,2|0,0:0|0:0,0:0:0:0:
256,256,301369,2,0,P|298:262|335:251,1,80,2|0,0:0|0:0,0:0:0:0:
472,296,301708,2,0,P|429:304|398:327,1,80,2|0,0:0|0:0,0:0:0:0:
304,368,302047,5,0,0:0:0:0:
216,320,302216,1,0,0:0:0:0:
112,336,302386,1,0,0:0:0:0:
112,336,302470,1,0,0:0:0:0:
112,336,302555,1,0,0:0:0:0:
56,248,302725,1,0,0:0:0:0:
104,152,302894,1,0,0:0:0:0:
143,161,302979,1,0,0:0:0:0:
177,139,303064,1,0,0:0:0:0:
184,100,303148,1,0,0:0:0:0:
158,68,303233,1,0,0:0:0:0:
164,28,303318,1,0,0:0:0:0:
200,10,303403,5,0,0:0:0:0:
237,22,303487,1,0,0:0:0:0:
259,55,303572,1,0,0:0:0:0:
293,76,303657,1,0,0:0:0:0:
333,73,303742,1,0,0:0:0:0:
368,56,303826,1,0,0:0:0:0:
406,45,303911,1,0,0:0:0:0:
445,52,303996,1,0,0:0:0:0:
476,75,304080,5,2,0:0:0:0:
496,109,304165,1,0,0:0:0:0:
502,148,304250,1,0,0:0:0:0:
494,187,304335,1,0,0:0:0:0:
474,221,304419,1,2,0:0:0:0:
440,243,304504,1,0,0:0:0:0:
399,244,304589,1,0,0:0:0:0:
362,228,304674,1,0,0:0:0:0:
341,192,304758,6,0,B|345:108|218:68|156:141|156:141|100:225|-34:164|8:68,1,480,4|0,0:0|0:0,0:0:0:0:
240,224,306869,6,0,B|272:309|183:389|183:389|183:389,1,160,4|0,0:0|0:0,0:0:0:0:
416,240,308002,6,0,B|391:146|466:95|466:95|466:95,1,160
168,56,310193,5,4,0:0:0:0:
256,192,310343,12,4,315017,0:2:0:0:
256,192,315281,5,4,0:2:0:0:
