osu file format v14

[General]
AudioFilename: audio.mp3
AudioLeadIn: 0
PreviewTime: 69759
Countdown: 0
SampleSet: Normal
StackLeniency: 0.7
Mode: 1
LetterboxInBreaks: 0
WidescreenStoryboard: 0

[Editor]
DistanceSpacing: 1
BeatDivisor: 3
GridSize: 32
TimelineZoom: 2.899999

[Metadata]
Title:Storming the Burning Fields
TitleUnicode:Storming the Burning Fields
Artist:DragonForce
ArtistUnicode:DragonForce
Creator:Reed_405
Version:Tatsujin
Source:
Tags:speed power metal marathon Herman Li ZP Theart Inhuman Rampage
BeatmapID:2058126
BeatmapSetID:983580

[Difficulty]
HPDrainRate:4
CircleSize:5
OverallDifficulty:7
ApproachRate:5
SliderMultiplier:1.4
SliderTickRate:1

[Events]
//Background and Video events
0,0,"Dragonforce.png",0,0
//Break Periods
2,268605,276805
//Storyboard Layer 0 (Background)
//Storyboard Layer 1 (Fail)
//Storyboard Layer 2 (Pass)
//Storyboard Layer 3 (Foreground)
//Storyboard Layer 4 (Overlay)
//Storyboard Sound Samples

[TimingPoints]
2005,300,4,1,0,90,1,0
70405,-100,4,1,0,80,0,1
88405,-100,4,1,0,80,0,0
148405,-100,4,1,0,80,0,1
166405,-100,4,1,0,80,0,0
167605,300,7,1,0,80,1,0
169705,300,5,1,0,80,1,0
171205,300,4,1,0,80,1,0
173605,300,4,1,0,80,1,0
238405,-100,4,1,0,80,0,1
249205,-100,4,1,0,80,0,0
268405,-100,4,1,0,65,0,0
287605,-100,4,1,0,80,0,1
305605,-100,4,1,0,80,0,0
315155,265.486725663717,4,1,0,80,1,0

[HitObjects]
256,192,2005,5,12,0:0:0:0:
256,160,2605,1,4,0:0:0:0:
256,160,3205,1,12,0:0:0:0:
256,160,3805,1,4,0:0:0:0:
256,160,4405,1,12,0:0:0:0:
256,192,4555,12,0,5455,0:0:0:0:
256,192,5605,5,8,0:0:0:0:
256,192,5680,1,0,0:0:0:0:
256,192,5755,1,0,0:0:0:0:
256,192,5830,1,0,0:0:0:0:
256,192,5905,1,8,0:0:0:0:
256,192,5980,1,0,0:0:0:0:
256,192,6055,1,0,0:0:0:0:
256,192,6130,1,0,0:0:0:0:
256,192,6205,1,8,0:0:0:0:
256,192,6280,1,8,0:0:0:0:
256,192,6355,1,0,0:0:0:0:
256,192,6430,1,0,0:0:0:0:
256,192,6505,1,8,0:0:0:0:
256,192,6805,1,8,0:0:0:0:
256,192,6880,1,8,0:0:0:0:
256,192,6955,1,8,0:0:0:0:
256,192,7030,1,8,0:0:0:0:
256,192,7105,1,0,0:0:0:0:
256,192,7180,1,0,0:0:0:0:
256,192,7255,1,0,0:0:0:0:
256,192,7330,1,0,0:0:0:0:
256,192,7405,1,8,0:0:0:0:
256,192,7480,1,0,0:0:0:0:
256,192,7555,1,8,0:0:0:0:
256,192,7630,1,8,0:0:0:0:
256,192,7705,1,0,0:0:0:0:
256,192,7780,1,0,0:0:0:0:
256,192,7855,1,0,0:0:0:0:
256,192,7930,1,0,0:0:0:0:
256,192,8005,1,8,0:0:0:0:
256,192,8080,1,8,0:0:0:0:
256,192,8155,1,8,0:0:0:0:
256,192,8230,1,8,0:0:0:0:
256,192,8305,1,0,0:0:0:0:
256,192,8380,1,0,0:0:0:0:
256,192,8455,1,0,0:0:0:0:
256,192,8530,1,0,0:0:0:0:
256,192,8605,1,8,0:0:0:0:
256,192,8680,1,0,0:0:0:0:
256,192,8755,1,8,0:0:0:0:
256,192,8830,1,8,0:0:0:0:
256,192,8905,1,0,0:0:0:0:
256,192,8980,1,0,0:0:0:0:
256,192,9055,1,0,0:0:0:0:
256,192,9130,1,0,0:0:0:0:
256,192,9205,1,8,0:0:0:0:
256,192,9280,1,8,0:0:0:0:
256,192,9355,1,8,0:0:0:0:
256,192,9430,1,8,0:0:0:0:
256,192,9505,1,0,0:0:0:0:
256,192,9580,1,0,0:0:0:0:
256,192,9655,1,0,0:0:0:0:
256,192,9730,1,0,0:0:0:0:
256,192,9805,1,8,0:0:0:0:
256,192,9880,1,0,0:0:0:0:
256,192,9955,1,8,0:0:0:0:
256,192,10030,1,8,0:0:0:0:
256,192,10105,1,0,0:0:0:0:
256,192,10180,1,0,0:0:0:0:
256,192,10255,1,0,0:0:0:0:
256,192,10330,1,0,0:0:0:0:
256,192,10405,1,8,0:0:0:0:
256,192,10480,1,8,0:0:0:0:
256,192,10555,1,8,0:0:0:0:
256,192,10630,1,8,0:0:0:0:
256,192,10705,1,8,0:0:0:0:
256,192,10780,1,0,0:0:0:0:
256,192,10855,1,8,0:0:0:0:
256,192,10930,1,0,0:0:0:0:
256,192,11005,2,0,L|320:192,6,35
256,192,11605,1,8,0:0:0:0:
256,192,11680,1,8,0:0:0:0:
256,192,11755,1,8,0:0:0:0:
256,192,11830,1,8,0:0:0:0:
256,192,11905,1,0,0:0:0:0:
256,192,11980,1,0,0:0:0:0:
256,192,12055,1,0,0:0:0:0:
256,192,12130,1,0,0:0:0:0:
256,192,12205,1,8,0:0:0:0:
256,192,12280,1,0,0:0:0:0:
256,192,12355,1,8,0:0:0:0:
256,192,12430,1,8,0:0:0:0:
256,192,12505,1,0,0:0:0:0:
256,192,12580,1,0,0:0:0:0:
256,192,12655,1,0,0:0:0:0:
256,192,12730,1,0,0:0:0:0:
256,192,12805,1,8,0:0:0:0:
256,192,12880,1,8,0:0:0:0:
256,192,12955,1,8,0:0:0:0:
256,192,13030,1,8,0:0:0:0:
256,192,13105,1,0,0:0:0:0:
256,192,13180,1,0,0:0:0:0:
256,192,13255,1,0,0:0:0:0:
256,192,13330,1,0,0:0:0:0:
256,192,13405,1,8,0:0:0:0:
256,192,13480,1,0,0:0:0:0:
256,192,13555,1,8,0:0:0:0:
256,192,13630,1,8,0:0:0:0:
256,192,13705,1,0,0:0:0:0:
256,192,13780,1,0,0:0:0:0:
256,192,13855,1,0,0:0:0:0:
256,192,13930,1,0,0:0:0:0:
256,192,14005,1,8,0:0:0:0:
256,192,14080,1,0,0:0:0:0:
256,192,14155,1,8,0:0:0:0:
256,192,14230,1,8,0:0:0:0:
256,192,14305,1,0,0:0:0:0:
256,192,14380,1,8,0:0:0:0:
256,192,14455,1,0,0:0:0:0:
256,192,14530,1,0,0:0:0:0:
256,192,14605,1,8,0:0:0:0:
256,192,14680,1,8,0:0:0:0:
256,192,14755,1,0,0:0:0:0:
256,192,14830,1,0,0:0:0:0:
256,192,14905,1,8,0:0:0:0:
256,192,14980,1,0,0:0:0:0:
256,192,15055,1,8,0:0:0:0:
256,192,15205,1,8,0:0:0:0:
256,192,15242,1,8,0:0:0:0:
256,192,15355,1,8,0:0:0:0:
256,192,15392,1,8,0:0:0:0:
256,192,15505,1,8,0:0:0:0:
256,192,15542,1,8,0:0:0:0:
256,192,15655,1,8,0:0:0:0:
256,192,15692,1,8,0:0:0:0:
256,192,15805,1,8,0:0:0:0:
256,192,15842,1,8,0:0:0:0:
256,192,15955,1,8,0:0:0:0:
256,192,15992,1,8,0:0:0:0:
192,192,16105,2,0,L|32:192,1,140
256,192,16555,1,0,0:0:0:0:
256,192,16630,1,0,0:0:0:0:
256,192,16705,1,8,0:0:0:0:
256,192,16780,1,0,0:0:0:0:
256,192,16855,1,8,0:0:0:0:
256,192,16930,1,0,0:0:0:0:
256,192,17005,1,8,0:0:0:0:
256,192,17080,1,8,0:0:0:0:
256,192,17155,1,0,0:0:0:0:
256,192,17230,1,0,0:0:0:0:
256,192,17305,1,8,0:0:0:0:
256,192,17380,1,0,0:0:0:0:
256,192,17455,1,0,0:0:0:0:
256,192,17530,1,0,0:0:0:0:
256,192,17605,1,8,0:0:0:0:
256,192,17680,1,0,0:0:0:0:
256,192,17755,1,0,0:0:0:0:
256,192,17830,1,0,0:0:0:0:
256,192,17905,1,8,0:0:0:0:
256,192,17980,1,0,0:0:0:0:
256,192,18055,1,8,0:0:0:0:
256,192,18130,1,0,0:0:0:0:
256,192,18205,1,8,0:0:0:0:
256,192,18280,1,8,0:0:0:0:
256,192,18355,1,0,0:0:0:0:
256,192,18430,1,0,0:0:0:0:
256,192,18505,1,8,0:0:0:0:
256,192,18580,1,8,0:0:0:0:
256,192,18655,1,0,0:0:0:0:
256,192,18730,1,0,0:0:0:0:
256,192,18805,1,8,0:0:0:0:
256,192,18880,1,0,0:0:0:0:
256,192,18955,1,0,0:0:0:0:
256,192,19030,1,0,0:0:0:0:
256,192,19105,1,8,0:0:0:0:
256,192,19180,1,0,0:0:0:0:
256,192,19255,1,8,0:0:0:0:
256,192,19330,1,0,0:0:0:0:
256,192,19405,1,8,0:0:0:0:
256,192,19480,1,8,0:0:0:0:
256,192,19555,1,0,0:0:0:0:
256,192,19630,1,0,0:0:0:0:
256,192,19705,1,8,0:0:0:0:
256,192,19780,1,0,0:0:0:0:
256,192,19855,1,0,0:0:0:0:
32,192,20005,2,0,L|480:192,1,420
256,192,21205,1,8,0:0:0:0:
256,192,21280,1,8,0:0:0:0:
256,192,21355,1,8,0:0:0:0:
256,192,21430,1,8,0:0:0:0:
256,192,21505,1,0,0:0:0:0:
256,192,21580,1,0,0:0:0:0:
256,192,21655,1,0,0:0:0:0:
256,192,21730,1,0,0:0:0:0:
256,192,21805,1,8,0:0:0:0:
256,192,21880,1,0,0:0:0:0:
256,192,21955,1,8,0:0:0:0:
256,192,22030,1,8,0:0:0:0:
256,192,22105,1,0,0:0:0:0:
256,192,22180,1,0,0:0:0:0:
256,192,22255,1,0,0:0:0:0:
256,192,22330,1,0,0:0:0:0:
256,192,22405,1,8,0:0:0:0:
256,192,22480,1,8,0:0:0:0:
256,192,22555,1,8,0:0:0:0:
256,192,22630,1,8,0:0:0:0:
256,192,22705,1,0,0:0:0:0:
256,192,22780,1,0,0:0:0:0:
256,192,22855,1,0,0:0:0:0:
256,192,22930,1,0,0:0:0:0:
256,192,23005,1,8,0:0:0:0:
256,192,23080,1,0,0:0:0:0:
256,192,23155,1,8,0:0:0:0:
256,192,23230,1,8,0:0:0:0:
256,192,23305,1,0,0:0:0:0:
256,192,23380,1,0,0:0:0:0:
256,192,23455,1,0,0:0:0:0:
256,192,23530,1,0,0:0:0:0:
256,192,23605,1,8,0:0:0:0:
256,192,23680,1,0,0:0:0:0:
256,192,23755,1,0,0:0:0:0:
256,192,23830,1,0,0:0:0:0:
256,192,23905,1,8,0:0:0:0:
256,192,23980,1,0,0:0:0:0:
256,192,24055,1,0,0:0:0:0:
256,192,24130,1,0,0:0:0:0:
256,192,24205,1,8,0:0:0:0:
256,192,24280,1,0,0:0:0:0:
256,192,24355,1,0,0:0:0:0:
256,192,24430,1,8,0:0:0:0:
256,192,24505,1,0,0:0:0:0:
256,192,24580,1,0,0:0:0:0:
256,192,24655,1,8,0:0:0:0:
256,192,24730,1,0,0:0:0:0:
256,192,24805,1,8,0:0:0:0:
256,192,24880,1,8,0:0:0:0:
256,192,24955,1,8,0:0:0:0:
256,192,25030,1,8,0:0:0:0:
256,192,25105,1,8,0:0:0:0:
256,192,25180,1,8,0:0:0:0:
256,192,25255,1,0,0:0:0:0:
256,192,25330,1,0,0:0:0:0:
256,192,25405,1,8,0:0:0:0:
256,192,25480,1,0,0:0:0:0:
256,192,25555,1,8,0:0:0:0:
256,192,25630,1,8,0:0:0:0:
256,192,25705,1,0,0:0:0:0:
256,192,25780,1,0,0:0:0:0:
256,192,25855,1,0,0:0:0:0:
256,192,25930,1,0,0:0:0:0:
256,192,26005,1,8,0:0:0:0:
256,192,26080,1,0,0:0:0:0:
256,192,26155,1,0,0:0:0:0:
256,192,26230,1,0,0:0:0:0:
256,192,26305,1,8,0:0:0:0:
256,192,26380,1,0,0:0:0:0:
256,192,26455,1,0,0:0:0:0:
256,192,26530,1,0,0:0:0:0:
256,192,26605,1,8,0:0:0:0:
256,192,26680,1,0,0:0:0:0:
256,192,26755,1,0,0:0:0:0:
256,192,26830,1,0,0:0:0:0:
256,192,26905,1,8,0:0:0:0:
256,192,26980,1,0,0:0:0:0:
256,192,27055,1,0,0:0:0:0:
256,192,27130,1,0,0:0:0:0:
256,192,27205,1,8,0:0:0:0:
256,192,27280,1,8,0:0:0:0:
256,192,27355,1,0,0:0:0:0:
256,192,27430,1,0,0:0:0:0:
256,192,27505,1,8,0:0:0:0:
256,192,27580,1,8,0:0:0:0:
256,192,27655,1,0,0:0:0:0:
256,192,27730,1,0,0:0:0:0:
256,192,27805,1,8,0:0:0:0:
256,192,27880,1,8,0:0:0:0:
256,192,27955,1,0,0:0:0:0:
256,192,28030,1,0,0:0:0:0:
256,192,28105,1,8,0:0:0:0:
256,192,28180,1,8,0:0:0:0:
256,192,28255,1,0,0:0:0:0:
256,192,28405,1,12,0:0:0:0:
256,192,28855,1,4,0:0:0:0:
256,192,29305,1,12,0:0:0:0:
256,192,29455,12,12,30655,0:0:0:0:
256,192,30805,5,4,0:0:0:0:
256,192,30955,1,8,0:0:0:0:
256,192,31105,1,0,0:0:0:0:
256,192,31180,1,0,0:0:0:0:
256,192,31255,1,8,0:0:0:0:
256,192,31330,1,0,0:0:0:0:
160,160,31480,1,0,0:0:0:0:
256,192,31555,1,8,0:0:0:0:
256,192,31705,1,0,0:0:0:0:
256,192,31855,1,8,0:0:0:0:
256,192,31930,1,8,0:0:0:0:
256,192,32005,1,0,0:0:0:0:
256,192,32155,1,8,0:0:0:0:
256,192,32230,1,8,0:0:0:0:
256,192,32305,1,0,0:0:0:0:
256,192,32455,1,0,0:0:0:0:
256,192,32605,1,8,0:0:0:0:
256,192,32680,1,0,0:0:0:0:
256,192,32755,1,0,0:0:0:0:
256,192,32905,1,0,0:0:0:0:
256,192,33055,1,0,0:0:0:0:
256,192,33205,1,12,0:0:0:0:
256,192,33355,1,0,0:0:0:0:
256,192,33505,1,0,0:0:0:0:
256,192,33580,1,0,0:0:0:0:
256,192,33655,1,8,0:0:0:0:
256,192,33730,1,0,0:0:0:0:
256,192,33880,1,0,0:0:0:0:
256,192,33955,1,8,0:0:0:0:
256,192,34105,1,8,0:0:0:0:
256,192,34255,1,0,0:0:0:0:
256,192,34330,1,0,0:0:0:0:
256,192,34405,1,8,0:0:0:0:
256,192,34555,1,0,0:0:0:0:
256,192,34630,1,0,0:0:0:0:
256,192,34705,1,8,0:0:0:0:
256,192,34855,1,0,0:0:0:0:
256,192,35005,1,8,0:0:0:0:
256,192,35080,1,0,0:0:0:0:
256,192,35155,1,8,0:0:0:0:
256,192,35230,1,8,0:0:0:0:
256,192,35305,1,0,0:0:0:0:
256,192,35455,1,8,0:0:0:0:
256,192,35605,1,4,0:0:0:0:
256,192,35755,1,8,0:0:0:0:
256,192,35905,1,0,0:0:0:0:
256,192,35980,1,0,0:0:0:0:
256,192,36055,1,8,0:0:0:0:
256,192,36130,1,0,0:0:0:0:
160,160,36280,1,0,0:0:0:0:
256,192,36355,1,8,0:0:0:0:
256,192,36505,1,0,0:0:0:0:
256,192,36655,1,8,0:0:0:0:
256,192,36730,1,0,0:0:0:0:
256,192,36805,1,8,0:0:0:0:
256,192,36955,1,8,0:0:0:0:
256,192,37030,1,0,0:0:0:0:
256,192,37105,1,8,0:0:0:0:
256,192,37255,1,0,0:0:0:0:
256,192,37405,1,8,0:0:0:0:
256,192,37480,1,8,0:0:0:0:
256,192,37555,1,0,0:0:0:0:
256,192,37705,1,0,0:0:0:0:
256,192,37855,1,0,0:0:0:0:
256,192,38005,1,8,0:0:0:0:
256,192,38155,1,0,0:0:0:0:
256,192,38230,1,0,0:0:0:0:
256,192,38305,1,8,0:0:0:0:
256,192,38455,1,0,0:0:0:0:
256,192,38605,1,8,0:0:0:0:
256,192,38755,1,0,0:0:0:0:
256,192,38905,1,0,0:0:0:0:
256,192,38980,1,0,0:0:0:0:
256,192,39055,1,8,0:0:0:0:
256,192,39205,1,8,0:0:0:0:
256,192,39280,1,0,0:0:0:0:
256,192,39355,1,8,0:0:0:0:
256,192,39430,1,8,0:0:0:0:
256,192,39505,1,0,0:0:0:0:
256,192,39580,1,0,0:0:0:0:
256,192,39655,1,8,0:0:0:0:
256,192,39730,1,0,0:0:0:0:
256,192,39805,1,8,0:0:0:0:
256,192,39880,1,8,0:0:0:0:
256,192,39955,1,0,0:0:0:0:
256,192,40030,1,0,0:0:0:0:
256,192,40105,1,8,0:0:0:0:
256,192,40180,1,0,0:0:0:0:
256,192,40255,1,0,0:0:0:0:
256,192,40405,1,12,0:0:0:0:
256,192,40555,1,0,0:0:0:0:
256,192,40705,1,0,0:0:0:0:
256,192,40780,1,0,0:0:0:0:
256,192,40855,1,8,0:0:0:0:
256,192,41005,1,0,0:0:0:0:
256,192,41155,1,8,0:0:0:0:
256,192,41305,1,0,0:0:0:0:
256,192,41380,1,0,0:0:0:0:
256,192,41455,1,8,0:0:0:0:
256,192,41605,1,0,0:0:0:0:
256,192,41755,1,8,0:0:0:0:
256,192,41830,1,0,0:0:0:0:
256,192,41905,1,0,0:0:0:0:
256,192,41980,1,0,0:0:0:0:
256,192,42055,1,8,0:0:0:0:
256,192,42130,1,8,0:0:0:0:
256,192,42205,1,0,0:0:0:0:
256,192,42355,1,8,0:0:0:0:
256,192,42505,1,0,0:0:0:0:
256,192,42580,1,0,0:0:0:0:
256,192,42655,1,8,0:0:0:0:
256,192,42805,1,0,0:0:0:0:
256,192,42955,1,8,0:0:0:0:
256,192,43105,1,0,0:0:0:0:
256,192,43180,1,0,0:0:0:0:
256,192,43255,1,8,0:0:0:0:
256,192,43330,1,0,0:0:0:0:
256,192,43405,1,0,0:0:0:0:
256,192,43555,1,8,0:0:0:0:
256,192,43705,1,0,0:0:0:0:
256,192,43780,1,0,0:0:0:0:
256,192,43855,1,8,0:0:0:0:
256,192,43930,1,0,0:0:0:0:
256,192,44005,1,0,0:0:0:0:
256,192,44155,1,8,0:0:0:0:
256,192,44305,1,0,0:0:0:0:
256,192,44380,1,0,0:0:0:0:
256,192,44455,1,8,0:0:0:0:
256,192,44530,1,8,0:0:0:0:
256,192,44605,1,0,0:0:0:0:
256,192,44680,1,0,0:0:0:0:
256,192,44755,1,8,0:0:0:0:
256,192,44830,1,8,0:0:0:0:
256,192,44905,1,0,0:0:0:0:
256,192,45055,1,8,0:0:0:0:
256,192,45205,1,4,0:0:0:0:
256,192,45355,1,8,0:0:0:0:
256,192,45505,1,0,0:0:0:0:
256,192,45580,1,0,0:0:0:0:
256,192,45655,1,8,0:0:0:0:
256,192,45805,1,0,0:0:0:0:
256,192,45955,1,8,0:0:0:0:
256,192,46105,1,8,0:0:0:0:
256,192,46180,1,0,0:0:0:0:
256,192,46255,1,8,0:0:0:0:
256,192,46330,1,8,0:0:0:0:
256,192,46405,1,0,0:0:0:0:
256,192,46555,1,8,0:0:0:0:
256,192,46705,1,0,0:0:0:0:
256,192,46780,1,0,0:0:0:0:
256,192,46855,1,8,0:0:0:0:
256,192,47005,1,0,0:0:0:0:
256,192,47155,1,8,0:0:0:0:
256,192,47305,1,8,0:0:0:0:
256,192,47380,1,0,0:0:0:0:
256,192,47455,1,8,0:0:0:0:
256,192,47605,1,0,0:0:0:0:
256,192,47755,1,8,0:0:0:0:
256,192,47905,1,0,0:0:0:0:
256,192,47980,1,0,0:0:0:0:
256,192,48055,1,8,0:0:0:0:
256,192,48130,1,0,0:0:0:0:
256,192,48205,1,0,0:0:0:0:
256,192,48355,1,8,0:0:0:0:
256,192,48505,1,0,0:0:0:0:
256,192,48580,1,0,0:0:0:0:
256,192,48655,1,8,0:0:0:0:
256,192,48805,1,0,0:0:0:0:
256,192,48880,1,0,0:0:0:0:
256,192,48955,1,8,0:0:0:0:
256,192,49030,1,8,0:0:0:0:
256,192,49105,1,8,0:0:0:0:
256,192,49180,1,8,0:0:0:0:
256,192,49255,1,0,0:0:0:0:
256,192,49330,1,0,0:0:0:0:
256,192,49405,1,8,0:0:0:0:
256,192,49480,1,8,0:0:0:0:
256,192,49555,1,8,0:0:0:0:
256,192,49630,1,8,0:0:0:0:
256,192,49705,1,0,0:0:0:0:
256,192,49780,1,0,0:0:0:0:
256,192,49855,1,0,0:0:0:0:
256,192,50005,1,8,0:0:0:0:
256,192,50080,1,0,0:0:0:0:
256,192,50155,1,0,0:0:0:0:
256,192,50230,1,0,0:0:0:0:
256,192,50305,1,8,0:0:0:0:
256,192,50380,1,0,0:0:0:0:
256,192,50455,1,8,0:0:0:0:
256,192,50530,1,0,0:0:0:0:
256,192,50605,1,8,0:0:0:0:
256,192,50680,1,8,0:0:0:0:
256,192,50755,1,0,0:0:0:0:
256,192,50830,1,0,0:0:0:0:
256,192,50905,1,8,0:0:0:0:
256,192,50980,1,0,0:0:0:0:
256,192,51055,1,0,0:0:0:0:
256,192,51130,1,0,0:0:0:0:
256,192,51205,1,8,0:0:0:0:
256,192,51280,1,0,0:0:0:0:
256,192,51355,1,0,0:0:0:0:
256,192,51430,1,0,0:0:0:0:
256,192,51505,1,8,0:0:0:0:
256,192,51580,1,8,0:0:0:0:
256,192,51655,1,0,0:0:0:0:
256,192,51730,1,0,0:0:0:0:
256,192,51805,1,8,0:0:0:0:
256,192,51880,1,8,0:0:0:0:
256,192,51955,1,0,0:0:0:0:
256,192,52030,1,0,0:0:0:0:
256,192,52105,1,0,0:0:0:0:
256,192,52180,1,0,0:0:0:0:
256,192,52255,1,8,0:0:0:0:
256,192,52405,1,0,0:0:0:0:
256,192,52555,1,8,0:0:0:0:
256,192,52705,1,0,0:0:0:0:
256,192,52780,1,0,0:0:0:0:
256,192,52855,1,8,0:0:0:0:
256,192,53005,1,0,0:0:0:0:
288,192,53155,1,8,0:0:0:0:
256,192,53305,1,0,0:0:0:0:
256,192,53380,1,0,0:0:0:0:
256,192,53455,1,8,0:0:0:0:
256,192,53605,1,8,0:0:0:0:
256,192,53680,1,8,0:0:0:0:
256,192,53755,1,0,0:0:0:0:
256,192,53830,1,0,0:0:0:0:
256,192,53905,1,0,0:0:0:0:
256,192,53980,1,0,0:0:0:0:
256,192,54055,1,8,0:0:0:0:
256,192,54130,1,8,0:0:0:0:
256,192,54205,1,0,0:0:0:0:
256,192,54280,1,0,0:0:0:0:
256,192,54355,1,0,0:0:0:0:
288,192,54430,1,0,0:0:0:0:
288,192,54505,1,8,0:0:0:0:
256,192,54655,1,0,0:0:0:0:
256,192,54805,1,8,0:0:0:0:
256,192,54880,1,0,0:0:0:0:
256,192,54955,1,0,0:0:0:0:
256,192,55030,1,0,0:0:0:0:
256,192,55105,1,8,0:0:0:0:
256,192,55180,1,0,0:0:0:0:
256,192,55255,1,8,0:0:0:0:
256,192,55330,1,0,0:0:0:0:
256,192,55405,1,8,0:0:0:0:
256,192,55480,1,8,0:0:0:0:
256,192,55555,1,0,0:0:0:0:
256,192,55630,1,0,0:0:0:0:
256,192,55705,1,8,0:0:0:0:
256,192,55780,1,8,0:0:0:0:
256,192,55855,1,0,0:0:0:0:
256,192,55930,1,0,0:0:0:0:
256,192,56005,1,8,0:0:0:0:
256,192,56080,1,8,0:0:0:0:
256,192,56155,1,0,0:0:0:0:
288,192,56230,1,0,0:0:0:0:
288,192,56305,1,8,0:0:0:0:
256,192,56380,1,8,0:0:0:0:
256,192,56455,1,0,0:0:0:0:
256,192,56530,1,0,0:0:0:0:
256,192,56605,1,8,0:0:0:0:
256,192,56680,1,0,0:0:0:0:
256,192,56755,1,8,0:0:0:0:
256,192,56830,1,8,0:0:0:0:
256,192,56905,1,0,0:0:0:0:
256,192,56980,1,0,0:0:0:0:
256,192,57055,1,8,0:0:0:0:
256,192,57130,1,0,0:0:0:0:
256,192,57205,1,8,0:0:0:0:
256,192,57280,1,8,0:0:0:0:
256,192,57355,1,0,0:0:0:0:
256,192,57430,1,0,0:0:0:0:
256,192,57505,1,8,0:0:0:0:
256,192,57580,1,0,0:0:0:0:
256,192,57655,1,0,0:0:0:0:
288,192,57730,1,0,0:0:0:0:
288,192,57805,1,8,0:0:0:0:
288,192,57880,1,0,0:0:0:0:
288,192,57955,1,0,0:0:0:0:
288,192,58030,1,0,0:0:0:0:
288,192,58105,1,8,0:0:0:0:
288,192,58180,1,0,0:0:0:0:
288,192,58255,1,0,0:0:0:0:
288,192,58330,1,0,0:0:0:0:
288,192,58405,1,8,0:0:0:0:
288,192,58555,1,0,0:0:0:0:
288,192,58630,1,0,0:0:0:0:
288,192,58705,1,0,0:0:0:0:
288,192,58855,1,0,0:0:0:0:
288,192,59005,1,0,0:0:0:0:
288,192,59155,1,0,0:0:0:0:
288,192,59230,1,0,0:0:0:0:
288,192,59305,1,0,0:0:0:0:
288,192,59455,1,0,0:0:0:0:
288,192,59605,1,12,0:0:0:0:
256,192,59755,1,0,0:0:0:0:
256,192,59905,1,8,0:0:0:0:
256,192,59980,1,0,0:0:0:0:
256,192,60055,1,8,0:0:0:0:
256,192,60130,1,8,0:0:0:0:
256,192,60205,1,0,0:0:0:0:
256,192,60355,1,8,0:0:0:0:
256,192,60505,1,0,0:0:0:0:
256,192,60655,1,8,0:0:0:0:
256,192,60805,1,8,0:0:0:0:
256,192,60880,1,0,0:0:0:0:
256,192,60955,1,0,0:0:0:0:
256,192,61030,1,0,0:0:0:0:
256,192,61105,1,8,0:0:0:0:
256,192,61180,1,0,0:0:0:0:
256,192,61255,1,0,0:0:0:0:
256,192,61330,1,0,0:0:0:0:
256,192,61405,1,8,0:0:0:0:
256,192,61555,1,0,0:0:0:0:
256,192,61705,1,8,0:0:0:0:
256,192,61855,1,0,0:0:0:0:
256,192,62005,1,8,0:0:0:0:
256,192,62080,1,8,0:0:0:0:
256,192,62155,1,0,0:0:0:0:
256,192,62305,1,0,0:0:0:0:
256,192,62455,1,0,0:0:0:0:
256,192,62605,1,8,0:0:0:0:
256,192,62680,1,8,0:0:0:0:
256,192,62755,1,0,0:0:0:0:
256,192,62905,1,0,0:0:0:0:
256,192,63055,1,0,0:0:0:0:
256,192,63205,1,8,0:0:0:0:
256,192,63280,1,8,0:0:0:0:
256,192,63355,1,8,0:0:0:0:
256,192,63430,1,8,0:0:0:0:
256,192,63505,1,0,0:0:0:0:
256,192,63580,1,0,0:0:0:0:
256,192,63655,1,0,0:0:0:0:
256,192,63730,1,0,0:0:0:0:
256,192,63805,1,8,0:0:0:0:
256,192,63880,1,8,0:0:0:0:
288,192,63955,1,8,0:0:0:0:
256,192,64030,1,8,0:0:0:0:
256,192,64105,1,0,0:0:0:0:
256,192,64180,1,0,0:0:0:0:
256,192,64255,1,0,0:0:0:0:
256,192,64405,1,12,0:0:0:0:
256,192,64555,1,0,0:0:0:0:
256,192,64705,1,8,0:0:0:0:
256,192,64780,1,0,0:0:0:0:
256,192,64855,1,8,0:0:0:0:
256,192,64930,1,8,0:0:0:0:
256,192,65005,1,0,0:0:0:0:
256,192,65155,1,0,0:0:0:0:
256,192,65305,1,8,0:0:0:0:
256,192,65455,1,0,0:0:0:0:
256,192,65605,1,8,0:0:0:0:
256,192,65680,1,0,0:0:0:0:
256,192,65755,1,0,0:0:0:0:
256,192,65830,1,0,0:0:0:0:
256,192,65905,1,8,0:0:0:0:
256,192,65980,1,8,0:0:0:0:
256,192,66055,1,0,0:0:0:0:
256,192,66130,1,0,0:0:0:0:
256,192,66205,1,8,0:0:0:0:
256,192,66355,1,0,0:0:0:0:
256,192,66505,1,8,0:0:0:0:
256,192,66655,1,0,0:0:0:0:
256,192,66805,1,8,0:0:0:0:
256,192,66880,1,8,0:0:0:0:
256,192,66955,1,0,0:0:0:0:
256,192,67030,1,0,0:0:0:0:
256,192,67105,1,8,0:0:0:0:
256,192,67255,1,0,0:0:0:0:
256,192,67405,1,8,0:0:0:0:
256,192,67480,1,8,0:0:0:0:
256,192,67555,1,0,0:0:0:0:
256,192,67630,1,0,0:0:0:0:
256,192,67705,1,8,0:0:0:0:
256,192,67855,1,0,0:0:0:0:
256,192,68005,1,8,0:0:0:0:
256,192,68080,1,8,0:0:0:0:
256,192,68155,1,8,0:0:0:0:
256,192,68230,1,8,0:0:0:0:
256,192,68305,1,0,0:0:0:0:
256,192,68380,1,0,0:0:0:0:
256,192,68455,1,0,0:0:0:0:
256,192,68530,1,0,0:0:0:0:
256,192,68605,1,8,0:0:0:0:
256,192,68680,1,8,0:0:0:0:
256,192,68755,1,8,0:0:0:0:
256,192,68830,1,8,0:0:0:0:
256,192,68905,1,0,0:0:0:0:
256,192,68980,1,0,0:0:0:0:
288,192,69055,1,0,0:0:0:0:
288,192,69130,1,0,0:0:0:0:
288,192,69205,1,8,0:0:0:0:
256,192,70405,1,8,0:0:0:0:
256,192,70480,1,8,0:0:0:0:
256,192,70555,1,0,0:0:0:0:
256,192,70630,1,0,0:0:0:0:
256,192,70705,1,8,0:0:0:0:
256,192,70780,1,0,0:0:0:0:
256,192,70855,1,0,0:0:0:0:
256,192,70930,1,0,0:0:0:0:
256,192,71005,1,8,0:0:0:0:
256,192,71080,1,0,0:0:0:0:
256,192,71155,1,0,0:0:0:0:
256,192,71230,1,0,0:0:0:0:
256,192,71305,1,8,0:0:0:0:
256,192,71380,1,0,0:0:0:0:
256,192,71455,1,8,0:0:0:0:
256,192,71530,1,0,0:0:0:0:
256,192,71605,1,8,0:0:0:0:
256,192,71680,1,8,0:0:0:0:
256,192,71755,1,0,0:0:0:0:
256,192,71830,1,0,0:0:0:0:
256,192,71905,1,8,0:0:0:0:
256,192,71980,1,0,0:0:0:0:
288,192,72055,1,0,0:0:0:0:
288,192,72130,1,0,0:0:0:0:
256,192,72205,1,8,0:0:0:0:
256,192,72280,1,8,0:0:0:0:
256,192,72355,1,0,0:0:0:0:
256,192,72430,1,0,0:0:0:0:
256,192,72505,1,8,0:0:0:0:
256,192,72580,1,8,0:0:0:0:
256,192,72655,1,0,0:0:0:0:
256,192,72730,1,0,0:0:0:0:
256,192,72805,1,0,0:0:0:0:
256,192,72955,1,8,0:0:0:0:
256,192,73105,1,0,0:0:0:0:
256,192,73180,1,0,0:0:0:0:
256,192,73255,1,8,0:0:0:0:
256,192,73405,1,0,0:0:0:0:
288,192,73555,1,8,0:0:0:0:
256,192,73705,1,0,0:0:0:0:
256,192,73780,1,0,0:0:0:0:
256,192,73855,1,8,0:0:0:0:
256,192,73930,1,8,0:0:0:0:
256,192,74005,1,0,0:0:0:0:
256,192,74155,1,8,0:0:0:0:
256,192,74305,1,0,0:0:0:0:
256,192,74380,1,0,0:0:0:0:
256,192,74455,1,8,0:0:0:0:
256,192,74605,1,0,0:0:0:0:
256,192,74680,1,0,0:0:0:0:
288,192,74755,1,8,0:0:0:0:
256,192,74905,1,0,0:0:0:0:
256,192,74980,1,0,0:0:0:0:
256,192,75055,1,8,0:0:0:0:
256,192,75130,1,8,0:0:0:0:
256,192,75205,1,0,0:0:0:0:
256,192,75355,1,8,0:0:0:0:
256,192,75505,1,0,0:0:0:0:
256,192,75580,1,0,0:0:0:0:
256,192,75655,1,8,0:0:0:0:
256,192,75730,1,0,0:0:0:0:
256,192,75805,1,0,0:0:0:0:
288,192,75955,1,8,0:0:0:0:
256,192,76105,1,0,0:0:0:0:
256,192,76180,1,0,0:0:0:0:
256,192,76255,1,8,0:0:0:0:
256,192,76330,1,8,0:0:0:0:
256,192,76405,1,0,0:0:0:0:
256,192,76555,1,8,0:0:0:0:
256,192,76705,1,8,0:0:0:0:
256,192,76780,1,0,0:0:0:0:
256,192,76855,1,8,0:0:0:0:
256,192,77005,1,0,0:0:0:0:
288,192,77155,1,8,0:0:0:0:
256,192,77305,1,0,0:0:0:0:
256,192,77380,1,0,0:0:0:0:
256,192,77455,1,8,0:0:0:0:
256,192,77605,1,8,0:0:0:0:
256,192,77680,1,8,0:0:0:0:
256,192,77755,1,8,0:0:0:0:
256,192,77830,1,8,0:0:0:0:
256,192,77905,1,0,0:0:0:0:
256,192,77980,1,0,0:0:0:0:
256,192,78055,1,0,0:0:0:0:
256,192,78130,1,0,0:0:0:0:
256,192,78205,1,8,0:0:0:0:
256,192,78280,1,0,0:0:0:0:
256,192,78355,1,8,0:0:0:0:
256,192,78430,1,0,0:0:0:0:
256,192,78505,1,8,0:0:0:0:
256,192,78580,1,8,0:0:0:0:
256,192,78655,1,0,0:0:0:0:
256,192,78730,1,0,0:0:0:0:
256,192,78805,1,8,0:0:0:0:
256,192,78880,1,0,0:0:0:0:
256,192,78955,1,0,0:0:0:0:
256,192,79030,1,0,0:0:0:0:
256,192,79105,1,8,0:0:0:0:
256,192,79180,1,0,0:0:0:0:
256,192,79255,1,8,0:0:0:0:
256,192,79330,1,0,0:0:0:0:
256,192,79405,1,8,0:0:0:0:
256,192,79480,1,8,0:0:0:0:
256,192,79555,1,0,0:0:0:0:
256,192,79630,1,0,0:0:0:0:
256,192,79705,1,8,0:0:0:0:
256,192,79780,1,0,0:0:0:0:
256,192,79855,1,8,0:0:0:0:
256,192,79930,1,8,0:0:0:0:
256,192,80005,1,0,0:0:0:0:
256,192,80155,1,8,0:0:0:0:
256,192,80305,1,0,0:0:0:0:
256,192,80380,1,0,0:0:0:0:
256,192,80455,1,8,0:0:0:0:
256,192,80605,1,0,0:0:0:0:
256,192,80755,1,8,0:0:0:0:
256,192,80905,1,0,0:0:0:0:
256,192,80980,1,0,0:0:0:0:
256,192,81055,1,8,0:0:0:0:
256,192,81130,1,8,0:0:0:0:
256,192,81205,1,0,0:0:0:0:
256,192,81355,1,8,0:0:0:0:
256,192,81505,1,0,0:0:0:0:
256,192,81580,1,0,0:0:0:0:
256,192,81655,1,8,0:0:0:0:
256,192,81805,1,0,0:0:0:0:
256,192,81880,1,0,0:0:0:0:
256,192,81955,1,8,0:0:0:0:
256,192,82105,1,0,0:0:0:0:
256,192,82180,1,0,0:0:0:0:
256,192,82255,1,8,0:0:0:0:
256,192,82330,1,0,0:0:0:0:
256,192,82405,1,0,0:0:0:0:
256,192,82555,1,8,0:0:0:0:
256,192,82705,1,0,0:0:0:0:
256,192,82780,1,0,0:0:0:0:
256,192,82855,1,8,0:0:0:0:
256,192,82930,1,0,0:0:0:0:
256,192,83080,1,0,0:0:0:0:
256,192,83155,1,8,0:0:0:0:
256,192,83305,1,0,0:0:0:0:
256,192,83380,1,0,0:0:0:0:
256,192,83455,1,8,0:0:0:0:
256,192,83605,1,0,0:0:0:0:
256,192,83755,1,8,0:0:0:0:
256,192,83830,1,8,0:0:0:0:
256,192,83905,1,0,0:0:0:0:
256,192,84055,1,8,0:0:0:0:
256,192,84130,1,8,0:0:0:0:
256,192,84205,1,0,0:0:0:0:
256,192,84355,1,8,0:0:0:0:
256,192,84505,1,0,0:0:0:0:
256,192,84580,1,0,0:0:0:0:
256,192,84655,1,8,0:0:0:0:
256,192,84730,1,0,0:0:0:0:
256,192,84805,1,0,0:0:0:0:
256,192,84955,1,8,0:0:0:0:
256,192,85105,1,8,0:0:0:0:
256,192,85180,1,0,0:0:0:0:
256,192,85255,1,8,0:0:0:0:
256,192,85405,1,0,0:0:0:0:
256,192,85555,1,8,0:0:0:0:
256,192,85705,1,0,0:0:0:0:
256,192,85780,1,0,0:0:0:0:
256,192,85855,1,8,0:0:0:0:
256,192,86005,1,8,0:0:0:0:
256,192,86080,1,0,0:0:0:0:
256,192,86155,1,0,0:0:0:0:
256,192,86230,1,0,0:0:0:0:
256,192,86305,1,8,0:0:0:0:
256,192,86380,1,0,0:0:0:0:
256,192,86455,1,0,0:0:0:0:
256,192,86530,1,0,0:0:0:0:
256,192,86605,1,8,0:0:0:0:
256,192,86680,1,0,0:0:0:0:
256,192,86755,1,0,0:0:0:0:
256,192,86830,1,0,0:0:0:0:
256,192,86905,1,8,0:0:0:0:
256,192,87055,1,0,0:0:0:0:
256,192,87205,1,8,0:0:0:0:
256,192,87280,1,0,0:0:0:0:
256,192,87355,1,8,0:0:0:0:
256,192,87430,1,8,0:0:0:0:
256,192,87505,1,0,0:0:0:0:
256,192,87580,1,0,0:0:0:0:
256,192,87655,1,8,0:0:0:0:
256,192,87730,1,0,0:0:0:0:
256,192,87805,1,8,0:0:0:0:
256,192,87880,1,8,0:0:0:0:
256,192,87955,1,0,0:0:0:0:
256,192,88030,1,0,0:0:0:0:
256,192,88105,1,8,0:0:0:0:
256,192,88180,1,8,0:0:0:0:
256,192,88255,1,0,0:0:0:0:
256,192,88330,1,0,0:0:0:0:
256,192,88405,1,8,0:0:0:0:
256,192,89605,1,8,0:0:0:0:
256,192,89755,1,8,0:0:0:0:
256,192,89905,1,0,0:0:0:0:
256,192,89980,1,0,0:0:0:0:
256,192,90055,1,0,0:0:0:0:
256,192,90130,1,0,0:0:0:0:
256,192,90205,1,8,0:0:0:0:
256,192,90355,1,8,0:0:0:0:
256,192,90505,1,8,0:0:0:0:
256,192,90580,1,0,0:0:0:0:
256,192,90655,1,0,0:0:0:0:
256,192,90730,1,0,0:0:0:0:
256,192,90805,1,8,0:0:0:0:
256,192,90955,1,8,0:0:0:0:
256,192,91105,1,0,0:0:0:0:
256,192,91180,1,0,0:0:0:0:
256,192,91255,1,8,0:0:0:0:
256,192,91330,1,8,0:0:0:0:
256,192,91405,1,0,0:0:0:0:
256,192,91480,1,0,0:0:0:0:
256,192,91555,1,0,0:0:0:0:
256,192,91630,1,0,0:0:0:0:
256,192,91705,1,8,0:0:0:0:
256,192,91855,1,0,0:0:0:0:
256,192,92005,1,8,0:0:0:0:
256,192,92080,1,0,0:0:0:0:
256,192,92155,1,0,0:0:0:0:
256,192,92230,1,0,0:0:0:0:
256,192,92305,1,8,0:0:0:0:
256,192,92380,1,0,0:0:0:0:
256,192,92455,1,8,0:0:0:0:
256,192,92530,1,8,0:0:0:0:
256,192,92605,1,0,0:0:0:0:
256,192,92680,1,0,0:0:0:0:
256,192,92755,1,8,0:0:0:0:
256,192,92830,1,8,0:0:0:0:
256,192,92905,1,0,0:0:0:0:
256,192,92980,1,8,0:0:0:0:
256,192,93055,1,0,0:0:0:0:
256,192,93130,1,0,0:0:0:0:
256,192,93205,1,8,0:0:0:0:
256,192,93355,1,0,0:0:0:0:
256,192,93505,1,8,0:0:0:0:
256,192,93580,1,8,0:0:0:0:
256,192,93655,1,0,0:0:0:0:
256,192,93805,1,8,0:0:0:0:
256,192,93880,1,8,0:0:0:0:
256,192,93955,1,0,0:0:0:0:
256,192,94030,1,0,0:0:0:0:
256,192,94105,1,8,0:0:0:0:
256,192,94255,1,0,0:0:0:0:
256,192,94405,1,8,0:0:0:0:
256,192,94555,1,8,0:0:0:0:
256,192,94705,1,0,0:0:0:0:
256,192,94780,1,0,0:0:0:0:
256,192,94855,1,0,0:0:0:0:
256,192,94930,1,0,0:0:0:0:
256,192,95005,1,8,0:0:0:0:
256,192,95155,1,8,0:0:0:0:
256,192,95305,1,8,0:0:0:0:
256,192,95380,1,0,0:0:0:0:
256,192,95455,1,0,0:0:0:0:
256,192,95530,1,0,0:0:0:0:
256,192,95605,1,8,0:0:0:0:
256,192,95755,1,8,0:0:0:0:
256,192,95905,1,8,0:0:0:0:
256,192,95980,1,8,0:0:0:0:
256,192,96055,1,0,0:0:0:0:
256,192,96130,1,0,0:0:0:0:
256,192,96205,1,8,0:0:0:0:
256,192,96355,1,8,0:0:0:0:
256,192,96505,1,0,0:0:0:0:
256,192,96580,1,0,0:0:0:0:
256,192,96655,1,8,0:0:0:0:
256,192,96730,1,0,0:0:0:0:
256,192,96805,1,8,0:0:0:0:
256,192,96955,1,8,0:0:0:0:
256,192,97105,1,8,0:0:0:0:
256,192,97255,1,0,0:0:0:0:
256,192,97555,1,8,0:0:0:0:
256,192,97705,1,0,0:0:0:0:
256,192,97780,1,0,0:0:0:0:
256,192,97855,1,8,0:0:0:0:
256,192,98005,1,8,0:0:0:0:
256,192,98080,1,0,0:0:0:0:
256,192,98155,1,8,0:0:0:0:
256,192,98230,1,8,0:0:0:0:
256,192,98305,1,0,0:0:0:0:
256,192,98380,1,0,0:0:0:0:
256,192,98455,1,8,0:0:0:0:
256,192,98530,1,8,0:0:0:0:
256,192,98605,1,8,0:0:0:0:
256,192,98680,1,8,0:0:0:0:
256,192,98755,1,0,0:0:0:0:
256,192,98830,1,0,0:0:0:0:
256,192,98905,1,8,0:0:0:0:
256,192,98980,1,0,0:0:0:0:
256,192,99055,1,0,0:0:0:0:
256,192,99205,1,12,0:0:0:0:
256,192,99355,1,8,0:0:0:0:
256,192,99505,1,8,0:0:0:0:
256,192,99655,1,0,0:0:0:0:
256,192,99955,1,8,0:0:0:0:
256,192,100105,1,0,0:0:0:0:
256,192,100180,1,0,0:0:0:0:
256,192,100255,1,0,0:0:0:0:
256,192,100405,1,8,0:0:0:0:
256,192,100555,1,8,0:0:0:0:
256,192,100705,1,8,0:0:0:0:
256,192,100780,1,8,0:0:0:0:
256,192,100855,1,0,0:0:0:0:
256,192,101155,1,8,0:0:0:0:
256,192,101455,1,0,0:0:0:0:
256,192,101605,1,8,0:0:0:0:
256,192,101755,1,0,0:0:0:0:
256,192,101905,1,0,0:0:0:0:
256,192,102055,1,8,0:0:0:0:
256,192,102355,1,8,0:0:0:0:
256,192,102655,1,8,0:0:0:0:
256,192,102805,1,0,0:0:0:0:
256,192,102955,1,0,0:0:0:0:
256,192,103105,1,8,0:0:0:0:
256,192,103255,1,8,0:0:0:0:
256,192,103330,1,0,0:0:0:0:
256,192,103405,1,0,0:0:0:0:
256,192,103555,1,8,0:0:0:0:
256,192,103705,1,0,0:0:0:0:
256,192,104005,1,0,0:0:0:0:
256,192,104155,1,8,0:0:0:0:
256,192,104305,1,8,0:0:0:0:
256,192,104455,1,0,0:0:0:0:
256,192,104755,1,8,0:0:0:0:
256,192,104905,1,0,0:0:0:0:
256,192,104980,1,0,0:0:0:0:
256,192,105055,1,8,0:0:0:0:
256,192,105205,1,8,0:0:0:0:
256,192,105280,1,0,0:0:0:0:
256,192,105355,1,8,0:0:0:0:
256,192,105430,1,8,0:0:0:0:
256,192,105505,1,0,0:0:0:0:
256,192,105580,1,0,0:0:0:0:
256,192,105655,1,0,0:0:0:0:
256,192,105730,1,0,0:0:0:0:
256,192,105805,1,8,0:0:0:0:
256,192,105880,1,8,0:0:0:0:
256,192,105955,1,0,0:0:0:0:
256,192,106030,1,0,0:0:0:0:
256,192,106105,1,0,0:0:0:0:
256,192,106180,1,0,0:0:0:0:
288,192,106255,1,0,0:0:0:0:
288,192,106405,1,4,0:0:0:0:
288,192,106855,1,4,0:0:0:0:
288,192,107305,1,12,0:0:0:0:
288,192,107905,1,12,0:0:0:0:
256,192,108055,8,12,108655,0:0:0:0:
256,192,108805,5,4,0:0:0:0:
256,192,108955,1,8,0:0:0:0:
256,192,109105,1,0,0:0:0:0:
256,192,109180,1,0,0:0:0:0:
256,192,109255,1,8,0:0:0:0:
256,192,109330,1,0,0:0:0:0:
160,160,109480,1,0,0:0:0:0:
256,192,109555,1,8,0:0:0:0:
256,192,109705,1,0,0:0:0:0:
256,192,109855,1,8,0:0:0:0:
256,192,109930,1,8,0:0:0:0:
256,192,110005,1,0,0:0:0:0:
256,192,110155,1,8,0:0:0:0:
256,192,110230,1,8,0:0:0:0:
256,192,110305,1,0,0:0:0:0:
256,192,110455,1,0,0:0:0:0:
256,192,110605,1,8,0:0:0:0:
256,192,110680,1,0,0:0:0:0:
256,192,110755,1,0,0:0:0:0:
256,192,110905,1,0,0:0:0:0:
256,192,111055,1,0,0:0:0:0:
256,192,111205,1,12,0:0:0:0:
256,192,111355,1,0,0:0:0:0:
256,192,111505,1,0,0:0:0:0:
256,192,111580,1,0,0:0:0:0:
256,192,111655,1,8,0:0:0:0:
256,192,111730,1,0,0:0:0:0:
256,192,111880,1,0,0:0:0:0:
256,192,111955,1,8,0:0:0:0:
256,192,112105,1,8,0:0:0:0:
256,192,112255,1,0,0:0:0:0:
256,192,112330,1,0,0:0:0:0:
256,192,112405,1,8,0:0:0:0:
256,192,112555,1,0,0:0:0:0:
256,192,112630,1,0,0:0:0:0:
256,192,112705,1,8,0:0:0:0:
256,192,112855,1,0,0:0:0:0:
256,192,113005,1,8,0:0:0:0:
256,192,113080,1,0,0:0:0:0:
256,192,113155,1,8,0:0:0:0:
256,192,113230,1,8,0:0:0:0:
256,192,113305,1,0,0:0:0:0:
256,192,113455,1,8,0:0:0:0:
256,192,113605,1,4,0:0:0:0:
256,192,113755,1,8,0:0:0:0:
256,192,113905,1,0,0:0:0:0:
256,192,113980,1,0,0:0:0:0:
256,192,114055,1,8,0:0:0:0:
256,192,114130,1,0,0:0:0:0:
160,160,114280,1,0,0:0:0:0:
256,192,114355,1,8,0:0:0:0:
256,192,114505,1,0,0:0:0:0:
256,192,114655,1,8,0:0:0:0:
256,192,114730,1,0,0:0:0:0:
256,192,114805,1,8,0:0:0:0:
256,192,114955,1,8,0:0:0:0:
256,192,115030,1,0,0:0:0:0:
256,192,115105,1,8,0:0:0:0:
256,192,115255,1,0,0:0:0:0:
256,192,115405,1,8,0:0:0:0:
256,192,115480,1,8,0:0:0:0:
256,192,115555,1,0,0:0:0:0:
256,192,115705,1,0,0:0:0:0:
256,192,115855,1,0,0:0:0:0:
256,192,116005,1,8,0:0:0:0:
256,192,116155,1,0,0:0:0:0:
256,192,116230,1,0,0:0:0:0:
256,192,116305,1,8,0:0:0:0:
256,192,116455,1,0,0:0:0:0:
256,192,116605,1,8,0:0:0:0:
256,192,116755,1,0,0:0:0:0:
256,192,116905,1,0,0:0:0:0:
256,192,116980,1,0,0:0:0:0:
256,192,117055,1,8,0:0:0:0:
256,192,117205,1,8,0:0:0:0:
256,192,117280,1,0,0:0:0:0:
256,192,117355,1,8,0:0:0:0:
256,192,117430,1,8,0:0:0:0:
256,192,117505,1,0,0:0:0:0:
256,192,117580,1,0,0:0:0:0:
256,192,117655,1,8,0:0:0:0:
256,192,117730,1,0,0:0:0:0:
256,192,117805,1,8,0:0:0:0:
256,192,117880,1,8,0:0:0:0:
256,192,117955,1,0,0:0:0:0:
256,192,118030,1,0,0:0:0:0:
256,192,118105,1,8,0:0:0:0:
256,192,118180,1,0,0:0:0:0:
256,192,118255,1,0,0:0:0:0:
256,192,118405,1,12,0:0:0:0:
256,192,118555,1,0,0:0:0:0:
256,192,118705,1,0,0:0:0:0:
256,192,118780,1,0,0:0:0:0:
256,192,118855,1,8,0:0:0:0:
256,192,119005,1,0,0:0:0:0:
256,192,119155,1,8,0:0:0:0:
256,192,119305,1,0,0:0:0:0:
256,192,119380,1,0,0:0:0:0:
256,192,119455,1,8,0:0:0:0:
256,192,119605,1,0,0:0:0:0:
256,192,119755,1,8,0:0:0:0:
256,192,119830,1,0,0:0:0:0:
256,192,119905,1,0,0:0:0:0:
256,192,119980,1,0,0:0:0:0:
256,192,120055,1,8,0:0:0:0:
256,192,120130,1,8,0:0:0:0:
256,192,120205,1,0,0:0:0:0:
256,192,120355,1,8,0:0:0:0:
256,192,120505,1,0,0:0:0:0:
256,192,120580,1,0,0:0:0:0:
256,192,120655,1,8,0:0:0:0:
256,192,120805,1,0,0:0:0:0:
256,192,120955,1,8,0:0:0:0:
256,192,121105,1,0,0:0:0:0:
256,192,121180,1,0,0:0:0:0:
256,192,121255,1,8,0:0:0:0:
256,192,121330,1,0,0:0:0:0:
256,192,121405,1,0,0:0:0:0:
256,192,121555,1,8,0:0:0:0:
256,192,121705,1,0,0:0:0:0:
256,192,121780,1,0,0:0:0:0:
256,192,121855,1,8,0:0:0:0:
256,192,121930,1,0,0:0:0:0:
256,192,122005,1,0,0:0:0:0:
256,192,122155,1,8,0:0:0:0:
256,192,122305,1,0,0:0:0:0:
256,192,122380,1,0,0:0:0:0:
256,192,122455,1,8,0:0:0:0:
256,192,122530,1,8,0:0:0:0:
256,192,122605,1,0,0:0:0:0:
256,192,122680,1,0,0:0:0:0:
256,192,122755,1,8,0:0:0:0:
256,192,122830,1,8,0:0:0:0:
256,192,122905,1,0,0:0:0:0:
256,192,123055,1,8,0:0:0:0:
256,192,123205,1,4,0:0:0:0:
256,192,123355,1,8,0:0:0:0:
256,192,123505,1,0,0:0:0:0:
256,192,123580,1,0,0:0:0:0:
256,192,123655,1,8,0:0:0:0:
256,192,123805,1,0,0:0:0:0:
256,192,123955,1,8,0:0:0:0:
256,192,124105,1,8,0:0:0:0:
256,192,124180,1,0,0:0:0:0:
256,192,124255,1,8,0:0:0:0:
256,192,124330,1,8,0:0:0:0:
256,192,124405,1,0,0:0:0:0:
256,192,124555,1,8,0:0:0:0:
256,192,124705,1,0,0:0:0:0:
256,192,124780,1,0,0:0:0:0:
256,192,124855,1,8,0:0:0:0:
256,192,125005,1,0,0:0:0:0:
256,192,125155,1,8,0:0:0:0:
256,192,125305,1,8,0:0:0:0:
256,192,125380,1,0,0:0:0:0:
256,192,125455,1,8,0:0:0:0:
256,192,125605,1,0,0:0:0:0:
256,192,125755,1,8,0:0:0:0:
256,192,125905,1,0,0:0:0:0:
256,192,125980,1,0,0:0:0:0:
256,192,126055,1,8,0:0:0:0:
256,192,126130,1,0,0:0:0:0:
256,192,126205,1,0,0:0:0:0:
256,192,126355,1,8,0:0:0:0:
256,192,126505,1,0,0:0:0:0:
256,192,126580,1,0,0:0:0:0:
256,192,126655,1,8,0:0:0:0:
256,192,126805,1,0,0:0:0:0:
256,192,126880,1,0,0:0:0:0:
256,192,126955,1,8,0:0:0:0:
256,192,127030,1,8,0:0:0:0:
256,192,127105,1,8,0:0:0:0:
256,192,127180,1,8,0:0:0:0:
256,192,127255,1,0,0:0:0:0:
256,192,127330,1,0,0:0:0:0:
256,192,127405,1,8,0:0:0:0:
256,192,127480,1,8,0:0:0:0:
256,192,127555,1,8,0:0:0:0:
256,192,127630,1,8,0:0:0:0:
256,192,127705,1,0,0:0:0:0:
256,192,127780,1,0,0:0:0:0:
256,192,127855,1,0,0:0:0:0:
256,192,128005,1,8,0:0:0:0:
256,192,128080,1,0,0:0:0:0:
256,192,128155,1,0,0:0:0:0:
256,192,128230,1,0,0:0:0:0:
256,192,128305,1,8,0:0:0:0:
256,192,128380,1,0,0:0:0:0:
256,192,128455,1,8,0:0:0:0:
256,192,128530,1,0,0:0:0:0:
256,192,128605,1,8,0:0:0:0:
256,192,128680,1,8,0:0:0:0:
256,192,128755,1,0,0:0:0:0:
256,192,128830,1,0,0:0:0:0:
256,192,128905,1,8,0:0:0:0:
256,192,128980,1,0,0:0:0:0:
256,192,129055,1,0,0:0:0:0:
256,192,129130,1,0,0:0:0:0:
256,192,129205,1,8,0:0:0:0:
256,192,129280,1,0,0:0:0:0:
256,192,129355,1,0,0:0:0:0:
256,192,129430,1,0,0:0:0:0:
256,192,129505,1,8,0:0:0:0:
256,192,129580,1,8,0:0:0:0:
256,192,129655,1,0,0:0:0:0:
256,192,129730,1,0,0:0:0:0:
256,192,129805,1,8,0:0:0:0:
256,192,129880,1,8,0:0:0:0:
256,192,129955,1,0,0:0:0:0:
256,192,130030,1,0,0:0:0:0:
256,192,130105,1,0,0:0:0:0:
256,192,130180,1,0,0:0:0:0:
256,192,130255,1,8,0:0:0:0:
256,192,130405,1,0,0:0:0:0:
256,192,130555,1,8,0:0:0:0:
256,192,130705,1,0,0:0:0:0:
256,192,130780,1,0,0:0:0:0:
256,192,130855,1,8,0:0:0:0:
256,192,131005,1,0,0:0:0:0:
288,192,131155,1,8,0:0:0:0:
256,192,131305,1,0,0:0:0:0:
256,192,131380,1,0,0:0:0:0:
256,192,131455,1,8,0:0:0:0:
256,192,131605,1,8,0:0:0:0:
256,192,131755,1,8,0:0:0:0:
256,192,131830,1,0,0:0:0:0:
256,192,131905,1,8,0:0:0:0:
256,192,132055,1,8,0:0:0:0:
256,192,132205,1,0,0:0:0:0:
256,192,132280,1,0,0:0:0:0:
256,192,132355,1,0,0:0:0:0:
288,192,132505,1,8,0:0:0:0:
256,192,132655,1,0,0:0:0:0:
256,192,132805,1,8,0:0:0:0:
256,192,132880,1,0,0:0:0:0:
256,192,132955,1,0,0:0:0:0:
256,192,133030,1,0,0:0:0:0:
256,192,133105,1,8,0:0:0:0:
256,192,133180,1,0,0:0:0:0:
256,192,133255,1,8,0:0:0:0:
256,192,133330,1,0,0:0:0:0:
256,192,133405,1,8,0:0:0:0:
256,192,133480,1,8,0:0:0:0:
256,192,133555,1,0,0:0:0:0:
256,192,133630,1,0,0:0:0:0:
256,192,133705,1,8,0:0:0:0:
256,192,133780,1,8,0:0:0:0:
256,192,133855,1,0,0:0:0:0:
256,192,133930,1,0,0:0:0:0:
256,192,134005,1,8,0:0:0:0:
256,192,134080,1,8,0:0:0:0:
256,192,134155,1,0,0:0:0:0:
288,192,134230,1,0,0:0:0:0:
288,192,134305,1,8,0:0:0:0:
256,192,134380,1,8,0:0:0:0:
256,192,134455,1,0,0:0:0:0:
256,192,134530,1,0,0:0:0:0:
256,192,134605,1,8,0:0:0:0:
256,192,134680,1,0,0:0:0:0:
256,192,134755,1,8,0:0:0:0:
256,192,134830,1,8,0:0:0:0:
256,192,134905,1,0,0:0:0:0:
256,192,134980,1,0,0:0:0:0:
256,192,135055,1,8,0:0:0:0:
256,192,135130,1,0,0:0:0:0:
256,192,135205,1,8,0:0:0:0:
256,192,135280,1,8,0:0:0:0:
256,192,135355,1,0,0:0:0:0:
256,192,135430,1,0,0:0:0:0:
256,192,135505,1,8,0:0:0:0:
256,192,135580,1,0,0:0:0:0:
256,192,135655,1,0,0:0:0:0:
288,192,135730,1,0,0:0:0:0:
288,192,135805,1,8,0:0:0:0:
288,192,135880,1,0,0:0:0:0:
288,192,135955,1,0,0:0:0:0:
288,192,136030,1,0,0:0:0:0:
288,192,136105,1,8,0:0:0:0:
288,192,136180,1,0,0:0:0:0:
288,192,136255,1,0,0:0:0:0:
480,192,136330,1,0,0:0:0:0:
288,192,136405,1,8,0:0:0:0:
288,192,136555,1,0,0:0:0:0:
288,192,136630,1,0,0:0:0:0:
288,192,136705,1,8,0:0:0:0:
288,192,136855,1,0,0:0:0:0:
256,192,136930,1,0,0:0:0:0:
288,192,137005,1,8,0:0:0:0:
256,192,137080,1,8,0:0:0:0:
256,192,137155,1,8,0:0:0:0:
256,192,137230,1,8,0:0:0:0:
288,192,137305,1,8,0:0:0:0:
288,192,137380,1,8,0:0:0:0:
288,192,137455,1,8,0:0:0:0:
288,192,137605,1,4,0:0:0:0:
256,192,137755,1,0,0:0:0:0:
256,192,137905,1,8,0:0:0:0:
256,192,137980,1,0,0:0:0:0:
256,192,138055,1,8,0:0:0:0:
256,192,138130,1,8,0:0:0:0:
256,192,138205,1,0,0:0:0:0:
256,192,138355,1,8,0:0:0:0:
256,192,138505,1,0,0:0:0:0:
256,192,138655,1,8,0:0:0:0:
256,192,138805,1,8,0:0:0:0:
256,192,138880,1,0,0:0:0:0:
256,192,138955,1,0,0:0:0:0:
256,192,139030,1,0,0:0:0:0:
256,192,139105,1,8,0:0:0:0:
256,192,139180,1,0,0:0:0:0:
256,192,139255,1,0,0:0:0:0:
256,192,139330,1,0,0:0:0:0:
256,192,139405,1,8,0:0:0:0:
256,192,139555,1,0,0:0:0:0:
256,192,139705,1,8,0:0:0:0:
256,192,139855,1,0,0:0:0:0:
256,192,140005,1,8,0:0:0:0:
256,192,140080,1,8,0:0:0:0:
256,192,140155,1,0,0:0:0:0:
256,192,140305,1,0,0:0:0:0:
256,192,140455,1,0,0:0:0:0:
256,192,140605,1,8,0:0:0:0:
256,192,140680,1,8,0:0:0:0:
256,192,140755,1,0,0:0:0:0:
256,192,140905,1,0,0:0:0:0:
256,192,141055,1,0,0:0:0:0:
256,192,141205,1,8,0:0:0:0:
256,192,141280,1,8,0:0:0:0:
256,192,141355,1,8,0:0:0:0:
256,192,141430,1,8,0:0:0:0:
256,192,141505,1,0,0:0:0:0:
256,192,141580,1,0,0:0:0:0:
256,192,141655,1,0,0:0:0:0:
256,192,141730,1,0,0:0:0:0:
256,192,141805,1,8,0:0:0:0:
256,192,141880,1,8,0:0:0:0:
288,192,141955,1,8,0:0:0:0:
256,192,142030,1,8,0:0:0:0:
256,192,142105,1,0,0:0:0:0:
256,192,142180,1,0,0:0:0:0:
256,192,142255,1,0,0:0:0:0:
256,192,142405,1,12,0:0:0:0:
256,192,142555,1,0,0:0:0:0:
256,192,142705,1,8,0:0:0:0:
256,192,142780,1,0,0:0:0:0:
256,192,142855,1,8,0:0:0:0:
256,192,142930,1,8,0:0:0:0:
256,192,143005,1,0,0:0:0:0:
256,192,143155,1,0,0:0:0:0:
256,192,143305,1,8,0:0:0:0:
256,192,143455,1,0,0:0:0:0:
256,192,143605,1,8,0:0:0:0:
256,192,143680,1,0,0:0:0:0:
256,192,143755,1,0,0:0:0:0:
256,192,143830,1,0,0:0:0:0:
256,192,143905,1,8,0:0:0:0:
256,192,143980,1,8,0:0:0:0:
256,192,144055,1,0,0:0:0:0:
256,192,144130,1,0,0:0:0:0:
256,192,144205,1,8,0:0:0:0:
256,192,144355,1,0,0:0:0:0:
256,192,144505,1,8,0:0:0:0:
256,192,144655,1,0,0:0:0:0:
256,192,144805,1,8,0:0:0:0:
256,192,144880,1,8,0:0:0:0:
256,192,144955,1,0,0:0:0:0:
256,192,145030,1,0,0:0:0:0:
256,192,145105,1,8,0:0:0:0:
256,192,145255,1,0,0:0:0:0:
256,192,145405,1,8,0:0:0:0:
256,192,145480,1,8,0:0:0:0:
256,192,145555,1,0,0:0:0:0:
256,192,145630,1,0,0:0:0:0:
256,192,145705,1,8,0:0:0:0:
256,192,145855,1,0,0:0:0:0:
256,192,146005,1,8,0:0:0:0:
256,192,146080,1,8,0:0:0:0:
256,192,146155,1,8,0:0:0:0:
256,192,146230,1,8,0:0:0:0:
256,192,146305,1,0,0:0:0:0:
256,192,146380,1,0,0:0:0:0:
256,192,146455,1,0,0:0:0:0:
256,192,146530,1,0,0:0:0:0:
256,192,146605,1,8,0:0:0:0:
256,192,146680,1,8,0:0:0:0:
256,192,146755,1,8,0:0:0:0:
256,192,146830,1,8,0:0:0:0:
256,192,146905,1,0,0:0:0:0:
256,192,146980,1,0,0:0:0:0:
288,192,147055,1,0,0:0:0:0:
288,192,147130,1,0,0:0:0:0:
288,192,147205,1,8,0:0:0:0:
256,192,148405,1,8,0:0:0:0:
256,192,148480,1,8,0:0:0:0:
256,192,148555,1,0,0:0:0:0:
256,192,148630,1,0,0:0:0:0:
256,192,148705,1,8,0:0:0:0:
256,192,148780,1,0,0:0:0:0:
256,192,148855,1,0,0:0:0:0:
256,192,148930,1,0,0:0:0:0:
256,192,149005,1,8,0:0:0:0:
256,192,149080,1,0,0:0:0:0:
256,192,149155,1,0,0:0:0:0:
256,192,149230,1,0,0:0:0:0:
256,192,149305,1,8,0:0:0:0:
256,192,149380,1,0,0:0:0:0:
256,192,149455,1,8,0:0:0:0:
256,192,149530,1,0,0:0:0:0:
256,192,149605,1,8,0:0:0:0:
256,192,149680,1,8,0:0:0:0:
256,192,149755,1,0,0:0:0:0:
256,192,149830,1,0,0:0:0:0:
256,192,149905,1,8,0:0:0:0:
256,192,149980,1,0,0:0:0:0:
288,192,150055,1,0,0:0:0:0:
288,192,150130,1,0,0:0:0:0:
256,192,150205,1,8,0:0:0:0:
256,192,150280,1,8,0:0:0:0:
256,192,150355,1,0,0:0:0:0:
256,192,150430,1,0,0:0:0:0:
256,192,150505,1,8,0:0:0:0:
256,192,150580,1,8,0:0:0:0:
256,192,150655,1,0,0:0:0:0:
256,192,150730,1,0,0:0:0:0:
256,192,150805,1,0,0:0:0:0:
256,192,150955,1,8,0:0:0:0:
256,192,151105,1,0,0:0:0:0:
256,192,151180,1,0,0:0:0:0:
256,192,151255,1,8,0:0:0:0:
256,192,151405,1,0,0:0:0:0:
288,192,151555,1,8,0:0:0:0:
256,192,151705,1,0,0:0:0:0:
256,192,151780,1,0,0:0:0:0:
256,192,151855,1,8,0:0:0:0:
256,192,151930,1,8,0:0:0:0:
256,192,152005,1,0,0:0:0:0:
256,192,152155,1,8,0:0:0:0:
256,192,152305,1,0,0:0:0:0:
256,192,152380,1,0,0:0:0:0:
256,192,152455,1,8,0:0:0:0:
256,192,152605,1,0,0:0:0:0:
256,192,152680,1,0,0:0:0:0:
288,192,152755,1,8,0:0:0:0:
256,192,152905,1,0,0:0:0:0:
256,192,152980,1,0,0:0:0:0:
256,192,153055,1,8,0:0:0:0:
256,192,153130,1,8,0:0:0:0:
256,192,153205,1,0,0:0:0:0:
256,192,153355,1,8,0:0:0:0:
256,192,153505,1,0,0:0:0:0:
256,192,153580,1,0,0:0:0:0:
256,192,153655,1,8,0:0:0:0:
256,192,153730,1,0,0:0:0:0:
256,192,153805,1,0,0:0:0:0:
288,192,153955,1,8,0:0:0:0:
256,192,154105,1,0,0:0:0:0:
256,192,154180,1,0,0:0:0:0:
256,192,154255,1,8,0:0:0:0:
256,192,154330,1,8,0:0:0:0:
256,192,154405,1,0,0:0:0:0:
256,192,154555,1,8,0:0:0:0:
256,192,154705,1,8,0:0:0:0:
256,192,154780,1,0,0:0:0:0:
256,192,154855,1,8,0:0:0:0:
256,192,155005,1,0,0:0:0:0:
288,192,155155,1,8,0:0:0:0:
256,192,155305,1,0,0:0:0:0:
256,192,155380,1,0,0:0:0:0:
256,192,155455,1,8,0:0:0:0:
256,192,155605,1,8,0:0:0:0:
256,192,155680,1,8,0:0:0:0:
256,192,155755,1,8,0:0:0:0:
256,192,155830,1,8,0:0:0:0:
256,192,155905,1,0,0:0:0:0:
256,192,155980,1,0,0:0:0:0:
256,192,156055,1,0,0:0:0:0:
256,192,156130,1,0,0:0:0:0:
256,192,156205,1,8,0:0:0:0:
256,192,156280,1,8,0:0:0:0:
256,192,156355,1,8,0:0:0:0:
256,192,156430,1,8,0:0:0:0:
256,192,156505,1,0,0:0:0:0:
256,192,156580,1,0,0:0:0:0:
256,192,156655,1,0,0:0:0:0:
256,192,156730,1,0,0:0:0:0:
256,192,156805,1,8,0:0:0:0:
256,192,156880,1,0,0:0:0:0:
256,192,156955,1,0,0:0:0:0:
256,192,157030,1,0,0:0:0:0:
256,192,157105,1,8,0:0:0:0:
256,192,157180,1,0,0:0:0:0:
256,192,157255,1,8,0:0:0:0:
256,192,157330,1,0,0:0:0:0:
256,192,157405,1,8,0:0:0:0:
256,192,157480,1,8,0:0:0:0:
256,192,157555,1,0,0:0:0:0:
256,192,157630,1,0,0:0:0:0:
256,192,157705,1,8,0:0:0:0:
256,192,157780,1,0,0:0:0:0:
256,192,157855,1,8,0:0:0:0:
256,192,157930,1,8,0:0:0:0:
256,192,158005,1,0,0:0:0:0:
256,192,158155,1,8,0:0:0:0:
256,192,158305,1,0,0:0:0:0:
256,192,158380,1,0,0:0:0:0:
256,192,158455,1,8,0:0:0:0:
256,192,158605,1,0,0:0:0:0:
256,192,158755,1,8,0:0:0:0:
256,192,158905,1,0,0:0:0:0:
256,192,158980,1,0,0:0:0:0:
256,192,159055,1,8,0:0:0:0:
256,192,159130,1,8,0:0:0:0:
256,192,159205,1,0,0:0:0:0:
256,192,159355,1,8,0:0:0:0:
256,192,159505,1,0,0:0:0:0:
256,192,159580,1,0,0:0:0:0:
256,192,159655,1,8,0:0:0:0:
256,192,159805,1,0,0:0:0:0:
256,192,159880,1,0,0:0:0:0:
256,192,159955,1,8,0:0:0:0:
256,192,160105,1,0,0:0:0:0:
256,192,160180,1,0,0:0:0:0:
256,192,160255,1,8,0:0:0:0:
256,192,160330,1,0,0:0:0:0:
256,192,160405,1,0,0:0:0:0:
256,192,160555,1,8,0:0:0:0:
256,192,160705,1,0,0:0:0:0:
256,192,160780,1,0,0:0:0:0:
256,192,160855,1,8,0:0:0:0:
256,192,160930,1,0,0:0:0:0:
256,192,161080,1,0,0:0:0:0:
256,192,161155,1,8,0:0:0:0:
256,192,161305,1,0,0:0:0:0:
256,192,161380,1,0,0:0:0:0:
256,192,161455,1,8,0:0:0:0:
256,192,161605,1,0,0:0:0:0:
256,192,161755,1,8,0:0:0:0:
256,192,161830,1,8,0:0:0:0:
256,192,161905,1,0,0:0:0:0:
256,192,162055,1,8,0:0:0:0:
256,192,162130,1,8,0:0:0:0:
256,192,162205,1,0,0:0:0:0:
256,192,162355,1,8,0:0:0:0:
256,192,162505,1,0,0:0:0:0:
256,192,162580,1,0,0:0:0:0:
256,192,162655,1,8,0:0:0:0:
256,192,162730,1,0,0:0:0:0:
256,192,162805,1,0,0:0:0:0:
256,192,162955,1,8,0:0:0:0:
256,192,163105,1,8,0:0:0:0:
256,192,163180,1,0,0:0:0:0:
256,192,163255,1,8,0:0:0:0:
256,192,163405,1,0,0:0:0:0:
256,192,163555,1,8,0:0:0:0:
256,192,163705,1,0,0:0:0:0:
256,192,163780,1,0,0:0:0:0:
256,192,163855,1,8,0:0:0:0:
256,192,164005,1,8,0:0:0:0:
256,192,164080,1,0,0:0:0:0:
256,192,164155,1,0,0:0:0:0:
256,192,164230,1,0,0:0:0:0:
256,192,164305,1,8,0:0:0:0:
256,192,164380,1,0,0:0:0:0:
256,192,164455,1,0,0:0:0:0:
256,192,164530,1,0,0:0:0:0:
256,192,164605,1,8,0:0:0:0:
256,192,164680,1,0,0:0:0:0:
256,192,164755,1,0,0:0:0:0:
256,192,164830,1,0,0:0:0:0:
256,192,164905,1,8,0:0:0:0:
256,192,165055,1,0,0:0:0:0:
256,192,165205,1,8,0:0:0:0:
256,192,165280,1,0,0:0:0:0:
256,192,165355,1,8,0:0:0:0:
256,192,165430,1,8,0:0:0:0:
256,192,165505,1,0,0:0:0:0:
256,192,165580,1,0,0:0:0:0:
256,192,165655,1,8,0:0:0:0:
256,192,165730,1,0,0:0:0:0:
256,192,165805,1,8,0:0:0:0:
256,192,165880,1,0,0:0:0:0:
256,192,165955,1,0,0:0:0:0:
256,192,166030,1,0,0:0:0:0:
256,192,166105,1,8,0:0:0:0:
256,192,166180,1,0,0:0:0:0:
256,192,166255,1,0,0:0:0:0:
256,192,166330,1,0,0:0:0:0:
256,192,166405,1,8,0:0:0:0:
256,192,167605,1,0,0:0:0:0:
256,192,168205,1,8,0:0:0:0:
256,192,168655,1,0,0:0:0:0:
256,192,169105,1,8,0:0:0:0:
256,192,169405,1,0,0:0:0:0:
256,192,169705,1,0,0:0:0:0:
256,192,170305,1,8,0:0:0:0:
256,192,170605,1,0,0:0:0:0:
256,192,170755,1,0,0:0:0:0:
256,192,170905,1,0,0:0:0:0:
256,192,171055,1,0,0:0:0:0:
256,224,171205,1,8,0:0:0:0:
256,192,171355,1,8,0:0:0:0:
256,192,171505,1,0,0:0:0:0:
256,192,171655,1,8,0:0:0:0:
256,192,171805,1,0,0:0:0:0:
256,192,171955,1,0,0:0:0:0:
256,192,172105,1,8,0:0:0:0:
288,192,172255,1,8,0:0:0:0:
256,192,172405,1,0,0:0:0:0:
256,192,172555,1,0,0:0:0:0:
256,192,172705,1,8,0:0:0:0:
256,192,172780,1,0,0:0:0:0:
256,192,172855,1,0,0:0:0:0:
256,192,172930,1,0,0:0:0:0:
256,192,173005,1,8,0:0:0:0:
256,192,173080,1,0,0:0:0:0:
256,192,173155,1,0,0:0:0:0:
256,192,173230,1,0,0:0:0:0:
256,224,173305,1,8,0:0:0:0:
256,192,173380,1,8,0:0:0:0:
256,192,173455,1,8,0:0:0:0:
256,224,173530,1,8,0:0:0:0:
256,224,173605,1,0,0:0:0:0:
256,192,173755,1,0,0:0:0:0:
256,192,173905,1,8,0:0:0:0:
256,192,174055,1,0,0:0:0:0:
256,192,174355,1,0,0:0:0:0:
256,192,174655,1,0,0:0:0:0:
256,192,174805,1,8,0:0:0:0:
256,192,174955,1,0,0:0:0:0:
256,192,175105,1,0,0:0:0:0:
256,192,175255,1,0,0:0:0:0:
256,192,175405,1,8,0:0:0:0:
256,192,175555,1,0,0:0:0:0:
256,192,175705,1,0,0:0:0:0:
256,192,175855,1,0,0:0:0:0:
256,192,176005,1,8,0:0:0:0:
256,192,176155,1,0,0:0:0:0:
256,192,176455,1,0,0:0:0:0:
256,192,176755,1,0,0:0:0:0:
256,192,176905,1,8,0:0:0:0:
256,192,177205,1,8,0:0:0:0:
256,192,177355,1,0,0:0:0:0:
256,192,177505,1,0,0:0:0:0:
256,192,177655,1,0,0:0:0:0:
256,192,177805,1,8,0:0:0:0:
256,192,177955,1,0,0:0:0:0:
256,192,178105,1,0,0:0:0:0:
256,192,178405,1,8,0:0:0:0:
256,192,178480,1,8,0:0:0:0:
256,192,178555,1,8,0:0:0:0:
256,192,178630,1,8,0:0:0:0:
256,192,178705,1,0,0:0:0:0:
256,192,178855,1,0,0:0:0:0:
256,192,179155,1,8,0:0:0:0:
256,192,179455,1,0,0:0:0:0:
256,192,179755,1,0,0:0:0:0:
256,192,179905,1,8,0:0:0:0:
256,192,179980,1,8,0:0:0:0:
256,192,180055,1,8,0:0:0:0:
256,192,180130,1,0,0:0:0:0:
256,192,180205,1,8,0:0:0:0:
256,192,180355,1,8,0:0:0:0:
256,192,180655,1,0,0:0:0:0:
256,192,180805,1,8,0:0:0:0:
256,192,180880,1,8,0:0:0:0:
256,192,180955,1,0,0:0:0:0:
256,192,181030,1,8,0:0:0:0:
256,192,181105,1,0,0:0:0:0:
256,192,181255,1,0,0:0:0:0:
256,192,181555,1,8,0:0:0:0:
256,192,181855,1,0,0:0:0:0:
256,192,182155,1,0,0:0:0:0:
256,192,182305,1,8,0:0:0:0:
256,192,182380,1,8,0:0:0:0:
288,192,182455,1,8,0:0:0:0:
288,192,182530,1,0,0:0:0:0:
288,192,182605,1,8,0:0:0:0:
256,192,182755,1,8,0:0:0:0:
256,192,183055,1,8,0:0:0:0:
256,192,183205,1,8,0:0:0:0:
256,192,183305,1,0,0:0:0:0:
256,192,183405,1,0,0:0:0:0:
256,192,183505,1,8,0:0:0:0:
256,192,183605,1,0,0:0:0:0:
256,192,183705,1,0,0:0:0:0:
256,192,183805,1,8,0:0:0:0:
256,192,183905,1,0,0:0:0:0:
256,192,184005,1,8,0:0:0:0:
256,192,184105,1,8,0:0:0:0:
256,192,184205,1,0,0:0:0:0:
256,192,184305,1,0,0:0:0:0:
256,192,184405,1,8,0:0:0:0:
256,192,184505,1,0,0:0:0:0:
256,192,184605,1,0,0:0:0:0:
256,192,184705,1,8,0:0:0:0:
256,192,184805,1,0,0:0:0:0:
256,192,184905,1,0,0:0:0:0:
256,192,185005,1,8,0:0:0:0:
256,192,185105,1,0,0:0:0:0:
256,192,185205,1,0,0:0:0:0:
256,192,185305,1,8,0:0:0:0:
256,192,185405,1,0,0:0:0:0:
256,192,185505,1,0,0:0:0:0:
256,192,185605,1,8,0:0:0:0:
256,192,185705,1,8,0:0:0:0:
256,192,185805,1,8,0:0:0:0:
256,192,185905,1,8,0:0:0:0:
256,192,186005,1,0,0:0:0:0:
256,192,186105,1,0,0:0:0:0:
256,192,186205,1,8,0:0:0:0:
256,192,186305,1,0,0:0:0:0:
256,192,186405,1,0,0:0:0:0:
256,192,186505,1,8,0:0:0:0:
256,192,186605,1,0,0:0:0:0:
256,192,186705,1,0,0:0:0:0:
256,192,186805,1,8,0:0:0:0:
256,192,186905,1,8,0:0:0:0:
256,192,187005,1,8,0:0:0:0:
256,192,187105,1,8,0:0:0:0:
256,192,187205,1,0,0:0:0:0:
256,192,187305,1,0,0:0:0:0:
256,192,187405,1,8,0:0:0:0:
256,192,187505,1,0,0:0:0:0:
256,192,187605,1,0,0:0:0:0:
256,192,187705,1,8,0:0:0:0:
256,192,187805,1,0,0:0:0:0:
256,192,187905,1,0,0:0:0:0:
256,192,188005,1,8,0:0:0:0:
256,192,188080,1,8,0:0:0:0:
288,192,188155,1,8,0:0:0:0:
288,192,188230,1,0,0:0:0:0:
288,192,188305,1,8,0:0:0:0:
256,192,188455,1,0,0:0:0:0:
256,192,188755,1,0,0:0:0:0:
256,192,189055,1,0,0:0:0:0:
256,192,189355,1,0,0:0:0:0:
256,192,189505,1,8,0:0:0:0:
256,192,189580,1,8,0:0:0:0:
288,192,189655,1,0,0:0:0:0:
288,192,189730,1,8,0:0:0:0:
288,192,189805,1,0,0:0:0:0:
256,192,189955,1,0,0:0:0:0:
256,192,190255,1,0,0:0:0:0:
256,192,190405,1,8,0:0:0:0:
256,192,190480,1,8,0:0:0:0:
288,192,190555,1,0,0:0:0:0:
288,192,190630,1,0,0:0:0:0:
288,192,190705,1,8,0:0:0:0:
256,192,190855,1,0,0:0:0:0:
256,192,191155,1,0,0:0:0:0:
256,192,191455,1,0,0:0:0:0:
256,192,191755,1,0,0:0:0:0:
256,192,191905,1,8,0:0:0:0:
256,192,191980,1,0,0:0:0:0:
288,192,192055,1,0,0:0:0:0:
288,192,192130,1,0,0:0:0:0:
288,192,192205,1,8,0:0:0:0:
256,192,192355,1,0,0:0:0:0:
256,192,192655,1,0,0:0:0:0:
256,192,192805,1,8,0:0:0:0:
256,192,192905,1,0,0:0:0:0:
256,192,193005,1,0,0:0:0:0:
256,192,193105,1,8,0:0:0:0:
256,192,193205,1,0,0:0:0:0:
256,192,193305,1,0,0:0:0:0:
256,192,193405,1,8,0:0:0:0:
256,192,193505,1,0,0:0:0:0:
256,192,193605,1,8,0:0:0:0:
256,192,193705,1,8,0:0:0:0:
256,192,193805,1,0,0:0:0:0:
256,192,193905,1,0,0:0:0:0:
256,192,194005,1,8,0:0:0:0:
256,192,194105,1,0,0:0:0:0:
256,192,194205,1,0,0:0:0:0:
256,192,194305,1,8,0:0:0:0:
256,192,194405,1,0,0:0:0:0:
256,192,194505,1,0,0:0:0:0:
256,192,194605,1,8,0:0:0:0:
256,192,194705,1,0,0:0:0:0:
256,192,194805,1,8,0:0:0:0:
256,192,194905,1,8,0:0:0:0:
256,192,195005,1,0,0:0:0:0:
256,192,195105,1,8,0:0:0:0:
256,192,195205,1,0,0:0:0:0:
256,192,195305,1,0,0:0:0:0:
256,192,195405,1,8,0:0:0:0:
256,192,195505,1,0,0:0:0:0:
256,192,195605,1,8,0:0:0:0:
256,192,195705,1,0,0:0:0:0:
256,192,195805,1,0,0:0:0:0:
256,192,195905,1,8,0:0:0:0:
256,192,196005,1,0,0:0:0:0:
256,192,196105,1,0,0:0:0:0:
256,192,196205,1,8,0:0:0:0:
256,192,196305,1,8,0:0:0:0:
256,192,196405,1,0,0:0:0:0:
256,192,196505,1,8,0:0:0:0:
256,192,196605,1,8,0:0:0:0:
256,192,196705,1,0,0:0:0:0:
256,192,196805,1,0,0:0:0:0:
256,192,196905,1,8,0:0:0:0:
256,192,197005,1,0,0:0:0:0:
256,192,197105,1,0,0:0:0:0:
256,192,197205,1,8,0:0:0:0:
256,192,197305,1,0,0:0:0:0:
256,192,197405,1,0,0:0:0:0:
256,192,197505,1,8,0:0:0:0:
256,192,197605,1,0,0:0:0:0:
256,192,197705,1,0,0:0:0:0:
256,192,197805,1,8,0:0:0:0:
256,192,197905,1,0,0:0:0:0:
256,192,198005,1,8,0:0:0:0:
256,192,198105,1,8,0:0:0:0:
256,192,198205,1,0,0:0:0:0:
256,192,198305,1,8,0:0:0:0:
256,192,198405,1,8,0:0:0:0:
256,192,198505,1,0,0:0:0:0:
256,192,198605,1,0,0:0:0:0:
256,192,198705,1,8,0:0:0:0:
256,192,198805,1,0,0:0:0:0:
256,192,198905,1,0,0:0:0:0:
256,192,199005,1,8,0:0:0:0:
256,192,199105,1,8,0:0:0:0:
256,192,199205,1,0,0:0:0:0:
256,192,199305,1,8,0:0:0:0:
256,192,199405,1,8,0:0:0:0:
256,192,199505,1,0,0:0:0:0:
256,192,199605,1,0,0:0:0:0:
256,192,199705,1,8,0:0:0:0:
256,192,199805,1,0,0:0:0:0:
256,192,199905,1,0,0:0:0:0:
256,192,200005,1,8,0:0:0:0:
256,192,200105,1,0,0:0:0:0:
256,192,200205,1,0,0:0:0:0:
256,192,200305,1,8,0:0:0:0:
256,192,200405,1,0,0:0:0:0:
256,192,200505,1,0,0:0:0:0:
256,192,200605,1,8,0:0:0:0:
256,192,200705,1,8,0:0:0:0:
256,192,200805,1,8,0:0:0:0:
256,192,200905,1,8,0:0:0:0:
256,192,201005,1,0,0:0:0:0:
256,192,201105,1,0,0:0:0:0:
256,192,201205,1,8,0:0:0:0:
256,192,201305,1,0,0:0:0:0:
256,192,201405,1,8,0:0:0:0:
256,192,201505,1,0,0:0:0:0:
256,192,201605,1,8,0:0:0:0:
256,192,201705,1,8,0:0:0:0:
256,192,201805,1,0,0:0:0:0:
256,192,201905,1,8,0:0:0:0:
256,192,202005,1,8,0:0:0:0:
256,192,202105,1,0,0:0:0:0:
256,192,202205,1,8,0:0:0:0:
256,192,202305,1,8,0:0:0:0:
256,192,202405,1,0,0:0:0:0:
256,192,207205,1,4,0:0:0:0:
256,192,207355,1,4,0:0:0:0:
256,192,207805,2,4,L|352:192,11,70
256,192,209605,1,0,0:0:0:0:
256,192,209755,1,8,0:0:0:0:
256,192,209905,1,0,0:0:0:0:
256,192,209980,1,0,0:0:0:0:
256,192,210055,1,8,0:0:0:0:
256,192,210205,1,0,0:0:0:0:
256,192,210280,1,0,0:0:0:0:
256,192,210355,1,8,0:0:0:0:
256,192,210505,1,0,0:0:0:0:
256,192,210655,1,8,0:0:0:0:
256,192,210805,1,8,0:0:0:0:
256,192,210880,1,8,0:0:0:0:
256,192,210955,1,8,0:0:0:0:
256,192,211030,1,8,0:0:0:0:
256,192,211105,1,0,0:0:0:0:
256,192,211180,1,8,0:0:0:0:
256,192,211255,1,0,0:0:0:0:
256,192,211405,1,0,0:0:0:0:
256,192,211555,1,0,0:0:0:0:
256,192,211705,1,8,0:0:0:0:
256,192,211855,1,8,0:0:0:0:
256,192,211930,1,8,0:0:0:0:
256,192,212005,1,0,0:0:0:0:
256,192,212155,1,8,0:0:0:0:
256,192,212305,1,0,0:0:0:0:
256,192,212380,1,0,0:0:0:0:
256,192,212455,1,8,0:0:0:0:
256,192,212605,1,0,0:0:0:0:
256,192,212680,1,0,0:0:0:0:
256,192,212755,1,8,0:0:0:0:
256,192,212905,1,0,0:0:0:0:
256,192,213055,1,8,0:0:0:0:
256,192,213205,1,8,0:0:0:0:
256,192,213280,1,8,0:0:0:0:
256,192,213355,1,8,0:0:0:0:
256,192,213430,1,8,0:0:0:0:
256,192,213505,1,0,0:0:0:0:
256,192,213580,1,0,0:0:0:0:
256,192,213655,1,8,0:0:0:0:
256,192,213805,1,0,0:0:0:0:
256,192,213955,1,0,0:0:0:0:
256,192,214105,1,8,0:0:0:0:
256,192,214255,1,8,0:0:0:0:
256,192,214330,1,8,0:0:0:0:
256,192,214405,1,0,0:0:0:0:
256,192,214555,1,8,0:0:0:0:
256,192,214705,1,0,0:0:0:0:
256,192,214780,1,0,0:0:0:0:
256,192,214855,1,8,0:0:0:0:
256,192,215005,1,0,0:0:0:0:
256,192,215080,1,0,0:0:0:0:
256,192,215155,1,8,0:0:0:0:
256,192,215305,1,8,0:0:0:0:
256,192,215380,1,0,0:0:0:0:
256,192,215455,1,0,0:0:0:0:
256,192,215530,1,0,0:0:0:0:
256,192,215605,1,8,0:0:0:0:
256,192,215755,1,8,0:0:0:0:
256,192,215905,1,8,0:0:0:0:
256,192,215980,1,0,0:0:0:0:
256,192,216055,1,0,0:0:0:0:
256,192,216130,1,0,0:0:0:0:
256,192,216205,1,8,0:0:0:0:
256,192,216355,1,8,0:0:0:0:
256,192,216505,1,8,0:0:0:0:
256,192,216580,1,8,0:0:0:0:
256,192,216655,1,0,0:0:0:0:
256,192,216730,1,0,0:0:0:0:
256,192,216805,1,8,0:0:0:0:
256,192,216955,1,8,0:0:0:0:
256,192,217105,1,0,0:0:0:0:
256,192,217255,1,8,0:0:0:0:
256,192,217330,1,0,0:0:0:0:
256,192,217405,1,0,0:0:0:0:
256,192,217480,1,8,0:0:0:0:
256,192,217555,1,8,0:0:0:0:
256,192,217705,1,0,0:0:0:0:
256,192,217780,1,0,0:0:0:0:
256,192,217855,1,8,0:0:0:0:
256,192,218005,1,8,0:0:0:0:
256,192,218080,1,8,0:0:0:0:
256,192,218155,1,8,0:0:0:0:
256,192,218230,1,8,0:0:0:0:
256,192,218305,1,0,0:0:0:0:
256,192,218380,1,0,0:0:0:0:
256,192,218455,1,0,0:0:0:0:
256,192,218530,1,0,0:0:0:0:
256,192,218605,1,8,0:0:0:0:
256,192,218680,1,8,0:0:0:0:
256,192,218755,1,8,0:0:0:0:
256,192,218830,1,8,0:0:0:0:
256,192,218905,1,0,0:0:0:0:
256,192,218980,1,0,0:0:0:0:
256,192,219055,1,0,0:0:0:0:
256,192,219205,1,0,0:0:0:0:
256,192,219242,1,0,0:0:0:0:
256,192,219355,1,0,0:0:0:0:
256,192,219392,1,0,0:0:0:0:
256,192,219505,1,8,0:0:0:0:
256,192,219542,1,8,0:0:0:0:
256,192,219655,1,0,0:0:0:0:
256,192,219692,1,0,0:0:0:0:
256,192,219805,1,0,0:0:0:0:
256,192,219842,1,0,0:0:0:0:
256,192,219955,1,0,0:0:0:0:
256,192,219992,1,0,0:0:0:0:
256,192,220105,1,8,0:0:0:0:
256,192,220142,1,8,0:0:0:0:
256,192,220255,1,8,0:0:0:0:
256,192,220292,1,8,0:0:0:0:
256,192,220405,1,0,0:0:0:0:
256,192,220442,1,0,0:0:0:0:
256,192,220555,1,0,0:0:0:0:
256,192,220592,1,0,0:0:0:0:
256,192,220705,1,8,0:0:0:0:
256,192,220742,1,8,0:0:0:0:
256,192,220855,1,8,0:0:0:0:
256,192,220892,1,8,0:0:0:0:
256,192,221005,1,0,0:0:0:0:
256,192,221042,1,0,0:0:0:0:
256,192,221155,1,0,0:0:0:0:
256,192,221192,1,0,0:0:0:0:
256,192,221305,1,8,0:0:0:0:
256,192,221342,1,8,0:0:0:0:
256,192,221605,1,8,0:0:0:0:
256,192,221680,1,0,0:0:0:0:
256,192,221755,1,0,0:0:0:0:
256,192,221830,1,0,0:0:0:0:
256,192,221905,1,8,0:0:0:0:
256,192,221980,1,0,0:0:0:0:
256,192,222055,1,0,0:0:0:0:
256,192,222130,1,0,0:0:0:0:
256,192,222205,1,8,0:0:0:0:
256,192,222280,1,0,0:0:0:0:
256,192,222355,1,0,0:0:0:0:
256,192,222430,1,0,0:0:0:0:
256,192,222505,1,8,0:0:0:0:
256,192,222580,1,8,0:0:0:0:
256,192,222655,1,0,0:0:0:0:
256,192,222730,1,0,0:0:0:0:
256,192,222805,1,8,0:0:0:0:
256,192,222880,1,0,0:0:0:0:
256,192,222955,1,8,0:0:0:0:
256,192,223030,1,8,0:0:0:0:
256,192,223105,1,0,0:0:0:0:
256,192,223180,1,0,0:0:0:0:
256,192,223255,1,0,0:0:0:0:
256,192,223330,1,0,0:0:0:0:
256,192,223405,1,8,0:0:0:0:
256,192,223480,1,8,0:0:0:0:
256,192,223555,1,0,0:0:0:0:
256,192,223630,1,0,0:0:0:0:
256,192,223705,1,8,0:0:0:0:
256,192,224005,1,8,0:0:0:0:
256,192,224080,1,0,0:0:0:0:
256,192,224155,1,0,0:0:0:0:
256,192,224230,1,0,0:0:0:0:
256,192,224305,1,8,0:0:0:0:
256,192,224380,1,0,0:0:0:0:
256,192,224455,1,8,0:0:0:0:
256,192,224530,1,0,0:0:0:0:
256,192,224605,1,8,0:0:0:0:
256,192,224680,1,8,0:0:0:0:
256,192,224755,1,0,0:0:0:0:
256,192,224830,1,0,0:0:0:0:
256,192,224905,1,8,0:0:0:0:
256,192,224980,1,0,0:0:0:0:
256,192,225055,1,0,0:0:0:0:
256,192,225130,1,0,0:0:0:0:
256,192,225205,1,8,0:0:0:0:
256,192,225280,1,0,0:0:0:0:
256,192,225355,1,0,0:0:0:0:
256,192,225430,1,0,0:0:0:0:
256,192,225505,1,8,0:0:0:0:
256,192,225580,1,0,0:0:0:0:
256,192,225655,1,8,0:0:0:0:
256,192,225730,1,0,0:0:0:0:
256,192,225805,1,8,0:0:0:0:
256,192,225880,1,8,0:0:0:0:
256,192,225955,1,0,0:0:0:0:
256,192,226030,1,0,0:0:0:0:
256,192,226105,1,8,0:0:0:0:
256,192,226180,1,8,0:0:0:0:
256,192,226255,1,0,0:0:0:0:
256,192,226330,1,0,0:0:0:0:
256,192,226405,1,8,0:0:0:0:
256,192,226480,1,8,0:0:0:0:
256,192,226555,1,8,0:0:0:0:
256,192,226630,1,8,0:0:0:0:
256,192,226705,1,0,0:0:0:0:
256,192,226780,1,0,0:0:0:0:
256,192,226855,1,0,0:0:0:0:
256,192,226930,1,0,0:0:0:0:
256,192,227005,1,8,0:0:0:0:
256,192,227080,1,8,0:0:0:0:
256,192,227155,1,8,0:0:0:0:
256,192,227230,1,8,0:0:0:0:
256,192,227305,1,0,0:0:0:0:
256,192,227380,1,0,0:0:0:0:
256,192,227455,1,0,0:0:0:0:
256,192,227530,1,0,0:0:0:0:
256,192,227605,1,8,0:0:0:0:
256,192,227680,1,0,0:0:0:0:
256,192,227755,1,8,0:0:0:0:
256,192,227830,1,8,0:0:0:0:
256,192,227905,1,0,0:0:0:0:
256,192,227980,1,0,0:0:0:0:
256,192,228055,1,0,0:0:0:0:
256,192,228130,1,0,0:0:0:0:
256,192,228205,1,8,0:0:0:0:
256,192,228280,1,0,0:0:0:0:
256,192,228355,1,8,0:0:0:0:
256,192,228430,1,8,0:0:0:0:
256,192,228505,1,0,0:0:0:0:
256,192,228580,1,0,0:0:0:0:
256,192,228655,1,0,0:0:0:0:
256,192,228730,1,0,0:0:0:0:
256,192,228805,1,8,0:0:0:0:
256,192,228955,1,8,0:0:0:0:
256,192,229255,1,8,0:0:0:0:
256,192,229405,1,0,0:0:0:0:
256,192,229480,1,0,0:0:0:0:
256,192,229555,1,8,0:0:0:0:
256,192,229705,1,0,0:0:0:0:
288,192,229855,1,0,0:0:0:0:
256,192,230005,1,8,0:0:0:0:
256,192,230155,1,8,0:0:0:0:
256,192,230455,1,8,0:0:0:0:
256,192,230605,1,0,0:0:0:0:
256,192,230680,1,0,0:0:0:0:
256,192,230755,1,8,0:0:0:0:
256,192,230905,1,0,0:0:0:0:
256,192,231205,1,0,0:0:0:0:
256,192,231355,1,0,0:0:0:0:
256,192,231505,1,8,0:0:0:0:
256,192,231655,1,8,0:0:0:0:
256,192,231730,1,8,0:0:0:0:
256,192,231805,1,0,0:0:0:0:
256,192,231880,1,0,0:0:0:0:
256,192,231955,1,8,0:0:0:0:
256,192,232105,1,8,0:0:0:0:
256,192,232255,1,8,0:0:0:0:
256,192,232405,1,0,0:0:0:0:
256,192,232705,1,0,0:0:0:0:
256,192,232855,1,8,0:0:0:0:
256,192,232892,1,8,0:0:0:0:
256,192,233005,1,8,0:0:0:0:
256,192,233042,1,8,0:0:0:0:
256,192,233155,1,8,0:0:0:0:
256,192,233192,1,8,0:0:0:0:
256,192,233305,1,0,0:0:0:0:
256,192,233342,1,0,0:0:0:0:
256,192,233455,1,0,0:0:0:0:
256,192,233492,1,0,0:0:0:0:
256,192,233605,1,8,0:0:0:0:
256,192,233680,1,8,0:0:0:0:
256,192,233755,1,8,0:0:0:0:
256,192,233830,1,8,0:0:0:0:
256,192,233905,1,0,0:0:0:0:
256,192,233980,1,0,0:0:0:0:
256,192,234055,1,8,0:0:0:0:
256,192,234130,1,0,0:0:0:0:
256,192,234205,1,8,0:0:0:0:
256,192,234280,1,8,0:0:0:0:
256,192,234355,1,0,0:0:0:0:
256,192,234430,1,0,0:0:0:0:
256,192,234505,1,8,0:0:0:0:
256,192,234805,1,8,0:0:0:0:
256,192,234880,1,8,0:0:0:0:
256,192,234955,1,8,0:0:0:0:
256,192,235030,1,8,0:0:0:0:
256,192,235105,1,0,0:0:0:0:
256,192,235180,1,0,0:0:0:0:
256,192,235255,1,8,0:0:0:0:
256,192,235330,1,0,0:0:0:0:
256,192,235405,1,8,0:0:0:0:
256,192,235480,1,0,0:0:0:0:
256,192,235555,1,8,0:0:0:0:
256,192,235630,1,8,0:0:0:0:
256,192,235705,1,0,0:0:0:0:
256,192,236005,1,8,0:0:0:0:
256,192,236080,1,0,0:0:0:0:
256,192,236155,1,0,0:0:0:0:
256,192,236230,1,0,0:0:0:0:
256,192,236305,1,8,0:0:0:0:
256,192,236380,1,0,0:0:0:0:
256,192,236455,1,0,0:0:0:0:
256,192,236530,1,0,0:0:0:0:
256,192,236605,1,8,0:0:0:0:
256,192,236680,1,0,0:0:0:0:
256,192,236755,1,8,0:0:0:0:
256,192,236830,1,0,0:0:0:0:
256,192,236905,1,8,0:0:0:0:
256,192,236980,1,8,0:0:0:0:
256,192,237055,1,0,0:0:0:0:
256,192,237130,1,0,0:0:0:0:
256,192,237205,1,8,0:0:0:0:
256,192,237280,1,8,0:0:0:0:
256,192,237355,1,8,0:0:0:0:
256,192,237430,1,8,0:0:0:0:
256,192,237505,1,0,0:0:0:0:
256,192,237580,1,0,0:0:0:0:
256,192,237655,1,0,0:0:0:0:
256,192,237730,1,0,0:0:0:0:
256,192,237805,1,8,0:0:0:0:
256,192,237880,1,8,0:0:0:0:
256,192,237955,1,8,0:0:0:0:
256,192,238030,1,8,0:0:0:0:
256,192,238105,1,0,0:0:0:0:
256,192,238180,1,0,0:0:0:0:
256,192,238255,1,0,0:0:0:0:
256,192,238405,1,8,0:0:0:0:
256,192,238480,1,0,0:0:0:0:
256,192,238555,1,8,0:0:0:0:
256,192,238630,1,0,0:0:0:0:
256,192,238705,1,8,0:0:0:0:
256,192,238780,1,8,0:0:0:0:
256,192,238855,1,0,0:0:0:0:
256,192,238930,1,0,0:0:0:0:
256,192,239005,1,8,0:0:0:0:
256,192,239080,1,0,0:0:0:0:
256,192,239155,1,8,0:0:0:0:
256,192,239230,1,0,0:0:0:0:
256,192,239305,1,8,0:0:0:0:
256,192,239380,1,8,0:0:0:0:
256,192,239455,1,0,0:0:0:0:
256,192,239530,1,0,0:0:0:0:
256,192,239605,1,8,0:0:0:0:
256,192,239680,1,8,0:0:0:0:
256,192,239755,1,0,0:0:0:0:
256,192,239830,1,0,0:0:0:0:
256,192,239905,1,8,0:0:0:0:
256,192,239980,1,0,0:0:0:0:
256,192,240055,1,8,0:0:0:0:
256,192,240130,1,8,0:0:0:0:
256,192,240205,1,0,0:0:0:0:
256,192,240280,1,8,0:0:0:0:
256,192,240355,1,0,0:0:0:0:
256,192,240430,1,0,0:0:0:0:
256,192,240505,1,8,0:0:0:0:
256,192,240580,1,8,0:0:0:0:
256,192,240655,1,0,0:0:0:0:
256,192,240730,1,0,0:0:0:0:
256,192,240805,1,8,0:0:0:0:
256,192,240880,1,0,0:0:0:0:
256,192,240955,1,0,0:0:0:0:
256,192,241030,1,0,0:0:0:0:
256,192,241105,1,8,0:0:0:0:
256,192,241180,1,0,0:0:0:0:
256,192,241255,1,0,0:0:0:0:
256,192,241330,1,0,0:0:0:0:
256,192,241405,1,8,0:0:0:0:
256,192,241480,1,0,0:0:0:0:
256,192,241555,1,8,0:0:0:0:
256,192,241630,1,8,0:0:0:0:
256,192,241705,1,0,0:0:0:0:
256,192,241780,1,0,0:0:0:0:
256,192,241855,1,8,0:0:0:0:
256,192,241930,1,0,0:0:0:0:
256,192,242005,1,8,0:0:0:0:
256,192,242080,1,0,0:0:0:0:
256,192,242155,1,0,0:0:0:0:
256,192,242230,1,0,0:0:0:0:
256,192,242305,1,8,0:0:0:0:
256,192,242380,1,0,0:0:0:0:
256,192,242455,1,8,0:0:0:0:
256,192,242530,1,8,0:0:0:0:
256,192,242605,1,0,0:0:0:0:
256,192,242755,1,0,0:0:0:0:
256,192,242830,1,0,0:0:0:0:
256,192,242905,1,8,0:0:0:0:
256,192,243055,1,0,0:0:0:0:
256,192,243205,1,8,0:0:0:0:
256,192,243280,1,0,0:0:0:0:
256,192,243355,1,0,0:0:0:0:
256,192,243430,1,0,0:0:0:0:
256,192,243505,1,8,0:0:0:0:
256,192,243580,1,0,0:0:0:0:
256,192,243655,1,0,0:0:0:0:
256,192,243730,1,0,0:0:0:0:
256,192,243805,1,8,0:0:0:0:
256,192,243880,1,0,0:0:0:0:
256,192,243955,1,0,0:0:0:0:
256,192,244030,1,0,0:0:0:0:
256,224,244105,1,8,0:0:0:0:
256,192,244180,1,0,0:0:0:0:
256,192,244255,1,8,0:0:0:0:
256,192,244330,1,0,0:0:0:0:
256,192,244405,1,8,0:0:0:0:
256,192,244480,1,8,0:0:0:0:
256,192,244555,1,0,0:0:0:0:
256,192,244630,1,0,0:0:0:0:
256,192,244705,1,8,0:0:0:0:
256,192,244780,1,0,0:0:0:0:
256,192,244855,1,8,0:0:0:0:
256,192,244930,1,8,0:0:0:0:
256,192,245005,1,0,0:0:0:0:
256,192,245080,1,0,0:0:0:0:
256,192,245155,1,0,0:0:0:0:
256,192,245230,1,0,0:0:0:0:
256,192,245305,1,8,0:0:0:0:
256,192,245605,1,0,0:0:0:0:
256,192,245705,1,0,0:0:0:0:
256,192,245805,1,8,0:0:0:0:
256,192,245905,1,8,0:0:0:0:
256,192,246005,1,8,0:0:0:0:
256,192,246105,1,8,0:0:0:0:
256,192,246205,1,0,0:0:0:0:
256,192,246305,1,8,0:0:0:0:
256,192,246405,1,0,0:0:0:0:
256,192,246505,1,8,0:0:0:0:
256,192,246655,1,0,0:0:0:0:
256,192,246805,1,8,0:0:0:0:
256,192,246880,1,0,0:0:0:0:
256,192,246955,1,8,0:0:0:0:
256,192,247030,1,8,0:0:0:0:
256,192,247105,1,0,0:0:0:0:
256,192,247180,1,0,0:0:0:0:
256,192,247255,1,8,0:0:0:0:
256,192,247330,1,8,0:0:0:0:
256,192,247405,1,0,0:0:0:0:
256,192,247480,1,0,0:0:0:0:
256,192,247555,1,8,0:0:0:0:
256,192,247630,1,0,0:0:0:0:
256,192,247705,1,8,0:0:0:0:
256,192,247780,1,8,0:0:0:0:
256,192,247855,1,0,0:0:0:0:
256,192,247930,1,0,0:0:0:0:
256,192,248005,1,8,0:0:0:0:
256,192,248080,1,8,0:0:0:0:
256,192,248155,1,8,0:0:0:0:
256,192,248230,1,8,0:0:0:0:
256,224,248305,1,0,0:0:0:0:
256,192,248380,1,0,0:0:0:0:
256,192,248455,1,0,0:0:0:0:
256,192,248530,1,0,0:0:0:0:
256,192,248605,1,8,0:0:0:0:
256,192,248680,1,8,0:0:0:0:
256,192,248755,1,8,0:0:0:0:
256,192,248830,1,8,0:0:0:0:
256,192,248905,1,0,0:0:0:0:
256,192,248980,1,0,0:0:0:0:
256,192,249055,1,0,0:0:0:0:
256,192,249205,1,4,0:0:0:0:
256,192,249355,1,8,0:0:0:0:
256,192,249505,1,0,0:0:0:0:
256,192,249580,1,0,0:0:0:0:
256,192,249655,1,8,0:0:0:0:
256,192,249805,1,0,0:0:0:0:
256,192,249955,1,8,0:0:0:0:
256,192,250030,1,0,0:0:0:0:
256,192,250105,1,0,0:0:0:0:
256,192,250180,1,0,0:0:0:0:
256,192,250255,1,8,0:0:0:0:
256,192,250330,1,8,0:0:0:0:
256,192,250405,1,0,0:0:0:0:
256,192,250555,1,8,0:0:0:0:
256,192,250705,1,0,0:0:0:0:
256,192,250780,1,0,0:0:0:0:
256,192,250855,1,8,0:0:0:0:
256,192,251005,1,0,0:0:0:0:
256,192,251080,1,0,0:0:0:0:
256,192,251155,1,8,0:0:0:0:
256,192,251305,1,0,0:0:0:0:
256,192,251455,1,8,0:0:0:0:
256,192,251530,1,8,0:0:0:0:
256,192,251605,1,0,0:0:0:0:
256,192,251755,1,8,0:0:0:0:
256,192,251905,1,0,0:0:0:0:
256,192,251980,1,0,0:0:0:0:
256,192,252055,1,8,0:0:0:0:
256,192,252130,1,0,0:0:0:0:
256,192,252205,1,0,0:0:0:0:
256,192,252355,1,8,0:0:0:0:
256,192,252505,1,0,0:0:0:0:
256,192,252580,1,0,0:0:0:0:
256,192,252655,1,8,0:0:0:0:
0,192,252805,2,0,L|448:192,1,420
256,192,254005,1,8,0:0:0:0:
256,192,254080,1,0,0:0:0:0:
256,192,254155,1,0,0:0:0:0:
256,192,254230,1,0,0:0:0:0:
256,192,254305,1,8,0:0:0:0:
256,192,254380,1,0,0:0:0:0:
256,192,254455,1,8,0:0:0:0:
256,192,254530,1,0,0:0:0:0:
256,192,254605,1,8,0:0:0:0:
256,192,254680,1,8,0:0:0:0:
256,192,254755,1,0,0:0:0:0:
256,192,254830,1,0,0:0:0:0:
256,192,254905,1,8,0:0:0:0:
256,192,254980,1,0,0:0:0:0:
256,192,255055,1,0,0:0:0:0:
256,192,255130,1,0,0:0:0:0:
256,192,255205,1,8,0:0:0:0:
256,192,255280,1,8,0:0:0:0:
256,192,255355,1,0,0:0:0:0:
256,192,255430,1,0,0:0:0:0:
256,192,255505,1,8,0:0:0:0:
256,192,255580,1,0,0:0:0:0:
256,192,255655,1,0,0:0:0:0:
256,192,255730,1,0,0:0:0:0:
256,192,255805,1,8,0:0:0:0:
256,192,255880,1,8,0:0:0:0:
256,192,255955,1,0,0:0:0:0:
256,192,256030,1,0,0:0:0:0:
256,192,256105,1,8,0:0:0:0:
256,192,256180,1,0,0:0:0:0:
256,192,256255,1,0,0:0:0:0:
256,192,256330,1,0,0:0:0:0:
256,192,256405,1,8,0:0:0:0:
256,192,256555,1,0,0:0:0:0:
256,192,256630,1,0,0:0:0:0:
256,192,256705,1,8,0:0:0:0:
256,192,256855,1,0,0:0:0:0:
256,192,257005,1,8,0:0:0:0:
256,192,257155,1,8,0:0:0:0:
256,192,257230,1,0,0:0:0:0:
256,192,257305,1,8,0:0:0:0:
256,192,257455,1,0,0:0:0:0:
256,192,257605,1,8,0:0:0:0:
256,192,257680,1,8,0:0:0:0:
256,192,257755,1,8,0:0:0:0:
256,192,257830,1,8,0:0:0:0:
256,192,257905,1,0,0:0:0:0:
256,192,257980,1,0,0:0:0:0:
256,192,258055,1,0,0:0:0:0:
256,192,258130,1,0,0:0:0:0:
256,192,258205,1,8,0:0:0:0:
256,192,258280,1,8,0:0:0:0:
256,192,258355,1,8,0:0:0:0:
256,192,258430,1,8,0:0:0:0:
256,192,258505,1,0,0:0:0:0:
256,192,258580,1,0,0:0:0:0:
256,192,258655,1,0,0:0:0:0:
256,192,258805,1,8,0:0:0:0:
256,192,258880,1,0,0:0:0:0:
256,192,258955,1,8,0:0:0:0:
256,192,259030,1,0,0:0:0:0:
256,192,259105,1,8,0:0:0:0:
256,192,259180,1,8,0:0:0:0:
256,192,259255,1,8,0:0:0:0:
256,192,259330,1,0,0:0:0:0:
256,192,259405,1,8,0:0:0:0:
256,192,259480,1,8,0:0:0:0:
256,192,259555,1,8,0:0:0:0:
256,192,259630,1,0,0:0:0:0:
256,192,259705,1,8,0:0:0:0:
256,192,259780,1,0,0:0:0:0:
256,192,259855,1,0,0:0:0:0:
256,192,259930,1,0,0:0:0:0:
256,192,260005,1,8,0:0:0:0:
256,192,260080,1,0,0:0:0:0:
256,192,260155,1,8,0:0:0:0:
256,192,260230,1,0,0:0:0:0:
256,192,260305,1,8,0:0:0:0:
256,192,260380,1,8,0:0:0:0:
256,192,260455,1,8,0:0:0:0:
256,192,260530,1,0,0:0:0:0:
256,192,260605,1,8,0:0:0:0:
256,192,260680,1,8,0:0:0:0:
256,192,260755,1,8,0:0:0:0:
256,192,260830,1,0,0:0:0:0:
256,192,260905,1,8,0:0:0:0:
256,192,260980,1,8,0:0:0:0:
256,192,261055,1,0,0:0:0:0:
256,192,261205,1,8,0:0:0:0:
256,192,261355,1,0,0:0:0:0:
256,192,261430,1,0,0:0:0:0:
256,192,261505,1,8,0:0:0:0:
256,192,261655,1,0,0:0:0:0:
256,192,261805,1,8,0:0:0:0:
256,192,261880,1,8,0:0:0:0:
256,192,261955,1,0,0:0:0:0:
256,192,262030,1,0,0:0:0:0:
256,192,262105,1,8,0:0:0:0:
256,192,262255,1,0,0:0:0:0:
256,192,262405,1,8,0:0:0:0:
256,192,262555,1,0,0:0:0:0:
256,192,262630,1,0,0:0:0:0:
256,192,262705,1,8,0:0:0:0:
256,192,262855,1,0,0:0:0:0:
256,192,263005,1,8,0:0:0:0:
256,192,263080,1,8,0:0:0:0:
256,192,263155,1,0,0:0:0:0:
256,192,263230,1,0,0:0:0:0:
256,192,263305,1,8,0:0:0:0:
256,192,263455,1,0,0:0:0:0:
256,192,263605,1,8,0:0:0:0:
256,192,263755,1,0,0:0:0:0:
256,192,263830,1,0,0:0:0:0:
256,192,263905,1,8,0:0:0:0:
256,192,264055,1,0,0:0:0:0:
256,192,264205,1,8,0:0:0:0:
256,192,264280,1,0,0:0:0:0:
256,192,264430,1,0,0:0:0:0:
256,192,264505,1,8,0:0:0:0:
256,192,264655,1,0,0:0:0:0:
256,192,264805,1,8,0:0:0:0:
256,192,264880,1,0,0:0:0:0:
256,192,264955,1,0,0:0:0:0:
256,192,265030,1,8,0:0:0:0:
256,192,265105,1,8,0:0:0:0:
256,192,265255,1,0,0:0:0:0:
32,192,265405,2,0,L|224:288,1,210
256,192,266005,1,8,0:0:0:0:
256,192,266080,1,8,0:0:0:0:
256,192,266155,1,0,0:0:0:0:
256,192,266230,1,0,0:0:0:0:
256,192,266305,1,8,0:0:0:0:
256,192,266380,1,8,0:0:0:0:
256,192,266455,1,0,0:0:0:0:
256,192,266530,1,0,0:0:0:0:
256,192,266605,1,8,0:0:0:0:
256,192,266680,1,0,0:0:0:0:
256,192,266755,1,0,0:0:0:0:
256,192,266830,1,0,0:0:0:0:
256,192,266905,1,8,0:0:0:0:
288,192,266980,1,0,0:0:0:0:
256,192,267055,1,0,0:0:0:0:
288,192,267130,1,0,0:0:0:0:
256,192,267205,1,8,0:0:0:0:
288,192,267280,1,0,0:0:0:0:
256,192,267355,1,8,0:0:0:0:
256,192,267430,1,8,0:0:0:0:
256,192,267505,1,0,0:0:0:0:
288,192,267580,1,0,0:0:0:0:
256,192,267655,1,8,0:0:0:0:
288,192,267730,1,8,0:0:0:0:
256,192,267805,1,8,0:0:0:0:
288,192,267880,1,8,0:0:0:0:
256,192,267955,1,0,0:0:0:0:
256,192,268030,1,0,0:0:0:0:
256,192,268105,1,8,0:0:0:0:
288,192,268180,1,8,0:0:0:0:
256,192,268255,1,0,0:0:0:0:
256,192,268405,1,4,0:0:0:0:
256,192,278005,5,0,0:0:0:0:
256,192,278605,1,8,0:0:0:0:
256,192,279505,1,0,0:0:0:0:
256,192,279805,1,8,0:0:0:0:
256,192,280405,1,0,0:0:0:0:
256,192,281005,1,8,0:0:0:0:
256,192,281905,1,0,0:0:0:0:
256,192,282205,1,8,0:0:0:0:
256,192,282805,1,0,0:0:0:0:
256,192,283405,1,8,0:0:0:0:
256,192,284305,1,0,0:0:0:0:
256,192,284605,1,8,0:0:0:0:
256,192,285205,2,0,L|352:192,7,70
256,192,286405,1,4,0:0:0:0:
256,192,287605,1,8,0:0:0:0:
256,192,287680,1,8,0:0:0:0:
256,192,287755,1,0,0:0:0:0:
256,192,287830,1,0,0:0:0:0:
256,192,287905,1,8,0:0:0:0:
256,192,287980,1,0,0:0:0:0:
256,192,288055,1,0,0:0:0:0:
256,192,288130,1,0,0:0:0:0:
256,192,288205,1,8,0:0:0:0:
256,192,288280,1,0,0:0:0:0:
256,192,288355,1,0,0:0:0:0:
256,192,288430,1,0,0:0:0:0:
256,192,288505,1,8,0:0:0:0:
256,192,288580,1,0,0:0:0:0:
256,192,288655,1,8,0:0:0:0:
256,192,288730,1,0,0:0:0:0:
256,192,288805,1,8,0:0:0:0:
256,192,288880,1,8,0:0:0:0:
256,192,288955,1,0,0:0:0:0:
256,192,289030,1,0,0:0:0:0:
256,192,289105,1,8,0:0:0:0:
256,192,289180,1,0,0:0:0:0:
288,192,289255,1,0,0:0:0:0:
288,192,289330,1,0,0:0:0:0:
256,192,289405,1,8,0:0:0:0:
256,192,289480,1,8,0:0:0:0:
256,192,289555,1,0,0:0:0:0:
256,192,289630,1,0,0:0:0:0:
256,192,289705,1,8,0:0:0:0:
256,192,289780,1,8,0:0:0:0:
256,192,289855,1,0,0:0:0:0:
256,192,289930,1,0,0:0:0:0:
256,192,290005,1,0,0:0:0:0:
256,192,290155,1,8,0:0:0:0:
256,192,290305,1,0,0:0:0:0:
256,192,290380,1,0,0:0:0:0:
256,192,290455,1,8,0:0:0:0:
256,192,290605,1,0,0:0:0:0:
288,192,290755,1,8,0:0:0:0:
256,192,290905,1,0,0:0:0:0:
256,192,290980,1,0,0:0:0:0:
256,192,291055,1,8,0:0:0:0:
256,192,291130,1,8,0:0:0:0:
256,192,291205,1,0,0:0:0:0:
256,192,291355,1,8,0:0:0:0:
256,192,291505,1,0,0:0:0:0:
256,192,291580,1,0,0:0:0:0:
256,192,291655,1,8,0:0:0:0:
256,192,291805,1,0,0:0:0:0:
256,192,291880,1,0,0:0:0:0:
288,192,291955,1,8,0:0:0:0:
256,192,292105,1,0,0:0:0:0:
256,192,292180,1,0,0:0:0:0:
256,192,292255,1,8,0:0:0:0:
256,192,292330,1,8,0:0:0:0:
256,192,292405,1,0,0:0:0:0:
256,192,292555,1,8,0:0:0:0:
256,192,292705,1,0,0:0:0:0:
256,192,292780,1,0,0:0:0:0:
256,192,292855,1,8,0:0:0:0:
256,192,292930,1,0,0:0:0:0:
256,192,293005,1,0,0:0:0:0:
288,192,293155,1,8,0:0:0:0:
256,192,293305,1,0,0:0:0:0:
256,192,293380,1,0,0:0:0:0:
256,192,293455,1,8,0:0:0:0:
256,192,293530,1,8,0:0:0:0:
256,192,293605,1,0,0:0:0:0:
256,192,293755,1,8,0:0:0:0:
256,192,293905,1,8,0:0:0:0:
256,192,293980,1,0,0:0:0:0:
256,192,294055,1,8,0:0:0:0:
256,192,294205,1,0,0:0:0:0:
288,192,294355,1,8,0:0:0:0:
256,192,294505,1,0,0:0:0:0:
256,192,294580,1,0,0:0:0:0:
256,192,294655,1,8,0:0:0:0:
256,192,294805,1,8,0:0:0:0:
256,192,294880,1,8,0:0:0:0:
256,192,294955,1,8,0:0:0:0:
256,192,295030,1,8,0:0:0:0:
256,192,295105,1,0,0:0:0:0:
256,192,295180,1,0,0:0:0:0:
256,192,295255,1,0,0:0:0:0:
256,192,295330,1,0,0:0:0:0:
256,192,295405,1,8,0:0:0:0:
256,192,295480,1,0,0:0:0:0:
256,192,295555,1,0,0:0:0:0:
256,192,295630,1,0,0:0:0:0:
256,192,295705,1,8,0:0:0:0:
256,192,295780,1,0,0:0:0:0:
256,192,295855,1,0,0:0:0:0:
256,192,295930,1,0,0:0:0:0:
256,192,296005,1,8,0:0:0:0:
256,192,296080,1,0,0:0:0:0:
256,192,296155,1,0,0:0:0:0:
256,192,296230,1,0,0:0:0:0:
256,192,296305,1,8,0:0:0:0:
256,192,296380,1,0,0:0:0:0:
256,192,296455,1,8,0:0:0:0:
256,192,296530,1,0,0:0:0:0:
256,192,296605,1,8,0:0:0:0:
256,192,296680,1,8,0:0:0:0:
256,192,296755,1,0,0:0:0:0:
256,192,296830,1,0,0:0:0:0:
256,192,296905,1,8,0:0:0:0:
256,192,296980,1,0,0:0:0:0:
256,192,297055,1,8,0:0:0:0:
256,192,297130,1,8,0:0:0:0:
256,192,297205,1,0,0:0:0:0:
256,192,297355,1,8,0:0:0:0:
256,192,297505,1,0,0:0:0:0:
256,192,297580,1,0,0:0:0:0:
256,192,297655,1,8,0:0:0:0:
256,192,297805,1,0,0:0:0:0:
256,192,297955,1,8,0:0:0:0:
256,192,298105,1,0,0:0:0:0:
256,192,298180,1,0,0:0:0:0:
256,192,298255,1,8,0:0:0:0:
256,192,298330,1,8,0:0:0:0:
256,192,298405,1,0,0:0:0:0:
256,192,298555,1,8,0:0:0:0:
256,192,298705,1,0,0:0:0:0:
256,192,298780,1,0,0:0:0:0:
256,192,298855,1,8,0:0:0:0:
256,192,299005,1,0,0:0:0:0:
256,192,299080,1,0,0:0:0:0:
256,192,299155,1,8,0:0:0:0:
256,192,299305,1,0,0:0:0:0:
256,192,299380,1,0,0:0:0:0:
256,192,299455,1,8,0:0:0:0:
256,192,299530,1,0,0:0:0:0:
256,192,299605,1,0,0:0:0:0:
256,192,299755,1,8,0:0:0:0:
256,192,299905,1,0,0:0:0:0:
256,192,299980,1,0,0:0:0:0:
256,192,300055,1,8,0:0:0:0:
256,192,300130,1,0,0:0:0:0:
256,192,300280,1,0,0:0:0:0:
256,192,300355,1,8,0:0:0:0:
256,192,300505,1,0,0:0:0:0:
256,192,300580,1,0,0:0:0:0:
256,192,300655,1,8,0:0:0:0:
256,192,300805,1,0,0:0:0:0:
256,192,300955,1,8,0:0:0:0:
256,192,301030,1,8,0:0:0:0:
256,192,301105,1,0,0:0:0:0:
256,192,301255,1,8,0:0:0:0:
256,192,301330,1,8,0:0:0:0:
256,192,301405,1,0,0:0:0:0:
256,192,301555,1,8,0:0:0:0:
256,192,301705,1,0,0:0:0:0:
256,192,301780,1,0,0:0:0:0:
256,192,301855,1,8,0:0:0:0:
256,192,301930,1,0,0:0:0:0:
256,192,302005,1,0,0:0:0:0:
256,192,302155,1,8,0:0:0:0:
256,192,302305,1,8,0:0:0:0:
256,192,302380,1,0,0:0:0:0:
256,192,302455,1,8,0:0:0:0:
256,192,302605,1,0,0:0:0:0:
256,192,302755,1,8,0:0:0:0:
256,192,302905,1,0,0:0:0:0:
256,192,302980,1,0,0:0:0:0:
256,192,303055,1,8,0:0:0:0:
256,192,303205,1,8,0:0:0:0:
256,192,303280,1,0,0:0:0:0:
256,192,303355,1,0,0:0:0:0:
256,192,303430,1,0,0:0:0:0:
256,192,303505,1,8,0:0:0:0:
256,192,303580,1,0,0:0:0:0:
256,192,303655,1,0,0:0:0:0:
256,192,303730,1,0,0:0:0:0:
256,192,303805,1,8,0:0:0:0:
256,192,303880,1,0,0:0:0:0:
256,192,303955,1,0,0:0:0:0:
256,192,304030,1,0,0:0:0:0:
256,192,304105,1,8,0:0:0:0:
256,192,304255,1,0,0:0:0:0:
256,192,304405,1,8,0:0:0:0:
256,192,304480,1,0,0:0:0:0:
256,192,304555,1,8,0:0:0:0:
256,192,304630,1,8,0:0:0:0:
256,192,304705,1,0,0:0:0:0:
256,192,304780,1,0,0:0:0:0:
256,192,304855,1,8,0:0:0:0:
256,192,304930,1,0,0:0:0:0:
256,192,305005,1,8,0:0:0:0:
256,192,305080,1,8,0:0:0:0:
256,192,305155,1,0,0:0:0:0:
256,192,305230,1,0,0:0:0:0:
256,192,305305,1,8,0:0:0:0:
256,192,305380,1,8,0:0:0:0:
256,192,305455,1,0,0:0:0:0:
256,192,305530,1,0,0:0:0:0:
256,192,305605,1,8,0:0:0:0:
256,192,306805,1,8,0:0:0:0:
256,192,306880,1,0,0:0:0:0:
256,192,306955,1,0,0:0:0:0:
256,192,307030,1,0,0:0:0:0:
256,192,307105,1,8,0:0:0:0:
256,192,307180,1,0,0:0:0:0:
256,192,307255,1,0,0:0:0:0:
256,192,307330,1,0,0:0:0:0:
256,192,307405,1,8,0:0:0:0:
256,192,307480,1,0,0:0:0:0:
256,192,307555,1,0,0:0:0:0:
256,192,307630,1,0,0:0:0:0:
256,192,307705,1,8,0:0:0:0:
256,192,307780,1,8,0:0:0:0:
256,192,307855,1,0,0:0:0:0:
256,192,307930,1,0,0:0:0:0:
256,192,308005,1,8,0:0:0:0:
256,192,308080,1,8,0:0:0:0:
256,192,308155,1,0,0:0:0:0:
256,192,308230,1,0,0:0:0:0:
256,192,308305,1,8,0:0:0:0:
256,192,308380,1,0,0:0:0:0:
256,192,308455,1,8,0:0:0:0:
256,192,308530,1,0,0:0:0:0:
256,192,308605,1,8,0:0:0:0:
256,192,308680,1,8,0:0:0:0:
256,192,308755,1,0,0:0:0:0:
288,192,308830,1,0,0:0:0:0:
256,224,308905,1,8,0:0:0:0:
256,224,308980,1,8,0:0:0:0:
256,224,309055,1,0,0:0:0:0:
256,192,309205,1,12,0:0:0:0:
256,192,309805,1,12,0:0:0:0:
256,192,310405,1,4,0:0:0:0:
256,192,311005,1,12,0:0:0:0:
256,192,311605,1,0,0:0:0:0:
256,192,312805,1,8,0:0:0:0:
256,192,312880,1,0,0:0:0:0:
256,192,312955,1,0,0:0:0:0:
256,192,313030,1,0,0:0:0:0:
256,192,313105,1,8,0:0:0:0:
256,192,313180,1,0,0:0:0:0:
256,192,313255,1,0,0:0:0:0:
256,192,313330,1,0,0:0:0:0:
256,192,313405,1,8,0:0:0:0:
256,192,313480,1,0,0:0:0:0:
256,192,313555,1,0,0:0:0:0:
256,192,313630,1,0,0:0:0:0:
256,192,313705,1,8,0:0:0:0:
256,192,313780,1,8,0:0:0:0:
256,192,313855,1,0,0:0:0:0:
256,192,314005,1,12,0:0:0:0:
256,192,314305,1,12,0:0:0:0:
256,192,315155,1,8,0:0:0:0:
256,192,315221,1,8,0:0:0:0:
256,192,315287,1,0,0:0:0:0:
256,192,315354,1,0,0:0:0:0:
