osu file format v14

[General]
AudioFilename: audio.mp3
AudioLeadIn: 0
PreviewTime: -1
Countdown: 1
SampleSet: Normal
StackLeniency: 0.7
Mode: 0
LetterboxInBreaks: 0
WidescreenStoryboard: 0

[Editor]
Bookmarks: 29445,48645
DistanceSpacing: 1
BeatDivisor: 4
GridSize: 8
TimelineZoom: 1

[Metadata]
Title:Soldiers Of The Wastelands
TitleUnicode:Soldiers Of The Wastelands
Artist:DragonForce
ArtistUnicode:DragonForce
Creator:Evil_Twilight
Version:3370
Source:
Tags:
BeatmapID:1018985
BeatmapSetID:477038

[Difficulty]
HPDrainRate:6
CircleSize:5
OverallDifficulty:7
ApproachRate:8
SliderMultiplier:1.6
SliderTickRate:2

[Events]
//Background and Video events
0,0,"56.jpg",0,0
//Break Periods
//Storyboard Layer 0 (Background)
//Storyboard Layer 1 (Fail)
//Storyboard Layer 2 (Pass)
//Storyboard Layer 3 (Foreground)
//Storyboard Sound Samples

[TimingPoints]
10395,300,4,1,0,40,1,0
262395,461.538461538462,4,1,0,100,1,0
395318,300,4,1,0,100,1,0

[HitObjects]
152,112,10395,6,0,B|186:197|115:259|115:259,1,160
48,304,10845,1,0,0:0:0:0:
88,376,10995,2,0,B|179:412|233:333|233:333,1,160
264,264,11445,1,0,0:0:0:0:
336,304,11595,2,0,L|512:280,2,160
248,256,12345,5,0,0:0:0:0:
144,232,12495,1,0,0:0:0:0:
48,280,12645,1,0,0:0:0:0:
16,184,12795,6,0,B|1:81|79:37|79:37,1,160
152,24,13245,1,0,0:0:0:0:
216,64,13395,2,0,L|384:104,1,160
456,96,13845,1,0,0:0:0:0:
456,224,13995,2,0,B|367:270|302:175|302:175,1,160
240,152,14445,1,0,0:0:0:0:
176,200,14595,2,0,B|138:299|217:348|217:348,1,160
368,312,15195,6,0,B|406:213|327:164|327:164,1,160
360,96,15645,1,0,0:0:0:0:
296,48,15795,2,0,B|203:0|149:97|149:97,1,160
112,152,16245,1,0,0:0:0:0:
32,168,16395,2,0,L|8:8,2,160
0,272,17145,5,0,0:0:0:0:
104,288,17295,1,0,0:0:0:0:
168,368,17445,1,0,0:0:0:0:
240,288,17595,6,0,B|303:215|257:138|257:138,1,160
200,80,18045,1,0,0:0:0:0:
248,16,18195,2,0,B|350:-29|398:61|398:61,1,160
376,128,18645,1,0,0:0:0:0:
440,216,18795,2,0,P|476:206|518:181,2,80
360,200,19245,1,0,0:0:0:0:
296,248,19395,2,0,B|272:354|366:389|366:389,1,160
112,320,19995,5,0,0:0:0:0:
112,320,20295,1,0,0:0:0:0:
144,248,20445,1,0,0:0:0:0:
128,168,20595,2,0,B|97:71|-5:74|-5:74,1,160
64,16,21045,1,0,0:0:0:0:
136,48,21195,2,0,B|226:70|296:8|296:8|296:8,1,160
360,48,21645,1,0,0:0:0:0:
344,128,21795,2,0,L|376:208,1,80
272,224,22095,2,0,L|256:302,1,80
328,376,22395,5,0,0:0:0:0:
328,376,22695,1,0,0:0:0:0:
264,336,22845,1,0,0:0:0:0:
184,328,22995,2,0,B|98:306|34:374|34:374|34:374,1,160
8,296,23445,1,0,0:0:0:0:
80,224,23595,5,0,0:0:0:0:
40,128,23745,1,0,0:0:0:0:
88,32,23895,1,0,0:0:0:0:
192,56,24045,1,0,0:0:0:0:
192,160,24195,2,0,B|341:236|390:57|390:57|390:57,1,240
464,24,24795,6,0,B|395:69|425:182|425:182|425:182,1,160
472,232,25245,1,0,0:0:0:0:
464,312,25395,2,0,B|376:355|307:275|307:275|307:275,1,160
272,224,25845,1,0,0:0:0:0:
312,160,25995,2,0,L|344:0,2,160
248,240,26745,5,0,0:0:0:0:
144,216,26895,1,0,0:0:0:0:
104,120,27045,1,0,0:0:0:0:
152,24,27195,5,0,0:0:0:0:
152,24,27495,1,0,0:0:0:0:
184,96,27645,1,0,0:0:0:0:
168,176,27795,2,0,B|161:267|55:301|55:301|55:301,1,160
152,272,28245,1,0,0:0:0:0:
240,224,28395,5,0,0:0:0:0:
344,216,28545,1,0,0:0:0:0:
376,312,28695,1,0,0:0:0:0:
296,384,28845,1,0,0:0:0:0:
208,320,28995,1,0,0:0:0:0:
288,296,29595,5,0,0:0:0:0:
344,240,29745,2,0,B|439:213|500:297|500:297|500:297,1,160
488,282,30345,1,0,0:0:0:0:
448,208,30495,2,0,L|440:128,1,80
496,40,30795,5,0,0:0:0:0:
416,16,30945,2,0,B|328:-11|262:64|262:64|262:64,1,160
270,55,31545,1,0,0:0:0:0:
232,128,31695,2,0,P|193:141|144:136,1,80
64,88,31995,5,0,0:0:0:0:
16,152,32145,2,0,B|17:257|110:294|110:294|110:294,1,160
89,284,32745,1,0,0:0:0:0:
160,240,32895,2,0,P|198:218|248:216,1,80
296,296,33195,6,0,B|355:379|452:325|452:325|452:325,1,160
472,176,33795,2,0,B|412:92|315:146|315:146|315:146,1,160
331,138,34245,1,0,0:0:0:0:
272,224,34395,6,0,L|184:200,1,80
112,208,34695,1,0,0:0:0:0:
120,288,34845,2,0,B|165:204|123:129|123:129|123:129,1,160
72,80,35295,1,0,0:0:0:0:
72,80,35595,5,0,0:0:0:0:
152,16,35745,2,0,B|250:-13|309:60|309:60|309:60,1,160
299,49,36345,1,0,0:0:0:0:
304,128,36495,2,0,L|392:112,1,80
472,168,36795,5,0,0:0:0:0:
472,248,36945,2,0,B|384:285|314:204|314:204|314:204,1,160
325,216,37545,1,0,0:0:0:0:
256,176,37695,2,0,P|242:131|215:101,1,80
160,24,37995,6,0,B|69:3|13:94|13:94|13:94,1,160
80,232,38595,2,0,B|171:253|227:162|227:162|227:162,1,160
218,175,39045,1,0,0:0:0:0:
272,88,39195,6,0,P|281:45|309:11,1,80
384,0,39495,1,0,0:0:0:0:
456,40,39645,2,0,B|468:133|392:184|392:184|392:184,1,160
352,240,40095,2,0,P|361:282|385:314,1,80
296,368,40395,5,0,0:0:0:0:
240,312,40545,2,0,B|178:256|75:289|75:289|75:289,1,160
24,240,40995,1,0,0:0:0:0:
32,160,41145,2,0,P|38:122|69:81,1,80
136,56,41445,1,0,0:0:0:0:
200,136,41595,5,0,0:0:0:0:
248,200,41745,2,0,B|344:225|398:144|398:144|398:144,1,160
424,80,42195,1,0,0:0:0:0:
488,120,42345,2,0,P|469:156|472:208,1,80
496,272,42645,1,0,0:0:0:0:
408,328,42795,5,0,0:0:0:0:
152,288,43095,1,0,0:0:0:0:
408,328,43395,1,0,0:0:0:0:
152,288,43695,2,0,L|64:256,1,80
192,360,43995,5,0,0:0:0:0:
272,352,44145,2,0,B|348:290|314:198|314:198|314:198,1,160
248,168,44595,1,0,0:0:0:0:
240,88,44745,2,0,P|249:49|280:8,2,80
248,192,45195,5,0,0:0:0:0:
200,256,45345,2,0,B|114:281|50:196|50:196|50:196,1,160
24,136,45795,1,0,0:0:0:0:
72,72,45945,2,0,P|60:32|35:-3,2,80
160,128,46395,5,0,0:0:0:0:
160,128,47595,6,0,L|232:136,3,40
296,184,47895,2,0,L|328:152,3,40
352,48,48195,1,0,0:0:0:0:
392,80,48270,1,0,0:0:0:0:
432,120,48345,1,0,0:0:0:0:
448,160,48420,1,0,0:0:0:0:
456,192,48495,1,0,0:0:0:0:
464,224,48570,1,0,0:0:0:0:
464,256,48645,1,0,0:0:0:0:
464,304,48720,1,0,0:0:0:0:
400,336,48795,5,0,0:0:0:0:
352,352,48870,1,0,0:0:0:0:
288,352,48945,1,0,0:0:0:0:
208,352,49020,1,0,0:0:0:0:
176,344,49095,1,0,0:0:0:0:
112,352,49170,1,0,0:0:0:0:
64,344,49245,1,0,0:0:0:0:
40,312,49320,1,0,0:0:0:0:
32,264,49395,5,0,0:0:0:0:
0,232,49470,1,0,0:0:0:0:
8,208,49545,1,0,0:0:0:0:
16,168,49620,1,0,0:0:0:0:
24,128,49695,1,0,0:0:0:0:
32,80,49770,1,0,0:0:0:0:
80,48,49845,1,0,0:0:0:0:
120,48,49920,1,0,0:0:0:0:
176,72,49995,5,0,0:0:0:0:
232,160,50070,1,0,0:0:0:0:
272,120,50145,1,0,0:0:0:0:
304,72,50220,1,0,0:0:0:0:
352,48,50295,1,0,0:0:0:0:
392,40,50370,1,0,0:0:0:0:
416,56,50445,1,0,0:0:0:0:
424,96,50520,1,0,0:0:0:0:
424,168,50595,6,0,L|472:256,1,80
400,288,50895,2,0,L|464:352,1,80
