osu file format v14

[General]
AudioFilename: Soldiers Of The Wasteland.mp3
AudioLeadIn: 0
PreviewTime: 365596
Countdown: 0
SampleSet: Normal
StackLeniency: 0.4
Mode: 0
LetterboxInBreaks: 0
WidescreenStoryboard: 1

[Editor]
Bookmarks: 250627,334327,491250,525225,553350
DistanceSpacing: 0.9
BeatDivisor: 4
GridSize: 32
TimelineZoom: 2.499999

[Metadata]
Title:Soldiers Of The Wasteland
TitleUnicode:Soldiers Of The Wasteland
Artist:DragonForce
ArtistUnicode:DragonForce
Creator:Artorias
Version:Forgotten Legend
Source:
Tags:
BeatmapID:1350101
BeatmapSetID:636254

[Difficulty]
HPDrainRate:2
CircleSize:5
OverallDifficulty:9
ApproachRate:9.5
SliderMultiplier:1.8
SliderTickRate:1

[Events]
//Background and Video events
0,0,"cinder.jpg",0,0
//Break Periods
2,29727,45727
2,87327,93727
2,128277,139327
2,145227,162202
2,196377,245002
2,267142,276496
2,535249,566325
//Storyboard Layer 0 (Background)
//Storyboard Layer 1 (Fail)
//Storyboard Layer 2 (Pass)
//Storyboard Layer 3 (Foreground)
//Storyboard Sound Samples

[TimingPoints]
727,300,4,1,0,60,1,0
9052,-142.857142857143,4,2,0,5,0,0
10327,-142.857142857143,4,2,0,60,0,0
12502,-142.857142857143,4,2,0,5,0,0
12727,-142.857142857143,4,2,0,60,0,0
17302,-142.857142857143,4,2,0,5,0,0
17527,-142.857142857143,4,2,0,60,0,0
19702,-142.857142857143,4,2,0,5,0,0
19852,-142.857142857143,4,2,0,60,0,0
22102,-142.857142857143,4,2,0,5,0,0
22252,-142.857142857143,4,2,0,60,0,0
24502,-142.857142857143,4,2,0,5,0,0
24652,-142.857142857143,4,2,0,60,0,0
26902,-142.857142857143,4,2,0,5,0,0
27052,-142.857142857143,4,2,0,60,0,0
29302,-142.857142857143,4,2,0,5,0,0
29527,-166.666666666667,4,2,0,60,0,0
47302,-142.857142857143,4,2,0,5,0,0
47527,-100,4,1,0,50,0,0
84727,-100,4,1,0,35,0,0
85327,-100,4,1,0,40,0,0
85927,-90.9090909090909,4,1,0,50,0,0
94327,-200,4,1,0,45,0,0
94402,-200,4,1,0,20,0,0
95527,-200,4,1,0,45,0,0
95602,-200,4,1,0,20,0,0
96727,-100,4,1,0,45,0,0
105127,-142.857142857143,4,1,0,45,0,0
105202,-142.857142857143,4,1,0,25,0,0
106027,-100,4,1,0,30,0,0
106327,-90.9090909090909,4,1,0,45,0,0
124327,-90.9090909090909,4,1,0,40,0,0
125227,-90.9090909090909,4,1,0,45,0,0
125527,-83.3333333333333,4,1,0,45,0,0
132427,-83.3333333333333,4,1,0,40,0,0
132727,-83.3333333333333,4,1,0,45,0,0
133927,-83.3333333333333,4,1,0,40,0,0
134527,-83.3333333333333,4,1,0,45,0,0
142327,-83.3333333333333,4,1,0,40,0,0
142927,-83.3333333333333,4,1,0,45,0,0
143677,-83.3333333333333,4,1,0,40,0,0
144427,-83.3333333333333,4,1,0,45,0,0
144727,-76.9230769230769,4,1,0,55,0,1
153127,-76.9230769230769,4,1,0,45,0,1
153727,-76.9230769230769,4,1,0,45,0,1
154327,-76.9230769230769,4,1,0,55,0,1
162727,-76.9230769230769,4,1,0,45,0,1
163927,-76.9230769230769,4,1,0,45,0,0
175927,-111.111111111111,4,1,0,40,0,0
176002,-111.111111111111,4,1,0,5,0,0
176527,-111.111111111111,4,1,0,40,0,0
176602,-111.111111111111,4,1,0,5,0,0
176977,-111.111111111111,4,1,0,20,0,0
177127,-166.666666666666,4,1,0,45,0,0
177202,-166.666666666666,4,1,0,15,0,0
178027,-111.111111111111,4,1,0,20,0,0
178327,-111.111111111111,4,1,0,45,0,0
179527,-100,4,1,0,45,0,0
189127,-90.9090909090909,4,1,0,45,0,0
193327,-90.9090909090909,4,1,0,40,0,0
193927,-90.9090909090909,4,1,0,45,0,0
205627,-90.9090909090909,4,1,0,40,0,0
205927,-90.9090909090909,4,1,0,45,0,0
208327,-83.3333333333333,4,1,0,45,0,0
225127,-90.9090909090909,4,1,0,40,0,0
226027,-83.3333333333333,4,1,0,45,0,0
226327,-90.9090909090909,4,1,0,40,0,0
227227,-83.3333333333333,4,1,0,45,0,0
227527,-76.9230769230769,4,1,0,55,0,1
235927,-76.9230769230769,4,1,0,45,0,1
237127,-76.9230769230769,4,1,0,55,0,1
245527,-76.9230769230769,4,1,0,45,0,1
245977,-76.9230769230769,4,1,0,55,0,1
246052,-76.9230769230769,4,1,0,45,0,1
246727,-76.9230769230769,4,1,0,45,0,0
248602,-76.9230769230769,4,1,0,40,0,0
248827,-76.9230769230769,4,1,0,45,0,0
248902,-76.9230769230769,4,1,0,40,0,0
249127,-76.9230769230769,4,1,0,45,0,0
255127,-76.9230769230769,4,1,0,40,0,0
256327,-76.9230769230769,4,1,0,45,0,0
259027,-125,4,1,0,45,0,0
259627,-83.3333333333333,4,1,0,45,0,0
259927,-142.857142857143,4,1,0,45,0,0
262327,461.538461538462,4,1,0,45,1,0
277096,-90.9090909090909,4,1,0,45,0,0
306634,-80,4,1,0,45,0,0
321403,-74.0740740740741,4,1,0,45,0,0
365711,-125,4,1,0,45,0,0
365827,-125,4,1,0,20,0,0
369403,-125,4,1,0,45,0,0
369519,-125,4,1,0,20,0,0
373096,-125,4,1,0,45,0,0
373211,-125,4,1,0,20,0,0
376788,-125,4,1,0,45,0,0
376903,-125,4,1,0,20,0,0
380480,-125,4,1,0,45,0,0
380596,-125,4,1,0,20,0,0
382343,504.201680672269,4,1,0,60,1,0
382679,-125,4,1,0,60,0,0
383314,453.686200378072,4,1,0,60,1,0
383314,-125,4,1,0,60,0,0
384173,461.538461538462,4,1,0,50,1,0
384173,-125,4,1,0,50,0,0
384288,-125,4,1,0,20,0,0
386942,-125,4,1,0,45,0,0
387980,-125,4,1,0,20,0,0
391096,-125,4,1,0,45,0,0
391673,-125,4,1,0,20,0,0
395250,300,4,1,0,45,1,0
404850,-83.3333333333333,4,1,0,40,0,1
422850,-83.3333333333333,4,1,0,40,0,1
424050,-90.9090909090909,4,1,0,45,0,0
443250,-83.3333333333333,4,1,0,45,0,0
462450,-71.4285714285714,4,1,0,45,0,1
472050,-83.3333333333333,4,1,0,45,0,0
479000,-83.3333333333333,4,1,0,35,0,0
479100,-83.3333333333333,4,1,0,45,0,0
479150,-83.3333333333333,4,1,0,35,0,0
479250,-83.3333333333333,4,1,0,45,0,0
517700,-83.3333333333333,4,1,0,35,0,0
517800,-83.3333333333333,4,1,0,45,0,0
517850,-83.3333333333333,4,1,0,35,0,0
517950,-83.3333333333333,4,1,0,45,0,0
518000,-83.3333333333333,4,1,0,35,0,0
518100,-83.3333333333333,4,1,0,45,0,0
518150,-83.3333333333333,4,1,0,35,0,0
518250,-83.3333333333333,4,1,0,45,0,0
518900,-83.3333333333333,4,1,0,35,0,0
519300,-83.3333333333333,4,1,0,45,0,0
519350,-83.3333333333333,4,1,0,35,0,0
519750,-83.3333333333333,4,1,0,45,0,0
519800,-83.3333333333333,4,1,0,35,0,0
520050,-83.3333333333333,4,1,0,45,0,0
524775,-83.3333333333333,4,1,0,5,0,0
524850,-71.4285714285714,4,1,0,55,0,1
526050,-64.5161290322581,4,1,0,60,0,1
527250,-58.8235294117647,4,1,0,65,0,1
528450,-54.054054054054,4,1,0,70,0,1
532050,-58.8235294117647,4,1,0,60,0,0
534450,-76.9230769230769,4,1,0,45,0,0
536550,-76.9230769230769,4,1,0,45,0,0
536850,-76.9230769230769,4,1,0,45,0,0
538050,-76.9230769230769,4,1,0,40,0,0
539250,-76.9230769230769,4,1,0,45,0,0
548025,-76.9230769230769,4,1,0,40,0,0
548250,-76.9230769230769,4,1,0,45,0,0
548325,-76.9230769230769,4,1,0,40,0,0
548550,-76.9230769230769,4,1,0,45,0,0
548625,-76.9230769230769,4,1,0,40,0,0
548850,-71.4285714285714,4,1,0,55,0,1
557250,-71.4285714285714,4,1,0,45,0,1
558150,-71.4285714285714,4,1,0,55,0,1
566850,-71.4285714285714,4,1,0,45,0,1
567450,-71.4285714285714,4,1,0,55,0,1
568050,-76.9230769230769,4,1,0,45,0,0
581250,-76.9230769230769,4,1,0,55,0,0
581475,-80,4,1,0,25,0,0
581550,-76.9230769230769,4,1,0,55,0,0
581775,-80,4,1,0,25,0,0
581850,-76.9230769230769,4,1,0,55,0,0
582075,-80,4,1,0,25,0,0
582150,-76.9230769230769,4,1,0,55,0,0
582375,-80,4,1,0,25,0,0
582450,-74.6268656716418,4,1,0,55,0,0
583125,-80,4,1,0,15,0,0

[Colours]
Combo1 : 0,130,130
Combo2 : 255,255,0
Combo3 : 0,236,255
Combo4 : 255,128,0

[HitObjects]
256,192,127,12,0,9127,0:0:0:0:
256,192,10327,5,0,0:0:0:0:
256,192,10402,12,0,12577,0:0:0:0:
160,96,12727,5,0,0:0:0:0:
160,288,13927,1,0,0:0:0:0:
352,288,15127,1,0,0:0:0:0:
256,192,15202,12,0,17377,0:0:0:0:
384,64,17527,5,0,0:0:0:0:
128,320,18727,1,0,0:0:0:0:
448,320,19327,2,0,P|481:241|437:150,1,188.999994232178
345,99,19927,1,0,0:0:0:0:
256,192,20002,12,0,22177,0:0:0:0:
448,320,22327,5,0,0:0:0:0:
448,32,23527,1,0,0:0:0:0:
192,128,24127,2,0,P|110:122|43:201,1,188.999994232178
57,303,24727,1,0,0:0:0:0:
256,192,24802,12,0,26977,0:0:0:0:
256,0,27127,5,0,0:0:0:0:
90,354,28327,1,0,0:0:0:0:
367,290,28927,2,0,P|442:256|464:155,1,188.999994232178
411,41,29527,1,0,0:0:0:0:
207,18,46327,6,0,B|76:18|96:118|156:118|156:118|217:118|237:218|96:218,1,377.999988464356,0|0,2:0|2:0,2:0:0:0:
37,286,47527,6,0,L|46:329,3,45
125,351,47827,2,0,L|134:307,3,45
215,321,48127,5,0,0:0:0:0:
236,327,48202,1,0,0:0:0:0:
258,327,48277,1,0,0:0:0:0:
279,321,48352,1,0,0:0:0:0:
297,308,48427,5,0,0:0:0:0:
316,272,48502,1,0,0:0:0:0:
316,231,48577,1,0,0:0:0:0:
294,196,48652,1,0,0:0:0:0:
254,185,48727,5,0,0:0:0:0:
171,220,48877,1,0,0:0:0:0:
92,176,49027,2,0,P|75:129|84:83,1,90
224,37,49327,5,0,0:0:0:0:
295,92,49477,1,0,0:0:0:0:
384,78,49627,2,0,P|401:125|392:171,1,90
378,294,49927,5,0,0:0:0:0:
299,249,50077,1,0,0:0:0:0:
215,282,50227,2,0,P|165:273|130:242,1,90
110,74,50527,5,0,0:0:0:0:
64,151,50677,1,0,0:0:0:0:
95,68,50827,5,0,0:0:0:0:
78,156,50977,1,0,0:0:0:0:
250,113,51127,5,0,0:0:0:0:
298,189,51277,1,0,0:0:0:0:
248,264,51427,2,0,P|243:314|252:357,1,90
402,310,51727,5,0,0:0:0:0:
457,239,51877,1,0,0:0:0:0:
415,159,52027,2,0,P|406:114|410:67,1,90
344,242,52327,5,0,0:0:0:0:
266,287,52477,1,0,0:0:0:0:
188,240,52627,2,0,P|141:233|92:241,1,90
49,154,52927,5,0,0:0:0:0:
130,115,53077,1,0,0:0:0:0:
44,139,53227,5,0,0:0:0:0:
134,130,53377,1,0,0:0:0:0:
270,304,53527,5,0,0:0:0:0:
184,275,53677,1,0,0:0:0:0:
110,326,53827,2,0,B|68:293|68:293|54:255,1,90
178,101,54127,5,0,0:0:0:0:
263,128,54277,1,0,0:0:0:0:
338,79,54427,2,0,B|380:112|380:112|394:150,1,90
482,313,54727,5,0,0:0:0:0:
403,268,54877,1,0,0:0:0:0:
323,309,55027,2,0,B|271:294|271:294|244:264,1,90
114,225,55327,5,0,0:0:0:0:
198,191,55477,1,0,0:0:0:0:
122,238,55627,5,0,0:0:0:0:
189,177,55777,1,0,0:0:0:0:
296,249,55927,5,0,0:0:0:0:
296,249,56077,1,0,0:0:0:0:
365,305,56227,1,0,0:0:0:0:
446,266,56377,1,0,0:0:0:0:
430,177,56527,1,0,0:0:0:0:
343,153,56677,1,0,0:0:0:0:
273,210,56827,1,0,0:0:0:0:
183,207,56977,1,0,0:0:0:0:
122,140,57127,5,0,0:0:0:0:
75,62,57277,1,0,0:0:0:0:
107,145,57427,5,0,0:0:0:0:
89,56,57577,1,0,0:0:0:0:
73,138,57727,5,0,0:0:0:0:
117,58,57877,1,0,0:0:0:0:
62,128,58027,5,0,0:0:0:0:
130,68,58177,1,0,0:0:0:0:
194,131,58327,5,0,0:0:0:0:
276,95,58477,1,0,0:0:0:0:
356,135,58627,2,0,L|449:183,1,90
244,329,58927,5,0,0:0:0:0:
168,279,59077,1,0,0:0:0:0:
84,312,59227,2,0,L|-9:264,1,90
175,38,59527,5,0,0:0:0:0:
224,113,59677,1,0,0:0:0:0:
167,183,59827,2,0,L|155:282,1,90
232,339,60127,5,0,0:0:0:0:
296,275,60277,1,0,0:0:0:0:
244,348,60427,5,0,0:0:0:0:
283,265,60577,1,0,0:0:0:0:
401,249,60727,5,0,0:0:0:0:
434,165,60877,1,0,0:0:0:0:
379,93,61027,2,0,L|353:-5,1,90
159,58,61327,5,0,0:0:0:0:
120,139,61477,1,0,0:0:0:0:
173,211,61627,2,0,L|199:309,1,90
276,91,61927,5,0,0:0:0:0:
203,39,62077,1,0,0:0:0:0:
123,81,62227,2,0,L|21:89,1,90
59,215,62527,5,0,0:0:0:0:
92,298,62677,1,0,0:0:0:0:
74,211,62827,5,0,0:0:0:0:
76,301,62977,1,0,0:0:0:0:
329,351,63127,5,0,0:0:0:0:
282,273,63277,1,0,0:0:0:0:
306,186,63427,2,0,P|327:142|362:117,1,90
483,223,63727,5,0,0:0:0:0:
432,297,63877,1,0,0:0:0:0:
343,313,64027,2,0,P|302:285|283:246,1,90
377,143,64327,5,0,0:0:0:0:
300,96,64477,1,0,0:0:0:0:
222,142,64627,2,0,P|178:163|135:161,1,90
18,43,64927,5,0,0:0:0:0:
60,122,65077,1,0,0:0:0:0:
5,52,65227,5,0,0:0:0:0:
72,112,65377,1,0,0:0:0:0:
179,235,65527,5,0,0:0:0:0:
179,235,65677,1,0,0:0:0:0:
110,179,65827,1,0,0:0:0:0:
29,218,65977,1,0,0:0:0:0:
45,307,66127,1,0,0:0:0:0:
132,328,66277,1,0,0:0:0:0:
195,263,66427,1,0,0:0:0:0:
283,246,66577,1,0,0:0:0:0:
361,289,66727,5,0,0:0:0:0:
381,298,66802,1,0,0:0:0:0:
402,302,66877,1,0,0:0:0:0:
424,300,66952,1,0,0:0:0:0:
443,288,67027,2,0,L|452:239,3,45
387,199,67327,2,0,L|378:150,3,45
486,127,67627,2,0,L|477:176,1,45
401,76,67777,2,0,L|392:27,1,45
266,53,67927,6,0,B|179:100|178:1|97:47,1,180
56,183,68527,5,0,0:0:0:0:
56,272,68677,1,0,0:0:0:0:
138,235,68827,1,0,0:0:0:0:
207,96,68977,1,0,0:0:0:0:
291,267,69127,2,0,B|245:187|344:186|296:96,1,180
363,339,69577,5,0,0:0:0:0:
443,298,69727,1,0,0:0:0:0:
465,210,69877,1,0,0:0:0:0:
414,135,70027,5,0,0:0:0:0:
395,147,70102,1,0,0:0:0:0:
373,155,70177,1,0,0:0:0:0:
350,156,70252,1,0,0:0:0:0:
328,149,70327,2,0,B|256:208|238:111|158:174,1,180
93,231,70777,1,0,0:0:0:0:
93,231,70927,1,0,0:0:0:0:
156,31,71077,1,0,0:0:0:0:
66,30,71227,2,0,B|50:121|143:88|129:186,1,180
124,208,71602,5,0,0:0:0:0:
120,230,71677,1,0,0:0:0:0:
122,252,71752,1,0,0:0:0:0:
131,272,71827,1,0,0:0:0:0:
145,289,71902,1,0,0:0:0:0:
165,298,71977,1,0,0:0:0:0:
187,302,72052,1,0,0:0:0:0:
209,299,72127,5,0,0:0:0:0:
237,286,72202,1,0,0:0:0:0:
258,262,72277,1,0,0:0:0:0:
259,230,72352,1,0,0:0:0:0:
249,199,72427,1,0,0:0:0:0:
243,167,72502,1,0,0:0:0:0:
248,135,72577,1,0,0:0:0:0:
266,109,72652,1,0,0:0:0:0:
293,93,72727,5,0,0:0:0:0:
332,183,72877,1,0,0:0:0:0:
393,105,73027,1,0,0:0:0:0:
393,105,73102,1,0,0:0:0:0:
393,105,73177,1,0,0:0:0:0:
248,196,73327,5,0,0:0:0:0:
337,239,73477,1,0,0:0:0:0:
329,140,73627,1,0,0:0:0:0:
329,140,73702,1,0,0:0:0:0:
329,140,73777,1,0,0:0:0:0:
255,300,73927,5,0,0:0:0:0:
350,271,74077,1,0,0:0:0:0:
276,204,74227,1,0,0:0:0:0:
276,204,74302,1,0,0:0:0:0:
276,204,74377,1,0,0:0:0:0:
267,330,74527,5,0,0:0:0:0:
176,290,74677,1,0,0:0:0:0:
264,317,74827,5,0,0:0:0:0:
173,277,74977,1,0,0:0:0:0:
102,72,75127,5,0,0:0:0:0:
40,149,75277,1,0,0:0:0:0:
138,163,75427,1,0,0:0:0:0:
138,163,75502,1,0,0:0:0:0:
138,163,75577,1,0,0:0:0:0:
13,152,75727,5,0,0:0:0:0:
20,250,75877,1,0,0:0:0:0:
102,194,76027,1,0,0:0:0:0:
102,194,76102,1,0,0:0:0:0:
102,194,76177,1,0,0:0:0:0:
81,312,76327,5,0,0:0:0:0:
97,326,76402,1,0,0:0:0:0:
117,334,76477,1,0,0:0:0:0:
139,338,76552,1,0,0:0:0:0:
186,310,76627,5,0,0:0:0:0:
211,291,76702,1,0,0:0:0:0:
242,288,76777,1,0,0:0:0:0:
271,298,76852,1,0,0:0:0:0:
327,330,76927,5,0,0:0:0:0:
352,298,77002,1,0,0:0:0:0:
357,257,77077,1,0,0:0:0:0:
343,218,77152,1,0,0:0:0:0:
312,191,77227,1,0,0:0:0:0:
292,145,77302,1,0,0:0:0:0:
305,97,77377,1,0,0:0:0:0:
347,71,77452,1,0,0:0:0:0:
393,86,77527,6,0,B|425:128|463:122|463:122|496:158|450:220,1,180
242,286,78127,5,0,0:0:0:0:
249,187,78277,1,0,0:0:0:0:
334,236,78427,1,0,0:0:0:0:
134,287,78577,1,0,0:0:0:0:
36,233,78727,2,0,B|46:283|17:308|17:308|23:357|89:360,1,180
194,187,79177,1,0,0:0:0:0:
291,172,79327,1,0,0:0:0:0:
320,77,79477,1,0,0:0:0:0:
231,32,79627,5,0,0:0:0:0:
218,50,79702,1,0,0:0:0:0:
214,72,79777,1,0,0:0:0:0:
218,94,79852,1,0,0:0:0:0:
226,114,79927,2,0,P|241:164|186:276,1,180
89,269,80377,1,0,0:0:0:0:
89,269,80527,2,0,P|61:328|63:369,1,90
245,352,80827,1,0,0:0:0:0:
245,352,80977,1,0,0:0:0:0:
360,183,81127,6,0,P|314:160|205:222,1,180
298,266,81577,1,0,0:0:0:0:
448,320,81727,2,0,B|518:192|395:191|464:58,1,270
282,51,82327,5,0,0:0:0:0:
282,51,82477,1,0,0:0:0:0:
380,61,82627,2,0,L|406:154,1,90
328,325,82927,5,0,0:0:0:0:
328,325,83077,1,0,0:0:0:0:
246,268,83227,2,0,L|272:175,1,90
17,217,83527,5,0,0:0:0:0:
17,217,83677,1,0,0:0:0:0:
0,314,83827,2,0,L|116:295,1,90
368,171,84127,5,0,0:0:0:0:
368,171,84277,1,0,0:0:0:0:
385,74,84427,2,0,L|269:93,1,90
129,71,84727,5,0,0:0:0:0:
121,87,84802,1,0,0:0:0:0:
116,104,84877,1,0,0:0:0:0:
112,121,84952,1,0,0:0:0:0:
110,138,85027,1,0,0:0:0:0:
110,155,85102,1,0,0:0:0:0:
112,172,85177,1,0,0:0:0:0:
116,189,85252,1,0,0:0:0:0:
119,206,85327,5,0,0:0:0:0:
137,241,85402,1,0,0:0:0:0:
173,258,85477,1,0,0:0:0:0:
213,259,85552,1,0,0:0:0:0:
251,245,85627,1,0,0:0:0:0:
277,214,85702,1,0,0:0:0:0:
297,179,85777,1,0,0:0:0:0:
323,148,85852,1,0,0:0:0:0:
360,123,85927,5,0,0:0:0:0:
404,127,86002,1,0,0:0:0:0:
437,156,86077,1,0,0:0:0:0:
448,199,86152,1,0,0:0:0:0:
431,240,86227,1,0,0:0:0:0:
390,258,86302,1,0,0:0:0:0:
345,254,86377,1,0,0:0:0:0:
306,231,86452,1,0,0:0:0:0:
273,201,86527,6,0,L|218:206,1,49.5000015106202
234,295,86677,2,0,L|179:300,1,49.5000015106202
148,221,86827,6,0,L|93:226,1,49.5000015106202
109,315,86977,2,0,L|54:320,1,49.5000015106202
21,219,87127,5,0,0:0:0:0:
124,83,94327,6,0,B|142:166|142:166|105:269|105:269|124:353,1,270
404,323,95527,2,0,B|385:239|385:239|422:136|422:136|404:52,1,270
228,112,96727,5,0,0:0:0:0:
228,112,96877,1,0,0:0:0:0:
261,185,97027,1,0,0:0:0:0:
273,265,97177,1,0,0:0:0:0:
228,332,97327,1,0,0:0:0:0:
148,347,97477,1,0,0:0:0:0:
72,316,97627,2,0,P|50:270|50:230,1,90
185,133,97927,5,0,0:0:0:0:
236,70,98077,1,0,0:0:0:0:
278,139,98227,1,0,0:0:0:0:
320,70,98377,1,0,0:0:0:0:
373,130,98527,1,0,0:0:0:0:
412,59,98677,1,0,0:0:0:0:
455,127,98827,2,0,B|472:179|472:179|477:225,1,90
117,335,99127,6,0,B|209:295|208:365|301:323,1,180
379,350,99577,1,0,0:0:0:0:
428,285,99727,1,0,0:0:0:0:
428,204,99877,1,0,0:0:0:0:
390,132,100027,1,0,0:0:0:0:
310,114,100177,1,0,0:0:0:0:
245,162,100327,6,0,P|197:189|110:107,1,180
143,47,100777,1,0,0:0:0:0:
33,106,100927,1,0,0:0:0:0:
191,106,101077,1,0,0:0:0:0:
61,11,101227,1,0,0:0:0:0:
46,180,101377,1,0,0:0:0:0:
188,66,101527,5,0,0:0:0:0:
210,143,101677,1,0,0:0:0:0:
191,221,101827,1,0,0:0:0:0:
256,268,101977,1,0,0:0:0:0:
331,239,102127,1,0,0:0:0:0:
354,161,102277,1,0,0:0:0:0:
386,86,102427,2,0,P|437:87|483:112,1,90
365,259,102727,6,0,P|319:290|211:230,1,180
174,169,103177,1,0,0:0:0:0:
112,222,103327,1,0,0:0:0:0:
41,181,103477,1,0,0:0:0:0:
60,102,103627,1,0,0:0:0:0:
139,84,103777,1,0,0:0:0:0:
201,31,103927,5,0,0:0:0:0:
223,34,104002,1,0,0:0:0:0:
244,38,104077,2,0,L|292:46,2,45
184,132,104377,5,0,0:0:0:0:
162,135,104452,1,0,0:0:0:0:
141,139,104527,2,0,L|93:147,2,45
268,198,104827,5,0,0:0:0:0:
273,219,104902,1,0,0:0:0:0:
272,241,104977,1,0,0:0:0:0:
262,261,105052,1,0,0:0:0:0:
250,271,105127,1,0,0:0:0:0:
256,192,105202,12,0,106177,0:0:0:0:
135,50,106327,5,0,0:0:0:0:
135,50,106402,1,0,0:0:0:0:
135,50,106477,1,0,0:0:0:0:
76,117,106627,1,0,0:0:0:0:
94,204,106777,2,0,P|145:183|239:276,1,198.000006042481
254,356,107227,1,0,0:0:0:0:
342,369,107377,1,0,0:0:0:0:
342,369,107452,1,0,0:0:0:0:
342,369,107527,6,0,P|398:358|436:332,1,99.0000030212403
442,247,107827,1,0,0:0:0:0:
409,163,107977,2,0,P|360:168|312:154,1,99.0000030212403
232,114,108277,1,0,0:0:0:0:
143,121,108427,1,0,0:0:0:0:
93,195,108577,1,0,0:0:0:0:
97,284,108727,2,0,P|146:308|200:297,1,99.0000030212403
242,230,109027,2,0,P|193:206|139:217,1,99.0000030212403
301,300,109327,2,0,P|325:251|314:197,1,99.0000030212403
343,118,109627,5,0,0:0:0:0:
227,98,109777,1,0,0:0:0:0:
457,140,109927,2,0,P|483:200|409:304,1,198.000006042481
370,307,110302,1,0,0:0:0:0:
370,307,110377,1,0,0:0:0:0:
311,221,110527,1,0,0:0:0:0:
285,348,110677,1,0,0:0:0:0:
406,221,110827,1,0,0:0:0:0:
206,270,110977,1,0,0:0:0:0:
251,169,111127,5,0,0:0:0:0:
264,163,111202,1,0,0:0:0:0:
278,160,111277,1,0,0:0:0:0:
292,159,111352,1,0,0:0:0:0:
306,159,111427,1,0,0:0:0:0:
380,205,111577,5,0,0:0:0:0:
384,229,111652,1,0,0:0:0:0:
387,253,111727,1,0,0:0:0:0:
390,277,111802,1,0,0:0:0:0:
394,301,111877,1,0,0:0:0:0:
307,349,112027,1,0,0:0:0:0:
208,348,112177,1,0,0:0:0:0:
123,296,112327,5,0,0:0:0:0:
127,272,112402,1,0,0:0:0:0:
130,248,112477,1,0,0:0:0:0:
133,224,112552,1,0,0:0:0:0:
137,200,112627,1,0,0:0:0:0:
187,125,112777,5,0,0:0:0:0:
262,171,112927,1,0,0:0:0:0:
330,114,113077,1,0,0:0:0:0:
409,154,113227,1,0,0:0:0:0:
474,93,113377,1,0,0:0:0:0:
422,20,113527,5,0,0:0:0:0:
395,33,113602,1,0,0:0:0:0:
365,35,113677,1,0,0:0:0:0:
335,32,113752,1,0,0:0:0:0:
310,14,113827,2,0,L|254:20,3,49.5000015106202
236,82,114127,5,0,0:0:0:0:
208,92,114202,1,0,0:0:0:0:
178,88,114277,1,0,0:0:0:0:
151,74,114352,1,0,0:0:0:0:
130,52,114427,5,0,0:0:0:0:
100,78,114502,1,0,0:0:0:0:
89,116,114577,1,0,0:0:0:0:
90,155,114652,1,0,0:0:0:0:
108,193,114727,5,0,0:0:0:0:
152,215,114802,1,0,0:0:0:0:
201,211,114877,1,0,0:0:0:0:
246,190,114952,1,0,0:0:0:0:
287,162,115027,1,0,0:0:0:0:
334,148,115102,1,0,0:0:0:0:
382,155,115177,1,0,0:0:0:0:
422,182,115252,1,0,0:0:0:0:
437,228,115327,5,0,0:0:0:0:
437,252,115402,1,0,0:0:0:0:
435,276,115477,1,0,0:0:0:0:
430,300,115552,1,0,0:0:0:0:
416,320,115627,1,0,0:0:0:0:
399,338,115702,1,0,0:0:0:0:
375,346,115777,1,0,0:0:0:0:
350,348,115852,1,0,0:0:0:0:
325,345,115927,6,0,P|262:339|216:349,1,99.0000030212403
112,341,116227,1,0,0:0:0:0:
153,223,116377,2,0,P|100:145|7:158,1,198.000006042481
174,345,116827,1,0,0:0:0:0:
321,236,116977,1,0,0:0:0:0:
321,236,117052,1,0,0:0:0:0:
321,236,117127,6,0,P|335:180|328:135,1,99.0000030212403
226,26,117427,1,0,0:0:0:0:
186,202,117577,1,0,0:0:0:0:
321,108,117727,1,0,0:0:0:0:
128,113,117877,1,0,0:0:0:0:
302,189,118027,1,0,0:0:0:0:
110,236,118177,1,0,0:0:0:0:
242,334,118327,2,0,P|291:358|345:347,1,99.0000030212403
399,185,118627,1,0,0:0:0:0:
420,320,118777,1,0,0:0:0:0:
259,209,118927,1,0,0:0:0:0:
470,207,119077,1,0,0:0:0:0:
349,85,119227,5,0,0:0:0:0:
292,305,119377,1,0,0:0:0:0:
462,168,119527,2,0,B|495:244|479:308|479:308|430:352,1,198.000006042481
389,337,119902,1,0,0:0:0:0:
389,337,119977,1,0,0:0:0:0:
258,153,120127,1,0,0:0:0:0:
187,336,120277,1,0,0:0:0:0:
400,216,120427,1,0,0:0:0:0:
352,368,120577,1,0,0:0:0:0:
125,232,120727,6,0,P|118:169|130:126,1,99.0000030212403
155,94,120952,1,0,0:0:0:0:
155,94,121027,1,0,0:0:0:0:
274,137,121177,5,0,0:0:0:0:
302,146,121252,1,0,0:0:0:0:
330,153,121327,1,0,0:0:0:0:
359,151,121402,1,0,0:0:0:0:
388,145,121477,1,0,0:0:0:0:
387,301,121627,1,0,0:0:0:0:
488,202,121777,1,0,0:0:0:0:
296,181,121927,1,0,0:0:0:0:
395,353,122077,1,0,0:0:0:0:
478,125,122227,6,0,P|428:93|363:99,1,99.0000030212403
361,100,122452,1,0,0:0:0:0:
361,100,122527,1,0,0:0:0:0:
247,205,122677,1,0,0:0:0:0:
298,56,122827,1,0,0:0:0:0:
336,247,122977,1,0,0:0:0:0:
195,101,123127,1,0,0:0:0:0:
415,180,123277,1,0,0:0:0:0:
206,224,123427,1,0,0:0:0:0:
412,98,123577,1,0,0:0:0:0:
205,39,123727,5,0,0:0:0:0:
184,239,123877,1,0,0:0:0:0:
404,35,124027,5,0,0:0:0:0:
425,235,124177,1,0,0:0:0:0:
278,343,124327,5,0,0:0:0:0:
253,326,124402,1,0,0:0:0:0:
224,317,124477,1,0,0:0:0:0:
194,316,124552,1,0,0:0:0:0:
164,321,124627,2,0,L|110:335,3,49.5000015106202
84,320,124927,5,0,0:0:0:0:
71,282,125002,1,0,0:0:0:0:
72,242,125077,1,0,0:0:0:0:
82,203,125152,1,0,0:0:0:0:
104,170,125227,5,0,0:0:0:0:
146,182,125302,1,0,0:0:0:0:
190,184,125377,1,0,0:0:0:0:
233,173,125452,1,0,0:0:0:0:
266,137,125527,5,0,0:0:0:0:
266,137,125602,1,0,0:0:0:0:
266,137,125677,2,0,L|278:79,1,53.9999983520508
392,181,125827,5,0,0:0:0:0:
392,181,125902,1,0,0:0:0:0:
392,181,125977,2,0,L|380:123,1,53.9999983520508
313,273,126127,5,0,0:0:0:0:
313,273,126202,1,0,0:0:0:0:
313,273,126277,2,0,L|301:331,1,53.9999983520508
187,229,126427,5,0,0:0:0:0:
187,229,126502,1,0,0:0:0:0:
187,229,126577,2,0,L|199:287,1,53.9999983520508
86,194,126727,5,0,0:0:0:0:
84,172,126802,1,0,0:0:0:0:
88,150,126877,1,0,0:0:0:0:
99,131,126952,1,0,0:0:0:0:
116,118,127027,1,0,0:0:0:0:
135,109,127102,1,0,0:0:0:0:
156,107,127177,1,0,0:0:0:0:
177,111,127252,1,0,0:0:0:0:
198,112,127327,5,0,0:0:0:0:
219,107,127402,1,0,0:0:0:0:
235,93,127477,1,0,0:0:0:0:
245,73,127552,1,0,0:0:0:0:
256,54,127627,1,0,0:0:0:0:
271,38,127702,1,0,0:0:0:0:
291,30,127777,1,0,0:0:0:0:
312,28,127852,1,0,0:0:0:0:
333,31,127927,6,0,L|450:43,1,107.999996704102
405,271,139927,6,0,P|434:212|431:160,1,107.999996704102
411,127,140152,1,0,0:0:0:0:
411,127,140227,1,0,0:0:0:0:
337,63,140377,2,0,P|276:124|142:82,1,215.999993408203
107,16,140827,1,0,0:0:0:0:
107,16,140902,1,0,0:0:0:0:
107,16,140977,1,0,0:0:0:0:
13,177,141127,6,0,P|7:242|22:301,1,107.999996704102
48,319,141352,1,0,0:0:0:0:
48,319,141427,1,0,0:0:0:0:
177,227,141577,2,0,P|238:166|372:208,1,215.999993408203
402,274,142027,1,0,0:0:0:0:
402,274,142102,1,0,0:0:0:0:
402,274,142177,1,0,0:0:0:0:
442,85,142327,5,0,0:0:0:0:
349,53,142477,1,0,0:0:0:0:
349,53,142552,1,0,0:0:0:0:
349,53,142627,1,0,0:0:0:0:
235,209,142777,5,0,0:0:0:0:
324,171,142927,1,0,0:0:0:0:
324,171,143002,1,0,0:0:0:0:
324,171,143077,1,0,0:0:0:0:
87,65,143227,5,0,0:0:0:0:
57,168,143377,1,0,0:0:0:0:
57,168,143452,1,0,0:0:0:0:
57,168,143527,5,0,0:0:0:0:
92,201,143602,1,0,0:0:0:0:
138,215,143677,1,0,0:0:0:0:
186,209,143752,1,0,0:0:0:0:
229,187,143827,1,0,0:0:0:0:
272,165,143902,1,0,0:0:0:0:
320,162,143977,1,0,0:0:0:0:
367,172,144052,1,0,0:0:0:0:
403,204,144127,5,0,0:0:0:0:
414,262,144202,1,0,0:0:0:0:
399,319,144277,1,0,0:0:0:0:
350,353,144352,1,0,0:0:0:0:
290,355,144427,1,0,0:0:0:0:
236,328,144502,1,0,0:0:0:0:
210,274,144577,1,0,0:0:0:0:
220,215,144652,1,0,0:0:0:0:
260,164,144727,6,0,P|319:139|443:237,1,233.999989288331
431,135,162727,5,0,0:0:0:0:
429,187,162802,5,0,0:0:0:0:
396,228,162877,1,0,0:0:0:0:
347,247,162952,1,0,0:0:0:0:
294,240,163027,1,0,0:0:0:0:
204,49,163177,5,0,0:0:0:0:
204,49,163252,1,0,0:0:0:0:
204,49,163327,1,0,0:0:0:0:
204,49,163402,1,0,0:0:0:0:
204,49,163477,2,0,L|138:49,1,58.4999973220826
81,167,163627,5,0,0:0:0:0:
108,197,163702,1,0,0:0:0:0:
145,213,163777,1,0,0:0:0:0:
185,215,163852,1,0,0:0:0:0:
224,202,163927,5,0,0:0:0:0:
328,90,164077,1,0,0:0:0:0:
328,90,164152,1,0,0:0:0:0:
328,90,164227,1,0,0:0:0:0:
400,212,164377,5,0,0:0:0:0:
408,240,164452,1,0,0:0:0:0:
407,269,164527,1,0,0:0:0:0:
395,295,164602,1,0,0:0:0:0:
373,314,164677,1,0,0:0:0:0:
196,312,164827,1,0,0:0:0:0:
337,218,164977,1,0,0:0:0:0:
150,239,165127,5,0,0:0:0:0:
360,312,165277,1,0,0:0:0:0:
185,324,165427,1,0,0:0:0:0:
363,228,165577,1,0,0:0:0:0:
165,227,165727,1,0,0:0:0:0:
155,199,165802,1,0,0:0:0:0:
149,170,165877,1,0,0:0:0:0:
146,140,165952,1,0,0:0:0:0:
150,111,166027,1,0,0:0:0:0:
162,84,166102,1,0,0:0:0:0:
180,61,166177,1,0,0:0:0:0:
204,45,166252,1,0,0:0:0:0:
232,38,166327,5,0,0:0:0:0:
372,152,166477,1,0,0:0:0:0:
372,152,166552,1,0,0:0:0:0:
372,152,166627,1,0,0:0:0:0:
209,149,166777,5,0,0:0:0:0:
174,145,166852,1,0,0:0:0:0:
139,149,166927,1,0,0:0:0:0:
106,160,167002,1,0,0:0:0:0:
78,181,167077,1,0,0:0:0:0:
134,327,167227,1,0,0:0:0:0:
183,134,167377,1,0,0:0:0:0:
266,291,167527,5,0,0:0:0:0:
76,146,167677,1,0,0:0:0:0:
315,200,167827,1,0,0:0:0:0:
50,281,167977,1,0,0:0:0:0:
268,315,168127,1,0,0:0:0:0:
296,294,168202,1,0,0:0:0:0:
320,268,168277,1,0,0:0:0:0:
324,233,168352,1,0,0:0:0:0:
310,200,168427,1,0,0:0:0:0:
296,167,168502,1,0,0:0:0:0:
295,131,168577,1,0,0:0:0:0:
306,97,168652,1,0,0:0:0:0:
331,72,168727,5,0,0:0:0:0:
164,20,168877,1,0,0:0:0:0:
164,20,168952,1,0,0:0:0:0:
164,20,169027,1,0,0:0:0:0:
108,194,169177,5,0,0:0:0:0:
137,222,169252,1,0,0:0:0:0:
175,237,169327,1,0,0:0:0:0:
215,237,169402,1,0,0:0:0:0:
251,218,169477,1,0,0:0:0:0:
229,39,169627,1,0,0:0:0:0:
336,226,169777,1,0,0:0:0:0:
125,124,169927,5,0,0:0:0:0:
366,143,170077,1,0,0:0:0:0:
157,256,170227,1,0,0:0:0:0:
228,22,170377,1,0,0:0:0:0:
421,115,170527,5,0,0:0:0:0:
162,146,170677,1,0,0:0:0:0:
427,224,170827,1,0,0:0:0:0:
126,269,170977,1,0,0:0:0:0:
324,338,171127,5,0,0:0:0:0:
358,148,171277,1,0,0:0:0:0:
358,148,171352,1,0,0:0:0:0:
358,148,171427,1,0,0:0:0:0:
172,44,171577,5,0,0:0:0:0:
149,85,171652,1,0,0:0:0:0:
143,131,171727,1,0,0:0:0:0:
158,175,171802,1,0,0:0:0:0:
189,209,171877,1,0,0:0:0:0:
357,104,172027,1,0,0:0:0:0:
77,158,172177,1,0,0:0:0:0:
328,268,172327,5,0,0:0:0:0:
366,240,172402,1,0,0:0:0:0:
382,196,172477,1,0,0:0:0:0:
366,151,172552,1,0,0:0:0:0:
328,123,172627,1,0,0:0:0:0:
281,119,172702,1,0,0:0:0:0:
237,135,172777,1,0,0:0:0:0:
197,160,172852,1,0,0:0:0:0:
161,190,172927,5,0,0:0:0:0:
146,180,173002,1,0,0:0:0:0:
135,165,173077,1,0,0:0:0:0:
129,148,173152,1,0,0:0:0:0:
127,130,173227,2,0,L|128:66,3,58.4999973220826
160,58,173527,5,0,0:0:0:0:
207,81,173602,1,0,0:0:0:0:
259,75,173677,1,0,0:0:0:0:
307,56,173752,1,0,0:0:0:0:
358,48,173827,1,0,0:0:0:0:
409,57,173902,1,0,0:0:0:0:
441,99,173977,1,0,0:0:0:0:
442,152,174052,1,0,0:0:0:0:
416,199,174127,5,0,0:0:0:0:
366,217,174202,1,0,0:0:0:0:
315,202,174277,1,0,0:0:0:0:
270,175,174352,1,0,0:0:0:0:
217,171,174427,1,0,0:0:0:0:
172,199,174502,1,0,0:0:0:0:
155,250,174577,1,0,0:0:0:0:
165,302,174652,1,0,0:0:0:0:
200,341,174727,5,0,0:0:0:0:
252,344,174802,1,0,0:0:0:0:
296,316,174877,1,0,0:0:0:0:
310,266,174952,1,0,0:0:0:0:
284,220,175027,1,0,0:0:0:0:
237,196,175102,1,0,0:0:0:0:
185,207,175177,1,0,0:0:0:0:
136,228,175252,1,0,0:0:0:0:
83,234,175327,5,0,0:0:0:0:
41,213,175402,1,0,0:0:0:0:
15,174,175477,1,0,0:0:0:0:
9,128,175552,1,0,0:0:0:0:
22,83,175627,1,0,0:0:0:0:
56,51,175702,1,0,0:0:0:0:
100,38,175777,1,0,0:0:0:0:
146,46,175852,1,0,0:0:0:0:
183,73,175927,5,0,0:0:0:0:
436,70,178327,5,0,0:0:0:0:
143,112,178927,5,0,0:0:0:0:
78,321,179227,2,0,P|120:344|162:346,1,80.9999975280763
263,348,179527,5,0,0:0:0:0:
300,276,179677,1,0,0:0:0:0:
253,209,179827,1,0,0:0:0:0:
260,128,179977,1,0,0:0:0:0:
326,81,180127,1,0,0:0:0:0:
406,87,180277,1,0,0:0:0:0:
443,158,180427,2,0,P|465:204|465:244,1,90
414,305,180727,5,0,0:0:0:0:
347,258,180877,1,0,0:0:0:0:
284,308,181027,1,0,0:0:0:0:
221,256,181177,1,0,0:0:0:0:
152,299,181327,1,0,0:0:0:0:
92,244,181477,1,0,0:0:0:0:
33,300,181627,2,0,B|16:248|16:248|11:202,1,90
353,57,181927,6,0,P|308:95|188:74,1,180
117,53,182377,1,0,0:0:0:0:
200,200,182527,1,0,0:0:0:0:
62,149,182677,1,0,0:0:0:0:
228,150,182827,1,0,0:0:0:0:
59,243,182977,1,0,0:0:0:0:
265,220,183127,6,0,P|313:193|400:275,1,180
364,335,183577,1,0,0:0:0:0:
487,284,183727,1,0,0:0:0:0:
319,276,183877,1,0,0:0:0:0:
444,371,184027,1,0,0:0:0:0:
464,202,184177,1,0,0:0:0:0:
275,326,184327,5,0,0:0:0:0:
231,257,184477,1,0,0:0:0:0:
280,193,184627,1,0,0:0:0:0:
257,115,184777,1,0,0:0:0:0:
176,123,184927,1,0,0:0:0:0:
134,192,185077,1,0,0:0:0:0:
110,269,185227,2,0,P|59:268|13:243,1,90
128,86,185527,6,0,P|174:55|282:115,1,180
314,198,185977,1,0,0:0:0:0:
440,170,186127,1,0,0:0:0:0:
371,265,186277,1,0,0:0:0:0:
495,212,186427,1,0,0:0:0:0:
351,140,186577,1,0,0:0:0:0:
309,351,186727,5,0,0:0:0:0:
282,349,186802,1,0,0:0:0:0:
255,347,186877,1,0,0:0:0:0:
228,345,186952,1,0,0:0:0:0:
201,344,187027,1,0,0:0:0:0:
83,249,187177,5,0,0:0:0:0:
109,243,187252,1,0,0:0:0:0:
135,237,187327,1,0,0:0:0:0:
161,231,187402,1,0,0:0:0:0:
187,228,187477,1,0,0:0:0:0:
300,119,187627,5,0,0:0:0:0:
273,115,187702,1,0,0:0:0:0:
246,110,187777,1,0,0:0:0:0:
219,105,187852,1,0,0:0:0:0:
192,101,187927,5,0,0:0:0:0:
160,265,188077,1,0,0:0:0:0:
281,164,188227,1,0,0:0:0:0:
76,184,188377,1,0,0:0:0:0:
315,238,188527,1,0,0:0:0:0:
315,238,188602,1,0,0:0:0:0:
315,238,188677,1,0,0:0:0:0:
278,47,188827,1,0,0:0:0:0:
278,47,188902,1,0,0:0:0:0:
278,47,188977,1,0,0:0:0:0:
281,334,189127,5,0,0:0:0:0:
281,334,189202,1,0,0:0:0:0:
281,334,189277,1,0,0:0:0:0:
346,235,189427,1,0,0:0:0:0:
152,27,190027,1,0,0:0:0:0:
103,170,190177,1,0,0:0:0:0:
103,170,190252,1,0,0:0:0:0:
103,170,190327,6,0,P|89:226|96:271,1,99.0000030212403
151,337,190627,1,0,0:0:0:0:
234,305,190777,2,0,P|283:300|331:314,1,99.0000030212403
420,326,191077,1,0,0:0:0:0:
472,254,191227,1,0,0:0:0:0:
473,165,191377,1,0,0:0:0:0:
427,90,191527,2,0,P|378:66|324:77,1,99.0000030212403
275,169,191827,2,0,P|324:193|378:182,1,99.0000030212403
194,84,192127,2,0,P|170:133|181:187,1,99.0000030212403
182,284,192427,5,0,0:0:0:0:
95,302,192577,1,0,0:0:0:0:
29,243,192727,2,0,P|3:183|77:79,1,198.000006042481
116,80,193102,1,0,0:0:0:0:
116,80,193177,1,0,0:0:0:0:
195,123,193327,1,0,0:0:0:0:
278,89,193477,1,0,0:0:0:0:
359,128,193627,1,0,0:0:0:0:
369,218,193777,1,0,0:0:0:0:
319,292,193927,2,0,P|264:317|145:262,1,198.000006042481
130,177,194377,5,0,0:0:0:0:
126,153,194452,1,0,0:0:0:0:
123,129,194527,1,0,0:0:0:0:
120,105,194602,1,0,0:0:0:0:
116,81,194677,1,0,0:0:0:0:
203,33,194827,1,0,0:0:0:0:
302,34,194977,1,0,0:0:0:0:
385,68,195127,5,0,0:0:0:0:
381,92,195202,1,0,0:0:0:0:
378,116,195277,1,0,0:0:0:0:
375,140,195352,1,0,0:0:0:0:
371,164,195427,1,0,0:0:0:0:
323,257,195577,5,0,0:0:0:0:
248,211,195727,1,0,0:0:0:0:
180,268,195877,1,0,0:0:0:0:
101,228,196027,1,0,0:0:0:0:
36,289,196177,1,0,0:0:0:0:
431,135,245527,5,0,0:0:0:0:
429,187,245602,5,0,0:0:0:0:
396,228,245677,1,0,0:0:0:0:
347,247,245752,1,0,0:0:0:0:
294,240,245827,1,0,0:0:0:0:
204,49,245977,5,0,0:0:0:0:
204,49,246052,1,0,0:0:0:0:
204,49,246127,1,0,0:0:0:0:
204,49,246202,1,0,0:0:0:0:
204,49,246277,2,0,L|138:49,1,58.4999973220826
81,167,246427,5,0,0:0:0:0:
108,197,246502,1,0,0:0:0:0:
145,213,246577,1,0,0:0:0:0:
185,215,246652,1,0,0:0:0:0:
224,202,246727,5,0,0:0:0:0:
328,90,246877,1,0,0:0:0:0:
328,90,246952,1,0,0:0:0:0:
328,90,247027,1,0,0:0:0:0:
400,212,247177,5,0,0:0:0:0:
408,240,247252,1,0,0:0:0:0:
407,269,247327,1,0,0:0:0:0:
395,295,247402,1,0,0:0:0:0:
373,314,247477,1,0,0:0:0:0:
196,312,247627,1,0,0:0:0:0:
337,218,247777,1,0,0:0:0:0:
150,239,247927,5,0,0:0:0:0:
360,312,248077,1,0,0:0:0:0:
185,324,248227,1,0,0:0:0:0:
363,228,248377,1,0,0:0:0:0:
165,227,248527,1,0,0:0:0:0:
155,199,248602,1,0,0:0:0:0:
149,170,248677,1,0,0:0:0:0:
146,140,248752,1,0,0:0:0:0:
150,111,248827,1,0,0:0:0:0:
162,84,248902,1,0,0:0:0:0:
180,61,248977,1,0,0:0:0:0:
204,45,249052,1,0,0:0:0:0:
232,38,249127,5,0,0:0:0:0:
372,152,249277,1,0,0:0:0:0:
372,152,249352,1,0,0:0:0:0:
372,152,249427,1,0,0:0:0:0:
209,149,249577,5,0,0:0:0:0:
174,145,249652,1,0,0:0:0:0:
139,149,249727,1,0,0:0:0:0:
106,160,249802,1,0,0:0:0:0:
78,181,249877,1,0,0:0:0:0:
134,327,250027,1,0,0:0:0:0:
183,134,250177,1,0,0:0:0:0:
266,291,250327,5,0,0:0:0:0:
76,146,250477,1,0,0:0:0:0:
315,200,250627,1,0,0:0:0:0:
50,281,250777,1,0,0:0:0:0:
268,315,250927,1,0,0:0:0:0:
296,294,251002,1,0,0:0:0:0:
320,268,251077,1,0,0:0:0:0:
324,233,251152,1,0,0:0:0:0:
310,200,251227,1,0,0:0:0:0:
296,167,251302,1,0,0:0:0:0:
295,131,251377,1,0,0:0:0:0:
306,97,251452,1,0,0:0:0:0:
331,72,251527,5,0,0:0:0:0:
164,20,251677,1,0,0:0:0:0:
164,20,251752,1,0,0:0:0:0:
164,20,251827,1,0,0:0:0:0:
108,194,251977,5,0,0:0:0:0:
137,222,252052,1,0,0:0:0:0:
175,237,252127,1,0,0:0:0:0:
215,237,252202,1,0,0:0:0:0:
251,218,252277,1,0,0:0:0:0:
229,39,252427,1,0,0:0:0:0:
336,226,252577,1,0,0:0:0:0:
125,124,252727,5,0,0:0:0:0:
366,143,252877,1,0,0:0:0:0:
157,256,253027,1,0,0:0:0:0:
228,22,253177,1,0,0:0:0:0:
421,115,253327,5,0,0:0:0:0:
162,146,253477,1,0,0:0:0:0:
427,224,253627,1,0,0:0:0:0:
126,269,253777,1,0,0:0:0:0:
324,338,253927,5,0,0:0:0:0:
358,148,254077,1,0,0:0:0:0:
358,148,254152,1,0,0:0:0:0:
358,148,254227,1,0,0:0:0:0:
172,44,254377,5,0,0:0:0:0:
149,85,254452,1,0,0:0:0:0:
143,131,254527,1,0,0:0:0:0:
158,175,254602,1,0,0:0:0:0:
189,209,254677,1,0,0:0:0:0:
357,104,254827,1,0,0:0:0:0:
77,158,254977,1,0,0:0:0:0:
328,268,255127,5,0,0:0:0:0:
366,240,255202,1,0,0:0:0:0:
382,196,255277,1,0,0:0:0:0:
366,151,255352,1,0,0:0:0:0:
328,123,255427,1,0,0:0:0:0:
281,119,255502,1,0,0:0:0:0:
237,135,255577,1,0,0:0:0:0:
197,160,255652,1,0,0:0:0:0:
161,190,255727,5,0,0:0:0:0:
146,180,255802,1,0,0:0:0:0:
135,165,255877,1,0,0:0:0:0:
129,148,255952,1,0,0:0:0:0:
127,130,256027,2,0,L|128:66,3,58.4999973220826
160,58,256327,5,0,0:0:0:0:
207,81,256402,1,0,0:0:0:0:
259,75,256477,1,0,0:0:0:0:
307,56,256552,1,0,0:0:0:0:
358,48,256627,1,0,0:0:0:0:
409,57,256702,1,0,0:0:0:0:
441,99,256777,1,0,0:0:0:0:
442,152,256852,1,0,0:0:0:0:
416,199,256927,5,0,0:0:0:0:
366,217,257002,1,0,0:0:0:0:
315,202,257077,1,0,0:0:0:0:
270,175,257152,1,0,0:0:0:0:
217,171,257227,1,0,0:0:0:0:
172,199,257302,1,0,0:0:0:0:
155,250,257377,1,0,0:0:0:0:
165,302,257452,1,0,0:0:0:0:
200,341,257527,5,0,0:0:0:0:
252,344,257602,1,0,0:0:0:0:
296,316,257677,1,0,0:0:0:0:
310,266,257752,1,0,0:0:0:0:
284,220,257827,1,0,0:0:0:0:
237,196,257902,1,0,0:0:0:0:
185,207,257977,1,0,0:0:0:0:
136,228,258052,1,0,0:0:0:0:
83,234,258127,5,0,0:0:0:0:
41,213,258202,1,0,0:0:0:0:
15,174,258277,1,0,0:0:0:0:
9,128,258352,1,0,0:0:0:0:
22,83,258427,1,0,0:0:0:0:
56,51,258502,1,0,0:0:0:0:
100,38,258577,1,0,0:0:0:0:
146,46,258652,1,0,0:0:0:0:
183,73,258727,5,0,0:0:0:0:
86,295,259027,1,0,0:0:0:0:
214,62,259327,1,0,0:0:0:0:
282,179,259477,1,0,0:0:0:0:
356,71,259627,1,0,0:0:0:0:
105,107,259927,2,0,P|54:138|190:151,1,377.999988464356
118,186,261127,5,0,0:0:0:0:
435,109,261427,1,0,0:0:0:0:
170,348,261727,1,0,0:0:0:0:
486,271,262027,1,0,0:0:0:0:
178,37,262327,1,0,0:0:0:0:
256,192,262442,12,0,266942,0:0:0:0:
230,290,277096,5,0,0:0:0:0:
230,290,277327,1,0,0:0:0:0:
299,326,277557,1,0,0:0:0:0:
374,349,277788,1,0,0:0:0:0:
445,315,278019,1,0,0:0:0:0:
464,238,278250,1,0,0:0:0:0:
466,159,278480,2,0,P|458:108|437:57,1,99.0000030212403
268,115,278942,5,0,0:0:0:0:
205,65,279173,1,0,0:0:0:0:
126,61,279403,1,0,0:0:0:0:
99,135,279634,1,0,0:0:0:0:
36,183,279865,1,0,0:0:0:0:
22,261,280096,1,0,0:0:0:0:
51,334,280327,2,0,P|92:360|138:378,1,99.0000030212403
152,261,280788,5,0,0:0:0:0:
201,199,281019,1,0,0:0:0:0:
195,119,281250,1,0,0:0:0:0:
218,43,281480,1,0,0:0:0:0:
293,17,281711,1,0,0:0:0:0:
350,71,281942,1,0,0:0:0:0:
348,150,282173,2,0,P|349:199|361:247,1,99.0000030212403
481,348,282634,5,0,0:0:0:0:
403,330,282865,1,0,0:0:0:0:
323,334,283096,1,0,0:0:0:0:
250,365,283327,1,0,0:0:0:0:
171,358,283557,1,0,0:0:0:0:
103,317,283788,2,0,L|90:272,2,24.7500007553101
126,225,284019,2,0,P|173:212|234:215,1,99.0000030212403
399,132,284480,5,0,0:0:0:0:
319,130,284711,1,0,0:0:0:0:
249,91,284942,1,0,0:0:0:0:
187,41,285173,1,0,0:0:0:0:
139,104,285403,1,0,0:0:0:0:
80,157,285634,1,0,0:0:0:0:
50,230,285865,2,0,L|58:328,1,99.0000030212403
250,335,286327,5,0,0:0:0:0:
218,262,286557,1,0,0:0:0:0:
247,188,286788,1,0,0:0:0:0:
326,189,287019,1,0,0:0:0:0:
394,148,287250,1,0,0:0:0:0:
413,71,287480,1,0,0:0:0:0:
355,16,287711,2,0,L|240:29,1,99.0000030212403
161,124,288173,5,0,0:0:0:0:
214,181,288403,1,0,0:0:0:0:
293,181,288634,1,0,0:0:0:0:
366,151,288865,1,0,0:0:0:0:
445,153,289096,1,0,0:0:0:0:
497,211,289327,1,0,0:0:0:0:
498,289,289557,2,0,L|436:369,1,99.0000030212403
291,336,290019,6,0,L|253:284,1,49.5000015106202
216,327,290250,2,0,L|173:294,1,49.5000015106202
123,306,290480,2,0,L|123:250,1,49.5000015106202
71,238,290711,2,0,L|112:193,1,49.5000015106202
179,228,290942,5,0,0:0:0:0:
225,244,291057,1,0,0:0:0:0:
274,246,291173,1,0,0:0:0:0:
322,239,291288,1,0,0:0:0:0:
367,220,291403,1,0,0:0:0:0:
402,184,291519,1,0,0:0:0:0:
423,139,291634,1,0,0:0:0:0:
428,89,291750,1,0,0:0:0:0:
383,29,291865,5,0,0:0:0:0:
307,76,292096,1,0,0:0:0:0:
218,61,292327,1,0,0:0:0:0:
133,33,292557,1,0,0:0:0:0:
52,71,292788,1,0,0:0:0:0:
95,148,293019,1,0,0:0:0:0:
58,229,293250,2,0,B|47:276|47:276|45:328,1,99.0000030212403
306,316,293711,5,0,0:0:0:0:
216,311,293942,1,0,0:0:0:0:
203,222,294173,1,0,0:0:0:0:
269,163,294403,1,0,0:0:0:0:
274,73,294634,1,0,0:0:0:0:
190,42,294865,1,0,0:0:0:0:
122,99,295096,2,0,B|130:146|130:146|148:195,1,99.0000030212403,0|0,3:0|0:0,0:0:0:0:
361,218,295557,5,0,0:0:0:0:
274,239,295788,1,0,0:0:0:0:
304,322,296019,1,0,0:0:0:0:
215,328,296250,1,0,0:0:0:0:
148,269,296480,1,0,0:0:0:0:
62,293,296711,1,0,0:0:0:0:
8,221,296942,2,0,B|8:168|8:168|19:117,1,99.0000030212403
167,47,297403,5,0,0:0:0:0:
229,110,297634,1,0,0:0:0:0:
308,70,297865,1,0,0:0:0:0:
383,116,298096,1,0,0:0:0:0:
308,164,298327,1,0,0:0:0:0:
325,251,298557,2,0,L|342:277,2,24.7500007553101
425,263,298788,2,0,B|444:211|444:211|454:165,1,99.0000030212403
241,70,299250,5,0,0:0:0:0:
146,99,299480,1,0,0:0:0:0:
232,147,299711,1,0,0:0:0:0:
137,177,299942,1,0,0:0:0:0:
223,225,300173,1,0,0:0:0:0:
129,255,300403,1,0,0:0:0:0:
215,303,300634,2,0,L|314:341,1,99.0000030212403
487,244,301096,5,0,0:0:0:0:
396,284,301327,1,0,0:0:0:0:
434,192,301557,1,0,0:0:0:0:
343,232,301788,1,0,0:0:0:0:
384,142,302019,1,0,0:0:0:0:
291,177,302250,1,0,0:0:0:0:
328,82,302480,2,0,L|425:37,1,99.0000030212403
63,139,302942,5,0,0:0:0:0:
34,233,303173,1,0,0:0:0:0:
120,185,303403,1,0,0:0:0:0:
96,281,303634,1,0,0:0:0:0:
177,224,303865,1,0,0:0:0:0:
162,322,304096,1,0,0:0:0:0:
237,258,304327,2,0,L|258:157,1,99.0000030212403
374,124,304788,6,0,L|387:64,1,49.5000015106202
325,66,305019,2,0,L|308:12,1,49.5000015106202
256,45,305250,2,0,L|207:23,1,49.5000015106202
177,73,305480,2,0,L|130:99,1,49.5000015106202
305,213,305711,5,0,0:0:0:0:
340,164,305827,1,0,0:0:0:0:
337,104,305942,2,0,L|317:38,1,49.5000015106202
171,292,306173,1,0,0:0:0:0:
209,349,306288,1,0,0:0:0:0:
273,373,306403,1,0,0:0:0:0:
342,365,306519,1,0,0:0:0:0:
398,327,306634,2,0,B|423:251|423:251|377:261|413:170|413:170|396:131,1,225
336,45,307327,5,0,0:0:0:0:
336,45,307442,1,0,0:0:0:0:
336,45,307557,1,0,0:0:0:0:
202,134,307788,2,0,L|257:141,2,56.25
373,240,308250,5,0,0:0:0:0:
373,240,308365,1,0,0:0:0:0:
373,240,308480,1,0,0:0:0:0:
221,338,308711,2,0,L|276:345,2,56.25
49,104,309173,5,0,0:0:0:0:
49,104,309288,1,0,0:0:0:0:
49,104,309403,1,0,0:0:0:0:
66,286,309634,2,0,L|62:229,2,56.25
234,133,310096,6,0,L|223:193,1,56.25
229,287,310327,2,0,B|288:324|288:324|376:324|376:324|447:286,1,225
443,155,311019,5,0,0:0:0:0:
421,159,311134,1,0,0:0:0:0:
398,164,311250,1,0,0:0:0:0:
323,33,311480,2,0,L|298:90,2,56.25
77,116,311942,5,0,0:0:0:0:
97,124,312057,1,0,0:0:0:0:
118,131,312173,1,0,0:0:0:0:
39,328,312403,2,0,L|100:304,2,56.25
237,218,312865,5,0,0:0:0:0:
257,210,312980,1,0,0:0:0:0:
278,203,313096,1,0,0:0:0:0:
193,25,313326,2,0,L|245:45,2,56.25
371,171,313788,6,0,L|367:230,1,56.25
277,296,314019,2,0,P|208:269|221:109,1,225
171,43,314711,5,0,0:0:0:0:
148,48,314827,1,0,0:0:0:0:
126,53,314942,1,0,0:0:0:0:
28,184,315173,5,0,0:0:0:0:
49,189,315288,2,0,L|107:202,1,56.25
183,351,315634,5,0,0:0:0:0:
203,341,315750,1,0,0:0:0:0:
223,332,315865,1,0,0:0:0:0:
390,310,316096,1,0,0:0:0:0:
387,287,316212,2,0,L|379:216,1,56.25
449,121,316557,5,0,0:0:0:0:
427,114,316673,1,0,0:0:0:0:
405,107,316788,1,0,0:0:0:0:
264,29,317019,1,0,0:0:0:0:
256,50,317134,2,0,L|234:105,1,56.25
160,250,317480,6,0,L|97:260,1,56.25
248,352,317711,2,0,B|286:304|286:304|290:210|290:210|333:143,1,225
56,66,318403,1,0,0:0:0:0:
56,66,318519,1,0,0:0:0:0:
56,66,318634,2,0,B|94:114|94:114|98:208|98:208|141:275,1,225
306,333,319327,5,0,0:0:0:0:
306,333,319442,1,0,0:0:0:0:
306,333,319557,2,0,P|382:339|510:224,1,225
473,112,320250,5,0,0:0:0:0:
420,92,320365,1,0,0:0:0:0:
363,90,320480,1,0,0:0:0:0:
307,99,320596,1,0,0:0:0:0:
254,78,320711,1,0,0:0:0:0:
205,49,320827,2,0,L|137:43,1,56.25
266,260,321173,5,0,0:0:0:0:
266,260,321288,1,0,0:0:0:0:
266,260,321403,2,0,P|186:292|123:282,2,121.500000463486
448,148,322096,5,0,0:0:0:0:
419,158,322211,1,0,0:0:0:0:
390,167,322327,1,0,0:0:0:0:
457,259,322557,5,0,0:0:0:0:
426,262,322673,1,0,0:0:0:0:
395,265,322788,1,0,0:0:0:0:
377,355,323019,5,0,0:0:0:0:
347,348,323135,1,0,0:0:0:0:
317,341,323250,1,0,0:0:0:0:
206,238,323480,2,0,L|186:178,2,60.7500002317429
95,332,323942,5,0,0:0:0:0:
70,313,324057,1,0,0:0:0:0:
49,290,324173,1,0,0:0:0:0:
36,262,324288,1,0,0:0:0:0:
31,232,324403,1,0,0:0:0:0:
32,201,324519,1,0,0:0:0:0:
40,171,324634,1,0,0:0:0:0:
59,147,324750,1,0,0:0:0:0:
87,135,324865,5,0,0:0:0:0:
87,135,324980,1,0,0:0:0:0:
87,135,325096,2,0,P|156:114|194:63,2,121.500000463486
49,87,325788,5,0,0:0:0:0:
40,57,325903,1,0,0:0:0:0:
32,27,326019,1,0,0:0:0:0:
168,101,326250,5,0,0:0:0:0:
175,71,326365,1,0,0:0:0:0:
182,41,326480,1,0,0:0:0:0:
227,204,326711,5,0,0:0:0:0:
256,195,326827,1,0,0:0:0:0:
285,186,326942,1,0,0:0:0:0:
153,323,327173,5,0,0:0:0:0:
180,335,327288,1,0,0:0:0:0:
207,347,327403,1,0,0:0:0:0:
84,158,327634,5,0,0:0:0:0:
88,188,327749,1,0,0:0:0:0:
92,218,327865,1,0,0:0:0:0:
243,117,328096,5,0,0:0:0:0:
251,87,328211,1,0,0:0:0:0:
259,57,328327,1,0,0:0:0:0:
341,169,328557,6,0,L|304:218,1,60.7500002317429
431,116,328788,2,0,B|456:172|457:300|457:300|407:356,1,243.000000926971
293,300,329480,5,0,0:0:0:0:
263,307,329596,1,0,0:0:0:0:
233,314,329711,1,0,0:0:0:0:
123,304,329942,5,0,0:0:0:0:
93,312,330057,1,0,0:0:0:0:
64,322,330173,1,0,0:0:0:0:
64,166,330403,5,0,0:0:0:0:
91,152,330519,1,0,0:0:0:0:
118,139,330634,1,0,0:0:0:0:
243,156,330865,5,0,0:0:0:0:
273,159,330980,1,0,0:0:0:0:
303,162,331096,1,0,0:0:0:0:
434,142,331327,5,0,0:0:0:0:
446,114,331442,1,0,0:0:0:0:
459,86,331557,1,0,0:0:0:0:
334,37,331788,5,0,0:0:0:0:
303,35,331903,1,0,0:0:0:0:
272,34,332019,1,0,0:0:0:0:
120,155,332250,5,0,0:0:0:0:
120,155,332365,1,0,0:0:0:0:
120,155,332480,2,0,P|91:85|93:33,2,121.500000463486
241,133,333173,5,0,0:0:0:0:
241,133,333288,1,0,0:0:0:0:
241,133,333403,1,0,0:0:0:0:
333,259,333634,5,0,0:0:0:0:
333,259,333750,1,0,0:0:0:0:
333,259,333865,1,0,0:0:0:0:
168,264,334096,5,0,0:0:0:0:
168,264,334211,1,0,0:0:0:0:
168,264,334327,2,0,L|156:195,1,60.7500002317429
232,168,334557,2,0,L|235:95,1,60.7500002317429
342,145,334788,5,0,0:0:0:0:
342,145,334903,2,0,L|364:206,1,60.7500002317429
427,246,335134,1,0,0:0:0:0:
427,246,335250,2,0,L|421:322,1,60.7500002317429
332,342,335480,5,0,0:0:0:0:
289,345,335596,1,0,0:0:0:0:
246,349,335711,1,0,0:0:0:0:
203,353,335827,1,0,0:0:0:0:
160,357,335942,1,0,0:0:0:0:
117,361,336057,1,0,0:0:0:0:
74,363,336173,5,0,0:0:0:0:
50,343,336288,1,0,0:0:0:0:
36,316,336403,1,0,0:0:0:0:
31,285,336519,1,0,0:0:0:0:
34,254,336634,1,0,0:0:0:0:
48,226,336750,1,0,0:0:0:0:
71,206,336865,1,0,0:0:0:0:
99,194,336980,1,0,0:0:0:0:
127,181,337096,5,0,0:0:0:0:
152,165,337211,1,0,0:0:0:0:
170,140,337327,1,0,0:0:0:0:
178,110,337442,1,0,0:0:0:0:
177,79,337557,1,0,0:0:0:0:
166,50,337673,1,0,0:0:0:0:
145,27,337788,1,0,0:0:0:0:
115,18,337903,1,0,0:0:0:0:
84,22,338019,5,0,0:0:0:0:
57,35,338134,1,0,0:0:0:0:
39,60,338250,1,0,0:0:0:0:
33,89,338365,1,0,0:0:0:0:
39,118,338480,1,0,0:0:0:0:
54,144,338596,1,0,0:0:0:0:
80,158,338711,1,0,0:0:0:0:
110,161,338827,1,0,0:0:0:0:
139,156,338942,5,0,0:0:0:0:
169,155,339057,1,0,0:0:0:0:
195,169,339173,1,0,0:0:0:0:
212,193,339288,1,0,0:0:0:0:
217,222,339403,1,0,0:0:0:0:
212,252,339519,1,0,0:0:0:0:
198,278,339634,1,0,0:0:0:0:
172,294,339750,1,0,0:0:0:0:
142,300,339865,6,0,P|71:297|27:253,1,121.500000463486
130,83,340327,2,0,P|201:86|245:130,1,121.500000463486
288,219,340788,5,0,0:0:0:0:
316,230,340903,1,0,0:0:0:0:
346,231,341019,1,0,0:0:0:0:
375,225,341134,1,0,0:0:0:0:
404,218,341250,1,0,0:0:0:0:
434,215,341365,1,0,0:0:0:0:
462,224,341480,1,0,0:0:0:0:
487,240,341596,1,0,0:0:0:0:
499,267,341711,5,0,0:0:0:0:
497,297,341827,1,0,0:0:0:0:
478,320,341942,1,0,0:0:0:0:
449,331,342057,1,0,0:0:0:0:
418,329,342173,1,0,0:0:0:0:
392,312,342288,1,0,0:0:0:0:
376,286,342403,1,0,0:0:0:0:
372,255,342519,1,0,0:0:0:0:
380,225,342634,5,0,0:0:0:0:
398,200,342750,1,0,0:0:0:0:
412,173,342865,1,0,0:0:0:0:
419,143,342980,1,0,0:0:0:0:
412,113,343096,1,0,0:0:0:0:
397,86,343211,1,0,0:0:0:0:
373,66,343327,1,0,0:0:0:0:
344,55,343442,1,0,0:0:0:0:
315,64,343557,6,0,P|237:80|192:50,1,121.500000463486
114,206,344019,2,0,P|169:184|225:203,1,121.500000463486
328,315,344480,5,0,0:0:0:0:
302,341,344596,1,0,0:0:0:0:
267,351,344711,1,0,0:0:0:0:
230,350,344827,1,0,0:0:0:0:
196,336,344942,1,0,0:0:0:0:
170,310,345057,1,0,0:0:0:0:
155,276,345173,1,0,0:0:0:0:
151,239,345288,1,0,0:0:0:0:
163,204,345403,5,0,0:0:0:0:
187,176,345519,1,0,0:0:0:0:
208,146,345634,1,0,0:0:0:0:
221,111,345750,1,0,0:0:0:0:
212,75,345865,1,0,0:0:0:0:
195,42,345980,1,0,0:0:0:0:
164,21,346096,1,0,0:0:0:0:
127,19,346211,1,0,0:0:0:0:
94,35,346327,5,0,0:0:0:0:
73,65,346442,1,0,0:0:0:0:
73,101,346557,1,0,0:0:0:0:
87,134,346673,1,0,0:0:0:0:
101,167,346788,1,0,0:0:0:0:
106,202,346903,1,0,0:0:0:0:
105,238,347019,1,0,0:0:0:0:
92,272,347134,1,0,0:0:0:0:
68,307,347250,6,0,P|23:270|33:195,1,121.500000463486
281,240,347711,2,0,P|326:277|316:352,1,121.500000463486
107,174,348173,6,0,B|92:110|92:110|93:49,1,121.500000463486
413,15,348634,2,0,B|428:79|428:79|427:140,1,121.500000463486
413,194,348980,5,0,0:0:0:0:
413,194,349096,2,0,B|377:196|377:196|345:200,1,60.7500002317429
379,292,349327,2,0,B|415:290|415:290|439:286,1,60.7500002317429
289,158,349557,1,0,0:0:0:0:
289,158,349673,2,0,B|253:160|253:160|221:164,1,60.7500002317429
233,259,349903,1,0,0:0:0:0:
233,259,350019,2,0,B|197:257|197:257|165:253,1,60.7500002317429
98,162,350250,2,0,B|123:159|123:159|159:157,1,60.7500002317429
14,41,350480,5,0,0:0:0:0:
10,83,350596,1,0,0:0:0:0:
9,125,350711,1,0,0:0:0:0:
7,167,350827,1,0,0:0:0:0:
7,209,350942,5,0,0:0:0:0:
36,247,351057,1,0,0:0:0:0:
83,258,351173,1,0,0:0:0:0:
129,245,351288,1,0,0:0:0:0:
172,223,351403,1,0,0:0:0:0:
219,212,351519,1,0,0:0:0:0:
267,216,351634,1,0,0:0:0:0:
312,234,351750,1,0,0:0:0:0:
343,271,351865,1,0,0:0:0:0:
349,318,351980,1,0,0:0:0:0:
334,364,352096,1,0,0:0:0:0:
304,325,352211,1,0,0:0:0:0:
302,276,352327,1,0,0:0:0:0:
321,231,352442,1,0,0:0:0:0:
350,192,352557,1,0,0:0:0:0:
391,166,352673,1,0,0:0:0:0:
415,124,352788,5,0,0:0:0:0:
409,69,352903,1,0,0:0:0:0:
372,27,353019,1,0,0:0:0:0:
319,13,353134,1,0,0:0:0:0:
264,20,353250,1,0,0:0:0:0:
220,52,353365,1,0,0:0:0:0:
175,83,353480,1,0,0:0:0:0:
120,77,353596,1,0,0:0:0:0:
69,57,353711,1,0,0:0:0:0:
18,79,353827,1,0,0:0:0:0:
2,131,353942,1,0,0:0:0:0:
1,185,354057,1,0,0:0:0:0:
15,238,354173,1,0,0:0:0:0:
43,284,354288,1,0,0:0:0:0:
89,312,354403,1,0,0:0:0:0:
142,324,354519,1,0,0:0:0:0:
195,314,354634,6,0,L|318:287,1,121.500000463486
351,70,355096,2,0,L|228:97,1,121.500000463486
178,107,355442,1,0,0:0:0:0:
124,117,355557,1,0,0:0:0:0:
259,255,355788,5,0,0:0:0:0:
312,262,355903,1,0,0:0:0:0:
366,270,356019,1,0,0:0:0:0:
462,40,356250,5,0,0:0:0:0:
410,57,356365,1,0,0:0:0:0:
357,71,356480,1,0,0:0:0:0:
167,73,356711,5,0,0:0:0:0:
114,59,356826,1,0,0:0:0:0:
61,45,356941,1,0,0:0:0:0:
138,278,357173,5,0,0:0:0:0:
93,310,357289,1,0,0:0:0:0:
48,341,357404,1,0,0:0:0:0:
374,278,357634,5,0,0:0:0:0:
417,311,357750,1,0,0:0:0:0:
462,341,357865,1,0,0:0:0:0:
121,145,358096,5,0,0:0:0:0:
121,145,358211,1,0,0:0:0:0:
121,145,358327,2,0,B|109:101|109:101|124:27,1,121.500000463486
363,171,358788,2,0,B|376:216|376:216|361:290,1,121.500000463486
269,310,359250,5,0,0:0:0:0:
216,323,359365,1,0,0:0:0:0:
162,310,359480,1,0,0:0:0:0:
129,265,359596,1,0,0:0:0:0:
129,210,359711,1,0,0:0:0:0:
161,165,359827,1,0,0:0:0:0:
212,148,359942,1,0,0:0:0:0:
265,155,360057,1,0,0:0:0:0:
316,174,360173,5,0,0:0:0:0:
376,175,360288,1,0,0:0:0:0:
407,123,360403,1,0,0:0:0:0:
393,63,360519,1,0,0:0:0:0:
346,23,360634,1,0,0:0:0:0:
285,30,360750,1,0,0:0:0:0:
237,67,360865,1,0,0:0:0:0:
229,127,360980,1,0,0:0:0:0:
250,184,361096,5,0,0:0:0:0:
309,214,361211,1,0,0:0:0:0:
375,221,361327,1,0,0:0:0:0:
432,186,361442,1,0,0:0:0:0:
450,122,361557,1,0,0:0:0:0:
417,63,361673,1,0,0:0:0:0:
354,86,361788,1,0,0:0:0:0:
356,152,361903,1,0,0:0:0:0:
414,184,362019,2,0,P|461:136|447:77,1,121.500000463486
311,22,362480,5,0,0:0:0:0:
254,57,362596,1,0,0:0:0:0:
188,68,362711,1,0,0:0:0:0:
121,59,362827,1,0,0:0:0:0:
55,70,362942,5,0,0:0:0:0:
15,130,363057,1,0,0:0:0:0:
8,203,363173,1,0,0:0:0:0:
36,269,363288,1,0,0:0:0:0:
94,311,363403,5,0,0:0:0:0:
173,315,363519,1,0,0:0:0:0:
241,275,363634,1,0,0:0:0:0:
332,268,363750,1,0,0:0:0:0:
403,324,363865,6,0,L|390:364,2,30.3750001158714
345,237,364096,1,0,0:0:0:0:
243,222,364211,1,0,0:0:0:0:
158,282,364327,2,0,L|145:322,2,30.3750001158714
76,218,364557,1,0,0:0:0:0:
64,114,364673,1,0,0:0:0:0:
148,54,364788,2,0,L|135:14,2,30.3750001158714
218,147,365019,1,0,0:0:0:0:
138,307,365134,1,0,0:0:0:0:
68,190,365250,6,0,L|49:132,1,60.7500002317429
229,231,365480,2,0,L|207:174,1,60.7500002317429
397,270,365711,6,0,P|465:255|320:214,1,504
186,363,367557,2,0,P|118:349|138:70,1,432
279,21,369403,6,0,B|393:108|393:108|284:192|284:192|254:106|254:106|161:109|161:109|232:340|232:340|475:158,1,1008
471,317,373096,6,0,B|399:205|399:205|231:205|231:205|131:342|131:342|48:273|48:273|143:131|143:131|410:131,1,1008
248,54,376788,6,0,P|1:188|286:161,1,792
401,216,380250,6,0,L|420:265,1,36
179,318,380480,2,0,B|133:256|203:98|203:98|381:85|381:85|275:239,1,576
128,101,382679,6,0,L|116:41,1,48
105,261,383015,2,0,L|113:311,1,48
0,72,383314,1,0,0:0:0:0:
312,192,383616,1,0,0:0:0:0:
0,352,383918,1,0,0:0:0:0:
147,21,384173,2,0,B|150:88|150:88|275:32|275:32|202:198|202:198|410:91|410:91|487:163,1,720
459,224,386942,5,0,0:0:0:0:
433,318,387096,1,0,0:0:0:0:
348,366,387249,1,0,0:0:0:0:
251,345,387403,1,0,0:0:0:0:
217,252,387557,1,0,0:0:0:0:
130,204,387711,1,0,0:0:0:0:
47,257,387865,2,0,B|50:405|356:323|183:9,1,504
445,207,389711,2,0,P|289:280|147:184,1,360
404,29,391096,5,0,0:0:0:0:
455,120,391249,1,0,0:0:0:0:
448,225,391403,1,0,0:0:0:0:
378,304,391557,1,0,0:0:0:0:
256,192,391673,12,0,393403,0:0:0:0:
256,192,393519,12,0,395134,0:0:0:0:
115,153,395250,6,0,P|110:132|98:110,3,45
43,174,395550,2,0,P|22:167|-2:167,3,45
78,276,395850,6,0,P|83:254|93:234,3,45
150,297,396151,2,0,P|171:290|193:290,3,45
181,101,396450,6,0,P|180:123|174:144,3,45
236,201,396751,2,0,P|216:211|194:216,3,45
60,296,397050,6,0,P|59:273|53:252,3,45
115,196,397351,2,0,P|95:185|73:180,3,45
177,280,397650,5,0,0:0:0:0:
198,288,397725,1,0,0:0:0:0:
220,288,397800,1,0,0:0:0:0:
240,279,397875,1,0,0:0:0:0:
258,265,397950,2,0,P|270:246|276:222,3,45
246,97,398250,5,0,0:0:0:0:
224,101,398325,1,0,0:0:0:0:
206,113,398400,1,0,0:0:0:0:
194,131,398475,1,0,0:0:0:0:
186,152,398550,2,0,P|185:174|193:198,3,45
329,175,398850,5,0,0:0:0:0:
349,186,398925,1,0,0:0:0:0:
370,187,399000,1,0,0:0:0:0:
391,180,399075,1,0,0:0:0:0:
410,168,399150,2,0,P|423:150|431:126,3,45
451,290,399450,5,0,0:0:0:0:
431,279,399525,1,0,0:0:0:0:
410,278,399600,1,0,0:0:0:0:
389,285,399675,1,0,0:0:0:0:
370,297,399750,2,0,P|356:314|348:338,3,45
256,327,400050,6,0,L|206:344,3,45
145,289,400350,2,0,L|195:272,3,45
67,158,400650,6,0,L|84:208,3,45
29,269,400950,2,0,L|12:219,3,45
229,219,401250,6,0,L|246:169,3,45
191,108,401550,2,0,L|174:158,3,45
396,66,401850,6,0,L|346:49,3,45
285,104,402150,2,0,L|335:121,3,45
428,186,402450,5,0,0:0:0:0:
441,204,402525,1,0,0:0:0:0:
448,225,402600,1,0,0:0:0:0:
449,247,402675,1,0,0:0:0:0:
446,269,402750,2,0,L|431:322,3,45
333,324,403050,5,0,0:0:0:0:
315,337,403125,1,0,0:0:0:0:
294,344,403200,1,0,0:0:0:0:
272,345,403275,1,0,0:0:0:0:
250,342,403350,2,0,L|197:327,3,45
228,233,403650,6,0,L|281:248,3,45
165,158,403950,2,0,L|218:143,3,45
69,177,404250,5,0,0:0:0:0:
53,160,404325,1,0,0:0:0:0:
45,138,404400,1,0,0:0:0:0:
43,115,404475,1,0,0:0:0:0:
44,92,404550,2,0,L|52:45,3,45
73,31,404850,5,0,0:0:0:0:
118,14,404925,1,0,0:0:0:0:
166,18,405000,1,0,0:0:0:0:
200,52,405075,1,0,0:0:0:0:
201,100,405150,1,0,0:0:0:0:
177,142,405225,1,0,0:0:0:0:
172,190,405300,1,0,0:0:0:0:
198,230,405375,1,0,0:0:0:0:
241,250,405450,6,0,L|295:258,3,53.9999983520508
358,267,405750,1,0,0:0:0:0:
332,113,405900,1,0,0:0:0:0:
273,351,406050,5,0,0:0:0:0:
229,328,406125,1,0,0:0:0:0:
181,319,406200,1,0,0:0:0:0:
135,334,406275,1,0,0:0:0:0:
86,341,406350,1,0,0:0:0:0:
39,325,406425,1,0,0:0:0:0:
16,281,406500,1,0,0:0:0:0:
25,233,406575,1,0,0:0:0:0:
53,193,406650,6,0,L|63:139,3,53.9999983520508
80,77,406950,1,0,0:0:0:0:
202,188,407100,1,0,0:0:0:0:
256,16,407250,5,0,0:0:0:0:
304,21,407325,1,0,0:0:0:0:
344,48,407400,1,0,0:0:0:0:
361,93,407475,1,0,0:0:0:0:
354,141,407550,1,0,0:0:0:0:
320,175,407625,1,0,0:0:0:0:
317,223,407700,1,0,0:0:0:0:
340,265,407775,1,0,0:0:0:0:
383,286,407850,6,0,L|439:302,3,53.9999983520508
497,317,408150,1,0,0:0:0:0:
474,148,408300,1,0,0:0:0:0:
302,144,408450,5,0,0:0:0:0:
263,173,408525,1,0,0:0:0:0:
214,171,408600,1,0,0:0:0:0:
174,142,408675,1,0,0:0:0:0:
161,95,408750,1,0,0:0:0:0:
141,50,408825,1,0,0:0:0:0:
98,26,408900,1,0,0:0:0:0:
50,35,408975,1,0,0:0:0:0:
17,71,409050,6,0,L|13:126,3,53.9999983520508
6,190,409350,1,0,0:0:0:0:
166,74,409500,1,0,0:0:0:0:
161,225,409650,5,0,0:0:0:0:
192,262,409725,1,0,0:0:0:0:
239,270,409800,1,0,0:0:0:0:
279,243,409875,1,0,0:0:0:0:
313,208,409950,1,0,0:0:0:0:
356,186,410025,1,0,0:0:0:0:
404,183,410100,1,0,0:0:0:0:
447,205,410175,1,0,0:0:0:0:
458,252,410250,6,0,L|464:308,3,53.9999983520508
475,370,410550,1,0,0:0:0:0:
320,256,410700,1,0,0:0:0:0:
293,78,410850,5,0,0:0:0:0:
255,109,410925,1,0,0:0:0:0:
206,106,411000,1,0,0:0:0:0:
165,79,411075,1,0,0:0:0:0:
122,55,411150,1,0,0:0:0:0:
73,56,411225,1,0,0:0:0:0:
34,86,411300,1,0,0:0:0:0:
25,133,411375,1,0,0:0:0:0:
38,181,411450,6,0,L|56:232,3,53.9999983520508
78,287,411750,1,0,0:0:0:0:
263,276,411900,1,0,0:0:0:0:
297,68,412050,5,0,0:0:0:0:
257,96,412125,1,0,0:0:0:0:
243,142,412200,1,0,0:0:0:0:
253,189,412275,1,0,0:0:0:0:
284,225,412350,1,0,0:0:0:0:
321,256,412425,1,0,0:0:0:0:
323,304,412500,1,0,0:0:0:0:
296,354,412575,1,0,0:0:0:0:
248,363,412650,6,0,L|195:351,3,53.9999983520508
131,338,412950,1,0,0:0:0:0:
2,233,413100,1,0,0:0:0:0:
84,54,413250,5,0,0:0:0:0:
52,91,413325,1,0,0:0:0:0:
43,138,413400,1,0,0:0:0:0:
54,185,413475,1,0,0:0:0:0:
90,216,413550,1,0,0:0:0:0:
135,233,413625,1,0,0:0:0:0:
183,229,413700,1,0,0:0:0:0:
223,201,413775,1,0,0:0:0:0:
264,176,413850,5,0,0:0:0:0:
301,168,413925,1,0,0:0:0:0:
336,181,414000,1,0,0:0:0:0:
358,211,414075,1,0,0:0:0:0:
364,248,414150,1,0,0:0:0:0:
348,282,414225,1,0,0:0:0:0:
318,305,414300,2,0,L|268:329,1,53.9999983520508
143,330,414450,5,0,0:0:0:0:
109,294,414525,1,0,0:0:0:0:
107,245,414600,1,0,0:0:0:0:
126,200,414675,1,0,0:0:0:0:
168,176,414750,1,0,0:0:0:0:
214,161,414825,1,0,0:0:0:0:
235,117,414900,1,0,0:0:0:0:
237,65,414975,1,0,0:0:0:0:
215,21,415050,6,0,P|186:12|154:9,3,53.9999983520508
107,89,415350,2,0,P|136:98|168:101,3,53.9999983520508
199,226,415650,5,0,0:0:0:0:
236,195,415725,1,0,0:0:0:0:
283,184,415800,1,0,0:0:0:0:
330,195,415875,1,0,0:0:0:0:
359,233,415950,1,0,0:0:0:0:
401,256,416025,1,0,0:0:0:0:
449,254,416100,1,0,0:0:0:0:
479,215,416175,1,0,0:0:0:0:
488,167,416250,6,0,P|490:141|482:112,3,53.9999983520508
392,78,416550,2,0,P|390:104|398:133,3,53.9999983520508
310,261,416850,5,0,0:0:0:0:
273,293,416925,1,0,0:0:0:0:
224,292,417000,1,0,0:0:0:0:
182,266,417075,1,0,0:0:0:0:
168,219,417150,1,0,0:0:0:0:
171,170,417225,1,0,0:0:0:0:
161,122,417300,1,0,0:0:0:0:
123,90,417375,1,0,0:0:0:0:
75,81,417450,6,0,L|19:93,3,53.9999983520508
10,188,417750,2,0,L|66:176,3,53.9999983520508
132,332,418050,5,0,0:0:0:0:
174,309,418125,1,0,0:0:0:0:
197,266,418200,1,0,0:0:0:0:
195,217,418275,1,0,0:0:0:0:
166,177,418350,1,0,0:0:0:0:
157,129,418425,1,0,0:0:0:0:
173,83,418500,1,0,0:0:0:0:
210,52,418575,1,0,0:0:0:0:
258,47,418650,6,0,L|319:58,3,53.9999983520508
330,153,418950,2,0,L|269:142,3,53.9999983520508,2|0|2|0,0:0|0:0|0:0|0:0,0:0:0:0:
450,174,419250,5,0,0:0:0:0:
467,219,419325,1,0,0:0:0:0:
466,267,419400,1,0,0:0:0:0:
446,311,419475,1,0,0:0:0:0:
401,329,419550,1,0,0:0:0:0:
352,327,419625,1,0,0:0:0:0:
307,306,419700,1,0,0:0:0:0:
261,288,419775,1,0,0:0:0:0:
212,292,419850,6,0,B|194:298|194:298|174:300|174:300|156:310,3,53.9999983520508
103,228,420150,2,0,B|121:222|121:222|141:220|141:220|159:210,3,53.9999983520508
255,105,420450,5,0,0:0:0:0:
285,143,420525,1,0,0:0:0:0:
288,191,420600,1,0,0:0:0:0:
263,233,420675,1,0,0:0:0:0:
253,280,420750,1,0,0:0:0:0:
270,325,420825,1,0,0:0:0:0:
303,359,420900,1,0,0:0:0:0:
350,369,420975,1,0,0:0:0:0:
397,357,421050,6,0,B|413:345|413:345|432:341|432:341|445:332,3,53.9999983520508
438,235,421350,2,0,B|422:247|422:247|403:251|403:251|390:260,3,53.9999983520508
314,144,421650,5,8,0:0:0:0:
270,120,421725,1,8,0:0:0:0:
224,129,421800,1,8,0:0:0:0:
186,160,421875,1,8,0:0:0:0:
159,199,421950,1,8,0:0:0:0:
111,209,422025,1,8,0:0:0:0:
69,183,422100,1,8,0:0:0:0:
48,138,422175,1,8,0:0:0:0:
59,90,422250,6,8,L|109:70,3,53.9999983520508
183,136,422550,2,8,L|132:153,3,53.9999983520508
60,84,422850,5,0,0:0:0:0:
375,85,423150,1,0,0:0:0:0:
105,286,423450,1,0,0:0:0:0:
419,221,423750,1,0,0:0:0:0:
218,242,424050,6,0,L|194:193,2,49.5000015106202
212,142,424275,1,0,0:0:0:0:
212,142,424350,2,0,B|191:94|191:94|149:54,1,99.0000030212403
1,105,424650,2,0,B|21:152|21:152|63:192,1,99.0000030212403
157,130,424950,1,0,0:0:0:0:
157,130,425025,1,0,0:0:0:0:
157,130,425100,2,0,L|163:77,1,49.5000015106202
254,157,425250,2,0,P|311:133|394:172,1,148.50000453186
392,277,425550,5,0,0:0:0:0:
402,293,425625,1,0,0:0:0:0:
405,312,425700,1,0,0:0:0:0:
400,331,425775,1,0,0:0:0:0:
389,347,425850,2,0,B|332:369|332:369|258:352|258:352|195:364,1,198.000006042481
82,364,426300,5,0,0:0:0:0:
121,206,426450,1,0,0:0:0:0:
138,181,426525,1,0,0:0:0:0:
145,152,426600,1,0,0:0:0:0:
139,122,426675,1,0,0:0:0:0:
119,99,426750,1,0,0:0:0:0:
92,86,426825,1,0,0:0:0:0:
62,83,426900,1,0,0:0:0:0:
33,90,426975,1,0,0:0:0:0:
12,111,427050,5,0,0:0:0:0:
45,132,427125,1,0,0:0:0:0:
83,141,427200,1,0,0:0:0:0:
122,135,427275,1,0,0:0:0:0:
157,117,427350,1,0,0:0:0:0:
188,93,427425,1,0,0:0:0:0:
218,67,427500,1,0,0:0:0:0:
255,54,427575,1,0,0:0:0:0:
299,52,427650,5,0,0:0:0:0:
331,95,427725,1,0,0:0:0:0:
333,149,427800,1,0,0:0:0:0:
297,190,427875,1,0,0:0:0:0:
259,229,427950,2,0,P|249:255|245:289,1,49.5000015106202
452,349,428100,5,0,0:0:0:0:
483,304,428175,1,0,0:0:0:0:
489,249,428250,1,0,0:0:0:0:
469,198,428325,1,0,0:0:0:0:
423,167,428400,2,0,P|391:157|369:155,1,49.5000015106202
198,162,428550,5,0,0:0:0:0:
167,207,428625,1,0,0:0:0:0:
161,262,428700,1,0,0:0:0:0:
181,313,428775,1,0,0:0:0:0:
227,344,428850,2,0,P|259:354|281:356,2,49.5000015106202
82,317,429150,1,0,0:0:0:0:
17,206,429300,5,0,0:0:0:0:
8,229,429375,1,0,0:0:0:0:
0,252,429450,1,0,0:0:0:0:
80,92,429600,1,0,0:0:0:0:
180,160,429750,5,0,0:0:0:0:
189,183,429825,1,0,0:0:0:0:
197,206,429900,1,0,0:0:0:0:
433,129,430050,5,0,0:0:0:0:
416,170,430125,1,0,0:0:0:0:
384,201,430200,1,0,0:0:0:0:
339,207,430275,1,0,0:0:0:0:
297,189,430350,1,0,0:0:0:0:
331,73,430500,1,0,0:0:0:0:
238,240,430650,5,0,0:0:0:0:
468,137,430800,1,0,0:0:0:0:
228,211,430950,5,0,0:0:0:0:
488,184,431100,1,0,0:0:0:0:
218,186,431250,5,0,0:0:0:0:
194,192,431325,1,0,0:0:0:0:
170,198,431400,1,0,0:0:0:0:
145,203,431475,1,0,0:0:0:0:
124,216,431550,5,0,0:0:0:0:
99,214,431625,1,0,0:0:0:0:
74,213,431700,1,0,0:0:0:0:
49,212,431775,1,0,0:0:0:0:
27,200,431850,5,0,0:0:0:0:
13,157,431925,1,0,0:0:0:0:
23,113,432000,1,0,0:0:0:0:
53,80,432075,1,0,0:0:0:0:
94,65,432150,1,0,0:0:0:0:
138,67,432225,1,0,0:0:0:0:
181,76,432300,1,0,0:0:0:0:
224,67,432375,1,0,0:0:0:0:
259,39,432450,5,0,0:0:0:0:
350,136,432600,5,0,0:0:0:0:
355,155,432675,1,0,0:0:0:0:
360,174,432750,1,0,0:0:0:0:
162,175,432900,1,0,0:0:0:0:
295,258,433050,1,0,0:0:0:0:
284,103,433200,1,0,0:0:0:0:
179,301,433350,5,0,0:0:0:0:
179,301,433425,1,0,0:0:0:0:
179,301,433500,1,0,0:0:0:0:
179,301,433575,1,0,0:0:0:0:
179,301,433650,1,0,0:0:0:0:
287,293,433800,1,0,0:0:0:0:
104,222,433950,1,0,0:0:0:0:
339,234,434100,6,0,P|378:289|287:371,1,198.000006042481
152,266,434550,2,0,P|121:222|125:171,1,99.0000030212403
298,83,434850,6,0,P|230:20|154:71,1,198.000006042481
183,266,435300,1,0,0:0:0:0:
239,130,435450,1,0,0:0:0:0:
254,338,435600,1,0,0:0:0:0:
103,170,435750,1,0,0:0:0:0:
328,324,435900,5,0,0:0:0:0:
328,132,436050,1,0,0:0:0:0:
136,132,436200,1,0,0:0:0:0:
136,324,436350,1,0,0:0:0:0:
412,195,436500,2,0,B|258:278|258:124|131:207,1,297.000009063721
77,346,437100,1,0,0:0:0:0:
77,346,437175,1,0,0:0:0:0:
77,346,437250,2,0,P|131:297|71:197,1,198.000006042481
29,274,437700,5,0,0:0:0:0:
258,206,437850,1,0,0:0:0:0:
258,206,438000,1,0,0:0:0:0:
38,125,438150,1,0,0:0:0:0:
38,125,438300,1,0,0:0:0:0:
211,119,438450,5,0,0:0:0:0:
71,285,438600,1,0,0:0:0:0:
274,304,438750,1,0,0:0:0:0:
134,145,438900,2,0,P|124:219|230:277,1,198.000006042481
218,279,439275,5,0,0:0:0:0:
218,279,439350,1,0,0:0:0:0:
465,197,439500,1,0,0:0:0:0:
350,295,439650,1,0,0:0:0:0:
360,107,439800,2,0,B|388:99|425:111|425:111|452:132,1,99.0000030212403
205,332,440100,2,0,B|214:270|214:270|191:193|191:193|206:128,1,198.000006042481
224,101,440475,1,0,0:0:0:0:
224,101,440550,1,0,0:0:0:0:
379,251,440700,5,0,0:0:0:0:
379,251,440775,1,0,0:0:0:0:
379,251,440850,5,0,0:0:0:0:
354,245,440925,1,0,0:0:0:0:
329,243,441000,1,0,0:0:0:0:
304,245,441075,1,0,0:0:0:0:
279,250,441150,5,0,0:0:0:0:
249,252,441225,1,0,0:0:0:0:
220,242,441300,1,0,0:0:0:0:
198,221,441375,1,0,0:0:0:0:
185,194,441450,5,0,0:0:0:0:
188,159,441525,1,0,0:0:0:0:
209,132,441600,1,0,0:0:0:0:
230,104,441675,1,0,0:0:0:0:
240,70,441750,5,0,0:0:0:0:
226,32,441825,1,0,0:0:0:0:
193,9,441900,1,0,0:0:0:0:
153,5,441975,1,0,0:0:0:0:
114,14,442050,5,0,0:0:0:0:
86,49,442125,1,0,0:0:0:0:
88,93,442200,1,0,0:0:0:0:
108,132,442275,1,0,0:0:0:0:
147,153,442350,5,0,0:0:0:0:
196,150,442425,1,0,0:0:0:0:
239,126,442500,1,0,0:0:0:0:
279,97,442575,1,0,0:0:0:0:
326,83,442650,1,0,0:0:0:0:
374,91,442725,1,0,0:0:0:0:
417,113,442800,1,0,0:0:0:0:
438,157,442875,1,0,0:0:0:0:
428,205,442950,5,0,0:0:0:0:
397,221,443025,1,0,0:0:0:0:
362,224,443100,1,0,0:0:0:0:
328,214,443175,1,0,0:0:0:0:
302,186,443250,5,0,0:0:0:0:
298,170,443325,1,0,0:0:0:0:
297,153,443400,1,0,0:0:0:0:
299,136,443475,1,0,0:0:0:0:
303,120,443550,1,0,0:0:0:0:
309,105,443625,1,0,0:0:0:0:
318,92,443700,1,0,0:0:0:0:
329,81,443775,1,0,0:0:0:0:
344,75,443850,5,0,0:0:0:0:
356,111,443925,1,0,0:0:0:0:
356,149,444000,1,0,0:0:0:0:
338,183,444075,1,0,0:0:0:0:
305,203,444150,1,0,0:0:0:0:
258,213,444225,1,0,0:0:0:0:
211,200,444300,1,0,0:0:0:0:
174,169,444375,1,0,0:0:0:0:
162,122,444450,5,0,0:0:0:0:
207,135,444525,1,0,0:0:0:0:
238,171,444600,1,0,0:0:0:0:
252,216,444675,1,0,0:0:0:0:
252,263,444750,1,0,0:0:0:0:
238,309,444825,1,0,0:0:0:0:
213,350,444900,1,0,0:0:0:0:
169,370,444975,1,0,0:0:0:0:
121,360,445050,5,0,0:0:0:0:
146,331,445125,1,0,0:0:0:0:
181,318,445200,1,0,0:0:0:0:
218,311,445275,1,0,0:0:0:0:
255,310,445350,1,0,0:0:0:0:
292,306,445425,1,0,0:0:0:0:
328,295,445500,1,0,0:0:0:0:
360,275,445575,1,0,0:0:0:0:
383,245,445650,5,0,0:0:0:0:
395,209,445725,1,0,0:0:0:0:
391,171,445800,1,0,0:0:0:0:
375,136,445875,1,0,0:0:0:0:
345,111,445950,1,0,0:0:0:0:
308,99,446025,1,0,0:0:0:0:
270,98,446100,1,0,0:0:0:0:
234,109,446175,1,0,0:0:0:0:
203,131,446250,5,0,0:0:0:0:
165,137,446325,1,0,0:0:0:0:
128,125,446400,1,0,0:0:0:0:
101,98,446475,1,0,0:0:0:0:
89,61,446550,1,0,0:0:0:0:
99,24,446625,1,0,0:0:0:0:
128,0,446700,1,0,0:0:0:0:
165,0,446775,1,0,0:0:0:0:
199,11,446850,5,0,0:0:0:0:
224,52,446925,1,0,0:0:0:0:
228,100,447000,1,0,0:0:0:0:
209,144,447075,1,0,0:0:0:0:
173,177,447150,1,0,0:0:0:0:
150,219,447225,1,0,0:0:0:0:
153,267,447300,1,0,0:0:0:0:
186,301,447375,1,0,0:0:0:0:
235,305,447450,6,0,B|288:360|288:360|300:288|243:243|243:243|277:216|283:182|283:182|299:224|299:224,1,323.999990112305
412,273,448050,5,0,0:0:0:0:
477,145,448200,1,0,0:0:0:0:
477,145,448275,1,0,0:0:0:0:
477,145,448350,1,0,0:0:0:0:
321,180,448500,5,0,0:0:0:0:
348,22,448650,1,0,0:0:0:0:
348,22,448725,1,0,0:0:0:0:
348,22,448800,1,0,0:0:0:0:
51,108,448950,5,0,0:0:0:0:
249,153,449100,1,0,0:0:0:0:
249,153,449175,1,0,0:0:0:0:
249,153,449250,1,0,0:0:0:0:
91,269,449400,5,0,0:0:0:0:
331,289,449550,1,0,0:0:0:0:
331,289,449625,1,0,0:0:0:0:
331,289,449700,1,0,0:0:0:0:
292,126,449850,6,0,P|300:186|216:131,1,215.999993408203
254,161,450300,1,0,0:0:0:0:
245,311,450450,5,0,0:0:0:0:
450,212,450600,1,0,0:0:0:0:
236,280,450750,5,0,0:0:0:0:
460,242,450900,1,0,0:0:0:0:
271,115,451050,5,0,0:0:0:0:
385,323,451200,1,0,0:0:0:0:
302,103,451350,5,0,0:0:0:0:
355,334,451500,1,0,0:0:0:0:
148,324,451650,5,0,0:0:0:0:
104,302,451725,1,0,0:0:0:0:
87,256,451800,1,0,0:0:0:0:
90,207,451875,1,0,0:0:0:0:
123,171,451950,1,0,0:0:0:0:
161,140,452025,1,0,0:0:0:0:
181,95,452100,1,0,0:0:0:0:
176,46,452175,1,0,0:0:0:0:
135,19,452250,5,0,0:0:0:0:
117,46,452325,1,0,0:0:0:0:
114,78,452400,1,0,0:0:0:0:
124,108,452475,1,0,0:0:0:0:
147,129,452550,5,0,0:0:0:0:
167,134,452625,1,0,0:0:0:0:
188,134,452700,1,0,0:0:0:0:
209,128,452775,1,0,0:0:0:0:
234,121,452850,6,0,P|249:171|242:232,1,107.999996704102
371,359,453150,1,0,0:0:0:0:
407,245,453300,1,0,0:0:0:0:
338,147,453450,2,0,P|284:129|225:138,1,107.999996704102
156,328,453750,2,0,P|210:346|269:337,1,107.999996704102
344,183,454050,2,0,P|322:82|225:48,1,215.999993408203
59,142,454500,1,0,0:0:0:0:
130,237,454650,1,0,0:0:0:0:
180,129,454800,1,0,0:0:0:0:
243,229,454950,1,0,0:0:0:0:
243,229,455025,1,0,0:0:0:0:
243,229,455100,1,0,0:0:0:0:
326,61,455250,6,0,P|355:127|351:179,1,107.999996704102
290,262,455550,1,0,0:0:0:0:
223,163,455700,1,0,0:0:0:0:
403,109,455850,2,0,P|472:112|516:145,1,107.999996704102
421,335,456150,2,0,P|368:337|321:313,1,107.999996704102
148,203,456450,2,0,P|204:252|127:360,1,215.999993408203
78,279,456900,1,0,0:0:0:0:
271,194,457050,5,0,0:0:0:0:
291,149,457125,1,0,0:0:0:0:
292,100,457200,1,0,0:0:0:0:
78,9,457350,5,0,0:0:0:0:
60,54,457425,1,0,0:0:0:0:
61,102,457500,1,0,0:0:0:0:
125,218,457650,5,0,0:0:0:0:
169,187,457725,1,0,0:0:0:0:
222,187,457800,1,0,0:0:0:0:
269,213,457875,1,0,0:0:0:0:
314,241,457950,1,0,0:0:0:0:
367,237,458025,1,0,0:0:0:0:
410,205,458100,1,0,0:0:0:0:
421,152,458175,1,0,0:0:0:0:
402,101,458250,6,0,L|374:49,1,53.9999983520508
279,90,458400,2,0,L|251:38,1,53.9999983520508
368,224,458550,2,0,L|340:172,1,53.9999983520508
245,213,458700,2,0,L|217:161,1,53.9999983520508
231,349,458850,5,0,0:0:0:0:
184,322,458925,1,0,0:0:0:0:
130,319,459000,1,0,0:0:0:0:
76,310,459075,1,0,0:0:0:0:
36,273,459150,1,0,0:0:0:0:
22,220,459225,1,0,0:0:0:0:
39,168,459300,1,0,0:0:0:0:
85,140,459375,1,0,0:0:0:0:
138,137,459450,6,0,L|197:153,1,53.9999983520508
169,255,459600,2,0,L|228:271,1,53.9999983520508
272,192,459750,2,0,L|331:208,1,53.9999983520508
303,310,459900,2,0,L|362:326,1,53.9999983520508
121,102,460050,6,0,B|60:140|87:196|87:196|157:223|157:223|145:275|145:275|105:299|79:276|79:276|74:249,1,323.999990112305
352,273,460650,5,0,0:0:0:0:
342,241,460725,1,0,0:0:0:0:
332,210,460800,2,0,L|319:151,1,53.9999983520508
186,221,460950,2,0,L|199:280,1,53.9999983520508
278,338,461100,1,0,0:0:0:0:
252,67,461250,5,0,0:0:0:0:
256,99,461325,1,0,0:0:0:0:
261,130,461400,1,0,0:0:0:0:
266,161,461475,1,0,0:0:0:0:
271,192,461550,1,0,0:0:0:0:
78,384,461700,5,0,0:0:0:0:
86,341,461775,1,0,0:0:0:0:
95,298,461850,1,0,0:0:0:0:
104,255,461925,1,0,0:0:0:0:
113,212,462000,1,0,0:0:0:0:
101,112,462150,5,0,0:0:0:0:
101,112,462225,1,0,0:0:0:0:
101,112,462300,1,0,0:0:0:0:
101,112,462375,1,0,0:0:0:0:
101,112,462450,5,0,0:0:0:0:
131,89,462525,1,0,0:0:0:0:
166,76,462600,1,0,0:0:0:0:
203,78,462675,1,0,0:0:0:0:
238,91,462750,1,0,0:0:0:0:
272,105,462825,1,0,0:0:0:0:
309,110,462900,1,0,0:0:0:0:
346,104,462975,1,0,0:0:0:0:
378,85,463050,5,0,0:0:0:0:
428,87,463125,1,0,0:0:0:0:
470,114,463200,1,0,0:0:0:0:
476,164,463275,1,0,0:0:0:0:
447,205,463350,5,0,0:0:0:0:
384,207,463425,1,0,0:0:0:0:
321,206,463500,1,0,0:0:0:0:
265,236,463575,1,0,0:0:0:0:
231,289,463650,5,0,0:0:0:0:
200,311,463725,1,0,0:0:0:0:
162,316,463800,1,0,0:0:0:0:
125,307,463875,1,0,0:0:0:0:
94,284,463950,1,0,0:0:0:0:
85,247,464025,1,0,0:0:0:0:
86,209,464100,1,0,0:0:0:0:
105,176,464175,1,0,0:0:0:0:
140,162,464250,5,0,0:0:0:0:
187,179,464325,1,0,0:0:0:0:
237,178,464400,1,0,0:0:0:0:
282,155,464475,1,0,0:0:0:0:
311,113,464550,5,0,0:0:0:0:
288,53,464625,1,0,0:0:0:0:
229,29,464700,1,0,0:0:0:0:
167,44,464775,1,0,0:0:0:0:
133,97,464850,5,0,0:0:0:0:
131,134,464925,1,0,0:0:0:0:
143,169,465000,1,0,0:0:0:0:
172,192,465075,1,0,0:0:0:0:
205,210,465150,1,0,0:0:0:0:
230,238,465225,1,0,0:0:0:0:
239,274,465300,1,0,0:0:0:0:
231,311,465375,1,0,0:0:0:0:
206,339,465450,5,0,0:0:0:0:
157,353,465525,1,0,0:0:0:0:
109,335,465600,1,0,0:0:0:0:
89,288,465675,1,0,0:0:0:0:
98,238,465750,5,0,0:0:0:0:
147,198,465825,1,0,0:0:0:0:
209,195,465900,1,0,0:0:0:0:
266,220,465975,1,0,0:0:0:0:
322,248,466050,5,0,0:0:0:0:
371,256,466125,1,0,0:0:0:0:
420,246,466200,1,0,0:0:0:0:
454,209,466275,1,0,0:0:0:0:
467,160,466350,1,0,0:0:0:0:
457,110,466425,1,0,0:0:0:0:
432,65,466500,1,0,0:0:0:0:
389,38,466575,1,0,0:0:0:0:
338,42,466650,5,0,0:0:0:0:
296,80,466725,1,0,0:0:0:0:
281,134,466800,1,0,0:0:0:0:
299,187,466875,1,0,0:0:0:0:
344,230,466950,5,0,0:0:0:0:
368,294,467025,1,0,0:0:0:0:
344,359,467100,1,0,0:0:0:0:
277,379,467175,1,0,0:0:0:0:
208,368,467250,2,0,L|140:348,2,62.9999980773926
62,325,467550,5,0,0:0:0:0:
142,135,467700,1,0,0:0:0:0:
193,157,467775,1,0,0:0:0:0:
249,156,467850,5,0,0:0:0:0:
295,123,467925,1,0,0:0:0:0:
322,73,468000,1,0,0:0:0:0:
369,42,468075,1,0,0:0:0:0:
424,29,468150,5,0,0:0:0:0:
488,55,468225,1,0,0:0:0:0:
511,120,468300,1,0,0:0:0:0:
497,188,468375,1,0,0:0:0:0:
463,248,468450,2,0,L|432:306,2,62.9999980773926
383,376,468750,5,0,0:0:0:0:
338,216,468900,1,0,0:0:0:0:
284,197,468975,1,0,0:0:0:0:
227,203,469050,5,0,0:0:0:0:
178,232,469125,1,0,0:0:0:0:
138,272,469200,1,0,0:0:0:0:
83,286,469275,1,0,0:0:0:0:
32,259,469350,5,0,0:0:0:0:
0,199,469425,1,0,0:0:0:0:
15,131,469500,1,0,0:0:0:0:
68,86,469575,1,0,0:0:0:0:
136,77,469650,2,0,L|199:86,2,62.9999980773926
285,100,469950,5,0,0:0:0:0:
207,284,470100,1,0,0:0:0:0:
259,262,470175,1,0,0:0:0:0:
315,258,470250,5,0,0:0:0:0:
367,279,470325,1,0,0:0:0:0:
422,291,470400,1,0,0:0:0:0:
473,266,470475,1,0,0:0:0:0:
493,213,470550,5,0,0:0:0:0:
486,144,470625,1,0,0:0:0:0:
451,84,470700,1,0,0:0:0:0:
386,59,470775,1,0,0:0:0:0:
317,67,470850,2,0,L|240:89,3,62.9999980773926
218,118,471150,5,0,0:0:0:0:
207,167,471225,1,0,0:0:0:0:
226,213,471300,1,0,0:0:0:0:
269,238,471375,1,0,0:0:0:0:
318,229,471450,5,0,0:0:0:0:
286,174,471525,1,0,0:0:0:0:
228,147,471600,1,0,0:0:0:0:
165,147,471675,1,0,0:0:0:0:
109,177,471750,1,0,0:0:0:0:
75,230,471825,1,0,0:0:0:0:
66,292,471900,1,0,0:0:0:0:
77,353,471975,1,0,0:0:0:0:
130,384,472050,6,0,B|196:382|276:314|213:258|213:258|214:180|282:161|282:161|335:148|341:235|323:294|323:294|306:358|306:358|374:289,1,647.99998022461
409,43,473100,5,0,0:0:0:0:
409,43,473175,1,0,0:0:0:0:
409,43,473250,2,0,B|249:113|248:-27|78:61,2,323.999990112305
365,164,474450,5,0,0:0:0:0:
334,173,474525,1,0,0:0:0:0:
301,172,474600,1,0,0:0:0:0:
270,161,474675,1,0,0:0:0:0:
246,138,474750,1,0,0:0:0:0:
220,118,474825,1,0,0:0:0:0:
190,105,474900,1,0,0:0:0:0:
157,103,474975,1,0,0:0:0:0:
137,111,475050,5,0,0:0:0:0:
116,128,475125,1,0,0:0:0:0:
105,152,475200,1,0,0:0:0:0:
100,178,475275,1,0,0:0:0:0:
102,204,475350,1,0,0:0:0:0:
112,228,475425,1,0,0:0:0:0:
130,247,475500,1,0,0:0:0:0:
154,258,475575,1,0,0:0:0:0:
180,261,475650,5,0,0:0:0:0:
206,262,475725,1,0,0:0:0:0:
232,255,475800,1,0,0:0:0:0:
255,241,475875,1,0,0:0:0:0:
278,227,475950,1,0,0:0:0:0:
302,215,476025,1,0,0:0:0:0:
327,206,476100,1,0,0:0:0:0:
353,206,476175,1,0,0:0:0:0:
378,213,476250,5,0,0:0:0:0:
388,225,476325,1,0,0:0:0:0:
392,240,476400,1,0,0:0:0:0:
392,256,476475,1,0,0:0:0:0:
387,271,476550,1,0,0:0:0:0:
379,285,476625,1,0,0:0:0:0:
367,296,476700,1,0,0:0:0:0:
352,303,476775,1,0,0:0:0:0:
336,308,476850,6,0,L|240:326,2,71.9999978027344
254,254,477150,2,0,L|158:272,2,71.9999978027344
279,108,477450,2,0,L|375:90,2,71.9999978027344
361,162,477750,2,0,L|457:144,2,71.9999978027344
439,328,478050,6,0,L|368:314,1,71.9999978027344
313,266,478250,2,0,L|305:221,4,35.9999989013672
258,314,478550,1,0,0:0:0:0:
189,337,478650,2,0,L|118:350,2,71.9999978027344
36,257,478950,2,0,L|106:270,2,71.9999978027344
56,151,479250,6,0,P|122:69|226:65,1,215.999993408203
305,167,479700,1,0,0:0:0:0:
244,322,479850,2,0,P|167:250|169:145,1,215.999993408203
316,123,480450,6,0,L|387:114,2,71.9999978027344
264,218,480750,2,0,L|191:209,2,71.9999978027344
318,312,481050,2,0,L|389:303,2,71.9999978027344
194,366,481350,6,0,L|146:340,3,53.9999983520508
127,328,481650,5,0,0:0:0:0:
114,317,481725,1,0,0:0:0:0:
106,302,481800,1,0,0:0:0:0:
102,286,481875,1,0,0:0:0:0:
101,269,481950,1,0,0:0:0:0:
103,252,482025,1,0,0:0:0:0:
108,236,482100,1,0,0:0:0:0:
115,221,482175,1,0,0:0:0:0:
125,208,482250,5,0,0:0:0:0:
149,197,482325,1,0,0:0:0:0:
175,196,482400,1,0,0:0:0:0:
199,207,482475,1,0,0:0:0:0:
220,223,482550,1,0,0:0:0:0:
236,244,482625,1,0,0:0:0:0:
245,269,482700,1,0,0:0:0:0:
257,293,482775,1,0,0:0:0:0:
275,312,482850,5,0,0:0:0:0:
297,326,482925,1,0,0:0:0:0:
323,326,483000,1,0,0:0:0:0:
348,316,483075,1,0,0:0:0:0:
364,294,483150,1,0,0:0:0:0:
375,269,483225,1,0,0:0:0:0:
376,242,483300,1,0,0:0:0:0:
367,216,483375,1,0,0:0:0:0:
347,197,483450,5,0,0:0:0:0:
321,188,483525,1,0,0:0:0:0:
300,170,483600,1,0,0:0:0:0:
288,145,483675,1,0,0:0:0:0:
286,118,483750,1,0,0:0:0:0:
299,94,483825,1,0,0:0:0:0:
322,80,483900,1,0,0:0:0:0:
349,80,483975,1,0,0:0:0:0:
373,90,484050,5,0,0:0:0:0:
373,106,484125,1,0,0:0:0:0:
372,122,484200,1,0,0:0:0:0:
372,138,484275,1,0,0:0:0:0:
358,146,484350,5,0,0:0:0:0:
356,162,484425,1,0,0:0:0:0:
354,178,484500,1,0,0:0:0:0:
352,194,484575,1,0,0:0:0:0:
336,197,484650,5,0,0:0:0:0:
332,212,484725,1,0,0:0:0:0:
328,227,484800,1,0,0:0:0:0:
324,242,484875,1,0,0:0:0:0:
307,244,484950,5,0,0:0:0:0:
304,259,485025,1,0,0:0:0:0:
301,275,485100,1,0,0:0:0:0:
298,290,485175,1,0,0:0:0:0:
294,305,485250,5,0,0:0:0:0:
275,324,485325,1,0,0:0:0:0:
248,329,485400,1,0,0:0:0:0:
221,322,485475,1,0,0:0:0:0:
198,307,485550,5,0,0:0:0:0:
178,281,485625,1,0,0:0:0:0:
165,245,485700,1,0,0:0:0:0:
165,201,485775,1,0,0:0:0:0:
189,158,485850,2,0,B|236:127|283:146|283:146|317:106|302:60|302:60|279:76,1,215.999993408203
265,70,486225,5,0,0:0:0:0:
265,70,486300,1,0,0:0:0:0:
265,70,486375,1,0,0:0:0:0:
265,70,486450,5,0,0:0:0:0:
238,75,486525,1,0,0:0:0:0:
211,80,486600,1,0,0:0:0:0:
184,85,486675,1,0,0:0:0:0:
157,90,486750,5,0,0:0:0:0:
181,100,486825,1,0,0:0:0:0:
205,110,486900,1,0,0:0:0:0:
229,120,486975,1,0,0:0:0:0:
254,130,487050,5,0,0:0:0:0:
225,144,487125,1,0,0:0:0:0:
196,159,487200,1,0,0:0:0:0:
167,173,487275,1,0,0:0:0:0:
138,188,487350,5,0,0:0:0:0:
172,203,487425,1,0,0:0:0:0:
206,219,487500,1,0,0:0:0:0:
240,235,487575,1,0,0:0:0:0:
274,251,487650,5,0,0:0:0:0:
287,209,487725,1,0,0:0:0:0:
315,176,487800,1,0,0:0:0:0:
357,168,487875,1,0,0:0:0:0:
398,179,487950,1,0,0:0:0:0:
430,207,488025,1,0,0:0:0:0:
442,248,488100,1,0,0:0:0:0:
431,290,488175,1,0,0:0:0:0:
399,319,488250,5,0,0:0:0:0:
351,327,488325,1,0,0:0:0:0:
302,333,488400,1,0,0:0:0:0:
254,340,488475,1,0,0:0:0:0:
205,343,488550,5,0,0:0:0:0:
155,310,488625,1,0,0:0:0:0:
104,278,488700,1,0,0:0:0:0:
53,246,488775,1,0,0:0:0:0:
7,208,488850,6,0,L|30:140,2,71.9999978027344
168,109,489150,2,0,L|191:177,2,71.9999978027344
125,342,489450,6,0,B|152:329|152:329|174:330|200:323,2,71.9999978027344
353,288,489750,2,0,B|323:285|323:285|304:273|285:267,2,71.9999978027344
412,159,490050,6,0,L|421:97,2,53.9999983520508
277,105,490350,2,0,L|269:51,2,53.9999983520508
160,304,490650,5,0,0:0:0:0:
195,279,490725,1,0,0:0:0:0:
237,272,490800,1,0,0:0:0:0:
279,279,490875,1,0,0:0:0:0:
320,291,490950,1,0,0:0:0:0:
362,300,491025,1,0,0:0:0:0:
404,295,491100,1,0,0:0:0:0:
438,269,491175,1,0,0:0:0:0:
456,230,491250,6,0,B|465:166|465:166|455:117,2,107.999996704102
335,114,491700,2,0,P|285:144|153:65,1,215.999993408203
148,59,492075,1,0,0:0:0:0:
130,45,492150,1,0,0:0:0:0:
109,39,492225,1,0,0:0:0:0:
87,38,492300,1,0,0:0:0:0:
66,43,492375,1,0,0:0:0:0:
47,53,492450,6,0,B|29:110|29:110|28:164,2,107.999996704102
104,323,492900,2,0,P|183:256|281:288,1,215.999993408203
295,304,493275,1,0,0:0:0:0:
313,314,493350,1,0,0:0:0:0:
333,319,493425,1,0,0:0:0:0:
354,319,493500,1,0,0:0:0:0:
374,312,493575,1,0,0:0:0:0:
390,298,493650,6,0,B|407:235|407:235|407:186,2,107.999996704102
255,111,494100,2,0,L|468:79,1,215.999993408203
474,100,494475,1,0,0:0:0:0:
476,121,494550,1,0,0:0:0:0:
479,142,494625,1,0,0:0:0:0:
482,163,494700,1,0,0:0:0:0:
485,184,494775,1,0,0:0:0:0:
486,205,494850,6,0,B|483:268|483:268|467:325,2,107.999996704102
339,307,495300,2,0,L|110:354,1,215.999993408203
100,346,495675,1,0,0:0:0:0:
81,325,495750,1,0,0:0:0:0:
71,299,495825,1,0,0:0:0:0:
69,272,495900,1,0,0:0:0:0:
76,246,495975,1,0,0:0:0:0:
90,223,496050,5,0,0:0:0:0:
127,192,496125,1,0,0:0:0:0:
175,186,496200,1,0,0:0:0:0:
222,195,496275,1,0,0:0:0:0:
263,219,496350,1,0,0:0:0:0:
271,171,496425,1,0,0:0:0:0:
291,126,496500,1,0,0:0:0:0:
292,77,496575,1,0,0:0:0:0:
259,40,496650,5,0,0:0:0:0:
210,35,496725,1,0,0:0:0:0:
163,49,496800,1,0,0:0:0:0:
114,46,496875,1,0,0:0:0:0:
65,43,496950,1,0,0:0:0:0:
51,89,497025,1,0,0:0:0:0:
78,140,497100,1,0,0:0:0:0:
124,145,497175,1,0,0:0:0:0:
172,140,497250,1,0,0:0:0:0:
412,93,497325,1,0,0:0:0:0:
414,146,497400,1,0,0:0:0:0:
379,187,497475,1,0,0:0:0:0:
348,231,497550,2,0,P|337:266|332:295,1,53.9999983520508
209,342,497700,5,0,0:0:0:0:
158,362,497775,1,0,0:0:0:0:
104,356,497850,1,0,0:0:0:0:
60,324,497925,1,0,0:0:0:0:
48,271,498000,2,0,L|52:213,1,53.9999983520508
305,206,498450,5,0,0:0:0:0:
0,177,498600,1,0,0:0:0:0:
274,139,498750,1,0,0:0:0:0:
0,246,498900,1,0,0:0:0:0:
115,56,499050,1,0,0:0:0:0:
216,302,499200,1,0,0:0:0:0:
2,255,499350,1,0,0:0:0:0:
222,47,499500,1,0,0:0:0:0:
242,334,499650,1,0,0:0:0:0:
253,119,499800,2,0,B|184:63|98:116|98:116|61:210|128:266,1,323.999990112305
207,292,500400,5,0,0:0:0:0:
453,144,500550,1,0,0:0:0:0:
453,144,500625,1,0,0:0:0:0:
453,144,500700,1,0,0:0:0:0:
453,144,500775,1,0,0:0:0:0:
453,144,500850,5,0,0:0:0:0:
470,190,500925,1,0,0:0:0:0:
467,239,501000,1,0,0:0:0:0:
437,277,501075,1,0,0:0:0:0:
393,296,501150,1,0,0:0:0:0:
347,284,501225,1,0,0:0:0:0:
305,261,501300,1,0,0:0:0:0:
258,253,501375,1,0,0:0:0:0:
211,263,501450,1,0,0:0:0:0:
175,296,501525,1,0,0:0:0:0:
135,324,501600,1,0,0:0:0:0:
87,324,501675,1,0,0:0:0:0:
50,294,501750,1,0,0:0:0:0:
37,248,501825,1,0,0:0:0:0:
49,201,501900,1,0,0:0:0:0:
82,165,501975,1,0,0:0:0:0:
130,155,502050,5,0,0:0:0:0:
165,171,502125,1,0,0:0:0:0:
203,175,502200,1,0,0:0:0:0:
241,169,502275,1,0,0:0:0:0:
276,154,502350,1,0,0:0:0:0:
306,131,502425,1,0,0:0:0:0:
329,101,502500,1,0,0:0:0:0:
358,77,502575,1,0,0:0:0:0:
395,67,502650,1,0,0:0:0:0:
433,74,502725,1,0,0:0:0:0:
460,102,502800,1,0,0:0:0:0:
473,138,502875,1,0,0:0:0:0:
464,174,502950,6,0,P|408:214|358:213,1,107.999996704102
49,36,503250,5,0,0:0:0:0:
278,110,503400,1,0,0:0:0:0:
128,202,503550,5,0,0:0:0:0:
378,241,503700,1,0,0:0:0:0:
246,325,503850,5,0,0:0:0:0:
360,112,504000,1,0,0:0:0:0:
309,281,504150,5,0,0:0:0:0:
256,53,504300,1,0,0:0:0:0:
463,140,504450,5,0,0:0:0:0:
151,152,504600,1,0,0:0:0:0:
411,291,504750,1,0,0:0:0:0:
302,32,504900,1,0,0:0:0:0:
142,257,505050,2,0,B|138:369|254:331|254:331|311:425|384:355,1,323.999990112305
416,190,505650,5,0,0:0:0:0:
427,154,505725,1,0,0:0:0:0:
429,116,505800,2,0,L|416:56,1,53.9999983520508
322,107,505950,5,0,0:0:0:0:
297,80,506025,1,0,0:0:0:0:
265,59,506100,2,0,L|206:40,1,53.9999983520508
175,130,506250,5,0,0:0:0:0:
139,138,506325,1,0,0:0:0:0:
104,155,506400,2,0,L|58:196,1,53.9999983520508
219,247,506550,5,0,0:0:0:0:
208,283,506625,1,0,0:0:0:0:
198,319,506700,1,0,0:0:0:0:
214,20,506850,5,0,0:0:0:0:
214,20,506925,1,0,0:0:0:0:
214,20,507000,1,0,0:0:0:0:
214,20,507075,5,0,0:0:0:0:
214,68,507150,1,0,0:0:0:0:
235,111,507225,1,0,0:0:0:0:
274,139,507300,1,0,0:0:0:0:
321,148,507375,1,0,0:0:0:0:
369,153,507450,1,0,0:0:0:0:
415,168,507525,1,0,0:0:0:0:
445,205,507600,1,0,0:0:0:0:
456,252,507675,1,0,0:0:0:0:
443,299,507750,1,0,0:0:0:0:
408,333,507825,1,0,0:0:0:0:
361,347,507900,1,0,0:0:0:0:
314,333,507975,1,0,0:0:0:0:
275,303,508050,6,0,B|216:293|216:293|162:307,1,107.999996704102
30,335,508350,1,0,0:0:0:0:
207,162,508500,1,0,0:0:0:0:
1,247,508650,1,0,0:0:0:0:
262,274,508800,1,0,0:0:0:0:
25,154,508950,1,0,0:0:0:0:
112,369,509100,1,0,0:0:0:0:
183,138,509250,5,0,0:0:0:0:
183,138,509325,1,0,0:0:0:0:
183,138,509400,2,0,L|162:84,1,53.9999983520508
109,195,509550,2,0,L|130:249,1,53.9999983520508
288,188,509700,5,0,0:0:0:0:
288,188,509775,1,0,0:0:0:0:
288,188,509850,2,0,L|267:134,1,53.9999983520508
218,247,510000,2,0,L|239:301,1,53.9999983520508
320,347,510150,5,0,0:0:0:0:
367,358,510225,1,0,0:0:0:0:
415,355,510300,1,0,0:0:0:0:
458,333,510375,1,0,0:0:0:0:
485,292,510450,2,0,B|469:217|469:217|480:141|480:141|466:79,1,215.999993408203
225,63,510900,5,0,0:0:0:0:
416,118,511050,1,0,0:0:0:0:
208,192,511200,1,0,0:0:0:0:
399,247,511350,1,0,0:0:0:0:
198,336,511500,1,0,0:0:0:0:
490,341,511650,2,0,P|531:270|474:155,1,215.999993408203
441,146,512025,5,0,0:0:0:0:
441,146,512100,1,0,0:0:0:0:
255,270,512250,1,0,0:0:0:0:
379,94,512400,1,0,0:0:0:0:
151,207,512550,1,0,0:0:0:0:
302,369,512700,1,0,0:0:0:0:
340,134,512850,2,0,P|277:81|154:117,1,215.999993408203
138,277,513300,5,0,0:0:0:0:
242,171,513450,1,0,0:0:0:0:
55,211,513600,1,0,0:0:0:0:
272,272,513750,1,0,0:0:0:0:
140,361,513900,1,0,0:0:0:0:
311,230,514050,5,0,0:0:0:0:
321,255,514125,1,0,0:0:0:0:
325,281,514200,1,0,0:0:0:0:
320,307,514275,1,0,0:0:0:0:
314,333,514350,2,0,L|262:344,3,53.9999983520508
177,312,514650,5,0,0:0:0:0:
202,284,514725,1,0,0:0:0:0:
214,248,514800,1,0,0:0:0:0:
214,210,514875,1,0,0:0:0:0:
192,179,514950,5,0,0:0:0:0:
218,179,515025,1,0,0:0:0:0:
244,174,515100,1,0,0:0:0:0:
267,160,515175,1,0,0:0:0:0:
284,139,515250,6,0,L|300:217,1,71.9999978027344
393,319,515450,1,0,0:0:0:0:
393,319,515550,6,0,L|409:241,1,71.9999978027344
438,135,515750,1,0,0:0:0:0:
438,135,515850,2,0,B|339:179|335:95|219:141,1,215.999993408203
129,197,516300,5,0,0:0:0:0:
209,341,516450,1,0,0:0:0:0:
228,331,516525,1,0,0:0:0:0:
249,329,516600,1,0,0:0:0:0:
270,331,516675,1,0,0:0:0:0:
290,337,516750,1,0,0:0:0:0:
448,243,516900,5,0,0:0:0:0:
286,201,517050,1,0,0:0:0:0:
277,181,517125,1,0,0:0:0:0:
273,159,517200,1,0,0:0:0:0:
273,137,517275,1,0,0:0:0:0:
279,116,517350,1,0,0:0:0:0:
435,130,517500,1,0,0:0:0:0:
438,275,517650,6,0,L|430:336,5,35.9999989013672
350,270,517950,2,0,L|342:209,5,35.9999989013672
290,315,518250,5,0,0:0:0:0:
223,342,518350,1,0,0:0:0:0:
157,312,518450,1,0,0:0:0:0:
129,245,518550,2,0,B|112:170,2,71.9999978027344
259,207,518850,5,0,0:0:0:0:
294,174,518925,1,0,0:0:0:0:
311,128,519000,1,0,0:0:0:0:
304,79,519075,1,0,0:0:0:0:
270,44,519150,2,0,L|212:22,1,53.9999983520508
138,181,519300,5,0,0:0:0:0:
127,233,519375,1,0,0:0:0:0:
147,282,519450,1,0,0:0:0:0:
191,312,519525,1,0,0:0:0:0:
244,306,519600,2,0,L|301:282,1,53.9999983520508
495,166,519750,5,0,0:0:0:0:
503,219,519825,1,0,0:0:0:0:
466,258,519900,1,0,0:0:0:0:
412,258,519975,1,0,0:0:0:0:
384,236,520050,5,0,0:0:0:0:
372,224,520125,1,0,0:0:0:0:
364,209,520200,1,0,0:0:0:0:
360,193,520275,1,0,0:0:0:0:
361,176,520350,1,0,0:0:0:0:
363,160,520425,1,0,0:0:0:0:
368,144,520500,1,0,0:0:0:0:
376,130,520575,1,0,0:0:0:0:
387,118,520650,5,0,0:0:0:0:
363,105,520725,1,0,0:0:0:0:
336,98,520800,1,0,0:0:0:0:
309,99,520875,1,0,0:0:0:0:
283,108,520950,1,0,0:0:0:0:
262,125,521025,1,0,0:0:0:0:
245,146,521100,1,0,0:0:0:0:
231,169,521175,1,0,0:0:0:0:
221,194,521250,5,0,0:0:0:0:
227,231,521325,1,0,0:0:0:0:
248,261,521400,1,0,0:0:0:0:
276,285,521475,1,0,0:0:0:0:
310,299,521550,1,0,0:0:0:0:
347,306,521625,1,0,0:0:0:0:
384,308,521700,1,0,0:0:0:0:
420,300,521775,1,0,0:0:0:0:
452,280,521850,5,0,0:0:0:0:
423,255,521925,1,0,0:0:0:0:
388,239,522000,1,0,0:0:0:0:
351,228,522075,1,0,0:0:0:0:
313,225,522150,1,0,0:0:0:0:
275,228,522225,1,0,0:0:0:0:
238,238,522300,1,0,0:0:0:0:
204,256,522375,1,0,0:0:0:0:
170,273,522450,5,0,0:0:0:0:
132,276,522525,1,0,0:0:0:0:
97,260,522600,1,0,0:0:0:0:
68,235,522675,1,0,0:0:0:0:
49,202,522750,1,0,0:0:0:0:
38,165,522825,1,0,0:0:0:0:
36,127,522900,1,0,0:0:0:0:
47,90,522975,1,0,0:0:0:0:
67,58,523050,5,0,0:0:0:0:
98,37,523125,1,0,0:0:0:0:
134,27,523200,1,0,0:0:0:0:
171,27,523275,1,0,0:0:0:0:
207,37,523350,1,0,0:0:0:0:
239,56,523425,1,0,0:0:0:0:
265,82,523500,1,0,0:0:0:0:
284,114,523575,1,0,0:0:0:0:
284,151,523650,6,0,B|280:179|280:179|271:208,1,53.9999983520508
356,306,523800,2,0,B|365:277|365:277|369:249,1,53.9999983520508
380,125,523950,2,0,B|371:153|371:153|367:182,1,53.9999983520508
452,280,524100,2,0,B|457:250|457:250|465:223,1,53.9999983520508
192,244,524250,6,0,B|158:291|181:331|181:331|239:290|239:290|272:310|294:334|284:379|243:389|243:389|217:384,1,323.999990112305
50,241,524850,5,0,0:0:0:0:
80,210,524925,1,0,0:0:0:0:
121,196,525000,1,0,0:0:0:0:
165,196,525075,1,0,0:0:0:0:
203,219,525150,1,0,0:0:0:0:
231,253,525225,1,0,0:0:0:0:
261,286,525300,1,0,0:0:0:0:
301,304,525375,1,0,0:0:0:0:
344,311,525450,1,0,0:0:0:0:
387,303,525525,1,0,0:0:0:0:
426,285,525600,1,0,0:0:0:0:
454,252,525675,1,0,0:0:0:0:
460,209,525750,1,0,0:0:0:0:
449,167,525825,1,0,0:0:0:0:
421,133,525900,1,0,0:0:0:0:
379,119,525975,1,0,0:0:0:0:
331,129,526050,5,0,0:0:0:0:
287,151,526125,1,0,0:0:0:0:
238,147,526200,1,0,0:0:0:0:
202,113,526275,1,0,0:0:0:0:
188,66,526350,1,0,0:0:0:0:
157,27,526425,1,0,0:0:0:0:
113,5,526500,1,0,0:0:0:0:
66,21,526575,1,0,0:0:0:0:
39,61,526650,1,0,0:0:0:0:
37,109,526725,1,0,0:0:0:0:
65,148,526800,1,0,0:0:0:0:
111,161,526875,1,0,0:0:0:0:
156,177,526950,1,0,0:0:0:0:
187,214,527025,1,0,0:0:0:0:
196,261,527100,1,0,0:0:0:0:
173,304,527175,1,0,0:0:0:0:
123,323,527250,5,0,0:0:0:0:
73,303,527325,1,0,0:0:0:0:
60,251,527400,1,0,0:0:0:0:
79,201,527475,1,0,0:0:0:0:
121,168,527550,1,0,0:0:0:0:
173,176,527625,1,0,0:0:0:0:
220,200,527700,1,0,0:0:0:0:
272,207,527775,1,0,0:0:0:0:
317,178,527850,1,0,0:0:0:0:
331,126,527925,1,0,0:0:0:0:
298,83,528000,1,0,0:0:0:0:
244,78,528075,1,0,0:0:0:0:
206,116,528150,1,0,0:0:0:0:
201,169,528225,1,0,0:0:0:0:
233,211,528300,1,0,0:0:0:0:
284,224,528375,1,0,0:0:0:0:
337,200,528450,5,0,0:0:0:0:
357,136,528525,1,0,0:0:0:0:
407,92,528600,1,0,0:0:0:0:
472,103,528675,1,0,0:0:0:0:
494,165,528750,1,0,0:0:0:0:
460,222,528825,1,0,0:0:0:0:
395,237,528900,1,0,0:0:0:0:
328,230,528975,1,0,0:0:0:0:
266,254,529050,5,0,0:0:0:0:
245,326,529125,1,0,0:0:0:0:
300,376,529200,1,0,0:0:0:0:
372,358,529275,1,0,0:0:0:0:
393,286,529350,1,0,0:0:0:0:
345,228,529425,1,0,0:0:0:0:
272,208,529500,1,0,0:0:0:0:
202,235,529575,1,0,0:0:0:0:
167,301,529650,5,0,0:0:0:0:
256,192,529725,12,0,532050,0:0:0:0:
402,214,534450,5,0,0:0:0:0:
346,124,534600,1,0,0:0:0:0:
346,124,534675,1,0,0:0:0:0:
346,124,534750,2,0,L|226:90,2,116.999994644165
350,322,566850,5,0,0:0:0:0:
380,281,566925,1,0,0:0:0:0:
382,230,567000,1,0,0:0:0:0:
355,187,567075,1,0,0:0:0:0:
309,165,567150,1,0,0:0:0:0:
57,296,567300,5,0,0:0:0:0:
34,265,567375,1,0,0:0:0:0:
19,230,567450,1,0,0:0:0:0:
18,192,567525,1,0,0:0:0:0:
34,158,567600,1,0,0:0:0:0:
177,264,567750,5,0,0:0:0:0:
206,305,567825,1,0,0:0:0:0:
253,322,567900,1,0,0:0:0:0:
302,313,567975,1,0,0:0:0:0:
337,282,568050,5,0,0:0:0:0:
333,52,568200,1,0,0:0:0:0:
333,52,568275,1,0,0:0:0:0:
333,52,568350,1,0,0:0:0:0:
420,208,568500,5,0,0:0:0:0:
428,236,568575,1,0,0:0:0:0:
427,265,568650,1,0,0:0:0:0:
415,291,568725,1,0,0:0:0:0:
393,310,568800,1,0,0:0:0:0:
199,353,568950,1,0,0:0:0:0:
288,196,569100,1,0,0:0:0:0:
150,239,569250,5,0,0:0:0:0:
361,168,569400,1,0,0:0:0:0:
142,343,569550,1,0,0:0:0:0:
372,379,569700,1,0,0:0:0:0:
168,292,569850,5,0,0:0:0:0:
151,254,569925,1,0,0:0:0:0:
150,213,570000,1,0,0:0:0:0:
170,177,570075,1,0,0:0:0:0:
207,160,570150,1,0,0:0:0:0:
238,134,570225,1,0,0:0:0:0:
257,98,570300,1,0,0:0:0:0:
255,57,570375,1,0,0:0:0:0:
231,23,570450,5,0,0:0:0:0:
426,175,570600,1,0,0:0:0:0:
426,175,570675,1,0,0:0:0:0:
426,175,570750,1,0,0:0:0:0:
209,149,570900,5,0,0:0:0:0:
162,142,570975,1,0,0:0:0:0:
116,150,571050,1,0,0:0:0:0:
78,178,571125,1,0,0:0:0:0:
62,222,571200,1,0,0:0:0:0:
128,354,571350,1,0,0:0:0:0:
317,196,571500,1,0,0:0:0:0:
59,251,571650,5,0,0:0:0:0:
76,146,571800,1,0,0:0:0:0:
315,200,571950,1,0,0:0:0:0:
50,281,572100,1,0,0:0:0:0:
302,238,572250,1,0,0:0:0:0:
347,211,572325,1,0,0:0:0:0:
397,197,572400,1,0,0:0:0:0:
445,176,572475,1,0,0:0:0:0:
471,130,572550,1,0,0:0:0:0:
464,77,572625,1,0,0:0:0:0:
436,32,572700,1,0,0:0:0:0:
387,11,572775,1,0,0:0:0:0:
334,15,572850,5,0,0:0:0:0:
225,243,573000,1,0,0:0:0:0:
225,243,573075,1,0,0:0:0:0:
225,243,573150,1,0,0:0:0:0:
218,89,573300,5,0,0:0:0:0:
260,57,573375,1,0,0:0:0:0:
312,50,573450,1,0,0:0:0:0:
362,65,573525,1,0,0:0:0:0:
398,103,573600,1,0,0:0:0:0:
235,302,573750,1,0,0:0:0:0:
305,122,573900,1,0,0:0:0:0:
125,124,574050,5,0,0:0:0:0:
390,243,574200,1,0,0:0:0:0:
157,256,574350,1,0,0:0:0:0:
228,22,574500,1,0,0:0:0:0:
421,115,574650,5,0,0:0:0:0:
129,182,574800,1,0,0:0:0:0:
427,224,574950,1,0,0:0:0:0:
144,323,575100,1,0,0:0:0:0:
418,301,575250,5,0,0:0:0:0:
370,94,575400,1,0,0:0:0:0:
370,94,575475,1,0,0:0:0:0:
370,94,575550,1,0,0:0:0:0:
196,253,575700,5,0,0:0:0:0:
143,260,575775,1,0,0:0:0:0:
97,233,575850,1,0,0:0:0:0:
66,190,575925,1,0,0:0:0:0:
65,137,576000,1,0,0:0:0:0:
401,127,576150,1,0,0:0:0:0:
140,121,576300,1,0,0:0:0:0:
336,254,576450,5,0,0:0:0:0:
246,23,576600,1,0,0:0:0:0:
338,324,576750,5,0,0:0:0:0:
246,43,576900,1,0,0:0:0:0:
95,170,577050,5,0,0:0:0:0:
85,203,577125,1,0,0:0:0:0:
81,237,577200,1,0,0:0:0:0:
82,272,577275,1,0,0:0:0:0:
89,306,577350,2,0,B|91:338|91:338|99:366|99:367,3,58.4999973220826
160,326,577650,5,0,0:0:0:0:
208,292,577725,1,0,0:0:0:0:
266,285,577800,1,0,0:0:0:0:
320,306,577875,1,0,0:0:0:0:
368,338,577950,1,0,0:0:0:0:
426,339,578025,1,0,0:0:0:0:
464,294,578100,1,0,0:0:0:0:
464,235,578175,1,0,0:0:0:0:
435,184,578250,5,0,0:0:0:0:
382,157,578325,1,0,0:0:0:0:
323,162,578400,1,0,0:0:0:0:
277,198,578475,1,0,0:0:0:0:
228,231,578550,1,0,0:0:0:0:
169,229,578625,1,0,0:0:0:0:
122,193,578700,1,0,0:0:0:0:
110,135,578775,1,0,0:0:0:0:
126,78,578850,5,0,0:0:0:0:
169,38,578925,1,0,0:0:0:0:
227,38,579000,1,0,0:0:0:0:
275,70,579075,1,0,0:0:0:0:
285,127,579150,1,0,0:0:0:0:
253,176,579225,1,0,0:0:0:0:
194,182,579300,1,0,0:0:0:0:
141,156,579375,1,0,0:0:0:0:
84,142,579450,5,0,0:0:0:0:
35,162,579525,1,0,0:0:0:0:
9,208,579600,1,0,0:0:0:0:
9,260,579675,1,0,0:0:0:0:
34,306,579750,1,0,0:0:0:0:
81,327,579825,1,0,0:0:0:0:
133,329,579900,1,0,0:0:0:0:
180,306,579975,1,0,0:0:0:0:
212,264,580050,6,0,L|222:177,2,77.9999964294435
359,273,580350,2,0,L|369:360,2,77.9999964294435
498,243,580650,2,0,L|508:156,2,77.9999964294435
433,68,580950,1,0,0:0:0:0:
365,107,581050,1,0,0:0:0:0:
289,87,581150,1,0,0:0:0:0:
223,42,581250,6,0,P|197:95|193:153,1,116.999994644165
119,262,581550,2,0,P|91:197|90:144,1,116.999994644165
292,355,581850,2,0,P|317:302|321:244,1,116.999994644165
392,114,582150,2,0,P|417:166|421:224,1,116.999994644165
256,32,582450,1,0,0:0:0:0:
256,352,582650,1,0,0:0:0:0:
64,192,582850,1,0,0:0:0:0:
448,192,583050,2,0,B|448:288|448:288|320:288|320:288|320:96|320:96|448:96|448:96|386:176,1,643.199969575197
