osu file format v14

[General]
AudioFilename: audio.mp3
AudioLeadIn: 0
PreviewTime: 52264
Countdown: 0
SampleSet: Normal
StackLeniency: 0.7
Mode: 2
LetterboxInBreaks: 0
WidescreenStoryboard: 0

[Editor]
Bookmarks: 42704,52652,61357,62601,70062,107368,117316,126020,127264,134725,292652,293896,296383
DistanceSpacing: 1.4
BeatDivisor: 4
GridSize: 8
TimelineZoom: 3.099999

[Metadata]
Title:Seasons
TitleUnicode:Seasons
Artist:DragonForce
ArtistUnicode:DragonForce
Creator:Crowley
Version:Myth
Source:
Tags:Spaghetti The Power Within Metal Speed Power Powermetal Speedmetal
BeatmapID:1604016
BeatmapSetID:762958

[Difficulty]
HPDrainRate:7
CircleSize:4.2
OverallDifficulty:9.4
ApproachRate:9.4
SliderMultiplier:2
SliderTickRate:2

[Events]
//Background and Video events
0,0,"haha yes.jpg",0,0
//Break Periods
//Storyboard Layer 0 (Background)
//Storyboard Layer 1 (Fail)
//Storyboard Layer 2 (Pass)
//Storyboard Layer 3 (Foreground)
//Storyboard Sound Samples

[TimingPoints]
425,310.880829015544,4,1,1,30,1,0
580,-100,4,1,2,30,0,0
735,-100,4,1,3,30,0,0
891,-100,4,1,1,30,0,0
1046,-100,4,1,2,30,0,0
1202,-100,4,1,3,30,0,0
1357,-100,4,1,1,30,0,0
1513,-100,4,1,2,30,0,0
1668,-100,4,1,1,30,0,0
1823,-100,4,1,2,30,0,0
1979,-100,4,1,3,30,0,0
2134,-100,4,1,1,30,0,0
2290,-100,4,1,2,30,0,0
2445,-100,4,1,3,30,0,0
2601,-100,4,1,4,30,0,0
2756,-100,4,1,5,30,0,0
2912,-100,4,1,2,60,0,0
3067,-100,4,1,1,70,0,0
3533,-100,4,1,6,70,0,0
3844,-100,4,1,1,70,0,0
4077,-100,4,1,1,15,0,0
4155,-100,4,1,1,70,0,0
4777,-100,4,1,6,70,0,0
5088,-100,4,1,1,70,0,0
5554,-100,4,1,10,70,0,0
5709,-100,4,1,1,70,0,0
5865,-100,4,1,10,70,0,0
6020,-100,4,1,7,70,0,0
6176,-100,4,1,1,70,0,0
6564,-100,4,1,1,15,0,0
6642,-100,4,1,1,70,0,0
7886,-100,4,1,2,70,0,0
8041,-100,4,1,1,70,0,0
8507,-100,4,1,6,70,0,0
8818,-100,4,1,1,70,0,0
9051,-100,4,1,1,15,0,0
9129,-100,4,1,1,70,0,0
12083,-100,4,1,2,70,0,0
12549,-100,4,1,3,70,0,0
12860,-100,4,1,1,70,0,0
13171,-100,4,1,2,70,0,0
13326,-100,4,1,6,70,0,0
13637,-100,4,1,1,70,0,0
14103,-100,4,1,6,70,0,0
14414,-100,4,1,1,70,0,0
14570,-100,4,1,6,70,0,0
14880,-100,4,1,1,70,0,0
15347,-100,4,1,6,70,0,0
15813,-100,4,1,7,70,0,0
16124,-100,4,1,1,70,0,0
16590,-100,4,1,6,70,0,0
17057,-100,4,1,7,70,0,0
17368,-100,4,1,1,70,0,0
17756,-100,4,1,1,15,0,0
17834,-100,4,1,1,70,0,0
21564,-100,4,1,2,70,0,0
22497,-100,4,1,2,30,0,0
22808,-100,4,1,2,65,0,0
23119,-100,4,1,1,65,0,0
24518,-100,4,1,8,65,0,0
24829,-100,4,1,1,65,0,0
25217,-100,4,1,1,15,0,0
25295,-100,4,1,1,65,0,0
26383,-100,4,1,8,65,0,0
26694,-100,4,1,1,65,0,0
28248,-100,4,1,8,65,0,0
28559,-100,4,1,1,65,0,0
29492,-100,4,1,8,65,0,0
29803,-100,4,1,1,65,0,0
33922,-100,4,1,1,15,0,0
34000,-100,4,1,1,65,0,0
34466,-100,4,1,8,65,0,0
34777,-100,4,1,1,65,0,0
35165,-100,4,1,1,15,0,0
35243,-100,4,1,1,65,0,0
35709,-100,4,1,8,65,0,0
36020,-100,4,1,1,65,0,0
37652,-100,4,1,1,15,0,0
37730,-100,4,1,1,65,0,0
38197,-100,4,1,8,65,0,0
38507,-100,4,1,1,65,0,0
39440,-100,4,1,8,65,0,0
39751,-100,4,1,1,65,0,0
40140,-100,4,1,1,15,0,0
40217,-100,4,1,2,65,0,0
40373,-100,4,1,1,65,0,0
40839,-100,4,1,3,65,0,0
40994,-100,4,1,1,65,0,0
41461,-100,4,1,4,65,0,0
41616,-100,4,1,1,65,0,0
41655,-100,4,1,1,35,0,0
41772,-100,4,1,1,65,0,0
41811,-100,4,1,1,35,0,0
41927,-100,4,1,5,65,0,0
42083,-100,4,1,1,65,0,0
42121,-100,4,1,1,35,0,0
42238,-100,4,1,1,65,0,0
42432,-100,4,1,1,35,0,0
42549,-100,4,1,1,65,0,0
42704,-100,4,1,2,70,0,0
42860,-100,4,1,12,70,0,0
43171,-100,4,1,14,70,0,0
43481,-100,4,1,12,70,0,0
44414,-100,4,1,14,70,0,0
44725,-100,4,1,12,70,0,0
45114,-100,4,1,12,15,0,0
45191,-100,4,1,12,70,0,0
45658,-100,4,1,14,70,0,0
45969,-100,4,1,12,70,0,0
47678,-100,4,1,16,70,0,0
47989,-100,4,1,12,70,0,0
48145,-100,4,1,14,70,0,0
48456,-100,4,1,12,70,0,0
48922,-100,4,1,16,70,0,0
49233,-100,4,1,12,70,0,0
49388,-100,4,1,14,70,0,0
49699,-100,4,1,12,70,0,0
50165,-100,4,1,1,70,0,0
50399,-100,4,1,1,5,0,0
50476,-100,4,1,3,70,0,0
51409,-100,4,1,1,70,0,0
52652,-100,4,1,2,70,0,1
52730,-100,4,1,6,70,0,1
52963,-100,4,1,1,70,0,1
53896,-100,4,1,6,70,0,1
54207,-100,4,1,1,70,0,1
55140,-100,4,1,6,70,0,1
55761,-100,4,1,1,70,0,1
57627,-100,4,1,6,70,0,1
57937,-100,4,1,1,70,0,1
58870,-100,4,1,6,70,0,1
59181,-100,4,1,1,70,0,1
60114,-100,4,1,6,70,0,1
60735,-100,4,1,1,70,0,1
61357,-100,4,1,1,70,0,0
61979,-100,4,1,3,70,0,0
62290,-100,4,1,4,70,0,0
62601,-100,4,1,2,70,0,1
62678,-100,4,1,6,70,0,1
62912,-100,4,1,1,70,0,1
63844,-100,4,1,6,70,0,1
64155,-100,4,1,1,70,0,1
64466,-100,4,1,6,70,0,1
64777,-100,4,1,1,70,0,1
65088,-100,4,1,6,70,0,1
65399,-100,4,1,1,70,0,1
65554,-100,4,1,8,70,0,1
65865,-100,4,1,1,70,0,1
66331,-100,4,1,6,70,0,1
66642,-100,4,1,1,70,0,1
66798,-100,4,1,8,70,0,1
67108,-100,4,1,1,70,0,1
67497,-100,4,1,1,15,0,1
67575,-100,4,1,1,70,0,1
68041,-100,4,1,6,70,0,1
68352,-100,4,1,1,70,0,1
68818,-100,4,1,2,70,0,1
68974,-100,4,1,1,70,0,1
69129,-100,4,1,2,70,0,1
69285,-100,4,1,1,70,0,1
69440,-100,4,1,2,70,0,1
69595,-100,4,1,1,70,0,1
69751,-100,4,1,2,70,0,1
69906,-100,4,1,1,70,0,1
71150,-100,4,1,1,70,0,0
71305,-100,4,1,1,70,0,1
71344,-100,4,1,1,20,0,1
71461,-100,4,1,1,70,0,0
72549,-100,4,1,2,70,0,1
72704,-100,4,1,1,70,0,0
73637,-100,4,1,8,70,0,0
73948,-100,4,1,1,70,0,0
74880,-100,4,1,2,70,0,0
75036,-100,4,1,1,70,0,0
76124,-100,4,1,2,70,0,0
76279,-100,4,1,1,70,0,0
76746,-100,4,1,8,70,0,0
77057,-100,4,1,1,70,0,0
77523,-100,4,1,2,70,0,0
77678,-100,4,1,1,70,0,0
78766,-100,4,1,6,70,0,0
78922,-100,4,1,1,70,0,0
79855,-100,4,1,2,70,0,0
80010,-100,4,1,1,70,0,0
80632,-100,4,1,2,70,0,0
80709,-100,4,1,1,70,0,0
81564,-100,4,1,2,70,0,0
81720,-100,4,1,3,70,0,0
82497,-100,4,1,6,70,0,0
82808,-100,4,1,6,70,0,0
83119,-100,4,1,6,60,0,0
83430,-100,4,1,6,60,0,0
83741,-100,4,1,6,60,0,0
84051,-100,4,1,6,60,0,0
84362,-100,4,1,6,50,0,0
84673,-100,4,1,6,50,0,0
84984,-100,4,1,6,50,0,0
86228,-100,4,1,1,50,0,0
86849,-100,4,1,2,60,0,0
87471,-100,4,1,2,70,0,0
87627,-100,4,1,1,70,0,0
88559,-100,4,1,8,70,0,0
88870,-100,4,1,1,70,0,0
89958,-100,4,1,6,70,0,0
90269,-100,4,1,1,70,0,0
91046,-100,4,1,8,70,0,0
91357,-100,4,1,1,70,0,0
92912,-100,4,1,6,70,0,0
93222,-100,4,1,1,70,0,0
93533,-100,4,1,6,70,0,0
93844,-100,4,1,1,70,0,0
94932,-100,4,1,6,70,0,0
95243,-100,4,1,1,70,0,0
95399,-100,4,1,2,70,0,0
96020,-100,4,1,3,70,0,0
96331,-100,4,1,4,70,0,0
96642,-100,4,1,5,70,0,0
96797,-100,4,1,2,70,0,0
97031,-100,4,1,1,70,0,0
97419,-100,4,1,2,70,0,0
97575,-100,4,1,1,70,0,0
98507,-100,4,1,8,70,0,0
98818,-100,4,1,1,70,0,0
99906,-100,4,1,6,70,0,0
100140,-100,4,1,6,20,0,0
100217,-100,4,1,1,70,0,0
101072,-100,4,1,8,70,0,0
101228,-100,4,1,1,70,0,0
101461,-100,4,1,6,70,0,0
101772,-100,4,1,1,70,0,0
102393,-100,4,1,6,70,0,0
104880,-100,4,1,2,70,0,0
105347,-100,4,1,1,70,0,0
105502,-100,4,1,2,70,0,0
105969,-100,4,1,1,70,0,0
106124,-100,4,1,3,70,0,0
106435,-100,4,1,1,70,0,0
106590,-100,4,1,4,70,0,0
106901,-100,4,1,1,70,0,0
107057,-100,4,1,5,70,0,0
107368,-100,4,1,2,70,0,0
107523,-100,4,1,12,70,0,0
107834,-100,4,1,14,70,0,0
108145,-100,4,1,12,70,0,0
109077,-100,4,1,14,70,0,0
109388,-100,4,1,12,70,0,0
109777,-100,4,1,12,15,0,0
109855,-100,4,1,12,70,0,0
110321,-100,4,1,14,70,0,0
110632,-100,4,1,12,70,0,0
111098,-100,4,1,16,70,0,0
111409,-100,4,1,12,70,0,0
112342,-100,4,1,16,70,0,0
112652,-100,4,1,12,70,0,0
112808,-100,4,1,14,70,0,0
113119,-100,4,1,12,70,0,0
113585,-100,4,1,16,70,0,0
113896,-100,4,1,12,70,0,0
114051,-100,4,1,14,70,0,0
114362,-100,4,1,12,70,0,0
114829,-100,4,1,1,70,0,0
115062,-100,4,1,1,15,0,0
115140,-100,4,1,1,70,0,0
115606,-100,4,1,2,70,0,0
115684,-100,4,1,1,70,0,0
116072,-100,4,1,2,70,0,0
116228,-100,4,1,1,70,0,0
116849,-100,4,1,3,70,0,0
117005,-100,4,1,4,70,0,0
117160,-100,4,1,5,70,0,0
117316,-100,4,1,2,70,0,1
117393,-100,4,1,6,70,0,1
117627,-100,4,1,1,70,0,1
118559,-100,4,1,6,70,0,1
118870,-100,4,1,1,70,0,1
119803,-100,4,1,6,70,0,1
120424,-100,4,1,1,70,0,1
122290,-100,4,1,6,70,0,1
122601,-100,4,1,1,70,0,1
123533,-100,4,1,6,70,0,1
123844,-100,4,1,1,70,0,1
124777,-100,4,1,6,70,0,1
125399,-100,4,1,1,70,0,1
126020,-100,4,1,3,70,0,0
127264,-100,4,1,2,70,0,1
127342,-100,4,1,6,70,0,1
127575,-100,4,1,1,70,0,1
128507,-100,4,1,6,70,0,1
128818,-100,4,1,1,70,0,1
129129,-100,4,1,6,70,0,1
129440,-100,4,1,1,70,0,1
129751,-100,4,1,6,70,0,1
130062,-100,4,1,1,70,0,1
130217,-100,4,1,8,70,0,1
130528,-100,4,1,1,70,0,1
130994,-100,4,1,6,70,0,1
131305,-100,4,1,1,70,0,1
131461,-100,4,1,8,70,0,1
131772,-100,4,1,1,70,0,1
132160,-100,4,1,1,15,0,1
132238,-100,4,1,1,70,0,1
132704,-100,4,1,6,70,0,1
133015,-100,4,1,1,70,0,1
133481,-100,4,1,2,70,0,1
133637,-100,4,1,1,70,0,1
133792,-100,4,1,2,70,0,1
133948,-100,4,1,1,70,0,1
134103,-100,4,1,2,70,0,1
134259,-100,4,1,1,70,0,1
134414,-100,4,1,2,70,0,1
134570,-100,4,1,1,70,0,1
135813,-100,4,1,1,70,0,0
135969,-100,4,1,1,70,0,1
136007,-100,4,1,1,20,0,1
136124,-100,4,1,1,70,0,0
137212,-100,4,1,2,70,0,1
137368,-100,4,1,1,70,0,0
138300,-100,4,1,8,70,0,0
138611,-100,4,1,1,70,0,0
139544,-100,4,1,2,70,0,0
139699,-100,4,1,1,70,0,0
140321,-83.3333333333333,4,1,1,70,0,0
140787,-100,4,1,2,70,0,0
140943,-100,4,1,1,70,0,0
141875,-100,4,1,6,70,0,0
142186,-100,4,1,2,70,0,0
142342,-100,4,1,1,70,0,0
143274,-100,4,1,6,70,0,0
143585,-100,4,1,1,70,0,0
144518,-100,4,1,2,70,0,0
144673,-100,4,1,8,70,0,0
144829,-100,4,1,1,70,0,0
145761,-100,4,1,2,70,0,0
145839,-100,4,1,8,70,0,0
146072,-100,4,1,1,70,0,0
146849,-100,4,1,2,70,0,0
147005,-100,4,1,1,70,0,0
149492,-100,4,1,2,70,0,0
149570,-100,4,1,6,70,0,0
149803,-100,4,1,1,70,0,0
150735,-100,4,1,2,70,0,0
150813,-100,4,1,1,70,0,0
152134,-100,4,1,2,70,0,0
152251,-100,4,1,6,70,0,0
152756,-100,4,1,1,70,0,0
153222,-100,4,1,8,70,0,0
153533,-100,4,1,1,70,0,0
157108,-100,4,1,2,70,0,0
157575,-100,4,1,1,70,0,0
159595,-100,4,1,2,70,0,0
160062,-100,4,1,1,70,0,0
160839,-100,4,1,2,70,0,0
160917,-100,4,1,1,70,0,0
161305,-100,4,1,3,70,0,0
161383,-100,4,1,1,70,0,0
161616,-100,4,1,4,70,0,0
161694,-100,4,1,1,70,0,0
161927,-100,4,1,5,70,0,0
162005,-100,4,1,1,70,0,0
162083,-100,4,1,2,70,0,0
162393,-100,4,1,1,70,0,0
163326,-100,4,1,6,70,0,0
163481,-100,4,1,1,70,0,0
165813,-83.3333333333333,4,1,1,70,0,0
167057,-100,4,1,2,70,0,0
167523,-100,4,1,1,70,0,0
170010,-100,4,1,9,70,0,0
170321,-100,4,1,1,70,0,0
171720,-100,4,1,4,70,0,0
171875,-100,4,1,5,70,0,0
172031,-90.9090909090909,4,1,2,70,0,0
172497,-90.9090909090909,4,1,1,70,0,0
175450,-100,4,1,1,70,0,0
186953,-100,4,1,2,60,0,0
187108,-100,4,1,16,60,0,0
187264,-100,4,1,6,60,0,0
187575,-100,4,1,12,60,0,0
189440,-100,4,1,16,60,0,0
189751,-100,4,1,12,60,0,0
190684,-100,4,1,16,60,0,0
191150,-100,4,1,12,60,0,0
191927,-100,4,1,2,60,0,0
192083,-100,4,1,16,60,0,0
192238,-100,4,1,12,60,0,0
194414,-100,4,1,16,60,0,0
194725,-100,4,1,12,60,0,0
196901,-100,4,1,2,65,0,0
197057,-100,4,1,1,65,0,0
206849,-95.2380952380952,4,1,2,70,0,1
206927,-95.2380952380952,4,1,12,70,0,1
209181,-95.2380952380952,4,1,6,70,0,1
209259,-95.2380952380952,4,1,6,15,0,1
209336,-95.2380952380952,4,1,12,70,0,1
209647,-95.2380952380952,4,1,2,70,0,1
209803,-95.2380952380952,4,1,14,70,0,1
210114,-95.2380952380952,4,1,12,70,0,1
210269,-95.2380952380952,4,1,2,70,0,1
210424,-95.2380952380952,4,1,14,70,0,1
210735,-95.2380952380952,4,1,12,70,0,1
210891,-95.2380952380952,4,1,2,70,0,1
211046,-95.2380952380952,4,1,12,70,0,1
211357,-95.2380952380952,4,1,17,70,0,1
211513,-95.2380952380952,4,1,2,70,0,1
211668,-95.2380952380952,4,1,12,70,0,1
214155,-95.2380952380952,4,1,6,70,0,1
214233,-95.2380952380952,4,1,6,15,0,1
214311,-95.2380952380952,4,1,12,70,0,1
216020,-71.4285714285714,4,1,14,70,0,1
216331,-95.2380952380952,4,1,6,70,0,1
216487,-95.2380952380952,4,1,1,70,0,1
216642,-95.2380952380952,4,1,2,70,0,1
216798,-95.2380952380952,4,1,12,70,0,1
219595,-80,4,1,2,70,0,1
219751,-100,4,1,12,70,0,1
220217,-80,4,1,2,70,0,1
220373,-95.2380952380952,4,1,12,70,0,1
220839,-74.0740740740741,4,1,2,70,0,1
220994,-95.2380952380952,4,1,12,70,0,1
221616,-95.2380952380952,4,1,2,70,0,1
221694,-95.2380952380952,4,1,12,70,0,1
222083,-95.2380952380952,4,1,1,70,0,1
222393,-95.2380952380952,4,1,2,70,0,1
222549,-95.2380952380952,4,1,1,70,0,1
222704,-95.2380952380952,4,1,2,70,0,1
222860,-95.2380952380952,4,1,1,70,0,1
223015,-95.2380952380952,4,1,2,70,0,1
223171,-95.2380952380952,4,1,1,70,0,1
223326,-95.2380952380952,4,1,2,70,0,1
223481,-95.2380952380952,4,1,1,70,0,1
223637,-95.2380952380952,4,1,2,70,0,1
223792,-95.2380952380952,4,1,1,70,0,1
223948,-95.2380952380952,4,1,2,70,0,1
224103,-95.2380952380952,4,1,1,70,0,1
224259,-95.2380952380952,4,1,2,70,0,1
224725,-95.2380952380952,4,1,3,70,0,1
225191,-95.2380952380952,4,1,4,70,0,1
225502,-95.2380952380952,4,1,1,70,0,1
226124,-100,4,1,1,70,0,0
226435,-105.263157894737,4,1,1,70,0,0
226746,-100,4,1,2,70,0,1
226823,-100,4,1,6,70,0,1
227057,-100,4,1,1,70,0,1
227989,-100,4,1,6,70,0,1
228300,-100,4,1,1,70,0,1
229233,-100,4,1,6,70,0,1
229855,-100,4,1,1,70,0,1
231720,-100,4,1,6,70,0,1
232031,-100,4,1,1,70,0,1
232963,-100,4,1,6,70,0,1
233274,-100,4,1,1,70,0,1
234207,-100,4,1,6,70,0,1
234829,-100,4,1,1,70,0,1
235450,-100,4,1,1,70,0,0
236616,-100,4,1,1,15,0,0
236694,-100,4,1,2,70,0,1
236772,-100,4,1,6,70,0,1
237005,-100,4,1,1,70,0,1
237937,-100,4,1,6,70,0,1
238248,-100,4,1,1,70,0,1
239103,-100,4,1,1,15,0,1
239181,-100,4,1,6,70,0,1
239492,-100,4,1,1,70,0,1
239647,-100,4,1,8,70,0,1
239958,-100,4,1,1,70,0,1
240347,-100,4,1,1,15,0,1
240424,-100,4,1,6,70,0,1
240735,-100,4,1,1,70,0,1
240891,-100,4,1,8,70,0,1
241202,-100,4,1,1,70,0,1
241590,-100,4,1,1,15,0,1
241668,-100,4,1,1,70,0,1
242134,-100,4,1,6,70,0,1
242445,-100,4,1,1,70,0,1
244311,-100,4,1,2,70,0,1
244932,-100,4,1,3,70,0,1
245088,-100,4,1,2,70,0,1
245399,-100,4,1,3,70,0,1
246176,-100,4,1,4,70,0,1
246331,-100,4,1,5,70,0,0
246642,-100,4,1,2,70,0,1
246720,-100,4,1,6,70,0,1
246953,-100,4,1,1,70,0,1
247886,-100,4,1,6,70,0,1
248197,-100,4,1,1,70,0,1
249129,-100,4,1,6,70,0,1
249751,-100,4,1,1,70,0,1
250373,-83.3333333333333,4,1,6,70,0,1
250684,-83.3333333333333,4,1,1,70,0,1
250839,-83.3333333333333,4,1,6,70,0,1
251150,-83.3333333333333,4,1,1,70,0,1
251538,-83.3333333333333,4,1,1,15,0,1
251616,-100,4,1,6,70,0,1
251927,-100,4,1,1,70,0,1
252860,-100,4,1,6,70,0,1
253171,-100,4,1,1,70,0,1
254026,-100,4,1,1,20,0,1
254103,-100,4,1,1,70,0,0
254259,-100,4,1,3,70,0,0
255347,-100,4,1,1,70,0,0
256590,-100,4,1,2,70,0,1
256668,-100,4,1,6,70,0,1
256901,-100,4,1,1,70,0,1
257834,-100,4,1,6,70,0,1
258145,-100,4,1,1,70,0,1
259000,-100,4,1,1,15,0,1
259077,-100,4,1,6,70,0,1
259388,-100,4,1,1,70,0,1
259544,-100,4,1,8,70,0,1
259855,-100,4,1,1,70,0,1
260321,-100,4,1,6,70,0,1
260632,-100,4,1,1,70,0,1
260787,-100,4,1,8,70,0,1
261098,-100,4,1,1,70,0,1
262031,-100,4,1,6,70,0,1
262342,-100,4,1,1,70,0,1
264051,-100,4,1,3,70,0,1
264518,-100,4,1,1,70,0,1
264673,-100,4,1,3,70,0,1
265140,-100,4,1,1,70,0,1
265295,-100,4,1,2,70,0,1
265606,-100,4,1,3,70,0,1
265917,-100,4,1,4,70,0,1
266228,-100,4,1,5,70,0,1
266383,-100,4,1,5,70,0,0
266538,-100,4,1,2,70,0,1
266694,-100,4,1,6,70,0,0
266849,-100,4,1,1,70,0,0
267782,-100,4,1,6,70,0,0
268093,-100,4,1,1,70,0,0
269026,-100,4,1,6,70,0,0
269336,-100,4,1,1,70,0,0
270269,-100,4,1,6,70,0,0
270580,-100,4,1,1,70,0,0
270735,-100,4,1,8,70,0,0
271046,-100,4,1,1,70,0,0
271202,-100,4,1,2,70,0,0
271357,-100,4,1,1,70,0,0
271513,-100,4,1,2,70,0,0
271668,-100,4,1,6,70,0,0
271823,-100,4,1,1,70,0,0
272756,-100,4,1,6,70,0,0
273067,-100,4,1,1,70,0,0
274000,-100,4,1,6,70,0,0
274311,-100,4,1,1,70,0,0
275243,-100,4,1,6,70,0,0
275554,-100,4,1,1,70,0,0
275709,-100,4,1,8,70,0,0
276020,-100,4,1,1,70,0,0
276176,-100,4,1,2,70,0,0
276331,-100,4,1,1,70,0,0
276487,-90.9090909090909,4,1,2,70,0,1
276642,-90.9090909090909,4,1,6,70,0,1
276798,-90.9090909090909,4,1,1,70,0,0
277108,-90.9090909090909,4,1,6,70,0,0
277419,-90.9090909090909,4,1,1,70,0,0
277730,-86.9565217391304,4,1,6,70,0,0
278041,-86.9565217391304,4,1,1,70,0,0
278352,-86.9565217391304,4,1,6,70,0,0
278663,-86.9565217391304,4,1,1,70,0,0
278974,-83.3333333333333,4,1,6,70,0,0
279285,-83.3333333333333,4,1,1,70,0,0
279595,-83.3333333333333,4,1,6,70,0,0
279906,-83.3333333333333,4,1,1,70,0,0
280217,-100,4,1,1,70,0,0
281461,-100,4,1,2,70,0,0
281616,-100,4,1,6,70,0,0
281772,-100,4,1,1,70,0,0
282704,-100,4,1,6,70,0,0
283015,-100,4,1,1,70,0,0
283948,-100,4,1,6,70,0,0
284259,-100,4,1,1,70,0,0
285191,-100,4,1,2,70,0,0
285269,-100,4,1,1,70,0,0
285658,-100,4,1,2,70,0,0
285735,-100,4,1,1,70,0,0
286435,-100,4,1,2,70,0,0
286590,-100,4,1,6,70,0,0
286746,-100,4,1,1,70,0,0
287678,-100,4,1,6,70,0,0
287989,-100,4,1,1,70,0,0
288145,-100,4,1,8,70,0,0
288456,-100,4,1,1,60,0,0
289077,-100,4,1,6,60,0,0
289233,-100,4,1,1,60,0,0
291098,-100,4,1,2,60,0,0
291254,-100,4,1,1,60,0,0
291409,-100,4,1,2,50,0,0
291564,-100,4,1,6,50,0,0
291720,-100,4,1,1,50,0,0
291875,-100,4,1,6,50,0,0
292186,-100,4,1,1,50,0,0
292652,-100,4,1,6,40,0,0
292963,-100,4,1,1,40,0,0
293119,-100,4,1,6,40,0,0
293430,-100,4,1,1,40,0,0
293896,-100,4,1,6,30,0,0
294207,-100,4,1,1,30,0,0
294362,-100,4,1,8,20,0,0
294673,-100,4,1,1,20,0,0
295140,-100,4,1,1,15,0,0
295761,-100,4,1,6,10,0,0
296072,-100,4,1,2,10,0,0
296228,-100,4,1,1,10,0,0
296305,-100,4,1,1,5,0,0
296383,-100,4,1,2,10,0,0
296461,-100,4,2,0,10,0,0
300114,-100,4,2,0,5,0,0

[Colours]
Combo1 : 255,192,0
Combo2 : 255,255,128
Combo3 : 255,128,64
Combo4 : 255,128,0

[HitObjects]
112,302,425,5,8,0:0:0:0:
70,269,502,1,0,0:0:0:0:
59,217,580,1,2,0:0:0:0:
83,171,658,1,2,0:0:0:0:
132,150,735,1,2,0:0:0:0:
182,167,813,1,0,0:0:0:0:
408,228,891,5,8,0:0:0:0:
449,195,968,1,0,0:0:0:0:
460,143,1046,1,2,0:0:0:0:
436,97,1124,1,2,0:0:0:0:
387,76,1201,1,2,0:0:0:0:
337,93,1279,1,0,0:0:0:0:
175,220,1357,6,0,L|103:214,1,50,8|0,0:0|0:0,0:0:0:0:
175,220,1513,2,0,L|230:218,1,50,2|2,0:0|0:0,0:0:0:0:
425,157,1668,5,8,0:0:0:0:
458,121,1745,1,0,0:0:0:0:
454,73,1823,1,2,0:0:0:0:
415,44,1901,1,2,0:0:0:0:
367,54,1979,2,0,L|296:48,1,50,2|0,0:0|0:0,0:0:0:0:
113,262,2134,5,8,0:0:0:0:
80,226,2211,1,0,0:0:0:0:
84,178,2289,1,2,0:0:0:0:
123,149,2367,1,2,0:0:0:0:
171,159,2445,2,0,L|242:153,1,50,2|2,0:0|0:0,0:0:0:0:
378,242,2601,5,2,0:0:0:0:
318,239,2678,1,2,0:0:0:0:
257,236,2756,1,2,0:0:0:0:
196,233,2834,1,2,0:0:0:0:
400,182,2912,6,0,P|467:223|384:300,1,200,4|12,0:0|0:0,0:0:0:0:
305,307,3378,1,2,0:0:0:0:
33,202,3533,2,0,L|141:197,1,100,4|0,0:0|0:0,0:0:0:0:
264,189,3844,2,0,P|294:134|216:80,1,150,12|0,0:0|0:0,0:0:0:0:
55,82,4155,6,0,P|48:168|153:208,1,200,6|12,0:0|0:0,0:0:0:0:
372,180,4621,2,0,L|173:171,1,200,2|0,0:0|0:0,0:0:0:0:
316,157,5088,2,0,L|430:152,1,100,12|2,0:0|0:0,0:0:0:0:
77,339,5399,6,0,P|27:292|105:218,1,200,6|8,0:0|0:0,0:0:0:0:
214,217,5865,1,0,0:0:0:0:
66,219,6020,2,0,L|55:113,1,100,0|2,0:0|0:0,0:0:0:0:
318,288,6331,2,0,P|379:257|328:195,1,150,12|0,0:0|0:0,0:0:0:0:
145,187,6642,6,0,L|354:182,1,200,6|12,0:0|0:0,0:0:0:0:
239,166,7108,1,2,0:0:0:0:
413,295,7264,2,0,L|534:286,1,100,4|2,0:0|0:0,0:0:0:0:
172,296,7575,2,0,L|162:182,1,100,12|2,0:0|0:0,0:0:0:0:
231,180,7808,1,2,0:0:0:0:
432,207,7886,6,0,P|468:153|348:88,1,200,4|12,0:0|0:0,0:0:0:0:
274,69,8352,1,2,0:0:0:0:
21,198,8507,2,0,L|141:191,1,100,4|0,0:0|0:0,0:0:0:0:
277,296,8818,2,0,L|104:284,1,150,12|0,0:0|0:0,0:0:0:0:
290,220,9129,6,0,P|352:197|313:81,1,200,6|12,0:0|0:0,0:0:0:0:
62,157,9595,2,0,L|56:82,1,50,2|0,0:0|0:0,0:0:0:0:
232,96,9751,2,0,L|463:85,1,200,4|12,0:0|0:0,0:0:0:0:
326,66,10217,1,2,0:0:0:0:
54,302,10373,6,0,L|174:293,1,100,2|8,0:0|0:0,0:0:0:0:
437,343,10684,2,0,L|303:336,1,100,0|0,0:0|0:0,0:0:0:0:
108,242,10994,1,8,0:0:0:0:
259,238,11150,1,2,0:0:0:0:
25,148,11305,1,8,0:0:0:0:
322,138,11461,1,8,0:0:0:0:
100,328,11616,6,0,L|84:202,1,100,2|8,0:0|0:0,0:0:0:0:
367,264,11927,2,0,L|377:144,1,100,0|2,0:0|0:0,0:0:0:0:
286,154,12160,1,0,0:0:0:0:
42,160,12238,1,2,0:0:0:0:
171,161,12393,1,2,0:0:0:0:
305,163,12549,1,2,0:0:0:0:
434,164,12704,1,2,0:0:0:0:
271,311,12860,2,0,L|263:204,1,100,6|2,0:0|0:0,0:0:0:0:
479,190,13171,5,4,0:0:0:0:
346,189,13326,2,0,P|282:144|366:100,1,200,2|2,0:0|0:0,0:0:0:0:
490,99,13792,2,0,L|379:95,1,100,12|2,0:0|0:0,0:0:0:0:
70,309,14103,6,0,P|54:249|130:126,1,200,6|12,0:0|0:0,0:0:0:0:
376,244,14570,2,0,P|392:184|286:113,1,200,2|2,0:0|0:0,0:0:0:0:
43,197,15036,2,0,L|173:191,1,100,12|2,0:0|0:0,0:0:0:0:
421,337,15347,6,0,L|175:328,1,200,6|12,0:0|0:0,0:0:0:0:
441,239,15813,2,0,P|497:209|412:131,1,200,2|2,0:0|0:0,0:0:0:0:
172,232,16279,2,0,L|164:129,1,100,12|2,0:0|0:0,0:0:0:0:
383,120,16590,6,0,P|497:74|512:6,1,200,6|12,0:0|0:0,0:0:0:0:
278,259,17057,2,0,P|164:213|149:145,1,200,2|2,0:0|0:0,0:0:0:0:
385,166,17523,2,0,P|428:120|367:86,1,150,12|0,0:0|0:0,0:0:0:0:
142,294,17834,6,0,L|252:289,1,100,6|2,0:0|0:0,0:0:0:0:
92,222,18145,1,12,0:0:0:0:
312,215,18300,2,0,P|349:162|243:95,1,200,2|2,0:0|0:0,0:0:0:0:
31,196,18766,1,12,0:0:0:0:
155,192,18922,1,2,0:0:0:0:
448,317,19077,6,0,L|346:304,1,100,8|2,0:0|0:0,0:0:0:0:
106,238,19388,2,0,L|219:232,1,100,8|2,0:0|0:0,0:0:0:0:
441,231,19699,5,8,0:0:0:0:
463,171,19776,1,0,0:0:0:0:
425,119,19854,1,2,0:0:0:0:
361,123,19932,1,0,0:0:0:0:
135,139,20010,1,8,0:0:0:0:
113,79,20087,1,0,0:0:0:0:
151,27,20165,1,2,0:0:0:0:
215,31,20243,1,0,0:0:0:0:
363,197,20321,6,0,L|415:196,1,50,8|8,0:0|0:0,0:0:0:0:
363,197,20477,2,0,L|293:197,1,50,2|2,0:0|0:0,0:0:0:0:
123,209,20632,2,0,L|115:136,1,50,8|0,0:0|0:0,0:0:0:0:
388,263,20787,6,0,L|440:262,1,50,8|8,0:0|0:0,0:0:0:0:
388,263,20943,2,0,L|318:263,1,50,2|8,0:0|0:0,0:0:0:0:
148,275,21098,2,0,L|140:202,1,50,8|2,0:0|0:0,0:0:0:0:
394,195,21254,2,0,L|457:188,2,50,8|8|8,0:0|0:0|0:0,0:0:0:0:
105,190,21564,6,0,P|97:119|394:197,1,600,4|0,0:0|0:0,0:0:0:0:
108,357,22808,6,0,P|49:306|123:236,1,200,4|12,0:0|0:0,0:0:0:0:
209,232,23274,1,0,0:0:0:0:
365,228,23430,2,0,L|164:221,1,200,6|12,0:0|0:0,0:0:0:0:
270,208,23896,1,0,0:0:0:0:
421,201,24051,6,0,P|445:122|337:62,1,200,6|12,0:0|0:0,0:0:0:0:
233,301,24518,2,0,P|209:222|317:162,1,200,0|2,0:0|0:0,0:0:0:0:
440,187,24984,2,0,L|279:182,1,150,12|0,0:0|0:0,0:0:0:0:
141,178,25295,6,0,P|100:142|198:76,1,200,6|12,0:0|0:0,0:0:0:0:
288,66,25761,1,0,0:0:0:0:
152,137,25917,2,0,L|263:130,1,100,6|2,0:0|0:0,0:0:0:0:
87,73,26228,1,12,0:0:0:0:
308,211,26383,6,0,P|362:176|276:115,1,200,0|0,0:0|0:0,0:0:0:0:
155,183,26849,2,0,L|271:175,1,100,12|0,0:0|0:0,0:0:0:0:
110,112,27160,1,6,0:0:0:0:
236,102,27316,1,2,0:0:0:0:
479,306,27471,2,0,L|481:182,1,100,12|0,0:0|0:0,0:0:0:0:
234,212,27782,6,0,P|177:180|246:102,1,200,6|12,0:0|0:0,0:0:0:0:
392,105,28248,2,0,L|168:101,1,200,0|2,0:0|0:0,0:0:0:0:
342,164,28715,2,0,L|349:62,1,100,12|0,0:0|0:0,0:0:0:0:
123,341,29026,6,0,P|53:321|101:208,1,200,6|12,0:0|0:0,0:0:0:0:
230,215,29492,2,0,P|270:171|167:102,1,200,0|2,0:0|0:0,0:0:0:0:
35,148,29958,2,0,L|148:142,1,100,12|0,0:0|0:0,0:0:0:0:
408,255,30269,6,0,L|201:245,2,200,6|12|6,0:0|0:0|0:0,0:0:0:0:
301,227,31046,1,2,0:0:0:0:
53,203,31202,1,12,0:0:0:0:
164,189,31357,1,0,0:0:0:0:
423,344,31513,6,0,P|485:246|404:202,1,200,6|12,0:0|0:0,0:0:0:0:
342,197,31979,1,0,0:0:0:0:
239,192,32134,2,0,L|133:181,1,100,6|2,0:0|0:0,0:0:0:0:
367,102,32445,2,0,L|476:101,1,100,12|2,0:0|0:0,0:0:0:0:
208,348,32756,6,0,P|138:315|227:251,1,200,6|12,0:0|0:0,0:0:0:0:
308,235,33222,1,0,0:0:0:0:
425,237,33378,2,0,L|299:233,1,100,6|2,0:0|0:0,0:0:0:0:
172,238,33689,2,0,P|114:220|122:132,1,150,12|0,0:0|0:0,0:0:0:0:
316,217,34000,6,0,P|371:166|287:92,1,200,6|12,0:0|0:0,0:0:0:0:
152,318,34466,2,0,P|97:267|181:193,1,200,0|2,0:0|0:0,0:0:0:0:
312,197,34932,2,0,P|337:138|277:91,1,150,12|0,0:0|0:0,0:0:0:0:
104,98,35243,6,0,L|309:93,1,200,6|12,0:0|0:0,0:0:0:0:
413,214,35709,2,0,L|183:205,1,200,0|2,0:0|0:0,0:0:0:0:
69,338,36176,2,0,L|61:213,1,100,12|0,0:0|0:0,0:0:0:0:
315,253,36487,6,0,P|363:202|266:133,1,200,6|12,0:0|0:0,0:0:0:0:
173,127,36953,1,0,0:0:0:0:
41,201,37108,2,0,L|148:195,1,100,6|2,0:0|0:0,0:0:0:0:
381,317,37419,2,0,L|207:309,1,150,12|0,0:0|0:0,0:0:0:0:
417,241,37730,6,0,P|464:134|394:121,1,200,6|12,0:0|0:0,0:0:0:0:
187,197,38197,2,0,L|403:191,1,200,0|2,0:0|0:0,0:0:0:0:
148,348,38663,2,0,L|141:241,1,100,12|0,0:0|0:0,0:0:0:0:
355,256,38974,6,0,P|379:179|272:108,1,200,6|12,0:0|0:0,0:0:0:0:
157,256,39440,2,0,P|133:179|240:108,1,200,0|2,0:0|0:0,0:0:0:0:
430,202,39906,2,0,P|460:162|382:101,1,150,12|0,0:0|0:0,0:0:0:0:
83,202,40217,5,2,0:0:0:0:
202,203,40373,1,8,0:0:0:0:
155,203,40450,1,8,0:0:0:0:
110,203,40528,1,8,0:0:0:0:
272,130,40684,1,8,0:0:0:0:
52,130,40839,5,2,0:0:0:0:
186,302,40994,1,8,0:0:0:0:
245,292,41071,1,8,0:0:0:0:
269,237,41149,1,8,0:0:0:0:
238,186,41227,1,8,0:0:0:0:
178,184,41304,1,8,0:0:0:0:
406,176,41461,5,2,0:0:0:0:
266,342,41616,2,0,L|258:301,1,25,10|0,0:0|0:0,0:0:0:0:
505,277,41772,2,0,L|508:244,1,25,10|0,0:0|0:0,0:0:0:0:
377,205,41927,1,2,0:0:0:0:
64,327,42083,2,0,L|92:326,1,25,10|0,0:0|0:0,0:0:0:0:
182,321,42238,1,2,0:0:0:0:
430,238,42393,2,0,L|435:200,1,25,10|0,0:0|0:0,0:0:0:0:
178,237,42549,1,10,0:0:0:0:
430,238,42704,6,0,P|476:212|406:113,1,200,4|12,0:0|0:0,0:0:0:0:
203,360,43171,2,0,P|146:336|222:257,1,200,2|2,0:0|0:0,0:0:0:0:
363,252,43637,2,0,L|246:244,1,100,12|2,0:0|0:0,0:0:0:0:
488,185,43948,6,0,L|261:175,1,200,6|12,0:0|0:0,0:0:0:0:
57,310,44414,2,0,L|289:300,1,200,2|2,0:0|0:0,0:0:0:0:
45,282,44880,2,0,P|5:241|68:185,1,150,12|0,0:0|0:0,0:0:0:0:
212,181,45191,6,0,L|229:79,1,100,6|2,0:0|0:0,0:0:0:0:
102,64,45502,1,12,0:0:0:0:
350,242,45658,2,0,L|133:235,1,200,2|2,0:0|0:0,0:0:0:0:
386,171,46124,2,0,L|400:60,1,100,12|2,0:0|0:0,0:0:0:0:
176,318,46435,6,0,L|292:317,1,100,6|0,0:0|0:0,0:0:0:0:
125,246,46746,1,12,0:0:0:0:
288,244,46901,1,2,0:0:0:0:
74,188,47057,2,0,L|181:186,1,100,6|2,0:0|0:0,0:0:0:0:
405,346,47368,2,0,L|286:338,1,100,12|2,0:0|0:0,0:0:0:0:
61,266,47678,6,0,P|44:206|151:140,1,200,6|12,0:0|0:0,0:0:0:0:
388,153,48145,2,0,P|415:81|298:42,1,200,2|2,0:0|0:0,0:0:0:0:
79,205,48611,2,0,L|192:197,1,100,12|2,0:0|0:0,0:0:0:0:
434,334,48922,6,0,L|228:324,1,200,6|12,0:0|0:0,0:0:0:0:
465,233,49388,2,0,P|479:148|378:92,1,200,2|2,0:0|0:0,0:0:0:0:
174,199,49855,2,0,L|284:197,1,100,12|0,0:0|0:0,0:0:0:0:
42,146,50165,6,0,P|23:88|102:24,1,150,8|0,0:0|0:0,0:0:0:0:
310,141,50476,1,2,0:0:0:0:
193,138,50632,1,2,0:0:0:0:
321,130,50787,1,2,0:0:0:0:
180,128,50943,1,2,0:0:0:0:
334,119,51098,1,2,0:0:0:0:
165,115,51254,1,2,0:0:0:0:
458,322,51409,5,8,0:0:0:0:
482,279,51486,1,8,0:0:0:0:
474,231,51564,1,8,0:0:0:0:
435,201,51642,1,8,0:0:0:0:
387,203,51719,1,2,0:0:0:0:
49,271,51875,5,8,0:0:0:0:
98,269,51952,1,8,0:0:0:0:
148,267,52030,1,8,0:0:0:0:
198,266,52108,1,8,0:0:0:0:
372,270,52186,2,0,L|386:209,1,50,2|2,0:0|0:0,0:0:0:0:
222,196,52342,2,0,L|212:127,1,50,8|8,0:0|0:0,0:0:0:0:
423,112,52497,2,0,L|356:104,1,50,2|2,0:0|0:0,0:0:0:0:
109,344,52652,6,0,P|55:322|129:229,1,200,4|12,0:0|0:0,0:0:0:0:
228,228,53119,1,2,0:0:0:0:
474,248,53274,2,0,L|491:106,1,100,6|2,0:0|0:0,0:0:0:0:
308,362,53585,2,0,L|292:247,1,100,12|2,0:0|0:0,0:0:0:0:
512,206,53896,6,0,L|279:198,1,200,6|12,0:0|0:0,0:0:0:0:
438,189,54362,1,2,0:0:0:0:
193,331,54518,2,0,L|74:324,1,100,6|2,0:0|0:0,0:0:0:0:
240,248,54829,2,0,L|363:241,1,100,12|2,0:0|0:0,0:0:0:0:
34,153,55140,6,0,L|259:146,2,200,6|12|6,0:0|0:0|0:0,0:0:0:0:
153,127,55917,1,2,0:0:0:0:
396,129,56072,2,0,L|509:120,1,100,12|0,0:0|0:0,0:0:0:0:
273,212,56383,6,0,L|143:210,1,100,6|0,0:0|0:0,0:0:0:0:
321,126,56694,1,12,0:0:0:0:
191,123,56849,1,2,0:0:0:0:
355,38,57005,2,0,L|220:36,1,100,0|2,0:0|0:0,0:0:0:0:
34,194,57316,2,0,L|177:188,1,100,12|2,0:0|0:0,0:0:0:0:
450,353,57627,6,0,P|493:291|380:233,1,200,6|12,0:0|0:0,0:0:0:0:
274,231,58093,1,2,0:0:0:0:
496,288,58248,2,0,L|362:278,1,100,6|2,0:0|0:0,0:0:0:0:
280,361,58559,2,0,L|413:353,1,100,12|2,0:0|0:0,0:0:0:0:
99,277,58870,6,0,P|81:184|192:134,1,200,6|12,0:0|0:0,0:0:0:0:
278,127,59336,1,2,0:0:0:0:
494,196,59492,2,0,L|372:191,1,100,6|2,0:0|0:0,0:0:0:0:
164,306,59803,2,0,L|282:298,1,100,12|2,0:0|0:0,0:0:0:0:
503,217,60114,6,0,L|272:210,2,200,6|12|6,0:0|0:0|0:0,0:0:0:0:
367,195,60891,1,2,0:0:0:0:
50,351,61046,2,0,L|40:229,1,100,12|2,0:0|0:0,0:0:0:0:
367,223,61357,5,6,0:0:0:0:
212,220,61513,2,0,L|206:157,1,50,8|8,0:0|0:0,0:0:0:0:
362,137,61668,2,0,L|239:131,1,100,8|2,0:0|0:0,0:0:0:0:
495,59,61979,1,2,0:0:0:0:
371,55,62134,1,2,0:0:0:0:
124,334,62290,2,0,L|115:200,1,100,2|2,0:0|0:0,0:0:0:0:
195,209,62523,1,0,0:0:0:0:
386,273,62601,6,0,P|427:212|323:162,1,200,4|12,0:0|0:0,0:0:0:0:
225,151,63067,1,2,0:0:0:0:
437,351,63222,2,0,L|445:233,1,100,6|2,0:0|0:0,0:0:0:0:
286,280,63533,2,0,L|276:168,1,100,12|2,0:0|0:0,0:0:0:0:
496,146,63844,6,0,P|526:74|430:33,1,200,6|12,0:0|0:0,0:0:0:0:
319,32,64311,1,2,0:0:0:0:
45,198,64466,2,0,L|271:189,1,200,6|12,0:0|0:0,0:0:0:0:
130,171,64932,1,2,0:0:0:0:
386,336,65088,6,0,P|432:308|368:209,1,200,6|12,0:0|0:0,0:0:0:0:
158,209,65554,2,0,P|112:181|176:82,1,200
421,108,66020,2,0,L|312:103,1,100,12|2,0:0|0:0,0:0:0:0:
92,204,66331,6,0,P|83:142|217:108,1,200,6|12,0:0|0:0,0:0:0:0:
469,205,66798,2,0,P|478:143|344:109,1,200,2|2,0:0|0:0,0:0:0:0:
134,313,67264,2,0,P|81:266|164:230,1,150,12|0,0:0|0:0,0:0:0:0:
302,221,67575,6,0,L|420:214,1,100,6|2,0:0|0:0,0:0:0:0:
239,158,67886,1,12,0:0:0:0:
476,148,68041,1,2,0:0:0:0:
336,303,68197,2,0,L|445:298,2,100,4|2|12,0:0|0:0|0:0,0:0:0:0:
477,228,68663,1,2,0:0:0:0:
234,324,68818,6,0,L|109:317,1,100,4|8,0:0|0:0,0:0:0:0:
377,198,69129,1,0,0:0:0:0:
244,188,69285,1,8,0:0:0:0:
462,332,69440,2,0,L|471:211,1,100,4|8,0:0|0:0,0:0:0:0:
205,226,69751,1,0,0:0:0:0:
451,228,69906,1,8,0:0:0:0:
204,326,70062,6,0,L|193:244,1,50,12|8,0:0|0:0,0:0:0:0:
397,267,70217,1,8,0:0:0:0:
436,217,70294,1,8,0:0:0:0:
410,159,70372,1,2,0:0:0:0:
347,154,70450,1,2,0:0:0:0:
132,267,70528,6,0,L|121:185,1,50,8|8,0:0|0:0,0:0:0:0:
316,203,70683,1,8,0:0:0:0:
355,153,70760,1,0,0:0:0:0:
329,95,70838,1,2,0:0:0:0:
266,90,70916,1,2,0:0:0:0:
56,105,70994,2,0,L|129:105,1,50,8|8,0:0|0:0,0:0:0:0:
330,217,71150,2,0,L|244:217,1,50,8|8,0:0|0:0,0:0:0:0:
61,216,71305,6,0,L|27:215,1,25,8|0,0:0|0:0,0:0:0:0:
367,220,72083,5,8,0:0:0:0:
140,224,72238,1,8,0:0:0:0:
367,220,72393,1,8,0:0:0:0:
75,338,72549,6,0,L|69:227,1,100,4|2,0:0|0:0,0:0:0:0:
350,233,72860,2,0,L|247:229,1,100,12|2,0:0|0:0,0:0:0:0:
479,136,73171,1,6,0:0:0:0:
349,132,73326,1,2,0:0:0:0:
479,136,73481,1,12,0:0:0:0:
213,344,73637,6,0,P|155:315|234:237,1,200,2|2,0:0|0:0,0:0:0:0:
445,295,74103,2,0,L|326:290,1,100,12|2,0:0|0:0,0:0:0:0:
119,210,74414,2,0,L|251:204,2,100,6|2|8,0:0|0:0|0:0,0:0:0:0:
447,159,74880,1,4,0:0:0:0:
301,268,75036,6,0,L|413:263,1,100,2|2,0:0|0:0,0:0:0:0:
121,207,75347,2,0,L|10:206,1,100,12|2,0:0|0:0,0:0:0:0:
235,133,75658,1,6,0:0:0:0:
101,126,75813,1,2,0:0:0:0:
380,75,75969,1,8,0:0:0:0:
138,270,76124,5,4,0:0:0:0:
272,264,76279,1,2,0:0:0:0:
138,270,76435,1,2,0:0:0:0:
294,263,76590,1,12,0:0:0:0:
46,230,76746,2,0,P|25:166|148:98,1,200,2|2,0:0|0:0,0:0:0:0:
369,92,77212,1,8,0:0:0:0:
113,92,77368,1,2,0:0:0:0:
424,235,77523,6,0,L|436:113,1,100,4|2,0:0|0:0,0:0:0:0:
176,350,77834,2,0,L|293:350,1,100,12|2,0:0|0:0,0:0:0:0:
55,275,78145,1,6,0:0:0:0:
178,274,78300,1,2,0:0:0:0:
55,275,78456,1,12,0:0:0:0:
305,220,78611,5,2,0:0:0:0:
155,224,78766,2,0,L|284:220,1,100,4|2,0:0|0:0,0:0:0:0:
479,334,79077,2,0,L|379:337,1,100,12|2,0:0|0:0,0:0:0:0:
142,288,79388,1,6,0:0:0:0:
300,284,79544,1,2,0:0:0:0:
43,224,79699,1,12,0:0:0:0:
279,233,79855,6,0,L|290:128,1,100,4|8,0:0|0:0,0:0:0:0:
222,125,80088,1,0,0:0:0:0:
56,122,80165,2,0,L|50:58,1,50,8|0,0:0|0:0,0:0:0:0:
220,264,80321,2,0,L|227:205,1,50,8|0,0:0|0:0,0:0:0:0:
54,193,80476,2,0,L|106:193,1,50,8|0,0:0|0:0,0:0:0:0:
325,220,80632,1,4,0:0:0:0:
359,165,80709,1,0,0:0:0:0:
336,105,80787,1,8,0:0:0:0:
274,87,80865,1,0,0:0:0:0:
61,88,80943,1,8,0:0:0:0:
348,288,81098,6,0,L|134:280,1,200,4|10,0:0|0:0,0:0:0:0:
288,266,81564,2,0,L|296:159,1,100,4|2,0:0|0:0,0:0:0:0:
224,157,81798,1,0,0:0:0:0:
41,153,81875,1,2,0:0:0:0:
181,149,82031,1,2,0:0:0:0:
320,147,82186,1,2,0:0:0:0:
460,147,82342,1,2,0:0:0:0:
105,285,82497,6,0,L|-4:281,1,100,2|0,0:0|0:0,0:0:0:0:
156,227,82808,2,0,L|50:174,1,100,8|0,0:0|0:0,0:0:0:0:
221,158,83119,2,0,L|152:70,1,100,2|0,0:0|0:0,0:0:0:0:
288,106,83430,2,0,L|263:-9,1,100,8|0,0:0|0:0,0:0:0:0:
413,283,83741,6,0,L|522:279,1,100,2|0,0:0|0:0,0:0:0:0:
352,225,84052,2,0,L|458:172,1,100,8|0,0:0|0:0,0:0:0:0:
288,154,84363,2,0,L|357:66,1,100,2|0,0:0|0:0,0:0:0:0:
197,115,84674,2,0,L|222:0,1,100,8|0,0:0|0:0,0:0:0:0:
463,282,84984,6,0,P|497:219|395:149,1,200,2|8,0:0|0:0,0:0:0:0:
314,145,85450,1,2,0:0:0:0:
157,150,85606,2,0,L|137:23,1,100,0|2,0:0|0:0,0:0:0:0:
338,256,85917,2,0,L|318:129,1,100,8|2,0:0|0:0,0:0:0:0:
88,191,86228,5,8,0:0:0:0:
243,192,86383,1,10,0:0:0:0:
18,105,86538,1,8,0:0:0:0:
173,106,86693,1,10,0:0:0:0:
466,296,86849,2,0,L|353:295,2,100,4|0|4,0:0|0:0|0:0,0:0:0:0:
139,299,87316,1,0,0:0:0:0:
362,236,87471,6,0,L|242:233,1,100,4|2,0:0|0:0,0:0:0:0:
388,153,87782,1,12,0:0:0:0:
254,147,87937,1,2,0:0:0:0:
485,73,88093,2,0,L|376:66,2,100,6|2|12,0:0|0:0|0:0,0:0:0:0:
214,284,88559,6,0,P|159:243|237:179,1,200,2|2,0:0|0:0,0:0:0:0:
358,185,89026,2,0,L|240:180,1,100,12|0,0:0|0:0,0:0:0:0:
410,104,89336,1,6,0:0:0:0:
292,96,89492,1,2,0:0:0:0:
37,303,89647,2,0,L|19:177,1,100,12|2,0:0|0:0,0:0:0:0:
355,157,89958,6,0,L|246:150,1,100,6|0,0:0|0:0,0:0:0:0:
32,297,90269,2,0,L|145:292,1,100,12|2,0:0|0:0,0:0:0:0:
362,282,90580,1,6,0:0:0:0:
243,275,90735,2,0,L|232:148,1,100,2|12,0:0|0:0,0:0:0:0:
489,128,91046,6,0,L|286:122,1,200,2|2,0:0|0:0,0:0:0:0:
434,117,91513,2,0,L|437:9,1,100,12|0,0:0|0:0,0:0:0:0:
287,206,91823,2,0,L|386:200,1,100,6|2,0:0|0:0,0:0:0:0:
169,322,92134,1,12,0:0:0:0:
291,318,92290,1,2,0:0:0:0:
55,253,92445,6,0,L|160:252,1,100,6|0,0:0|0:0,0:0:0:0:
14,175,92756,1,12,0:0:0:0:
323,228,92912,2,0,L|214:223,1,100,2|4,0:0|0:0,0:0:0:0:
376,154,93222,2,0,L|493:151,1,100,2|12,0:0|0:0,0:0:0:0:
212,346,93533,6,0,L|201:240,1,100,2|4,0:0|0:0,0:0:0:0:
344,222,93844,2,0,L|330:105,1,100,2|12,0:0|0:0,0:0:0:0:
165,126,94155,2,0,L|293:124,1,100,2|6,0:0|0:0,0:0:0:0:
423,223,94466,2,0,L|301:219,1,100,2|12,0:0|0:0,0:0:0:0:
475,148,94777,1,2,0:0:0:0:
145,347,94932,6,0,L|133:242,1,100,6|0,0:0|0:0,0:0:0:0:
274,220,95243,1,12,0:0:0:0:
118,208,95399,2,0,L|113:149,1,50,2|0,0:0|0:0,0:0:0:0:
288,135,95554,1,2,0:0:0:0:
334,121,95631,1,2,0:0:0:0:
351,77,95709,1,2,0:0:0:0:
326,36,95787,1,2,0:0:0:0:
278,32,95865,1,2,0:0:0:0:
230,36,95942,1,2,0:0:0:0:
61,199,96020,6,0,L|-9:200,1,50,2|2,0:0|0:0,0:0:0:0:
61,199,96176,2,0,L|124:200,1,50,2|2,0:0|0:0,0:0:0:0:
286,296,96331,2,0,L|296:234,1,50,2|2,0:0|0:0,0:0:0:0:
61,199,96487,2,0,L|-9:200,1,50,2|2,0:0|0:0,0:0:0:0:
226,263,96642,2,0,L|296:264,1,50,2|0,0:0|0:0,0:0:0:0:
83,233,96798,2,0,P|35:198|92:137,1,150,4|0,0:0|0:0,0:0:0:0:
313,135,97108,1,8,0:0:0:0:
77,136,97264,1,8,0:0:0:0:
323,201,97419,6,0,L|446:196,1,100,4|2,0:0|0:0,0:0:0:0:
202,333,97730,1,12,0:0:0:0:
94,326,97886,1,2,0:0:0:0:
325,254,98041,2,0,L|203:253,2,100,6|2|12,0:0|0:0|0:0,0:0:0:0:
101,347,98507,6,0,L|308:335,1,200,2|2,0:0|0:0,0:0:0:0:
166,333,98974,2,0,L|157:227,1,100,12|0,0:0|0:0,0:0:0:0:
280,204,99285,1,6,0:0:0:0:
137,202,99440,1,2,0:0:0:0:
381,106,99595,2,0,L|255:108,1,100,12|2,0:0|0:0,0:0:0:0:
35,220,99906,6,0,P|7:159|78:105,1,150,6|0,0:0|0:0,0:0:0:0:
235,100,100217,1,12,0:0:0:0:
123,215,100373,2,0,L|113:113,1,100,2|6,0:0|0:0,0:0:0:0:
266,349,100684,2,0,L|276:247,1,100,2|12,0:0|0:0,0:0:0:0:
25,234,100994,6,0,L|245:230,1,200,2|2,0:0|0:0,0:0:0:0:
89,200,101461,2,0,L|80:83,1,100,12|0,0:0|0:0,0:0:0:0:
195,82,101772,1,6,0:0:0:0:
47,76,101927,1,2,0:0:0:0:
277,184,102083,2,0,L|169:179,1,100,12|2,0:0|0:0,0:0:0:0:
406,324,102393,6,0,L|505:326,2,100,6|2|12,0:0|0:0|0:0,0:0:0:0:
163,302,102860,2,0,L|25:296,1,100,2|4,0:0|0:0,0:0:0:0:
303,224,103171,2,0,L|418:216,1,100,2|12,0:0|0:0,0:0:0:0:
131,362,103481,6,0,L|119:236,1,100,2|4,0:0|0:0,0:0:0:0:
367,259,103792,2,0,L|356:147,1,100,2|12,0:0|0:0,0:0:0:0:
32,171,104103,2,0,L|143:165,1,100,2|6,0:0|0:0,0:0:0:0:
350,312,104414,2,0,L|219:305,1,100,2|12,0:0|0:0,0:0:0:0:
473,242,104725,1,2,0:0:0:0:
237,228,104880,5,2,0:0:0:0:
219,182,104957,1,2,0:0:0:0:
230,134,105035,1,2,0:0:0:0:
267,101,105113,1,0,0:0:0:0:
316,94,105190,1,2,0:0:0:0:
153,75,105347,1,8,0:0:0:0:
454,355,105502,5,2,0:0:0:0:
471,304,105579,1,0,0:0:0:0:
449,255,105657,1,2,0:0:0:0:
399,235,105735,1,0,0:0:0:0:
349,255,105812,1,2,0:0:0:0:
500,244,105969,1,8,0:0:0:0:
197,250,106124,5,2,0:0:0:0:
143,230,106201,1,2,0:0:0:0:
128,175,106279,1,2,0:0:0:0:
165,131,106357,1,2,0:0:0:0:
390,152,106435,2,0,L|398:65,1,50,8|8,0:0|0:0,0:0:0:0:
163,225,106590,5,2,0:0:0:0:
109,205,106667,1,2,0:0:0:0:
94,150,106746,1,2,0:0:0:0:
131,106,106823,1,2,0:0:0:0:
354,140,106901,2,0,L|359:86,1,50,8|8,0:0|0:0,0:0:0:0:
174,271,107057,2,0,L|111:267,1,50,2|2,0:0|0:0,0:0:0:0:
266,353,107212,2,0,L|334:351,1,50,2|2,0:0|0:0,0:0:0:0:
82,238,107368,6,0,P|36:212|106:113,1,200,4|12,0:0|0:0,0:0:0:0:
309,360,107835,2,0,P|366:336|290:257,1,200,2|2,0:0|0:0,0:0:0:0:
149,252,108301,2,0,L|266:244,1,100,12|2,0:0|0:0,0:0:0:0:
24,185,108612,6,0,L|251:175,1,200,6|12,0:0|0:0,0:0:0:0:
455,310,109078,2,0,L|223:300,1,200,2|2,0:0|0:0,0:0:0:0:
467,282,109544,2,0,P|507:241|444:185,1,150,12|0,0:0|0:0,0:0:0:0:
300,181,109855,6,0,L|283:79,1,100,6|0,0:0|0:0,0:0:0:0:
410,64,110166,1,12,0:0:0:0:
162,242,110322,2,0,L|379:235,1,200,2|2,0:0|0:0,0:0:0:0:
126,171,110788,2,0,L|112:60,1,100,12|2,0:0|0:0,0:0:0:0:
336,318,111098,6,0,L|220:317,1,100,6|0,0:0|0:0,0:0:0:0:
387,246,111409,1,12,0:0:0:0:
224,244,111564,1,2,0:0:0:0:
438,188,111721,2,0,L|331:186,1,100,6|2,0:0|0:0,0:0:0:0:
107,346,112032,2,0,L|226:338,1,100,12|2,0:0|0:0,0:0:0:0:
451,266,112342,6,0,P|468:206|361:140,1,200,6|12,0:0|0:0,0:0:0:0:
124,153,112809,2,0,P|97:81|214:42,1,200,2|2,0:0|0:0,0:0:0:0:
433,205,113275,2,0,L|320:197,1,100,12|2,0:0|0:0,0:0:0:0:
78,334,113586,6,0,L|284:324,1,200,6|12,0:0|0:0,0:0:0:0:
47,233,114051,2,0,P|33:148|134:92,1,200,2|2,0:0|0:0,0:0:0:0:
338,199,114518,2,0,L|228:197,1,100,12|0,0:0|0:0,0:0:0:0:
470,146,114829,6,0,P|489:88|410:24,1,150,6|0,0:0|0:0,0:0:0:0:
230,139,115140,2,0,L|109:138,1,100,8|8,0:0|0:0,0:0:0:0:
261,55,115450,1,8,0:0:0:0:
103,52,115606,1,2,0:0:0:0:
379,302,115761,2,0,L|458:294,1,50,8|8,0:0|0:0,0:0:0:0:
263,233,115917,2,0,L|209:227,1,50,8|8,0:0|0:0,0:0:0:0:
397,189,116072,6,0,P|424:145|394:98,1,100,2|8,0:0|0:0,0:0:0:0:
258,120,116305,2,0,P|231:82|260:33,1,100,8|8,0:0|0:0,0:0:0:0:
404,34,116538,1,8,0:0:0:0:
176,305,116694,1,8,0:0:0:0:
128,262,116771,1,8,0:0:0:0:
144,201,116849,1,2,0:0:0:0:
205,186,116927,1,2,0:0:0:0:
361,222,117005,2,0,L|428:210,1,50,2|2,0:0|0:0,0:0:0:0:
251,344,117160,2,0,L|191:338,1,50,2|2,0:0|0:0,0:0:0:0:
415,345,117316,6,0,P|469:323|395:230,1,200,4|12,0:0|0:0,0:0:0:0:
296,229,117783,1,2,0:0:0:0:
50,249,117938,2,0,L|33:107,1,100,6|2,0:0|0:0,0:0:0:0:
216,363,118249,2,0,L|232:248,1,100,12|2,0:0|0:0,0:0:0:0:
12,207,118560,6,0,L|245:199,1,200,6|12,0:0|0:0,0:0:0:0:
86,190,119026,1,2,0:0:0:0:
331,332,119182,2,0,L|450:325,1,100,6|2,0:0|0:0,0:0:0:0:
284,249,119493,2,0,L|161:242,1,100,12|2,0:0|0:0,0:0:0:0:
490,154,119804,6,0,L|265:147,2,200,6|12|6,0:0|0:0|0:0,0:0:0:0:
371,128,120581,1,2,0:0:0:0:
116,118,120735,2,0,L|16:110,1,100,12|0,0:0|0:0,0:0:0:0:
251,213,121047,6,0,L|381:211,1,100,6|0,0:0|0:0,0:0:0:0:
199,127,121358,1,12,0:0:0:0:
329,124,121513,1,2,0:0:0:0:
157,38,121669,2,0,L|292:36,1,100,0|2,0:0|0:0,0:0:0:0:
478,194,121980,2,0,L|335:188,1,100,12|2,0:0|0:0,0:0:0:0:
74,354,122291,6,0,P|31:292|144:234,1,200,6|12,0:0|0:0,0:0:0:0:
250,232,122757,1,2,0:0:0:0:
16,288,122912,2,0,L|150:278,1,100,6|2,0:0|0:0,0:0:0:0:
232,361,123223,2,0,L|99:353,1,100,12|2,0:0|0:0,0:0:0:0:
425,278,123534,6,0,P|443:185|332:135,1,200,6|12,0:0|0:0,0:0:0:0:
246,128,124000,1,2,0:0:0:0:
30,197,124156,2,0,L|152:192,1,100,6|2,0:0|0:0,0:0:0:0:
360,307,124467,2,0,L|242:299,1,100,12|2,0:0|0:0,0:0:0:0:
21,218,124778,6,0,L|252:211,2,200,6|12|6,0:0|0:0|0:0,0:0:0:0:
157,196,125555,1,2,0:0:0:0:
474,352,125710,2,0,L|484:230,1,100,12|2,0:0|0:0,0:0:0:0:
209,257,126020,6,0,L|200:193,1,50,2|0,0:0|0:0,0:0:0:0:
364,188,126176,1,2,0:0:0:0:
420,160,126253,1,2,0:0:0:0:
418,97,126331,1,2,0:0:0:0:
359,73,126409,1,0,0:0:0:0:
197,135,126487,2,0,L|114:129,1,50,2|0,0:0|0:0,0:0:0:0:
413,228,126642,5,2,0:0:0:0:
469,200,126719,1,2,0:0:0:0:
467,137,126797,1,2,0:0:0:0:
408,113,126875,1,0,0:0:0:0:
246,175,126953,2,0,L|163:169,1,50,2|0,0:0|0:0,0:0:0:0:
355,335,127108,2,0,L|438:329,1,50,2|0,0:0|0:0,0:0:0:0:
126,273,127264,6,0,P|85:212|189:162,1,200,4|12,0:0|0:0,0:0:0:0:
287,151,127730,1,2,0:0:0:0:
75,351,127885,2,0,L|67:233,1,100,6|2,0:0|0:0,0:0:0:0:
226,280,128196,2,0,L|236:168,1,100,12|2,0:0|0:0,0:0:0:0:
16,146,128507,6,0,P|-14:74|82:33,1,200,6|12,0:0|0:0,0:0:0:0:
193,32,128974,1,2,0:0:0:0:
467,198,129129,2,0,L|241:189,1,200,6|12,0:0|0:0,0:0:0:0:
382,171,129595,1,2,0:0:0:0:
126,336,129751,6,0,P|80:308|144:209,1,200,6|12,0:0|0:0,0:0:0:0:
354,209,130217,2,0,P|400:181|336:82,1,200
91,108,130683,2,0,L|200:103,1,100,12|2,0:0|0:0,0:0:0:0:
420,204,130994,6,0,P|429:142|295:108,1,200,6|12,0:0|0:0,0:0:0:0:
43,205,131461,2,0,P|34:143|168:109,1,200,2|2,0:0|0:0,0:0:0:0:
378,313,131927,2,0,P|431:266|348:230,1,150,12|0,0:0|0:0,0:0:0:0:
210,221,132238,6,0,L|92:214,1,100,6|2,0:0|0:0,0:0:0:0:
273,158,132549,1,12,0:0:0:0:
36,148,132704,1,2,0:0:0:0:
176,303,132860,2,0,L|67:298,2,100,4|2|12,0:0|0:0|0:0,0:0:0:0:
35,228,133326,1,2,0:0:0:0:
278,324,133481,6,0,L|403:317,1,100,4|8,0:0|0:0,0:0:0:0:
135,198,133792,1,0,0:0:0:0:
268,188,133948,1,8,0:0:0:0:
50,332,134103,2,0,L|41:211,1,100,4|8,0:0|0:0,0:0:0:0:
307,226,134414,1,0,0:0:0:0:
61,228,134570,2,0,L|56:178,1,50,8|2,0:0|0:0,0:0:0:0:
208,147,134725,5,12,0:0:0:0:
75,141,134880,1,8,0:0:0:0:
295,64,135036,1,8,0:0:0:0:
162,58,135191,1,8,0:0:0:0:
381,224,135347,1,8,0:0:0:0:
248,218,135502,1,8,0:0:0:0:
471,70,135658,1,8,0:0:0:0:
142,52,135813,1,8,0:0:0:0:
471,70,135969,6,0,L|470:106,1,25,8|0,0:0|0:0,0:0:0:0:
205,104,136746,5,8,0:0:0:0:
453,91,136901,1,8,0:0:0:0:
205,104,137057,1,8,0:0:0:0:
458,248,137212,6,0,L|326:239,1,100,4|2,0:0|0:0,0:0:0:0:
116,353,137523,2,0,L|243:349,1,100,12|2,0:0|0:0,0:0:0:0:
448,282,137834,1,6,0:0:0:0:
329,273,137989,1,2,0:0:0:0:
448,282,138145,1,12,0:0:0:0:
165,278,138300,6,0,P|128:239|227:169,1,200,2|2,0:0|0:0,0:0:0:0:
448,214,138766,2,0,L|459:93,1,100,12|2,0:0|0:0,0:0:0:0:
174,333,139077,2,0,L|277:332,2,100,6|2|8,0:0|0:0|0:0,0:0:0:0:
438,249,139544,5,4,0:0:0:0:
311,244,139699,2,0,L|415:242,1,100,2|2,0:0|0:0,0:0:0:0:
119,348,140010,2,0,L|101:247,1,100,12|2,0:0|0:0,0:0:0:0:
370,204,140321,2,0,L|245:204,2,119.999996337891,6|2|8,0:0|0:0|0:0,0:0:0:0:
77,175,140787,5,4,0:0:0:0:
342,290,140943,2,0,L|348:228,1,50,2|0,0:0|0:0,0:0:0:0:
175,218,141098,2,0,L|105:216,2,50,2|0|12,0:0|0:0|0:0,0:0:0:0:
311,221,141409,1,2,0:0:0:0:
80,327,141564,2,0,L|187:321,1,100,6|2,0:0|0:0,0:0:0:0:
409,219,141875,1,8,0:0:0:0:
295,220,142031,1,0,0:0:0:0:
33,174,142186,6,0,L|165:168,1,100,4|2,0:0|0:0,0:0:0:0:
356,311,142497,2,0,L|245:306,1,100,12|2,0:0|0:0,0:0:0:0:
490,216,142808,1,6,0:0:0:0:
378,214,142963,1,2,0:0:0:0:
490,216,143119,1,12,0:0:0:0:
269,165,143274,6,0,L|373:165,2,100,2|4|2,0:0|0:0|0:0,0:0:0:0:
24,351,143741,2,0,L|162:347,1,100,12|2,0:0|0:0,0:0:0:0:
396,206,144051,1,6,0:0:0:0:
264,202,144207,1,2,0:0:0:0:
489,140,144362,1,8,0:0:0:0:
204,320,144518,6,0,L|66:313,1,100,4|0,0:0|0:0,0:0:0:0:
172,284,144751,1,0,0:0:0:0:
361,267,144829,1,2,0:0:0:0:
82,211,144984,2,0,L|77:142,1,50,12|0,0:0|0:0,0:0:0:0:
147,125,145140,1,2,0:0:0:0:
399,120,145295,2,0,L|475:115,2,50,6|0|2,0:0|0:0|0:0,0:0:0:0:
99,120,145606,1,12,0:0:0:0:
364,242,145761,6,0,P|402:197|296:118,1,200,4|2,0:0|0:0,0:0:0:0:
197,120,146228,1,12,0:0:0:0:
316,109,146383,1,2,0:0:0:0:
158,81,146538,1,6,0:0:0:0:
277,70,146693,1,2,0:0:0:0:
35,28,146849,1,6,0:0:0:0:
154,17,147004,1,2,0:0:0:0:
386,223,147160,6,0,L|259:217,1,100,6|2,0:0|0:0,0:0:0:0:
425,148,147471,2,0,L|298:142,1,100,12|2,0:0|0:0,0:0:0:0:
179,142,147782,1,6,0:0:0:0:
297,140,147937,1,2,0:0:0:0:
179,142,148093,1,12,0:0:0:0:
392,209,148248,5,2,0:0:0:0:
274,207,148403,1,6,0:0:0:0:
392,209,148559,1,2,0:0:0:0:
179,353,148715,2,0,L|166:235,1,100,12|2,0:0|0:0,0:0:0:0:
461,240,149026,1,6,0:0:0:0:
326,242,149181,1,2,0:0:0:0:
466,243,149336,1,12,0:0:0:0:
169,301,149492,6,0,P|113:258|194:191,1,200,4|2,0:0|0:0,0:0:0:0:
408,193,149958,1,12,0:0:0:0:
442,139,150035,1,0,0:0:0:0:
411,84,150113,1,2,0:0:0:0:
347,86,150191,1,0,0:0:0:0:
184,330,150269,1,6,0:0:0:0:
149,276,150346,1,0,0:0:0:0:
180,221,150424,1,2,0:0:0:0:
244,223,150502,1,0,0:0:0:0:
419,222,150580,2,0,L|483:222,1,50,12|0,0:0|0:0,0:0:0:0:
327,322,150735,1,4,0:0:0:0:
271,320,150813,1,0,0:0:0:0:
99,245,150891,5,6,0:0:0:0:
86,197,150968,1,0,0:0:0:0:
108,154,151046,1,2,0:0:0:0:
154,137,151124,1,0,0:0:0:0:
361,149,151202,1,12,0:0:0:0:
373,101,151279,1,0,0:0:0:0:
351,58,151357,1,2,0:0:0:0:
305,41,151435,1,0,0:0:0:0:
148,327,151513,5,6,0:0:0:0:
85,316,151590,1,0,0:0:0:0:
59,259,151668,1,2,0:0:0:0:
93,206,151746,1,0,0:0:0:0:
156,204,151823,1,12,0:0:0:0:
217,193,151901,1,0,0:0:0:0:
243,136,151979,1,2,0:0:0:0:
209,83,152057,1,0,0:0:0:0:
56,89,152134,5,4,0:0:0:0:
183,86,152290,1,0,0:0:0:0:
14,33,152445,1,12,0:0:0:0:
148,26,152601,1,0,0:0:0:0:
376,203,152756,1,6,0:0:0:0:
228,195,152912,1,2,0:0:0:0:
376,203,153067,1,12,0:0:0:0:
127,317,153222,6,0,L|339:310,1,200,2|2,0:0|0:0,0:0:0:0:
106,238,153689,2,0,L|47:234,1,50,12|0,0:0|0:0,0:0:0:0:
106,238,153844,2,0,L|165:234,1,50,2|0,0:0|0:0,0:0:0:0:
347,177,154000,2,0,L|406:173,1,50,6|0,0:0|0:0,0:0:0:0:
347,177,154155,2,0,L|288:173,1,50,2|0,0:0|0:0,0:0:0:0:
131,159,154311,1,12,0:0:0:0:
121,111,154388,1,0,0:0:0:0:
148,70,154466,1,2,0:0:0:0:
196,59,154544,1,0,0:0:0:0:
429,69,154621,5,2,0:0:0:0:
175,292,154777,2,0,L|106:287,2,50,10|0|10,0:0|0:0|0:0,0:0:0:0:
430,248,155088,1,6,0:0:0:0:
157,210,155243,1,8,0:0:0:0:
294,204,155399,1,8,0:0:0:0:
427,202,155554,1,2,0:0:0:0:
165,334,155709,2,0,L|159:273,1,50,2|2,0:0|0:0,0:0:0:0:
232,260,155865,5,2,0:0:0:0:
274,235,155942,1,2,0:0:0:0:
290,189,156020,1,2,0:0:0:0:
271,144,156098,1,2,0:0:0:0:
106,135,156176,2,0,L|46:132,1,50,2|2,0:0|0:0,0:0:0:0:
290,189,156331,2,0,L|342:182,1,50,2|2,0:0|0:0,0:0:0:0:
148,216,156487,2,0,L|88:173,1,50,2|2,0:0|0:0,0:0:0:0:
279,142,156642,2,0,L|310:97,1,50,2|2,0:0|0:0,0:0:0:0:
136,117,156798,2,0,L|128:52,1,50,2|2,0:0|0:0,0:0:0:0:
279,226,156953,2,0,L|271:161,1,50,2|2,0:0|0:0,0:0:0:0:
57,316,157108,6,0,P|14:271|163:190,1,300,6|0,0:0|0:0,0:0:0:0:
303,197,157730,2,0,L|-9:191,1,300,12|2,0:0|0:0,0:0:0:0:
145,169,158352,1,6,0:0:0:0:
10,141,158507,2,0,P|1:81|126:25,1,200,0|0,0:0|0:0,0:0:0:0:
404,318,158974,2,0,P|435:243|317:195,1,200,12|0,0:0|0:0,0:0:0:0:
225,180,159440,1,0,0:0:0:0:
448,238,159595,6,0,P|482:170|317:80,1,300,4|0,0:0|0:0,0:0:0:0:
173,236,160217,2,0,P|139:168|304:78,1,300,12|2,0:0|0:0,0:0:0:0:
59,178,160839,1,2,0:0:0:0:
186,259,160994,1,2,0:0:0:0:
136,256,161071,1,2,0:0:0:0:
86,254,161149,1,0,0:0:0:0:
305,186,161305,6,0,L|312:127,1,50,2|0,0:0|0:0,0:0:0:0:
168,346,161461,1,2,0:0:0:0:
121,330,161538,1,2,0:0:0:0:
104,285,161616,1,2,0:0:0:0:
127,243,161694,1,2,0:0:0:0:
184,238,161772,1,2,0:0:0:0:
230,222,161849,1,2,0:0:0:0:
247,177,161927,1,2,0:0:0:0:
224,135,162005,1,2,0:0:0:0:
16,303,162083,6,0,L|225:69,1,300,4|0,0:0|0:0,0:0:0:0:
448,187,162704,2,0,P|500:134|353:49,1,300,12|2,0:0|0:0,0:0:0:0:
117,143,163326,1,6,0:0:0:0:
242,148,163481,2,0,P|303:139|301:10,1,200,2|0,0:0|0:0,0:0:0:0:
100,72,163948,2,0,L|316:62,1,200,12|2,0:0|0:0,0:0:0:0:
192,54,164414,1,0,0:0:0:0:
482,229,164570,6,0,P|508:160|337:61,1,300,6|0,0:0|0:0,0:0:0:0:
223,149,165191,2,0,L|460:142,1,200,12|0,0:0|0:0,0:0:0:0:
324,127,165658,1,2,0:0:0:0:
110,312,165813,6,0,L|40:313,1,59.9999981689454,2|2,0:0|0:0,0:0:0:0:
110,312,165969,2,0,L|180:313,1,59.9999981689454,2|2,0:0|0:0,0:0:0:0:
110,312,166124,2,0,L|40:313,1,59.9999981689454,2|2,0:0|0:0,0:0:0:0:
110,312,166280,2,0,L|180:313,1,59.9999981689454,2|2,0:0|0:0,0:0:0:0:
392,273,166435,2,0,L|404:206,1,59.9999981689454,2|2,0:0|0:0,0:0:0:0:
329,225,166590,2,0,L|341:158,1,59.9999981689454,2|2,0:0|0:0,0:0:0:0:
263,182,166746,2,0,L|275:115,1,59.9999981689454,2|2,0:0|0:0,0:0:0:0:
198,134,166901,2,0,L|210:67,1,59.9999981689454,2|0,0:0|0:0,0:0:0:0:
444,329,167057,6,0,P|476:264|308:194,1,300,4|0,0:0|0:0,0:0:0:0:
160,220,167678,2,0,P|93:197|220:112,1,300,12|2,0:0|0:0,0:0:0:0:
327,146,168300,2,0,L|217:145,1,100,6|2,0:0|0:0,0:0:0:0:
384,75,168611,2,0,L|500:75,1,100,2|0,0:0|0:0,0:0:0:0:
174,45,168922,1,12,0:0:0:0:
91,100,169077,1,0,0:0:0:0:
84,184,169232,1,0,0:0:0:0:
172,249,169388,1,0,0:0:0:0:
428,297,169544,6,0,P|443:220|330:173,1,200,6|0,0:0|0:0,0:0:0:0:
204,239,170010,2,0,P|410:227|411:227,1,200,0|0,0:0|0:0,0:0:0:0:
123,329,170476,2,0,L|114:220,1,100,0|2,0:0|0:0,0:0:0:0:
337,183,170787,1,2,0:0:0:0:
70,186,170943,2,0,P|30:129|124:54,1,200,8|2,0:0|0:0,0:0:0:0:
181,44,171331,1,2,0:0:0:0:
259,39,171409,1,2,0:0:0:0:
30,126,171564,1,8,0:0:0:0:
323,299,171720,2,0,L|379:263,1,50,2|2,0:0|0:0,0:0:0:0:
142,356,171875,2,0,L|92:320,1,50,2|0,0:0|0:0,0:0:0:0:
379,252,172031,6,0,P|436:234|306:120,1,330.000010070801,4|0,0:0|0:0,0:0:0:0:
125,215,172652,2,0,P|68:197|198:83,1,330.000010070801,12|2,0:0|0:0,0:0:0:0:
327,190,173274,2,0,P|425:136|300:26,1,330.000010070801,2|0,0:0|0:0,0:0:0:0:
167,241,173896,2,0,P|84:212|114:81,1,220.000006713867,12|0,0:0|0:0,0:0:0:0:
410,128,174362,1,0,0:0:0:0:
183,204,174518,6,0,P|128:174|269:81,1,330.000010070801,6|0,0:0|0:0,0:0:0:0:
501,75,175140,2,0,L|384:68,1,110.000003356934,12|0,0:0|0:0,0:0:0:0:
78,308,175450,2,0,L|69:178,1,100,0|2,0:0|0:0,0:0:0:0:
148,187,175684,1,0,0:0:0:0:
419,206,175761,5,12,0:0:0:0:
298,193,175917,1,6,0:0:0:0:
445,151,176072,2,0,L|451:96,1,50,2|0,0:0|0:0,0:0:0:0:
273,293,176228,1,12,0:0:0:0:
364,251,176384,1,6,0:0:0:0:
247,238,176538,1,2,0:0:0:0:
488,189,176694,1,12,0:0:0:0:
355,182,176849,1,4,0:0:0:0:
32,324,177005,5,10,0:0:0:0:
429,329,177160,1,10,0:0:0:0:
37,321,178248,5,10,0:0:0:0:
434,326,178403,1,10,0:0:0:0:
32,324,179492,5,10,0:0:0:0:
429,329,179647,1,10,0:0:0:0:
32,324,180735,5,8,0:0:0:0:
429,329,180890,1,8,0:0:0:0:
312,315,181046,2,0,L|424:310,1,100,2|2,0:0|0:0,0:0:0:0:
175,243,181357,1,8,0:0:0:0:
297,234,181513,1,8,0:0:0:0:
50,166,181668,2,0,L|179:162,1,100,2|2,0:0|0:0,0:0:0:0:
472,325,181979,5,10,0:0:0:0:
75,330,182134,1,10,0:0:0:0:
467,322,183222,5,10,0:0:0:0:
70,327,183377,1,10,0:0:0:0:
472,325,184466,5,10,0:0:0:0:
75,330,184621,1,10,0:0:0:0:
472,325,185554,2,0,L|474:252,1,50,2|0,0:0|0:0,0:0:0:0:
203,254,185709,5,8,0:0:0:0:
333,252,185865,2,0,L|339:146,1,100,8|0,0:0|0:0,0:0:0:0:
261,141,186098,1,0,0:0:0:0:
88,139,186176,2,0,L|206:133,1,100,8|8,0:0|0:0,0:0:0:0:
37,75,186487,1,2,0:0:0:0:
292,277,186642,2,0,L|157:275,1,100,8|8,0:0|0:0,0:0:0:0:
454,225,186953,6,0,P|491:183|398:117,1,200,4|2,0:0|0:0,0:0:0:0:
308,116,187419,1,0,0:0:0:0:
81,203,187575,2,0,L|206:195,1,100,12|2,0:0|0:0,0:0:0:0:
316,342,187886,2,0,L|207:333,1,100,2|2,0:0|0:0,0:0:0:0:
273,322,188119,1,0,0:0:0:0:
420,277,188197,6,0,L|200:271,1,200,6|2,0:0|0:0,0:0:0:0:
337,253,188663,1,2,0:0:0:0:
94,244,188818,2,0,P|83:177|203:131,1,200,12|2,0:0|0:0,0:0:0:0:
319,180,189285,2,0,L|250:177,1,50,2|0,0:0|0:0,0:0:0:0:
64,177,189440,6,0,P|34:135|137:59,1,200,6|2,0:0|0:0,0:0:0:0:
234,51,189906,1,2,0:0:0:0:
461,116,190062,2,0,L|480:253,1,100,12|2,0:0|0:0,0:0:0:0:
315,354,190373,2,0,L|208:349,1,100,2|2,0:0|0:0,0:0:0:0:
271,338,190606,1,0,0:0:0:0:
435,316,190684,5,6,0:0:0:0:
216,318,190839,2,0,P|156:300|230:207,1,200,0|2,0:0|0:0,0:0:0:0:
439,206,191305,2,0,P|499:188|425:95,1,200,12|2,0:0|0:0,0:0:0:0:
305,160,191772,2,0,L|255:150,1,50,2|0,0:0|0:0,0:0:0:0:
441,97,191927,6,0,P|483:31|370:11,1,200,4|2,0:0|0:0,0:0:0:0:
291,3,192393,1,2,0:0:0:0:
68,272,192549,2,0,L|176:268,1,100,12|2,0:0|0:0,0:0:0:0:
310,336,192860,2,0,L|188:331,1,100,2|2,0:0|0:0,0:0:0:0:
272,314,193093,1,0,0:0:0:0:
460,180,193171,6,0,L|252:175,1,200,6|2,0:0|0:0,0:0:0:0:
28,316,193637,2,0,L|261:306,1,200,4|2,0:0|0:0,0:0:0:0:
463,222,194103,2,0,L|345:217,1,100,6|2,0:0|0:0,0:0:0:0:
296,215,194336,1,0,0:0:0:0:
96,224,194414,6,0,L|86:115,1,100,6|0,0:0|0:0,0:0:0:0:
307,131,194725,2,0,P|370:87|270:32,1,200,6|12,0:0|0:0,0:0:0:0:
188,18,195191,1,2,0:0:0:0:
61,105,195347,2,0,L|173:102,1,100,2|2,0:0|0:0,0:0:0:0:
211,102,195580,1,0,0:0:0:0:
401,289,195658,5,12,0:0:0:0:
265,277,195813,1,8,0:0:0:0:
479,219,195969,2,0,L|484:164,2,50,2|0|12,0:0|0:0|0:0,0:0:0:0:
260,349,196279,1,8,0:0:0:0:
394,341,196435,1,2,0:0:0:0:
176,268,196590,1,12,0:0:0:0:
443,251,196746,1,8,0:0:0:0:
97,329,196901,5,4,0:0:0:0:
213,324,197057,1,2,0:0:0:0:
334,320,197212,1,6,0:0:0:0:
176,268,197368,2,0,L|298:262,2,100,2|12|2,0:0|0:0|0:0,0:0:0:0:
342,208,197834,2,0,L|350:94,1,100,6|2,0:0|0:0,0:0:0:0:
275,90,198067,1,0,0:0:0:0:
97,194,198145,6,0,L|-12:182,1,100,6|2,0:0|0:0,0:0:0:0:
154,272,198456,2,0,L|263:260,1,100,6|2,0:0|0:0,0:0:0:0:
82,356,198766,2,0,L|71:232,1,100,12|2,0:0|0:0,0:0:0:0:
215,251,199077,2,0,L|208:139,1,100,6|2,0:0|0:0,0:0:0:0:
159,147,199311,1,0,0:0:0:0:
12,200,199388,5,6,0:0:0:0:
121,197,199544,1,2,0:0:0:0:
12,200,199699,1,6,0:0:0:0:
203,281,199855,1,2,0:0:0:0:
94,278,200011,1,12,0:0:0:0:
203,281,200166,1,2,0:0:0:0:
446,361,200321,2,0,L|453:253,1,100,6|2,0:0|0:0,0:0:0:0:
382,251,200554,1,0,0:0:0:0:
199,308,200632,6,0,L|191:195,1,100,6|2,0:0|0:0,0:0:0:0:
336,213,200943,2,0,L|344:99,1,100,6|2,0:0|0:0,0:0:0:0:
122,95,201254,2,0,L|-1:84,1,100,12|2,0:0|0:0,0:0:0:0:
164,163,201564,2,0,L|273:155,1,100,6|2,0:0|0:0,0:0:0:0:
211,153,201798,1,0,0:0:0:0:
44,267,201875,5,6,0:0:0:0:
157,264,202031,1,2,0:0:0:0:
275,262,202186,1,6,0:0:0:0:
19,189,202342,1,2,0:0:0:0:
132,186,202498,1,12,0:0:0:0:
364,339,202652,1,2,0:0:0:0:
240,331,202808,1,6,0:0:0:0:
380,328,202963,2,0,L|388:261,1,50,2|0,0:0|0:0,0:0:0:0:
150,250,203119,6,0,L|38:243,1,100,6|2,0:0|0:0,0:0:0:0:
280,146,203430,2,0,L|390:138,1,100,6|2,0:0|0:0,0:0:0:0:
98,360,203741,2,0,L|79:251,1,100,12|2,0:0|0:0,0:0:0:0:
325,266,204051,2,0,L|337:162,1,100,6|2,0:0|0:0,0:0:0:0:
66,206,204362,5,6,0:0:0:0:
193,198,204518,1,2,0:0:0:0:
44,145,204673,1,6,0:0:0:0:
171,137,204829,1,2,0:0:0:0:
446,206,204984,1,14,0:0:0:0:
319,198,205140,1,2,0:0:0:0:
468,145,205295,1,6,0:0:0:0:
341,137,205451,1,2,0:0:0:0:
95,326,205606,5,8,0:0:0:0:
60,273,205683,1,0,0:0:0:0:
91,218,205761,1,8,0:0:0:0:
154,220,205839,1,0,0:0:0:0:
316,227,205917,1,8,0:0:0:0:
350,174,205994,1,8,0:0:0:0:
319,119,206072,1,2,0:0:0:0:
256,121,206150,1,0,0:0:0:0:
66,124,206228,1,8,0:0:0:0:
284,228,206383,1,8,0:0:0:0:
234,224,206460,1,8,0:0:0:0:
184,221,206538,1,2,0:0:0:0:
429,175,206694,2,0,L|436:107,1,50,10|8,0:0|0:0,0:0:0:0:
253,301,206849,6,0,L|197:300,1,52.4999983978272,4|0,0:0|0:0,0:0:0:0:
200,300,207005,2,0,L|256:299,1,52.4999983978272,2|0,0:0|0:0,0:0:0:0:
330,250,207160,2,0,L|386:249,1,52.4999983978272,12|0,0:0|0:0,0:0:0:0:
383,249,207316,2,0,L|327:248,1,52.4999983978272,2|0,0:0|0:0,0:0:0:0:
222,203,207471,6,0,L|166:202,1,52.4999983978272,6|0,0:0|0:0,0:0:0:0:
169,202,207627,2,0,L|225:201,1,52.4999983978272,2|0,0:0|0:0,0:0:0:0:
381,126,207782,2,0,L|437:125,1,52.4999983978272,12|0,0:0|0:0,0:0:0:0:
434,125,207938,2,0,L|378:124,1,52.4999983978272,2|0,0:0|0:0,0:0:0:0:
157,287,208093,5,6,0:0:0:0:
105,283,208170,1,0,0:0:0:0:
72,244,208248,1,2,0:0:0:0:
75,193,208326,1,0,0:0:0:0:
270,210,208404,1,12,0:0:0:0:
321,206,208481,1,0,0:0:0:0:
354,167,208559,1,2,0:0:0:0:
351,116,208637,1,0,0:0:0:0:
145,154,208715,2,0,L|133:91,1,52.4999983978272,6|0,0:0|0:0,0:0:0:0:
314,295,208870,2,0,L|326:219,1,52.4999983978272,2|0,0:0|0:0,0:0:0:0:
128,226,209026,2,0,P|75:203|126:148,1,157.499995193482,12|0,0:0|0:0,0:0:0:0:
339,149,209336,5,6,0:0:0:0:
230,142,209492,1,2,0:0:0:0:
467,83,209647,1,12,0:0:0:0:
194,295,209803,2,0,P|126:237|205:165,1,209.999993591309,2|2,0:0|0:0,0:0:0:0:
343,166,210269,1,12,0:0:0:0:
110,224,210424,6,0,P|86:166|193:97,1,209.999993591309,2|2,0:0|0:0,0:0:0:0:
455,200,210891,2,0,L|334:193,1,104.999996795654,12|2,0:0|0:0,0:0:0:0:
99,328,211202,1,6,0:0:0:0:
364,328,211357,1,2,0:0:0:0:
215,317,211513,2,0,L|202:189,1,104.999996795654,12|2,0:0|0:0,0:0:0:0:
417,178,211823,6,0,L|477:174,1,52.4999983978272,6|0,0:0|0:0,0:0:0:0:
417,178,211979,2,0,L|350:173,1,52.4999983978272,2|0,0:0|0:0,0:0:0:0:
137,112,212134,2,0,L|130:58,2,34.9999989318848,12|0|0,0:0|0:0|0:0,0:0:0:0:
188,113,212290,1,0,0:0:0:0:
243,113,212368,1,0,0:0:0:0:
406,114,212445,6,0,L|467:108,1,52.4999983978272,6|0,0:0|0:0,0:0:0:0:
311,252,212601,2,0,L|228:246,1,52.4999983978272,2|0,0:0|0:0,0:0:0:0:
413,193,212756,1,12,0:0:0:0:
418,125,212833,1,0,0:0:0:0:
372,75,212911,1,2,0:0:0:0:
304,75,212989,1,0,0:0:0:0:
85,305,213067,5,6,0:0:0:0:
65,239,213144,1,0,0:0:0:0:
100,181,213222,1,2,0:0:0:0:
167,167,213300,1,0,0:0:0:0:
328,165,213378,2,0,L|337:105,1,52.4999983978272,12|0,0:0|0:0,0:0:0:0:
175,297,213533,2,0,L|161:234,1,52.4999983978272,2|0,0:0|0:0,0:0:0:0:
411,303,213689,5,6,0:0:0:0:
430,237,213766,1,0,0:0:0:0:
395,179,213844,1,2,0:0:0:0:
328,165,213922,1,0,0:0:0:0:
123,176,214000,2,0,P|68:133|137:78,1,157.499995193482,12|0,0:0|0:0,0:0:0:0:
310,124,214311,6,0,L|322:63,1,52.4999983978272,6|0,0:0|0:0,0:0:0:0:
159,294,214466,2,0,L|146:231,1,52.4999983978272,2|0,0:0|0:0,0:0:0:0:
310,208,214621,1,12,0:0:0:0:
191,203,214777,2,0,L|181:93,1,104.999996795654,2|4,0:0|0:0,0:0:0:0:
246,86,215010,1,0,0:0:0:0:
310,78,215088,1,2,0:0:0:0:
57,215,215243,2,0,L|0:213,2,52.4999983978272,12|0|2,0:0|0:0|0:0,0:0:0:0:
363,348,215554,6,0,L|373:218,1,104.999996795654,6|2,0:0|0:0,0:0:0:0:
207,243,215787,1,0,0:0:0:0:
139,241,215865,1,12,0:0:0:0:
362,157,216020,2,0,B|501:145|501:145|356:118|356:118|519:105,1,419.999987182618,2|8,0:0|0:0,0:0:0:0:
225,302,216642,5,4,0:0:0:0:
337,266,216798,2,0,L|346:135,1,104.999996795654,4|0,0:0|0:0,0:0:0:0:
197,199,217108,2,0,L|190:77,1,104.999996795654,12|2,0:0|0:0,0:0:0:0:
453,121,217419,1,6,0:0:0:0:
355,118,217575,1,2,0:0:0:0:
105,275,217730,1,12,0:0:0:0:
252,267,217886,1,2,0:0:0:0:
34,214,218041,6,0,L|146:208,1,104.999996795654,6|2,0:0|0:0,0:0:0:0:
358,351,218352,1,12,0:0:0:0:
232,346,218507,1,2,0:0:0:0:
477,278,218663,2,0,L|486:167,1,104.999996795654,6|2,0:0|0:0,0:0:0:0:
228,191,218974,1,12,0:0:0:0:
376,187,219129,1,2,0:0:0:0:
97,316,219285,5,6,0:0:0:0:
78,235,219440,1,2,0:0:0:0:
353,235,219595,2,0,L|206:233,1,125,12|2,0:0|0:0,0:0:0:0:
473,211,219906,5,6,0:0:0:0:
492,130,220061,1,2,0:0:0:0:
232,108,220217,2,0,L|379:106,1,125,12|2,0:0|0:0,0:0:0:0:
118,202,220528,5,6,0:0:0:0:
86,120,220684,1,2,0:0:0:0:
347,65,220839,2,0,L|189:64,1,135.000000514984,12|2,0:0|0:0,0:0:0:0:
477,234,221150,5,6,0:0:0:0:
505,173,221227,1,0,0:0:0:0:
472,114,221305,1,2,0:0:0:0:
405,108,221383,1,0,0:0:0:0:
200,300,221461,2,0,L|131:293,1,52.4999983978272,12|0,0:0|0:0,0:0:0:0:
326,225,221616,2,0,L|385:219,1,52.4999983978272,4|0,0:0|0:0,0:0:0:0:
105,210,221772,6,0,L|-31:206,1,104.999996795654,4|0,0:0|0:0,0:0:0:0:
216,122,222083,1,12,0:0:0:0:
96,116,222238,1,2,0:0:0:0:
311,315,222393,2,0,L|175:311,1,104.999996795654,4|2,0:0|0:0,0:0:0:0:
422,235,222704,1,12,0:0:0:0:
274,228,222859,1,2,0:0:0:0:
490,158,223015,6,0,L|379:155,1,104.999996795654,4|2,0:0|0:0,0:0:0:0:
326,152,223248,1,0,0:0:0:0:
57,150,223326,1,12,0:0:0:0:
333,297,223481,2,0,L|222:289,2,104.999996795654,2|4|2,0:0|0:0|0:0,0:0:0:0:
90,229,223948,1,12,0:0:0:0:
370,222,224103,1,2,0:0:0:0:
133,301,224259,5,2,0:0:0:0:
185,299,224336,1,2,0:0:0:0:
237,297,224414,1,2,0:0:0:0:
24,252,224570,1,2,0:0:0:0:
261,217,224725,1,2,0:0:0:0:
209,215,224802,1,2,0:0:0:0:
157,213,224880,1,2,0:0:0:0:
394,167,225036,1,2,0:0:0:0:
114,305,225191,2,0,L|108:239,1,52.4999983978272,2|2,0:0|0:0,0:0:0:0:
387,225,225347,1,2,0:0:0:0:
137,206,225502,5,8,0:0:0:0:
83,168,225579,1,8,0:0:0:0:
98,104,225657,1,8,0:0:0:0:
163,95,225735,1,8,0:0:0:0:
335,98,225813,2,0,L|415:91,1,52.4999983978272,2|2,0:0|0:0,0:0:0:0:
168,204,225969,2,0,L|96:199,1,52.4999983978272,8|8,0:0|0:0,0:0:0:0:
371,155,226124,6,0,L|384:88,1,50,8|8,0:0|0:0,0:0:0:0:
150,120,226279,2,0,L|136:64,1,50,2|2,0:0|0:0,0:0:0:0:
417,35,226435,2,0,L|339:36,1,47.4999987316132,8|8,0:0|0:0,0:0:0:0:
181,204,226590,2,0,L|118:204,1,47.4999987316132,8|8,0:0|0:0,0:0:0:0:
361,331,226746,6,0,P|403:286|303:228,1,200,4|12,0:0|0:0,0:0:0:0:
195,218,227212,1,2,0:0:0:0:
450,226,227368,2,0,L|463:88,1,100,6|2,0:0|0:0,0:0:0:0:
331,365,227678,2,0,L|318:227,1,100,12|2,0:0|0:0,0:0:0:0:
60,217,227989,6,0,P|40:139|147:77,1,200,6|12,0:0|0:0,0:0:0:0:
237,75,228456,1,2,0:0:0:0:
470,177,228611,2,0,L|354:175,1,100,6|2,0:0|0:0,0:0:0:0:
221,299,228922,2,0,L|102:296,1,100,12|2,0:0|0:0,0:0:0:0:
421,215,229233,6,0,L|213:215,2,200,6|12|6,0:0|0:0|0:0,0:0:0:0:
321,203,230010,1,2,0:0:0:0:
93,346,230165,2,0,L|203:344,1,100,12|0,0:0|0:0,0:0:0:0:
411,346,230476,6,0,L|429:221,1,100,6|0,0:0|0:0,0:0:0:0:
283,263,230787,2,0,L|265:138,1,100,12|2,0:0|0:0,0:0:0:0:
491,87,231098,2,0,L|383:80,1,100,0|2,0:0|0:0,0:0:0:0:
180,186,231409,2,0,L|290:180,1,100,12|2,0:0|0:0,0:0:0:0:
55,332,231720,6,0,P|12:255|79:160,1,200,6|12,0:0|0:0,0:0:0:0:
168,162,232186,1,2,0:0:0:0:
413,226,232342,2,0,L|531:225,1,100,6|2,0:0|0:0,0:0:0:0:
351,76,232652,2,0,L|231:79,1,100,12|2,0:0|0:0,0:0:0:0:
34,260,232963,6,0,L|263:252,1,200,6|12,0:0|0:0,0:0:0:0:
125,236,233430,1,2,0:0:0:0:
337,218,233585,1,6,0:0:0:0:
358,140,233740,1,2,0:0:0:0:
211,134,233895,1,12,0:0:0:0:
292,128,234051,1,2,0:0:0:0:
30,271,234207,6,0,L|263:266,2,200,6|12|6,0:0|0:0|0:0,0:0:0:0:
132,257,234984,1,2,0:0:0:0:
434,335,235140,2,0,L|451:214,1,100,12|2,0:0|0:0,0:0:0:0:
149,208,235450,5,8,0:0:0:0:
397,181,235606,1,2,0:0:0:0:
401,162,235658,1,0,0:0:0:0:
405,147,235709,1,0,0:0:0:0:
409,134,235761,1,2,0:0:0:0:
95,153,235917,1,8,0:0:0:0:
343,126,236073,1,2,0:0:0:0:
347,107,236125,1,0,0:0:0:0:
351,92,236176,1,0,0:0:0:0:
355,79,236228,1,2,0:0:0:0:
37,99,236383,2,0,L|193:94,1,150,8|0,0:0|0:0,0:0:0:0:
437,299,236694,6,0,P|472:238|354:175,1,200,4|12,0:0|0:0,0:0:0:0:
294,157,237160,1,2,0:0:0:0:
50,270,237316,2,0,L|185:263,1,100,6|2,0:0|0:0,0:0:0:0:
309,352,237627,2,0,L|436:344,1,100,12|2,0:0|0:0,0:0:0:0:
172,284,237937,6,0,P|103:268|117:129,1,200,6|12,0:0|0:0,0:0:0:0:
200,128,238404,1,2,0:0:0:0:
454,237,238559,2,0,L|469:126,1,100,6|2,0:0|0:0,0:0:0:0:
204,342,238870,2,0,P|139:319|173:244,1,150,12|0,0:0|0:0,0:0:0:0:
410,240,239181,6,0,L|301:232,2,100,6|0|12,0:0|0:0|0:0,0:0:0:0:
156,324,239647,2,0,L|370:320,1,200,2|2,0:0|0:0,0:0:0:0:
134,237,240114,2,0,P|115:179|195:120,1,150,12|0,0:0|0:0,0:0:0:0:
411,148,240424,6,0,L|307:144,2,100,6|0|12,0:0|0:0|0:0,0:0:0:0:
164,278,240891,2,0,P|96:254|172:169,1,200,2|2,0:0|0:0,0:0:0:0:
385,180,241357,2,0,L|208:173,1,150,12|0,0:0|0:0,0:0:0:0:
25,284,241668,6,0,L|143:280,1,100,6|2,0:0|0:0,0:0:0:0:
247,278,241979,1,12,0:0:0:0:
24,204,242134,1,2,0:0:0:0:
156,336,242290,2,0,L|44:330,2,100,4|2|12,0:0|0:0|0:0,0:0:0:0:
459,297,242756,1,2,0:0:0:0:
343,292,242912,6,0,L|334:163,1,100,6|2,0:0|0:0,0:0:0:0:
493,152,243222,2,0,L|386:142,1,100,12|2,0:0|0:0,0:0:0:0:
152,290,243533,2,0,L|259:280,1,100,6|2,0:0|0:0,0:0:0:0:
37,207,243844,1,12,0:0:0:0:
317,190,244000,1,2,0:0:0:0:
159,355,244155,6,0,P|138:302|166:269,1,100,6|2,0:0|0:0,0:0:0:0:
317,262,244388,1,2,0:0:0:0:
366,258,244466,1,2,0:0:0:0:
145,207,244621,1,2,0:0:0:0:
285,192,244777,1,2,0:0:0:0:
62,128,244932,1,2,0:0:0:0:
208,112,245088,2,0,L|286:100,1,50,2|2,0:0|0:0,0:0:0:0:
77,277,245243,2,0,L|12:273,1,50,2|0,0:0|0:0,0:0:0:0:
226,224,245399,6,0,L|334:214,1,100,2|2,0:0|0:0,0:0:0:0:
161,345,245632,2,0,L|53:335,1,100,2|2,0:0|0:0,0:0:0:0:
231,280,245865,2,0,L|237:222,1,50,2|0,0:0|0:0,0:0:0:0:
46,207,246020,1,2,0:0:0:0:
2,160,246097,1,2,0:0:0:0:
24,101,246175,1,2,0:0:0:0:
87,93,246253,1,2,0:0:0:0:
237,98,246331,2,0,L|314:93,1,50,2|2,0:0|0:0,0:0:0:0:
427,173,246487,2,0,L|481:170,1,50,2|2,0:0|0:0,0:0:0:0:
205,337,246642,6,0,P|135:266|212:207,1,200,4|12,0:0|0:0,0:0:0:0:
321,198,247108,1,2,0:0:0:0:
102,288,247264,2,0,L|-2:275,1,100,6|2,0:0|0:0,0:0:0:0:
151,204,247575,2,0,L|272:192,1,100,12|2,0:0|0:0,0:0:0:0:
12,106,247886,6,0,L|243:106,1,200,6|12,0:0|0:0,0:0:0:0:
103,78,248352,1,2,0:0:0:0:
348,280,248507,2,0,L|359:147,1,100,6|2,0:0|0:0,0:0:0:0:
211,378,248818,2,0,L|195:252,1,100,12|2,0:0|0:0,0:0:0:0:
459,197,249129,6,0,L|235:193,2,200,6|12|6,0:0|0:0|0:0,0:0:0:0:
354,176,249906,1,2,0:0:0:0:
115,178,250062,1,12,0:0:0:0:
242,165,250217,1,2,0:0:0:0:
15,329,250373,6,0,P|-3:250|150:167,1,239.999992675781,6|12,0:0|0:0,0:0:0:0:
239,154,250839,1,2,0:0:0:0:
490,253,250994,2,0,L|360:251,1,119.999996337891,4|2,0:0|0:0,0:0:0:0:
153,329,251305,2,0,P|87:297|161:239,1,179.999994506836,12|0,0:0|0:0,0:0:0:0:
352,220,251616,6,0,P|385:178|283:113,1,200,6|12,0:0|0:0,0:0:0:0:
179,109,252083,1,2,0:0:0:0:
403,306,252238,2,0,L|299:298,1,100,6|2,0:0|0:0,0:0:0:0:
170,228,252549,2,0,L|299:219,1,100,12|2,0:0|0:0,0:0:0:0:
486,139,252860,6,0,L|269:133,1,200,6|12,0:0|0:0,0:0:0:0:
389,115,253326,1,2,0:0:0:0:
166,358,253481,2,0,L|134:226,1,100,6|2,0:0|0:0,0:0:0:0:
374,249,253792,2,0,P|426:208|353:168,1,150,12|0,0:0|0:0,0:0:0:0:
169,168,254103,5,8,0:0:0:0:
264,166,254259,1,2,0:0:0:0:
159,168,254414,5,2,0:0:0:0:
273,165,254570,1,2,0:0:0:0:
145,168,254725,5,2,0:0:0:0:
288,165,254880,1,2,0:0:0:0:
123,168,255036,5,2,0:0:0:0:
309,165,255192,1,2,0:0:0:0:
36,308,255347,5,10,0:0:0:0:
28,243,255424,1,2,0:0:0:0:
66,190,255502,1,2,0:0:0:0:
130,176,255580,1,2,0:0:0:0:
297,205,255658,2,0,L|310:149,1,50,2|2,0:0|0:0,0:0:0:0:
215,205,255813,2,0,L|204:149,1,50,10|2,0:0|0:0,0:0:0:0:
303,127,255969,2,0,L|359:115,1,50,2|2,0:0|0:0,0:0:0:0:
209,127,256124,2,0,L|153:115,1,50,2|2,0:0|0:0,0:0:0:0:
341,92,256279,2,0,L|395:90,1,50,10|2,0:0|0:0,0:0:0:0:
171,92,256435,2,0,L|117:90,1,50,2|2,0:0|0:0,0:0:0:0:
376,306,256590,6,0,P|425:268|327:211,1,200,4|12,0:0|0:0,0:0:0:0:
232,199,257057,1,2,0:0:0:0:
450,273,257212,2,0,L|334:266,1,100,6|2,0:0|0:0,0:0:0:0:
240,359,257523,2,0,L|380:347,1,100,12|2,0:0|0:0,0:0:0:0:
111,292,257834,6,0,P|55:254|147:177,1,200,6|12,0:0|0:0,0:0:0:0:
226,164,258300,1,2,0:0:0:0:
485,166,258456,2,0,L|499:54,1,100,6|2,0:0|0:0,0:0:0:0:
268,300,258766,2,0,P|214:289|237:204,1,150,12|0,0:0|0:0,0:0:0:0:
448,193,259077,6,0,L|339:190,2,100,6|0|12,0:0|0:0|0:0,0:0:0:0:
209,318,259544,2,0,P|159:277|253:206,1,200,2|2,0:0|0:0,0:0:0:0:
449,207,260010,2,0,L|339:204,1,100,12|2,0:0|0:0,0:0:0:0:
90,275,260321,6,0,L|201:267,2,100,6|0|12,0:0|0:0|0:0,0:0:0:0:
350,206,260787,2,0,L|143:201,1,200,2|2,0:0|0:0,0:0:0:0:
451,368,261254,2,0,L|463:260,1,100,12|2,0:0|0:0,0:0:0:0:
120,287,261564,6,0,L|105:155,1,100,6|2,0:0|0:0,0:0:0:0:
380,159,261875,1,12,0:0:0:0:
112,153,262031,1,2,0:0:0:0:
260,317,262186,2,0,L|146:314,1,100,4|2,0:0|0:0,0:0:0:0:
37,308,262497,1,12,0:0:0:0:
322,247,262652,1,2,0:0:0:0:
194,236,262808,6,0,L|183:122,1,100,6|2,0:0|0:0,0:0:0:0:
463,105,263119,2,0,L|338:98,1,100,12|2,0:0|0:0,0:0:0:0:
91,300,263430,2,0,L|217:293,1,100,6|2,0:0|0:0,0:0:0:0:
442,282,263741,1,12,0:0:0:0:
141,229,263896,1,2,0:0:0:0:
392,215,264051,5,2,0:0:0:0:
429,183,264128,1,2,0:0:0:0:
435,134,264206,1,2,0:0:0:0:
407,94,264284,1,2,0:0:0:0:
212,115,264362,2,0,L|134:108,1,50,2|0,0:0|0:0,0:0:0:0:
328,75,264518,2,0,L|386:71,1,50,2|0,0:0|0:0,0:0:0:0:
180,203,264673,2,0,L|126:202,1,50,2|2,0:0|0:0,0:0:0:0:
180,203,264829,2,0,L|243:203,1,50,2|2,0:0|0:0,0:0:0:0:
69,302,264984,2,0,L|5:302,1,50,2|0,0:0|0:0,0:0:0:0:
212,239,265140,2,0,L|291:239,1,50,2|0,0:0|0:0,0:0:0:0:
43,202,265295,5,2,0:0:0:0:
35,137,265372,1,2,0:0:0:0:
74,84,265450,1,2,0:0:0:0:
138,73,265528,1,2,0:0:0:0:
296,81,265606,2,0,L|375:72,1,50,2|2,0:0|0:0,0:0:0:0:
102,217,265761,5,2,0:0:0:0:
94,152,265838,1,2,0:0:0:0:
133,99,265916,1,2,0:0:0:0:
197,88,265994,1,2,0:0:0:0:
355,96,266072,2,0,L|434:87,1,50,2|2,0:0|0:0,0:0:0:0:
183,304,266228,2,0,L|103:299,1,50,2|2,0:0|0:0,0:0:0:0:
374,226,266383,2,0,L|384:158,1,50,2|2,0:0|0:0,0:0:0:0:
179,158,266538,6,0,P|108:145|175:53,1,200,4|12,0:0|0:0,0:0:0:0:
252,46,267005,1,2,0:0:0:0:
115,137,267160,2,0,L|227:129,1,100,6|2,0:0|0:0,0:0:0:0:
328,239,267471,2,0,L|212:229,1,100,12|2,0:0|0:0,0:0:0:0:
441,170,267782,6,0,P|451:114|328:46,1,200,6|12,0:0|0:0,0:0:0:0:
237,39,268248,1,2,0:0:0:0:
387,136,268404,2,0,L|402:20,1,100,6|2,0:0|0:0,0:0:0:0:
273,293,268715,2,0,L|258:177,1,100,12|2,0:0|0:0,0:0:0:0:
492,180,269026,6,0,L|267:176,1,200,6|12,0:0|0:0,0:0:0:0:
385,158,269492,1,2,0:0:0:0:
241,179,269647,2,0,L|230:67,1,100,6|2,0:0|0:0,0:0:0:0:
490,349,269958,2,0,L|497:221,1,100,12|2,0:0|0:0,0:0:0:0:
182,269,270269,6,0,P|112:200|192:154,1,200,6|12,0:0|0:0,0:0:0:0:
414,204,270735,2,0,P|484:135|404:89,1,200,2|2,0:0|0:0,0:0:0:0:
191,171,271202,2,0,L|71:158,1,100,12|2,0:0|0:0,0:0:0:0:
361,286,271513,6,0,P|423:268|425:142,1,200,4|12,0:0|0:0,0:0:0:0:
335,143,271979,1,2,0:0:0:0:
208,246,272134,2,0,L|326:237,1,100,6|2,0:0|0:0,0:0:0:0:
147,177,272445,2,0,L|130:51,1,100,12|2,0:0|0:0,0:0:0:0:
405,117,272756,6,0,P|401:53|268:4,1,200,6|12,0:0|0:0,0:0:0:0:
174,63,273222,1,2,0:0:0:0:
287,133,273378,2,0,L|389:130,1,100,6|2,0:0|0:0,0:0:0:0:
284,236,273689,2,0,L|184:238,1,100,12|2,0:0|0:0,0:0:0:0:
433,332,274000,6,0,L|214:320,1,200,6|12,0:0|0:0,0:0:0:0:
340,294,274466,1,2,0:0:0:0:
465,262,274621,2,0,P|470:196|467:162,1,100,6|2,0:0|0:0,0:0:0:0:
351,189,274932,2,0,L|468:184,1,100,12|2,0:0|0:0,0:0:0:0:
165,291,275243,6,0,P|119:248|222:185,1,200,6|12,0:0|0:0,0:0:0:0:
410,241,275709,2,0,L|208:234,1,200,2|2,0:0|0:0,0:0:0:0:
474,151,276176,2,0,L|370:148,1,100,12|2,0:0|0:0,0:0:0:0:
121,309,276487,6,0,P|55:268|150:193,1,220.000006713867,4|12,0:0|0:0,0:0:0:0:
255,177,276953,1,2,0:0:0:0:
121,179,277108,2,0,L|97:68,1,110.000003356934,6|0,0:0|0:0,0:0:0:0:
277,317,277419,2,0,L|306:178,1,110.000003356934,12|2,0:0|0:0,0:0:0:0:
30,205,277730,6,0,L|274:199,1,230.000004386902,6|12,0:0|0:0,0:0:0:0:
149,182,278197,1,2,0:0:0:0:
29,149,278352,2,0,L|158:144,1,115.000002193451,6|0,0:0|0:0,0:0:0:0:
277,313,278663,2,0,L|148:308,1,115.000002193451,12|2,0:0|0:0,0:0:0:0:
423,218,278974,6,0,P|434:149|281:77,1,239.999992675781,6|12,0:0|0:0,0:0:0:0:
186,67,279440,1,2,0:0:0:0:
350,166,279595,2,0,L|363:43,1,119.999996337891,6|0,0:0|0:0,0:0:0:0:
210,329,279906,2,0,L|191:192,1,119.999996337891,12|2,0:0|0:0,0:0:0:0:
266,197,280140,1,0,0:0:0:0:
480,175,280217,6,0,L|354:169,1,100,6|2,0:0|0:0,0:0:0:0:
261,308,280528,2,0,L|388:301,1,100,12|2,0:0|0:0,0:0:0:0:
148,228,280839,1,6,0:0:0:0:
275,217,280994,1,2,0:0:0:0:
42,157,281150,1,12,0:0:0:0:
286,140,281305,1,2,0:0:0:0:
14,162,281461,6,0,L|245:158,1,200,4|12,0:0|0:0,0:0:0:0:
106,140,281927,1,2,0:0:0:0:
233,274,282083,2,0,L|247:155,1,100,6|2,0:0|0:0,0:0:0:0:
88,210,282393,2,0,L|74:95,1,100,12|2,0:0|0:0,0:0:0:0:
336,230,282704,6,0,P|385:171|277:91,1,200,6|12,0:0|0:0,0:0:0:0:
203,83,283171,1,2,0:0:0:0:
367,162,283326,2,0,L|243:158,1,100,6|2,0:0|0:0,0:0:0:0:
146,259,283637,2,0,L|260:253,1,100,12|2,0:0|0:0,0:0:0:0:
31,189,283948,6,0,L|260:177,1,200,6|12,0:0|0:0,0:0:0:0:
365,188,284414,1,2,0:0:0:0:
218,336,284570,2,0,L|197:205,1,100,6|2,0:0|0:0,0:0:0:0:
363,220,284880,1,12,0:0:0:0:
127,202,285036,1,2,0:0:0:0:
263,198,285191,6,0,L|279:119,1,50,2|0,0:0|0:0,0:0:0:0:
110,113,285347,2,0,L|51:110,1,50,8|8,0:0|0:0,0:0:0:0:
110,113,285502,2,0,L|178:110,1,50,8|0,0:0|0:0,0:0:0:0:
374,244,285658,1,2,0:0:0:0:
407,189,285735,1,0,0:0:0:0:
384,129,285813,1,8,0:0:0:0:
322,113,285891,1,8,0:0:0:0:
138,244,285969,1,8,0:0:0:0:
104,189,286046,1,8,0:0:0:0:
127,129,286124,1,8,0:0:0:0:
189,113,286202,1,8,0:0:0:0:
382,178,286279,2,0,L|302:171,1,50,8|8,0:0|0:0,0:0:0:0:
123,333,286435,6,0,P|42:252|92:185,1,200,4|8,0:0|0:0,0:0:0:0:
155,181,286849,1,0,0:0:0:0:
240,171,286953,1,0,0:0:0:0:
419,225,287057,2,0,L|504:219,1,66.6666666666667,2|0,0:0|0:0,0:0:0:0:
419,225,287264,1,0,0:0:0:0:
142,188,287368,2,0,L|138:106,1,66.6666666666667,8|0,0:0|0:0,0:0:0:0:
227,95,287575,1,0,0:0:0:0:
464,295,287678,6,0,P|496:228|387:165,1,200,6|12,0:0|0:0,0:0:0:0:
269,241,288145,2,0,L|500:230,1,200,2|2,0:0|0:0,0:0:0:0:
204,314,288611,2,0,L|136:314,2,50,12|0|0,0:0|0:0|0:0,0:0:0:0:
418,243,288922,6,0,P|434:178|310:116,1,200,6|8,0:0|0:0,0:0:0:0:
221,107,289388,1,2,0:0:0:0:
363,256,289544,1,6,0:0:0:0:
411,172,289699,1,2,0:0:0:0:
369,85,289854,1,12,0:0:0:0:
274,71,290010,1,2,0:0:0:0:
167,158,290165,6,0,L|272:150,1,100,6|2,0:0|0:0,0:0:0:0:
413,272,290476,2,0,L|299:275,1,100,12|2,0:0|0:0,0:0:0:0:
182,218,290787,1,0,0:0:0:0:
307,208,290943,1,2,0:0:0:0:
138,173,291098,1,4,0:0:0:0:
263,163,291254,1,2,0:0:0:0:
26,328,291409,6,0,L|245:323,1,200,4|12,0:0|0:0,0:0:0:0:
104,303,291875,2,0,P|37:276|118:186,1,200,2|2,0:0|0:0,0:0:0:0:
215,173,292342,2,0,L|220:68,1,100,12|2,0:0|0:0,0:0:0:0:
74,62,292652,6,0,L|308:55,1,200,6|12,0:0|0:0,0:0:0:0:
415,183,293119,2,0,L|181:176,1,200,2|2,0:0|0:0,0:0:0:0:
342,178,293585,2,0,L|352:72,1,100,12|2,0:0|0:0,0:0:0:0:
210,318,293896,6,0,P|143:259|226:195,1,200,6|12,0:0|0:0,0:0:0:0:
340,203,294362,2,0,P|407:144|324:80,1,200,2|2,0:0|0:0,0:0:0:0:
194,91,294829,2,0,L|319:87,1,100,12|2,0:0|0:0,0:0:0:0:
128,208,295140,5,6,0:0:0:0:
68,168,295295,1,0,0:0:0:0:
65,96,295450,1,12,0:0:0:0:
121,51,295606,1,2,0:0:0:0:
191,71,295761,2,0,L|210:176,1,100,0|0,0:0|0:0,0:0:0:0:
56,171,296072,2,0,L|35:327,1,150,12|0,0:0|0:0,0:0:0:0:
216,338,296383,5,4,0:0:0:0:
256,192,296538,12,0,301357,0:0:0:0:
