osu file format v14

[General]
AudioFilename: audio.mp3
AudioLeadIn: 0
PreviewTime: 35254
Countdown: 0
SampleSet: Soft
StackLeniency: 0.3
Mode: 0
LetterboxInBreaks: 0
WidescreenStoryboard: 1

[Editor]
Bookmarks: 146560,190333
DistanceSpacing: 2.1
BeatDivisor: 4
GridSize: 8
TimelineZoom: 2.2

[Metadata]
Title:Ring of Fire
TitleUnicode:Ring of Fire
Artist:DragonForce
ArtistUnicode:DragonForce
Creator:MashaSG
Version:sdafsf's Extreme
Source:
Tags:legend insane dragon force stream deathstream herman li speedmetal speed metal Maximum Overload marathon power powermetal cover Johnny Cash Danii emu1337 Akitoshi SnowNiNo_ Kawashiro sdafsf
BeatmapID:1634985
BeatmapSetID:717015

[Difficulty]
HPDrainRate:6
CircleSize:4.5
OverallDifficulty:9
ApproachRate:9.4
SliderMultiplier:2.2
SliderTickRate:1

[Events]
//Background and Video events
0,0,"bg5 (1).jpg",0,0
//Break Periods
//Storyboard Layer 0 (Background)
//Storyboard Layer 1 (Fail)
//Storyboard Layer 2 (Pass)
//Storyboard Layer 3 (Foreground)
//Storyboard Sound Samples

[TimingPoints]
379,272.727272727273,4,2,1,70,1,0
6583,-100,4,2,1,5,0,0
6651,-100,4,2,1,70,0,0
7401,-100,4,2,1,5,0,0
7469,-100,4,2,1,70,0,0
7947,-100,4,2,1,5,0,0
8015,-100,4,2,1,70,0,0
11492,-100,4,2,1,5,0,0
11560,-100,4,2,1,70,0,0
13674,-100,4,2,1,5,0,0
13742,-100,4,2,1,70,0,0
17833,-125,4,2,1,60,0,0
18038,-125,4,2,1,5,0,0
18106,-125,4,2,1,60,0,0
22401,-125,4,2,1,5,0,0
22469,-125,4,2,1,60,0,0
26083,-125,4,2,1,5,0,0
26151,-125,4,2,1,60,0,0
26765,-125,4,2,1,5,0,0
26833,-125,4,2,1,60,0,0
33106,-100,4,2,1,60,0,0
35288,-90.9090909090908,4,2,1,70,0,1
52742,-100,4,2,1,70,0,0
52947,-100,4,2,1,5,0,0
53015,-100,4,2,1,70,0,0
55129,-100,4,2,1,5,0,0
55197,-100,4,2,1,70,0,0
56560,-66.6666666666667,4,2,1,70,0,0
56765,-66.6666666666667,4,2,1,5,0,0
56833,-100,4,2,1,70,0,0
57310,-100,4,2,1,5,0,0
57379,-100,4,2,1,70,0,0
61469,-125,4,2,1,60,0,0
61674,-125,4,2,1,5,0,0
61742,-125,4,2,1,60,0,0
66038,-125,4,2,1,5,0,0
66106,-125,4,2,1,60,0,0
70401,-125,4,2,1,5,0,0
70469,-125,4,2,1,60,0,0
72583,-125,4,2,1,5,0,0
72651,-125,4,2,1,60,0,0
78924,-90.9090909090908,4,2,1,70,0,1
96379,-200,4,2,1,70,0,0
101015,-200,4,2,1,30,0,0
102924,-200,4,2,1,70,0,0
105106,-90.9090909090909,4,2,1,70,0,1
105856,-90.9090909090909,4,2,1,5,0,1
105924,-90.9090909090909,4,2,1,70,0,1
118129,-90.9090909090909,4,2,1,5,0,1
118197,-90.9090909090909,4,2,1,70,0,1
122560,-83.3333333333333,4,2,1,70,0,0
123174,-83.3333333333333,4,2,1,5,0,0
123242,-83.3333333333333,4,2,1,70,0,0
123310,-83.3333333333333,4,2,1,5,0,0
123379,-83.3333333333333,4,2,1,70,0,0
123583,-83.3333333333333,4,2,1,5,0,0
123651,-83.3333333333333,4,2,1,70,0,0
133674,-83.3333333333333,4,2,1,5,0,0
133742,-83.3333333333333,4,2,1,70,0,0
139129,-83.3333333333333,4,2,1,5,0,0
139197,-83.3333333333333,4,2,1,70,0,0
146560,-100,4,2,1,60,0,0
146765,-100,4,2,1,5,0,0
146833,-100,4,2,1,60,0,0
151129,-100,4,2,1,5,0,0
151197,-100,4,2,1,60,0,0
155492,-100,4,2,1,5,0,0
155560,-100,4,2,1,60,0,0
157674,-100,4,2,1,5,0,0
157742,-100,4,2,1,60,0,0
164015,-90.9090909090909,4,2,1,70,0,1
181742,-90.9090909090909,4,2,1,70,0,0
186038,-90.9090909090909,4,2,1,5,0,0
186106,-90.9090909090909,4,2,1,70,0,0
190469,-90.9090909090909,4,2,1,5,0,0

[Colours]
Combo1 : 164,28,28
Combo2 : 255,0,128
Combo3 : 255,0,0
Combo4 : 255,128,64

[HitObjects]
87,129,379,5,6,0:0:0:0:
87,129,2288,5,6,0:0:0:0:
46,250,2424,1,6,0:0:0:0:
206,177,2560,1,6,0:0:0:0:
87,129,4742,5,6,0:0:0:0:
256,192,4810,12,0,6583,0:0:0:0:
87,129,6651,5,10,0:0:0:0:
46,250,6787,1,10,0:0:0:0:
206,177,6924,6,0,B|259:155|303:188|303:188|339:217|391:218|429:211|469:159|450:93|409:88|372:91|361:130,1,385,6|0,0:0|0:0,0:0:0:0:
246,246,7469,2,0,B|235:285|198:288|157:283|138:217|178:165|216:158|268:159|304:188|304:188|348:221|400:199,1,385,6|0,0:0|0:0,0:0:0:0:
457,143,8015,5,2,0:0:0:0:
436,342,8151,1,2,0:0:0:0:
398,70,8560,5,2,0:0:0:0:
416,322,8697,1,2,0:0:0:0:
416,322,9106,5,4,0:0:0:0:
397,196,9242,1,0,0:0:0:0:
331,366,9379,5,2,0:0:0:0:
196,260,9515,2,0,P|138:242|86:264,1,110,10|0,0:0|0:0,0:0:0:0:
228,364,9788,2,0,P|286:382|338:360,1,110,10|0,0:0|0:0,0:0:0:0:
397,196,10060,1,10,0:0:0:0:
493,275,10197,6,0,L|491:394,1,110,2|8,0:0|0:0,0:0:0:0:
397,196,10469,2,0,L|395:86,1,110,2|8,0:0|0:0,0:0:0:0:
493,275,10742,2,0,B|427:303|427:303|241:291,1,220,2|0,0:0|0:0,0:0:0:0:
283,275,11083,1,0,0:0:0:0:
285,259,11151,1,8,0:0:0:0:
234,365,11288,6,0,P|177:322|80:354,1,165,4|0,0:0|0:0,0:0:0:0:
88,365,11560,1,2,0:0:0:0:
8,210,11697,2,0,B|-5:155|-5:155|15:70,1,110,10|0,0:0|0:0,0:0:0:0:
156,109,11969,2,0,B|168:161|168:161|155:216,1,110,10|0,0:0|0:0,0:0:0:0:
7,102,12242,1,10,0:0:0:0:
168,27,12379,6,0,P|226:14|292:47,1,110,2|8,0:0|0:0,0:0:0:0:
420,102,12651,2,0,P|362:115|296:82,1,110,2|8,0:0|0:0,0:0:0:0:
470,22,12924,5,10,0:0:0:0:
498,51,12992,1,8,0:0:0:0:
512,89,13060,1,8,0:0:0:0:
508,130,13128,1,8,0:0:0:0:
486,165,13197,5,8,3:0:0:0:
468,185,13265,1,8,3:0:0:0:
459,211,13333,1,8,3:0:0:0:
461,238,13401,1,8,3:0:0:0:
474,262,13469,6,0,P|411:222|322:285,1,165,4|0,0:0|0:0,0:0:0:0:
331,273,13742,1,2,0:0:0:0:
423,366,13879,2,0,L|541:371,1,110,10|0,0:0|0:0,0:0:0:0:
331,273,14151,2,0,L|213:278,1,110,10|0,0:0|0:0,0:0:0:0:
136,373,14424,1,10,0:0:0:0:
65,113,14560,5,2,0:0:0:0:
0,165,14697,2,0,B|52:131|102:171|102:171|152:212|210:170,1,220,10|8,0:0|0:0,0:0:0:0:
368,102,15106,6,0,B|319:108|281:89|281:89|247:101|247:101|208:72|143:95,1,220,2|0,0:0|0:0,0:0:0:0:
158,101,15447,1,0,0:0:0:0:
158,112,15515,1,8,0:0:0:0:
242,228,15651,5,8,0:0:0:0:
276,250,15719,1,8,0:0:0:0:
316,251,15787,1,8,3:0:0:0:
351,230,15855,1,0,0:0:0:0:
370,194,15924,6,0,L|366:123,1,55,10|8,0:0|0:0,0:0:0:0:
437,297,16060,2,0,L|432:225,1,55,10|8,0:0|0:0,0:0:0:0:
340,384,16197,1,8,3:0:0:0:
340,384,16265,1,0,3:0:0:0:
340,384,16333,2,0,L|335:312,1,55,10|8,0:0|0:0,0:0:0:0:
248,236,16469,1,8,3:0:0:0:
248,236,16537,1,0,0:0:0:0:
248,236,16605,2,0,L|243:307,1,55,10|8,0:0|0:0,0:0:0:0:
168,377,16742,5,10,0:0:0:0:
134,384,16810,1,8,0:0:0:0:
101,379,16878,1,8,3:0:0:0:
71,362,16946,1,8,3:0:0:0:
51,334,17014,1,10,0:0:0:0:
43,301,17082,1,0,0:0:0:0:
48,267,17151,1,8,3:0:0:0:
65,238,17219,1,8,3:0:0:0:
93,217,17288,6,0,L|163:223,1,55,10|8,0:0|0:0,0:0:0:0:
364,178,17424,2,0,L|294:184,1,55,10|8,0:0|0:0,0:0:0:0:
133,142,17560,2,0,L|203:148,1,55,10|8,3:0|3:0,0:0:0:0:
319,99,17697,2,0,L|249:105,1,55,8|8,3:0|3:0,0:0:0:0:
50,17,17833,6,0,P|112:58|183:35,1,132,6|0,0:0|0:0,0:0:0:0:
229,0,18106,1,0,0:0:0:0:
229,0,18242,1,8,0:0:0:0:
298,106,18379,1,0,0:0:0:0:
298,106,18515,1,8,0:0:0:0:
418,50,18651,1,0,0:0:0:0:
417,58,18719,1,0,0:0:0:0:
416,66,18788,1,8,0:0:0:0:
382,243,18924,5,0,0:0:0:0:
400,150,19060,1,10,0:0:0:0:
467,315,19197,5,0,0:0:0:0:
400,150,19333,1,10,0:0:0:0:
366,328,19469,2,0,P|314:353|267:340,1,88,2|8,0:0|0:0,0:0:0:0:
167,258,19742,2,0,P|210:256|247:279,1,88,2|8,0:0|0:0,0:0:0:0:
45,269,20015,5,2,0:0:0:0:
45,269,20151,1,8,0:0:0:0:
163,166,20288,1,0,0:0:0:0:
162,174,20356,1,0,0:0:0:0:
161,182,20425,1,8,0:0:0:0:
41,107,20560,1,0,0:0:0:0:
41,107,20697,1,8,0:0:0:0:
182,44,20833,1,0,0:0:0:0:
181,52,20901,1,0,0:0:0:0:
180,60,20970,1,8,0:0:0:0:
320,121,21106,5,0,0:0:0:0:
238,185,21242,2,0,L|248:298,1,88,10|0,0:0|0:0,0:0:0:0:
254,363,21515,1,10,0:0:0:0:
327,208,21651,2,0,L|320:121,1,88,2|8,0:0|0:0,0:0:0:0:
312,22,21924,1,2,0:0:0:0:
237,80,22060,1,10,0:0:0:0:
481,295,22197,6,0,P|432:264|348:288,1,132,4|0,0:0|0:0,0:0:0:0:
332,345,22469,1,0,0:0:0:0:
332,345,22606,1,8,0:0:0:0:
233,297,22742,1,0,0:0:0:0:
233,297,22879,1,8,0:0:0:0:
121,337,23015,1,0,0:0:0:0:
120,345,23083,1,0,0:0:0:0:
119,353,23152,1,8,0:0:0:0:
75,172,23288,5,0,0:0:0:0:
46,265,23424,1,8,0:0:0:0:
197,208,23560,5,2,0:0:0:0:
1,199,23697,2,0,P|0:138|118:109,1,176,10|8,0:0|0:0,0:0:0:0:
186,122,24106,1,2,0:0:0:0:
185,130,24174,1,0,0:0:0:0:
184,138,24243,1,8,0:0:0:0:
302,14,24379,5,2,0:0:0:0:
201,28,24515,1,8,0:0:0:0:
285,112,24651,1,0,0:0:0:0:
284,120,24719,1,0,0:0:0:0:
283,128,24788,1,8,0:0:0:0:
403,0,24924,1,0,0:0:0:0:
302,14,25060,1,8,0:0:0:0:
386,98,25196,1,0,0:0:0:0:
385,106,25264,1,0,0:0:0:0:
384,114,25333,1,8,0:0:0:0:
228,217,25469,5,6,0:0:0:0:
283,128,25606,1,10,0:0:0:0:
341,220,25742,5,10,0:0:0:0:
369,235,25810,1,8,0:0:0:0:
402,237,25878,1,8,0:0:0:0:
432,223,25946,1,8,0:0:0:0:
453,198,26015,6,0,L|448:133,1,44,6|0,0:0|0:0,0:0:0:0:
510,306,26151,2,0,L|504:240,1,44,10|8,0:0|0:0,0:0:0:0:
441,368,26288,5,10,0:0:0:0:
386,365,26356,1,8,0:0:0:0:
331,363,26424,1,8,0:0:0:0:
276,361,26492,1,8,0:0:0:0:
221,359,26560,6,0,B|186:337|186:337|307:340,1,132,4|0,0:0|0:0,0:0:0:0:
341,285,26833,1,0,0:0:0:0:
341,285,26970,1,8,0:0:0:0:
247,236,27106,1,0,0:0:0:0:
247,236,27243,1,8,0:0:0:0:
372,160,27379,1,0,0:0:0:0:
371,168,27447,1,0,0:0:0:0:
370,176,27516,1,8,0:0:0:0:
220,129,27651,5,0,0:0:0:0:
247,236,27788,1,10,0:0:0:0:
299,72,27924,5,2,0:0:0:0:
102,91,28060,1,8,0:0:0:0:
268,0,28197,2,0,P|315:-4|368:27,1,88,2|8,0:0|0:0,0:0:0:0:
134,163,28469,2,0,P|87:167|34:136,1,88,2|10,0:0|0:0,0:0:0:0:
336,180,28742,5,4,0:0:0:0:
238,178,28879,1,8,0:0:0:0:
280,259,29015,1,0,0:0:0:0:
281,266,29083,1,0,0:0:0:0:
283,274,29152,1,8,0:0:0:0:
218,354,29288,1,0,0:0:0:0:
218,354,29424,1,8,0:0:0:0:
142,267,29561,1,0,0:0:0:0:
143,274,29629,1,0,0:0:0:0:
145,282,29698,1,8,0:0:0:0:
55,334,29833,1,0,0:0:0:0:
66,130,29969,5,10,0:0:0:0:
0,269,30105,2,0,L|0:181,1,88,2|8,0:0|0:0,0:0:0:0:
136,0,30379,2,0,L|135:87,1,88,2|8,0:0|0:0,0:0:0:0:
64,146,30651,1,2,0:0:0:0:
65,138,30719,1,0,0:0:0:0:
66,130,30788,1,10,0:0:0:0:
217,103,30924,6,0,P|286:97|321:202,1,176,6|0,0:0|0:0,0:0:0:0:
269,308,31333,2,0,P|297:230|380:228,1,176,10|8,0:0|0:0,0:0:0:0:
507,283,31742,2,0,P|454:303|413:285,1,88,2|8,0:0|0:0,0:0:0:0:
415,47,32015,6,0,B|447:22|447:22|436:157,1,176,2|0,0:0|0:0,0:0:0:0:
300,270,32424,2,0,B|267:294|267:294|278:159,1,176,10|8,0:0|0:0,0:0:0:0:
364,112,32833,2,0,L|357:221,1,88,2|8,0:0|0:0,0:0:0:0:
474,366,33106,5,2,0:0:0:0:
496,261,33242,1,0,0:0:0:0:
433,162,33378,1,8,0:0:0:0:
432,170,33447,1,8,0:0:0:0:
431,178,33515,1,10,0:0:0:0:
474,366,33651,1,0,0:0:0:0:
376,276,33788,5,8,0:0:0:0:
347,253,33856,1,8,0:0:0:0:
311,246,33924,1,10,0:0:0:0:
277,257,33992,1,8,0:0:0:0:
251,283,34060,1,8,0:0:0:0:
240,317,34128,1,8,0:0:0:0:
246,353,34197,5,2,0:0:0:0:
247,342,34265,1,0,0:0:0:0:
248,331,34333,1,0,0:0:0:0:
249,320,34401,1,0,0:0:0:0:
250,309,34469,5,8,0:0:0:0:
223,339,34537,1,8,0:0:0:0:
184,351,34605,1,10,0:0:0:0:
144,340,34674,1,8,0:0:0:0:
116,311,34741,5,10,3:0:0:0:
118,300,34810,1,8,3:0:0:0:
119,289,34879,1,8,3:0:0:0:
120,278,34947,1,8,3:0:0:0:
143,263,35015,5,10,3:0:0:0:
143,257,35083,1,8,3:0:0:0:
143,251,35151,1,8,3:0:0:0:
143,245,35219,1,8,3:0:0:0:
144,239,35288,6,0,B|113:180|113:180|325:201,1,242.000007385254,6|0,0:0|0:0,0:0:0:0:
365,210,35697,1,8,0:0:0:0:
331,19,35833,2,0,B|320:82|320:82|335:143,1,121.000003692627,2|8,0:0|0:0,0:0:0:0:
426,162,36106,1,0,0:0:0:0:
441,162,36174,1,0,0:0:0:0:
457,162,36242,1,8,0:0:0:0:
331,19,36379,6,0,P|267:0|203:137,1,242.000007385254,2|0,0:0|0:0,0:0:0:0:
263,176,36788,1,8,0:0:0:0:
168,246,36924,2,0,L|-4:252,1,121.000003692627,2|8,0:0|0:0,0:0:0:0:
284,178,37197,2,0,L|404:182,1,121.000003692627,2|8,0:0|0:0,0:0:0:0:
273,384,37469,6,0,P|231:322|268:236,1,121.000003692627,6|0,0:0|0:0,0:0:0:0:
404,182,37742,1,0,0:0:0:0:
465,271,37879,2,0,P|464:330|427:376,1,121.000003692627,10|0,0:0|0:0,0:0:0:0:
258,187,38151,1,8,0:0:0:0:
340,263,38288,1,2,0:0:0:0:
342,278,38356,1,0,0:0:0:0:
345,294,38424,1,8,0:0:0:0:
419,172,38560,6,0,P|444:105|416:39,1,121.000003692627,2|8,0:0|0:0,0:0:0:0:
222,54,38833,2,0,P|210:112|234:166,2,121.000003692627,2|8|0,0:0|0:0|0:0,0:0:0:0:
343,7,39242,5,10,0:0:0:0:
142,25,39379,2,0,L|2:33,1,121.000003692627,2|8,0:0|0:0,0:0:0:0:
109,280,39651,6,0,B|132:116|132:116|64:179,1,242.000007385254,6|0,0:0|0:0,0:0:0:0:
96,363,40060,1,8,0:0:0:0:
267,278,40197,2,0,B|290:114|290:114|222:177,1,242.000007385254,2|0,0:0|0:0,0:0:0:0:
233,157,40538,1,0,0:0:0:0:
231,148,40606,1,8,0:0:0:0:
442,229,40742,6,0,P|400:305|259:263,1,242.000007385254,2|0,0:0|0:0,0:0:0:0:
233,165,41151,1,8,0:0:0:0:
344,106,41288,2,0,L|468:116,1,121.000003692627,2|8,0:0|0:0,0:0:0:0:
218,169,41560,2,0,L|94:179,1,121.000003692627,2|8,0:0|0:0,0:0:0:0:
328,0,41833,6,0,P|355:87|315:131,1,121.000003692627,6|0,0:0|0:0,0:0:0:0:
218,169,42106,1,2,0:0:0:0:
150,107,42242,2,0,P|135:49|165:0,2,121.000003692627,10|0|8,0:0|0:0|0:0,0:0:0:0:
298,186,42651,1,2,0:0:0:0:
309,187,42719,1,0,0:0:0:0:
320,188,42788,1,8,0:0:0:0:
231,255,42924,6,0,L|103:266,1,121.000003692627,2|8,0:0|0:0,0:0:0:0:
320,188,43197,2,0,L|448:199,1,121.000003692627,2|8,0:0|0:0,0:0:0:0:
218,169,43469,6,0,P|193:93|221:39,1,121.000003692627,2|8,0:0|0:0,0:0:0:0:
316,273,43742,2,0,P|329:330|303:384,1,121.000003692627,2|8,0:0|0:0,0:0:0:0:
53,278,44015,6,0,B|57:188|57:188|90:132|90:132|92:39,1,242.000007385254,6|0,0:0|0:0,0:0:0:0:
8,99,44424,1,8,0:0:0:0:
135,312,44560,2,0,B|139:222|139:222|172:166|172:166|174:73,1,242.000007385254,2|0,0:0|0:0,0:0:0:0:
90,133,44969,1,8,0:0:0:0:
246,239,45106,6,0,P|323:256|391:108,2,242.000007385254,2|0|0,0:0|0:0|0:0,0:0:0:0:
172,165,45788,1,8,0:0:0:0:
255,100,45924,1,0,0:0:0:0:
254,109,45992,1,0,0:0:0:0:
254,118,46060,1,8,0:0:0:0:
147,264,46197,6,0,L|156:388,1,121.000003692627,0|8,0:0|0:0,0:0:0:0:
246,239,46469,2,0,L|254:118,1,121.000003692627,0|8,0:0|0:0,0:0:0:0:
136,255,46742,2,0,L|145:379,1,121.000003692627,0|8,0:0|0:0,0:0:0:0:
235,230,47014,2,0,L|243:109,1,121.000003692627,0|8,0:0|0:0,0:0:0:0:
48,45,47288,5,8,0:0:0:0:
48,52,47356,1,8,0:0:0:0:
49,60,47424,1,8,0:0:0:0:
49,67,47492,1,8,0:0:0:0:
50,75,47560,1,8,0:0:0:0:
50,82,47628,1,8,0:0:0:0:
51,90,47697,1,8,0:0:0:0:
52,97,47765,1,8,0:0:0:0:
52,105,47833,5,10,3:0:0:0:
95,116,47901,1,8,3:0:0:0:
139,106,47969,1,8,3:0:0:0:
172,76,48037,1,8,3:0:0:0:
187,33,48106,5,10,0:0:0:0:
230,21,48174,1,8,0:0:0:0:
274,31,48242,1,8,0:0:0:0:
307,61,48310,1,8,0:0:0:0:
322,104,48379,6,0,B|282:156|282:156|313:329,1,242.000007385254,6|0,0:0|0:0,0:0:0:0:
369,186,48788,1,8,0:0:0:0:
153,112,48924,2,0,B|193:164|193:164|162:337,1,242.000007385254,2|0,0:0|0:0,0:0:0:0:
106,194,49333,1,8,0:0:0:0:
246,87,49469,6,0,P|200:28|54:105,2,242.000007385254,2|0|0,0:0|0:0|0:0,0:0:0:0:
223,200,50151,1,8,0:0:0:0:
151,134,50288,1,0,0:0:0:0:
152,123,50356,1,0,0:0:0:0:
153,112,50424,1,8,0:0:0:0:
115,301,50560,5,4,0:0:0:0:
125,302,50628,1,8,0:0:0:0:
135,302,50696,1,8,0:0:0:0:
145,303,50764,1,8,0:0:0:0:
155,303,50832,1,8,0:0:0:0:
165,304,50900,1,8,0:0:0:0:
182,324,50969,5,8,3:0:0:0:
192,324,51037,1,8,0:0:0:0:
202,324,51105,1,8,0:0:0:0:
212,323,51173,1,8,0:0:0:0:
222,323,51241,1,8,0:0:0:0:
232,322,51309,1,8,0:0:0:0:
245,303,51378,6,0,L|319:299,3,60.5000018463135,8|8|8|8,3:0|0:0|0:0|0:0,0:0:0:0:
428,193,51651,1,8,3:0:0:0:
424,149,51719,1,8,0:0:0:0:
400,110,51788,1,8,0:0:0:0:
362,87,51856,1,8,0:0:0:0:
317,83,51924,6,0,L|312:163,1,60.5000018463135,10|8,3:0|3:0,0:0:0:0:
308,237,52060,2,0,L|303:317,1,60.5000018463135,8|8,3:0|3:0,0:0:0:0:
494,120,52197,2,0,L|480:-39,1,121.000003692627,10|8,3:0|3:0,0:0:0:0:
223,200,52469,2,0,L|212:320,1,121.000003692627,10|8,0:0|3:0,0:0:0:0:
501,372,52742,6,0,P|450:301|355:329,1,165,14|0,0:0|0:0,0:0:0:0:
377,318,53015,1,2,0:0:0:0:
292,173,53151,2,0,P|277:106|313:49,1,110,10|0,0:0|0:0,0:0:0:0:
478,72,53424,2,0,P|494:123|478:175,1,110,10|0,0:0|0:0,0:0:0:0:
306,262,53697,1,10,0:0:0:0:
292,69,53833,6,0,L|402:73,1,110,2|8,0:0|0:0,0:0:0:0:
233,225,54106,2,0,L|123:229,1,110,2|8,0:0|0:0,0:0:0:0:
93,57,54379,2,0,B|151:3|151:3|153:143,1,220,2|0,0:0|0:0,0:0:0:0:
140,142,54719,1,0,0:0:0:0:
128,140,54788,1,8,0:0:0:0:
292,169,54924,6,0,P|318:233|243:307,1,165,4|0,0:0|0:0,0:0:0:0:
250,304,55197,1,2,0:0:0:0:
320,365,55333,2,0,L|445:368,1,110,10|0,0:0|0:0,0:0:0:0:
232,225,55606,2,0,L|107:228,1,110,10|0,0:0|0:0,0:0:0:0:
378,117,55879,5,10,0:0:0:0:
383,283,56015,1,2,0:0:0:0:
329,200,56151,1,10,0:0:0:0:
329,359,56288,1,10,0:0:0:0:
342,359,56356,1,8,0:0:0:0:
356,360,56424,1,8,0:0:0:0:
370,360,56492,1,8,0:0:0:0:
386,361,56560,6,0,B|472:339|450:242|450:242|401:209|410:150,1,247.500009441376,2|0,0:0|0:0,0:0:0:0:
482,165,56833,5,8,0:0:0:0:
428,157,56901,1,8,0:0:0:0:
396,114,56969,1,8,0:0:0:0:
404,61,57037,1,8,0:0:0:0:
446,28,57106,6,0,P|405:68|299:30,1,165,4|0,0:0|0:0,0:0:0:0:
311,33,57379,1,2,0:0:0:0:
220,144,57515,2,0,L|229:293,1,110,10|0,0:0|0:0,0:0:0:0:
129,126,57788,5,10,0:0:0:0:
313,162,57924,1,2,0:0:0:0:
124,118,58060,1,10,0:0:0:0:
164,306,58197,6,0,P|223:333|284:312,1,110,2|8,0:0|0:0,0:0:0:0:
411,230,58469,2,0,P|357:222|309:248,1,110,2|8,0:0|0:0,0:0:0:0:
455,308,58742,2,0,P|496:244|405:139,1,220,2|0,0:0|0:0,0:0:0:0:
423,129,59083,1,0,0:0:0:0:
424,120,59151,1,8,0:0:0:0:
200,140,59288,6,0,B|330:143,1,110,12|8,0:0|0:0,0:0:0:0:
366,211,59492,1,8,0:0:0:0:
366,211,59560,2,0,L|364:282,1,55,10|8,0:0|0:0,0:0:0:0:
272,369,59697,2,0,L|270:314,1,55,6|0,0:0|0:0,0:0:0:0:
195,247,59833,1,0,0:0:0:0:
195,247,59901,1,0,0:0:0:0:
195,247,59969,2,0,L|125:251,1,55,10|8,0:0|0:0,0:0:0:0:
32,184,60106,2,0,L|102:188,1,55,10|0,3:0|0:0,0:0:0:0:
270,314,60242,2,0,L|200:318,1,55,2|0,0:0|0:0,0:0:0:0:
153,157,60379,6,0,P|166:123|162:77,3,55,10|0|0|0,3:0|0:0|0:0|0:0,0:0:0:0:
79,6,60651,2,0,P|101:34|143:53,3,55,10|0|0|0,3:0|0:0|0:0|0:0,0:0:0:0:
209,32,60924,5,10,3:0:0:0:
247,18,60992,1,0,0:0:0:0:
287,25,61060,1,0,0:0:0:0:
319,50,61128,1,0,0:0:0:0:
336,87,61197,6,0,L|327:164,1,55,2|0,0:0|0:0,0:0:0:0:
439,7,61333,2,0,L|429:83,1,55,0|0,0:0|0:0,0:0:0:0:
449,258,61469,6,0,P|391:222|322:243,1,132,6|0,0:0|0:0,0:0:0:0:
284,295,61742,1,0,0:0:0:0:
284,295,61879,1,8,0:0:0:0:
177,358,62015,1,0,0:0:0:0:
177,358,62151,1,8,0:0:0:0:
79,282,62288,1,0,0:0:0:0:
78,294,62356,1,0,0:0:0:0:
77,306,62424,1,8,0:0:0:0:
160,192,62560,5,0,0:0:0:0:
167,275,62697,1,8,0:0:0:0:
218,131,62833,5,2,0:0:0:0:
160,192,62969,2,0,P|232:213|298:111,1,176,10|8,0:0|0:0,0:0:0:0:
247,26,63379,1,2,0:0:0:0:
246,38,63447,1,0,0:0:0:0:
245,50,63515,1,8,0:0:0:0:
375,39,63651,5,2,0:0:0:0:
375,39,63788,1,8,0:0:0:0:
456,114,63924,1,0,0:0:0:0:
455,123,63992,1,0,0:0:0:0:
454,132,64060,1,8,0:0:0:0:
374,175,64197,1,0,0:0:0:0:
374,175,64334,1,8,0:0:0:0:
455,250,64470,1,0,0:0:0:0:
454,259,64538,1,0,0:0:0:0:
453,268,64606,1,8,0:0:0:0:
342,328,64742,5,0,0:0:0:0:
278,204,64879,2,0,P|261:250|296:315,1,88,10|0,0:0|0:0,0:0:0:0:
342,252,65151,1,10,0:0:0:0:
285,127,65288,2,0,P|236:135|197:198,1,88,2|8,0:0|0:0,0:0:0:0:
346,176,65560,5,2,0:0:0:0:
332,57,65697,1,10,0:0:0:0:
460,187,65833,6,0,B|436:170|436:170|451:302,1,132,4|0,0:0|0:0,0:0:0:0:
459,349,66106,1,0,0:0:0:0:
459,349,66242,1,8,0:0:0:0:
341,291,66379,1,0,0:0:0:0:
341,291,66515,1,8,0:0:0:0:
234,333,66651,1,0,0:0:0:0:
238,344,66719,1,0,0:0:0:0:
241,356,66788,1,8,0:0:0:0:
142,233,66924,5,0,0:0:0:0:
135,361,67060,1,8,0:0:0:0:
158,224,67197,2,0,L|164:113,1,88,2|8,0:0|0:0,0:0:0:0:
54,279,67469,2,0,L|49:366,1,88,2|8,0:0|0:0,0:0:0:0:
171,217,67742,2,0,L|177:106,1,88,2|8,0:0|0:0,0:0:0:0:
82,73,68015,5,2,0:0:0:0:
82,73,68151,1,8,0:0:0:0:
194,35,68288,1,0,0:0:0:0:
193,47,68356,1,0,0:0:0:0:
191,59,68424,1,8,0:0:0:0:
279,118,68560,1,0,0:0:0:0:
279,118,68696,1,8,0:0:0:0:
391,80,68833,1,0,0:0:0:0:
390,92,68901,1,0,0:0:0:0:
388,104,68969,1,8,0:0:0:0:
488,229,69106,6,0,L|476:135,1,88,4|8,0:0|0:0,0:0:0:0:
300,222,69379,5,10,0:0:0:0:
322,245,69447,1,8,0:0:0:0:
352,258,69515,1,10,0:0:0:0:
385,258,69583,1,8,0:0:0:0:
415,244,69651,6,0,L|408:175,1,44,6|0,0:0|0:0,0:0:0:0:
335,331,69788,2,0,L|330:374,1,44,8|8,0:0|0:0,0:0:0:0:
498,316,69924,5,10,0:0:0:0:
492,272,69992,1,8,0:0:0:0:
486,228,70060,1,8,0:0:0:0:
481,185,70128,1,8,0:0:0:0:
475,141,70197,6,0,B|446:121|446:121|326:128,1,132,6|0,0:0|0:0,0:0:0:0:
272,132,70469,1,0,0:0:0:0:
272,132,70606,1,8,0:0:0:0:
161,183,70742,1,0,0:0:0:0:
161,183,70879,1,8,0:0:0:0:
59,120,71015,1,0,0:0:0:0:
58,129,71083,1,0,0:0:0:0:
58,139,71151,1,8,0:0:0:0:
152,81,71288,1,0,0:0:0:0:
62,248,71424,5,10,0:0:0:0:
161,87,71560,2,0,L|165:-21,1,88,2|8,0:0|0:0,0:0:0:0:
232,221,71833,2,0,L|235:308,1,88,2|8,0:0|0:0,0:0:0:0:
310,171,72106,1,2,0:0:0:0:
158,183,72242,1,8,0:0:0:0:
181,357,72379,6,0,P|235:327|313:345,1,132,4|0,0:0|0:0,0:0:0:0:
360,383,72651,1,0,0:0:0:0:
360,383,72788,1,8,0:0:0:0:
430,289,72924,1,0,0:0:0:0:
430,289,73060,1,8,0:0:0:0:
358,185,73197,1,0,0:0:0:0:
358,193,73265,1,0,0:0:0:0:
358,202,73333,1,8,0:0:0:0:
428,123,73469,1,0,0:0:0:0:
266,200,73606,5,10,0:0:0:0:
450,204,73742,2,0,L|559:207,1,88,2|8,0:0|0:0,0:0:0:0:
482,62,74015,5,2,0:0:0:0:
453,45,74083,1,0,0:0:0:0:
421,41,74151,1,10,0:0:0:0:
389,49,74219,1,0,0:0:0:0:
363,69,74288,5,2,0:0:0:0:
344,79,74356,1,0,0:0:0:0:
322,83,74424,1,8,0:0:0:0:
300,81,74492,1,0,0:0:0:0:
279,71,74560,6,0,L|288:256,1,176,6|0,0:0|0:0,0:0:0:0:
184,384,74969,2,0,L|192:208,1,176,10|8,0:0|0:0,0:0:0:0:
375,253,75379,2,0,L|253:243,1,88,2|8,0:0|0:0,0:0:0:0:
115,176,75651,6,0,P|195:130|262:167,1,176,2|0,0:0|0:0,0:0:0:0:
274,330,76060,2,0,P|194:283|192:207,1,176,10|8,0:0|0:0,0:0:0:0:
330,198,76469,2,0,P|305:233|264:244,1,88,2|8,0:0|0:0,0:0:0:0:
149,19,76742,5,2,0:0:0:0:
127,124,76878,1,0,0:0:0:0:
190,223,77014,1,8,0:0:0:0:
191,215,77083,1,8,0:0:0:0:
192,207,77151,1,10,0:0:0:0:
149,19,77287,1,0,0:0:0:0:
247,109,77424,5,8,0:0:0:0:
276,132,77492,1,8,0:0:0:0:
312,139,77560,1,10,0:0:0:0:
346,128,77628,1,8,0:0:0:0:
372,102,77696,1,8,0:0:0:0:
383,68,77764,1,8,0:0:0:0:
377,32,77833,5,10,3:0:0:0:
376,43,77901,1,0,0:0:0:0:
375,54,77969,1,8,0:0:0:0:
374,65,78037,1,8,0:0:0:0:
373,76,78105,5,0,0:0:0:0:
400,46,78173,1,0,0:0:0:0:
439,34,78241,1,2,0:0:0:0:
479,45,78309,1,0,0:0:0:0:
507,74,78379,5,10,3:0:0:0:
505,85,78446,1,0,0:0:0:0:
504,96,78515,1,0,0:0:0:0:
503,107,78583,1,0,0:0:0:0:
480,122,78651,5,10,3:0:0:0:
480,128,78719,1,0,0:0:0:0:
480,134,78787,1,0,0:0:0:0:
480,140,78855,1,0,0:0:0:0:
479,146,78924,6,0,P|417:229|298:184,1,242.000007385254,6|0,0:0|0:0,0:0:0:0:
293,114,79333,1,8,0:0:0:0:
373,0,79469,2,0,P|390:70|353:116,1,121.000003692627,2|8,0:0|0:0,0:0:0:0:
217,72,79742,1,0,0:0:0:0:
219,61,79810,1,0,0:0:0:0:
222,51,79879,1,8,0:0:0:0:
51,92,80015,6,0,L|309:115,1,242.000007385254,2|0,0:0|0:0,0:0:0:0:
372,120,80424,1,8,0:0:0:0:
282,218,80560,2,0,L|272:350,1,121.000003692627,2|8,0:0|0:0,0:0:0:0:
391,120,80833,2,0,L|400:0,1,121.000003692627,2|8,0:0|0:0,0:0:0:0:
282,218,81106,6,0,P|345:268|399:261,1,121.000003692627,6|0,0:0|0:0,0:0:0:0:
451,229,81379,1,0,0:0:0:0:
298,132,81515,2,0,P|239:138|197:181,1,121.000003692627,10|0,0:0|0:0,0:0:0:0:
182,260,81788,1,8,0:0:0:0:
357,191,81924,1,2,0:0:0:0:
358,180,81992,1,0,0:0:0:0:
359,166,82060,1,8,0:0:0:0:
182,260,82197,6,0,L|192:393,1,121.000003692627,2|8,0:0|0:0,0:0:0:0:
298,132,82469,2,0,L|307:11,2,121.000003692627,2|8|8,0:0|0:0|0:0,0:0:0:0:
364,341,82879,1,10,0:0:0:0:
424,270,83015,2,0,P|448:205|426:141,1,121.000003692627,2|8,0:0|0:0,0:0:0:0:
195,142,83288,6,0,B|175:215|175:215|191:390,1,242.000007385254,6|0,0:0|0:0,0:0:0:0:
276,156,83697,1,8,0:0:0:0:
109,131,83833,2,0,B|89:204|89:204|105:379,1,242.000007385254,2|0,0:0|0:0,0:0:0:0:
113,372,84174,1,0,0:0:0:0:
122,374,84242,1,8,0:0:0:0:
347,334,84379,6,0,P|291:255|164:340,1,242.000007385254,2|0,0:0|0:0,0:0:0:0:
122,374,84788,1,8,0:0:0:0:
55,297,84924,2,0,L|51:158,1,121.000003692627,2|8,0:0|0:0,0:0:0:0:
185,26,85197,2,0,L|181:146,1,121.000003692627,2|8,0:0|0:0,0:0:0:0:
424,272,85469,6,0,P|337:299|293:259,1,121.000003692627,6|8,0:0|0:0,0:0:0:0:
255,161,85742,1,2,0:0:0:0:
317,94,85878,2,0,P|375:79|424:109,2,121.000003692627,10|0|8,0:0|0:0|0:0,0:0:0:0:
238,242,86287,1,2,0:0:0:0:
237,253,86355,1,0,0:0:0:0:
236,264,86424,1,8,0:0:0:0:
169,175,86560,6,0,L|158:47,1,121.000003692627,2|8,0:0|0:0,0:0:0:0:
236,264,86833,2,0,L|225:392,1,121.000003692627,2|8,0:0|0:0,0:0:0:0:
255,161,87105,6,0,P|331:136|385:164,1,121.000003692627,2|8,0:0|0:0,0:0:0:0:
151,260,87378,2,0,P|94:273|40:247,1,121.000003692627,2|8,0:0|0:0,0:0:0:0:
205,38,87651,6,0,B|264:-7|264:-7|252:198,1,242.000007385254,6|0,0:0|0:0,0:0:0:0:
252,235,88060,1,8,0:0:0:0:
391,47,88197,2,0,B|337:-3|337:-3|327:201,1,242.000007385254,2|0,0:0|0:0,0:0:0:0:
324,239,88606,1,8,0:0:0:0:
487,330,88742,6,0,P|416:382|297:271,2,242.000007385254,2|0|0,0:0|0:0|0:0,0:0:0:0:
495,235,89424,1,8,0:0:0:0:
394,267,89560,1,0,0:0:0:0:
393,276,89629,1,0,0:0:0:0:
394,286,89697,1,8,0:0:0:0:
488,139,89833,6,0,L|496:8,1,121.000003692627,0|8,0:0|0:0,0:0:0:0:
386,146,90106,2,0,L|393:266,1,121.000003692627,0|8,0:0|0:0,0:0:0:0:
474,138,90379,2,0,L|482:7,1,121.000003692627,0|8,0:0|0:0,0:0:0:0:
372,145,90652,2,0,L|379:265,1,121.000003692627,0|8,0:0|0:0,0:0:0:0:
274,354,90924,5,8,0:0:0:0:
274,347,90992,1,8,0:0:0:0:
273,339,91060,1,8,0:0:0:0:
273,332,91128,1,8,0:0:0:0:
272,324,91196,1,8,0:0:0:0:
272,317,91264,1,8,0:0:0:0:
271,309,91333,1,8,0:0:0:0:
270,302,91401,1,8,0:0:0:0:
270,294,91469,5,10,3:0:0:0:
227,283,91537,1,8,3:0:0:0:
183,293,91605,1,8,3:0:0:0:
150,323,91673,1,8,3:0:0:0:
135,366,91742,5,10,0:0:0:0:
92,378,91810,1,8,0:0:0:0:
48,368,91878,1,8,0:0:0:0:
15,338,91946,1,8,0:0:0:0:
0,295,92015,6,0,L|26:43,1,242.000007385254,6|0,0:0|0:0,0:0:0:0:
117,34,92424,1,8,0:0:0:0:
93,275,92560,2,0,L|119:23,1,242.000007385254,2|0,0:0|0:0,0:0:0:0:
200,15,92969,1,8,0:0:0:0:
351,150,93106,6,0,P|277:194|195:75,2,242.000007385254,2|0|0,0:0|0:0|0:0,0:0:0:0:
385,67,93788,1,8,0:0:0:0:
273,91,93924,1,0,0:0:0:0:
274,99,93992,1,0,0:0:0:0:
275,110,94060,1,8,0:0:0:0:
438,157,94197,5,4,0:0:0:0:
437,167,94265,1,8,0:0:0:0:
437,177,94333,1,8,0:0:0:0:
436,187,94401,1,8,0:0:0:0:
436,197,94469,1,8,0:0:0:0:
435,207,94537,1,8,0:0:0:0:
415,224,94606,5,8,3:0:0:0:
415,234,94674,1,8,0:0:0:0:
415,244,94742,1,8,0:0:0:0:
416,254,94810,1,8,0:0:0:0:
416,264,94878,1,8,0:0:0:0:
417,274,94946,1,8,0:0:0:0:
436,287,95015,6,0,L|440:361,3,60.5000018463135,8|8|8|8,3:0|0:0|0:0|0:0,0:0:0:0:
354,367,95288,5,8,3:0:0:0:
309,383,95356,1,8,0:0:0:0:
262,373,95424,1,8,0:0:0:0:
227,340,95492,1,8,0:0:0:0:
215,293,95560,6,0,L|222:203,1,60.5000018463135,10|8,3:0|3:0,0:0:0:0:
229,152,95697,2,0,L|235:61,1,60.5000018463135,8|8,3:0|3:0,0:0:0:0:
122,183,95833,2,0,L|129:326,1,121.000003692627,10|8,3:0|3:0,0:0:0:0:
312,186,96106,2,0,L|319:63,1,121.000003692627,10|8,3:0|3:0,0:0:0:0:
40,334,96379,5,14,0:0:0:0:
235,134,98288,5,6,0:0:0:0:
360,97,98424,1,6,0:0:0:0:
134,63,98560,1,6,0:0:0:0:
235,89,100742,5,6,0:0:0:0:
410,166,101015,6,0,L|407:290,5,110,0|0|0|0|0|0,0:0|0:0|0:0|0:0|0:0|0:0,0:0:0:0:
412,85,102651,5,10,0:0:0:0:
403,356,102788,1,10,0:0:0:0:
299,186,102924,6,0,L|302:68,1,110,6|0,0:0|0:0,0:0:0:0:
209,184,103333,1,8,3:0:0:0:
209,184,103401,1,8,3:0:0:0:
209,184,103469,2,0,L|212:66,1,110,6|0,0:0|0:0,0:0:0:0:
118,179,103878,1,0,0:0:0:0:
118,179,103946,1,0,0:0:0:0:
118,179,104015,5,2,0:0:0:0:
299,186,104151,1,2,0:0:0:0:
55,221,104560,5,2,0:0:0:0:
313,179,104696,1,2,0:0:0:0:
278,41,105106,5,6,0:0:0:0:
368,34,105242,1,2,0:0:0:0:
271,52,105379,1,2,0:0:0:0:
378,48,105515,2,0,B|422:110|384:170|384:170|402:203|402:203|353:271|405:324,1,302.500009231568,10|0,0:0|0:0,0:0:0:0:
484,263,105924,1,0,0:0:0:0:
472,264,105992,1,0,0:0:0:0:
460,265,106060,1,8,0:0:0:0:
285,367,106197,5,2,0:0:0:0:
287,260,106333,1,10,0:0:0:0:
271,378,106469,1,0,0:0:0:0:
271,248,106606,2,0,P|206:237|152:277,1,121.000003692627,10|0,0:0|0:0,0:0:0:0:
155,350,106879,1,10,0:0:0:0:
123,193,107015,2,0,P|80:243|88:310,1,121.000003692627,2|8,0:0|0:0,0:0:0:0:
212,165,107288,5,2,0:0:0:0:
45,146,107424,1,10,0:0:0:0:
226,152,107560,1,2,0:0:0:0:
34,137,107697,2,0,P|28:67|76:15,1,121.000003692627,10|0,0:0|0:0,0:0:0:0:
217,47,107969,5,10,0:0:0:0:
107,93,108106,1,2,0:0:0:0:
139,18,108242,1,10,0:0:0:0:
215,149,108379,5,2,0:0:0:0:
341,150,108515,1,8,0:0:0:0:
222,164,108651,1,2,0:0:0:0:
330,161,108788,1,8,0:0:0:0:
180,237,108924,5,2,0:0:0:0:
382,228,109060,1,8,0:0:0:0:
157,224,109197,1,2,0:0:0:0:
400,207,109333,1,8,0:0:0:0:
140,149,109469,5,6,0:0:0:0:
107,163,109537,1,0,0:0:0:0:
84,191,109605,1,0,0:0:0:0:
77,227,109673,1,0,0:0:0:0:
87,261,109741,1,0,0:0:0:0:
96,295,109810,1,0,0:0:0:0:
90,330,109878,1,8,0:0:0:0:
67,358,109946,1,0,0:0:0:0:
33,372,110015,6,0,P|16:338|22:301,3,60.5000018463135,2|0|8|0,0:0|0:0|0:0|0:0,0:0:0:0:
157,224,110288,2,0,P|172:249|173:279,3,60.5000018463135,0|0|8|0,0:0|0:0|0:0|0:0,0:0:0:0:
215,367,110560,5,2,0:0:0:0:
249,338,110628,1,0,0:0:0:0:
293,327,110696,1,8,0:0:0:0:
337,338,110764,1,0,0:0:0:0:
371,367,110833,5,2,0:0:0:0:
391,345,110901,1,0,0:0:0:0:
403,317,110969,1,8,0:0:0:0:
404,287,111037,1,0,0:0:0:0:
394,259,111106,6,0,P|373:195|399:139,1,121.000003692627,2|8,0:0|0:0,0:0:0:0:
461,124,111310,1,0,0:0:0:0:
461,124,111379,2,0,L|538:127,1,60.5000018463135,0|0,0:0|0:0,0:0:0:0:
396,71,111515,2,0,L|319:74,1,60.5000018463135,8|0,0:0|0:0,0:0:0:0:
269,133,111651,5,2,0:0:0:0:
263,26,111788,1,10,0:0:0:0:
254,149,111924,1,2,0:0:0:0:
241,13,112060,1,10,0:0:0:0:
36,109,112197,5,2,0:0:0:0:
192,101,112333,1,10,0:0:0:0:
16,97,112469,1,2,0:0:0:0:
209,79,112606,1,10,0:0:0:0:
102,255,112742,5,10,0:0:0:0:
103,299,112810,1,8,0:0:0:0:
128,336,112878,1,8,0:0:0:0:
170,352,112946,1,8,0:0:0:0:
214,342,113014,1,10,0:0:0:0:
158,194,113151,5,10,0:0:0:0:
119,172,113219,1,10,0:0:0:0:
74,176,113287,1,8,0:0:0:0:
39,204,113355,1,8,0:0:0:0:
26,247,113423,1,10,0:0:0:0:
185,272,113560,5,10,0:0:0:0:
223,249,113628,1,10,0:0:0:0:
242,208,113696,1,10,0:0:0:0:
235,163,113764,1,10,0:0:0:0:
205,132,113832,5,6,0:0:0:0:
81,71,113969,1,2,0:0:0:0:
80,83,114038,1,0,0:0:0:0:
80,95,114106,1,2,0:0:0:0:
186,29,114242,1,8,0:0:0:0:
25,7,114379,5,2,0:0:0:0:
74,176,114515,1,10,0:0:0:0:
10,1,114651,2,0,L|4:157,1,121.000003692627,2|8,0:0|0:0,0:0:0:0:
65,320,114924,5,2,0:0:0:0:
128,260,115060,1,10,0:0:0:0:
157,253,115128,1,0,0:0:0:0:
187,257,115196,1,0,0:0:0:0:
213,272,115264,1,0,0:0:0:0:
231,296,115332,1,10,0:0:0:0:
240,325,115400,1,0,0:0:0:0:
238,355,115469,5,2,0:0:0:0:
205,324,115537,1,0,0:0:0:0:
196,280,115605,1,8,0:0:0:0:
212,238,115673,1,0,0:0:0:0:
249,213,115742,6,0,L|396:222,1,121.000003692627,2|0,0:0|0:0,0:0:0:0:
462,53,116015,6,0,L|457:134,1,60.5000018463135,2|0,0:0|0:0,0:0:0:0:
447,229,116151,1,8,0:0:0:0:
350,60,116288,6,0,L|359:140,1,60.5000018463135,2|0,0:0|0:0,0:0:0:0:
370,220,116424,1,8,0:0:0:0:
246,86,116560,6,0,L|269:163,1,60.5000018463135,2|0,0:0|0:0,0:0:0:0:
288,225,116696,1,8,0:0:0:0:
144,129,116833,6,0,L|180:201,1,60.5000018463135,2|0,0:0|0:0,0:0:0:0:
208,244,116969,1,8,0:0:0:0:
42,197,117106,6,0,P|22:255|66:329,1,121.000003692627,2|10,0:0|0:0,0:0:0:0:
208,244,117379,5,0,0:0:0:0:
181,229,117447,1,0,0:0:0:0:
151,226,117515,1,10,0:0:0:0:
122,233,117583,1,0,0:0:0:0:
97,250,117651,6,0,B|153:295|216:267|216:267|248:286|248:286|308:259|378:288|378:288|331:224|374:146,1,423.500012924195,2|0,0:0|0:0,0:0:0:0:
442,131,118197,5,6,0:0:0:0:
418,149,118265,1,0,0:0:0:0:
389,156,118333,1,0,0:0:0:0:
359,151,118401,1,0,0:0:0:0:
334,134,118469,1,2,0:0:0:0:
319,108,118537,1,0,0:0:0:0:
316,78,118606,1,8,0:0:0:0:
325,49,118674,1,0,0:0:0:0:
345,27,118742,5,2,0:0:0:0:
349,64,118810,1,0,0:0:0:0:
333,98,118878,1,8,0:0:0:0:
302,119,118946,1,0,0:0:0:0:
265,121,119014,1,2,0:0:0:0:
232,104,119082,1,0,0:0:0:0:
212,72,119151,1,8,0:0:0:0:
212,35,119219,1,0,0:0:0:0:
231,3,119288,6,0,P|261:13|286:40,3,60.5000018463135,2|0|8|0,0:0|0:0|0:0|0:0,0:0:0:0:
122,11,119560,2,0,P|92:20|67:47,3,60.5000018463135,2|0|8|0,0:0|0:0|0:0|0:0,0:0:0:0:
62,204,119833,6,0,L|57:285,1,60.5000018463135,2|0,0:0|0:0,0:0:0:0:
131,151,119969,2,0,L|127:90,1,60.5000018463135,8|0,0:0|0:0,0:0:0:0:
55,210,120106,2,0,L|50:291,1,60.5000018463135,2|0,0:0|0:0,0:0:0:0:
138,142,120242,2,0,L|134:81,1,60.5000018463135,8|0,0:0|0:0,0:0:0:0:
197,254,120379,5,10,0:0:0:0:
234,286,120447,1,8,0:0:0:0:
283,296,120515,1,8,0:0:0:0:
330,281,120583,1,8,0:0:0:0:
364,244,120651,1,8,3:0:0:0:
375,195,120719,1,8,3:0:0:0:
360,148,120788,6,0,P|324:144|280:162,3,60.5000018463135,10|8|8|8,0:0|0:0|3:0|3:0,0:0:0:0:
274,80,121060,2,0,P|244:100|222:142,3,60.5000018463135,10|8|10|8,0:0|0:0|0:0|0:0,0:0:0:0:
198,255,121333,6,0,L|282:259,1,60.5000018463135,8|8,3:0|3:0,0:0:0:0:
331,260,121469,1,10,0:0:0:0:
110,205,121606,6,0,P|102:171|122:119,1,60.5000018463135,10|8,0:0|0:0,0:0:0:0:
198,255,121742,2,0,P|206:289|186:341,1,60.5000018463135,10|8,0:0|0:0,0:0:0:0:
123,187,121879,2,0,P|121:152|149:104,1,60.5000018463135,10|8,0:0|0:0,0:0:0:0:
189,270,122015,2,0,P|190:304|162:352,1,60.5000018463135,10|8,0:0|0:0,0:0:0:0:
138,171,122151,2,0,P|142:136|178:94,1,60.5000018463135,10|8,0:0|0:0,0:0:0:0:
278,184,122288,5,10,0:0:0:0:
323,192,122356,1,8,0:0:0:0:
364,168,122424,1,10,0:0:0:0:
378,123,122492,1,8,0:0:0:0:
359,80,122560,6,0,P|345:164|497:201,1,263.99999194336,6|0,0:0|0:0,0:0:0:0:
491,132,122969,1,8,0:0:0:0:
383,300,123106,6,0,P|378:335|391:371,1,65.9999979858399,2|0,0:0|0:0,0:0:0:0:
373,288,123242,2,0,P|361:321|368:359,1,65.9999979858399,10|0,0:0|0:0,0:0:0:0:
501,354,123379,2,0,P|504:321|493:290,1,65.9999979858399,2|0,0:0|0:0,0:0:0:0:
479,366,123515,2,0,P|487:334|482:302,1,65.9999979858399,10|0,0:0|0:0,0:0:0:0:
286,263,123651,6,0,P|213:239|154:269,1,131.99999597168,2|8,0:0|0:0,0:0:0:0:
27,339,123924,2,0,P|100:363|159:333,1,131.99999597168,2|8,0:0|0:0,0:0:0:0:
286,263,124197,2,0,B|333:202|301:138|301:138|270:77|303:12,1,263.99999194336,2|0,0:0|0:0,0:0:0:0:
314,17,124538,1,0,0:0:0:0:
326,20,124606,1,8,0:0:0:0:
195,43,124742,5,0,0:0:0:0:
195,43,124879,1,8,0:0:0:0:
81,116,125015,2,0,P|60:165|103:240,1,131.99999597168,2|8,0:0|0:0,0:0:0:0:
246,218,125288,2,0,P|214:175|127:175,1,131.99999597168,2|8,0:0|0:0,0:0:0:0:
75,309,125560,2,0,P|127:302|171:227,1,131.99999597168,2|8,0:0|0:0,0:0:0:0:
81,116,125833,5,2,0:0:0:0:
136,56,125969,2,0,B|197:73|197:73|291:63,1,131.99999597168,10|0,0:0|0:0,0:0:0:0:
453,27,126174,1,0,0:0:0:0:
453,27,126242,2,0,B|392:10|392:10|298:20,1,131.99999597168,10|0,0:0|0:0,0:0:0:0:
136,56,126515,1,10,0:0:0:0:
283,142,126651,2,0,L|274:298,1,131.99999597168,2|8,0:0|0:0,0:0:0:0:
457,350,126924,6,0,P|407:250|257:305,1,263.99999194336,2|0,0:0|0:0,0:0:0:0:
275,286,127265,1,0,0:0:0:0:
275,298,127333,1,8,0:0:0:0:
199,355,127469,1,0,0:0:0:0:
199,355,127606,1,8,0:0:0:0:
114,298,127742,1,0,0:0:0:0:
114,308,127810,1,0,0:0:0:0:
114,318,127879,1,8,0:0:0:0:
137,204,128015,1,0,0:0:0:0:
137,204,128151,1,8,0:0:0:0:
234,175,128288,1,0,0:0:0:0:
234,185,128356,1,0,0:0:0:0:
234,195,128425,1,8,0:0:0:0:
356,282,128560,5,8,3:0:0:0:
357,255,128628,1,0,0:0:0:0:
359,229,128696,1,0,0:0:0:0:
360,202,128764,1,0,0:0:0:0:
381,187,128833,5,8,3:0:0:0:
380,170,128901,1,0,0:0:0:0:
379,154,128969,1,0,0:0:0:0:
378,137,129037,1,0,0:0:0:0:
362,117,129106,6,0,B|333:97|333:97|203:108,1,131.99999597168,4|0,0:0|0:0,0:0:0:0:
61,164,129379,2,0,P|35:223|54:285,1,131.99999597168,2|8,0:0|0:0,0:0:0:0:
150,141,129651,2,0,P|111:89|48:74,1,131.99999597168,2|8,0:0|0:0,0:0:0:0:
125,229,129924,2,0,P|189:221|233:174,1,131.99999597168,2|8,0:0|0:0,0:0:0:0:
361,243,130197,6,0,L|352:386,1,131.99999597168,2|10,0:0|0:0,0:0:0:0:
459,247,130469,1,2,0:0:0:0:
456,230,130538,1,0,0:0:0:0:
453,212,130606,1,8,0:0:0:0:
286,313,130742,2,0,B|220:326|220:326|116:298,1,131.99999597168,2|8,0:0|0:0,0:0:0:0:
166,160,131015,2,0,B|232:147|232:147|336:175,1,131.99999597168,2|8,0:0|0:0,0:0:0:0:
79,261,131288,6,0,B|131:214|131:214|112:14,1,263.99999194336,6|0,0:0|0:0,0:0:0:0:
31,150,131697,1,10,0:0:0:0:
206,76,131833,1,0,0:0:0:0:
206,76,131969,1,8,0:0:0:0:
292,39,132106,1,2,0:0:0:0:
293,29,132174,1,0,0:0:0:0:
294,18,132242,1,8,0:0:0:0:
411,54,132379,5,8,0:0:0:0:
432,78,132447,1,8,0:0:0:0:
442,110,132515,1,8,0:0:0:0:
438,142,132583,1,8,0:0:0:0:
422,171,132651,1,8,0:0:0:0:
406,199,132720,1,8,0:0:0:0:
402,232,132788,1,8,0:0:0:0:
412,263,132856,1,8,0:0:0:0:
433,288,132924,6,0,L|506:282,3,65.9999979858399,8|8|8|8,0:0|0:0|0:0|0:0,0:0:0:0:
368,349,133197,2,0,L|302:343,3,65.9999979858399,8|8|8|8,0:0|0:0|0:0|0:0,0:0:0:0:
313,181,133469,6,0,P|226:142|156:243,1,197.99999395752,4|0,0:0|0:0,0:0:0:0:
168,226,133742,2,0,L|164:370,1,131.99999597168,2|8,0:0|0:0,0:0:0:0:
66,218,134015,2,0,L|62:86,1,131.99999597168,2|8,0:0|0:0,0:0:0:0:
178,227,134288,2,0,L|174:371,1,131.99999597168,2|8,0:0|0:0,0:0:0:0:
339,279,134560,5,2,0:0:0:0:
278,333,134697,2,0,P|335:358|417:311,1,131.99999597168,10|0,0:0|0:0,0:0:0:0:
399,224,134969,2,0,P|342:199|260:246,1,131.99999597168,10|0,0:0|0:0,0:0:0:0:
455,286,135242,1,10,0:0:0:0:
481,198,135379,2,0,L|465:52,1,131.99999597168,2|8,0:0|0:0,0:0:0:0:
219,80,135651,6,0,P|184:134|200:196,1,131.99999597168,2|8,0:0|0:0,0:0:0:0:
301,74,135924,2,0,P|271:16|209:0,1,131.99999597168,2|8,0:0|0:0,0:0:0:0:
264,147,136197,2,0,P|328:150|374:105,1,131.99999597168,2|8,0:0|0:0,0:0:0:0:
219,80,136469,1,2,0:0:0:0:
120,202,136606,2,0,L|133:357,1,131.99999597168,10|0,0:0|0:0,0:0:0:0:
327,273,136879,6,0,B|268:257|220:299|220:299|287:380|382:350|382:350|433:287|393:208|393:208|382:118|461:84|461:84|478:116|480:150,1,659.999979858399,10|0,0:0|0:0,0:0:0:0:
478,148,137629,1,0,0:0:0:0:
477,158,137697,1,8,0:0:0:0:
295,38,137833,6,0,L|302:119,1,65.9999979858399,10|0,0:0|0:0,0:0:0:0:
234,194,137969,2,0,L|228:128,1,65.9999979858399,2|0,0:0|0:0,0:0:0:0:
316,16,138106,2,0,L|323:97,1,65.9999979858399,2|0,0:0|0:0,0:0:0:0:
218,217,138242,2,0,L|212:151,1,65.9999979858399,2|0,0:0|0:0,0:0:0:0:
350,4,138379,6,0,L|340:69,1,65.9999979858399,10|0,0:0|0:0,0:0:0:0:
182,235,138515,2,0,L|191:170,1,65.9999979858399,2|0,0:0|0:0,0:0:0:0:
331,16,138651,2,0,L|321:80,1,65.9999979858399,2|0,0:0|0:0,0:0:0:0:
203,216,138788,2,0,L|212:150,1,65.9999979858399,2|0,0:0|0:0,0:0:0:0:
139,34,138924,6,0,P|69:8|16:136,1,197.99999395752,12|0,0:0|0:0,0:0:0:0:
16,98,139197,2,0,L|21:270,1,131.99999597168,2|8,0:0|0:0,0:0:0:0:
125,345,139469,2,0,L|128:213,1,131.99999597168,0|8,0:0|0:0,0:0:0:0:
30,104,139742,2,0,L|35:276,1,131.99999597168,10|0,0:0|0:0,0:0:0:0:
261,258,140015,6,0,L|412:270,1,131.99999597168,14|0,0:0|0:0,0:0:0:0:
224,352,140288,1,2,0:0:0:0:
355,174,140424,2,0,L|204:186,1,131.99999597168,14|0,0:0|0:0,0:0:0:0:
392,268,140697,1,0,0:0:0:0:
261,90,140833,2,0,L|412:102,1,131.99999597168,10|0,0:0|0:0,0:0:0:0:
159,17,141106,6,0,P|183:98|142:154,1,131.99999597168,10|0,0:0|0:0,0:0:0:0:
6,143,141379,2,0,P|64:81|133:89,1,131.99999597168,2|12,0:0|0:0,0:0:0:0:
192,212,141651,2,0,P|109:192|81:128,1,131.99999597168
159,17,141924,1,14,0:0:0:0:
163,136,142060,1,0,0:0:0:0:
38,23,142197,5,10,0:0:0:0:
269,37,142333,1,8,0:0:0:0:
25,38,142606,5,8,0:0:0:0:
284,26,142742,1,8,0:0:0:0:
22,151,142879,1,8,0:0:0:0:
304,157,143151,5,8,0:0:0:0:
154,103,143424,1,8,0:0:0:0:
181,244,143697,1,8,0:0:0:0:
245,89,143969,5,8,0:0:0:0:
293,309,144106,1,8,0:0:0:0:
361,96,144242,1,8,0:0:0:0:
181,244,144379,5,10,0:0:0:0:
139,269,144447,1,8,0:0:0:0:
90,267,144515,1,8,0:0:0:0:
51,237,144583,1,8,0:0:0:0:
35,191,144651,2,0,L|27:118,1,65.9999979858399,8|8,3:0|3:0,0:0:0:0:
126,27,144788,1,0,0:0:0:0:
126,27,144856,1,0,0:0:0:0:
126,27,144924,2,0,L|118:92,1,65.9999979858399,8|8,3:0|3:0,0:0:0:0:
255,36,145060,2,0,L|247:101,1,65.9999979858399,8|8,3:0|3:0,0:0:0:0:
181,244,145197,2,0,L|173:178,3,65.9999979858399,8|8|0|0,3:0|3:0|0:0|0:0,0:0:0:0:
267,271,145469,5,8,0:0:0:0:
303,302,145537,1,8,0:0:0:0:
352,308,145605,1,8,0:0:0:0:
395,285,145673,1,8,0:0:0:0:
417,242,145742,5,8,0:0:0:0:
372,258,145810,1,8,0:0:0:0:
347,300,145878,1,8,0:0:0:0:
356,348,145946,1,8,0:0:0:0:
393,379,146014,1,8,0:0:0:0:
450,371,146083,1,8,0:0:0:0:
493,332,146151,1,8,0:0:0:0:
512,279,146219,1,8,0:0:0:0:
505,222,146287,1,8,0:0:0:0:
472,175,146355,1,8,0:0:0:0:
421,149,146424,1,8,0:0:0:0:
364,150,146492,1,8,0:0:0:0:
314,177,146560,6,0,P|241:209|160:145,1,165,6|0,0:0|0:0,0:0:0:0:
149,98,146833,1,0,0:0:0:0:
149,98,146969,1,8,0:0:0:0:
38,160,147106,1,0,0:0:0:0:
38,160,147242,1,8,0:0:0:0:
123,243,147379,1,0,0:0:0:0:
122,253,147447,1,0,0:0:0:0:
122,264,147515,1,8,0:0:0:0:
26,330,147651,5,0,0:0:0:0:
30,238,147788,1,10,0:0:0:0:
182,356,147924,5,0,0:0:0:0:
185,205,148060,1,10,0:0:0:0:
285,353,148197,2,0,P|228:371|179:354,1,110,2|8,0:0|0:0,0:0:0:0:
185,205,148469,2,0,P|242:183|290:205,1,110,2|8,0:0|0:0,0:0:0:0:
376,273,148742,5,2,0:0:0:0:
376,273,148879,1,0,0:0:0:0:
454,177,149015,1,0,0:0:0:0:
453,189,149083,1,0,0:0:0:0:
452,201,149151,1,8,0:0:0:0:
369,148,149288,1,0,0:0:0:0:
369,148,149425,1,8,0:0:0:0:
447,52,149561,1,0,0:0:0:0:
446,64,149629,1,0,0:0:0:0:
445,76,149697,1,8,0:0:0:0:
349,4,149833,1,0,0:0:0:0:
191,78,149969,6,0,L|338:83,1,110,10|0,0:0|0:0,0:0:0:0:
140,7,150242,1,10,0:0:0:0:
162,158,150379,2,0,L|313:164,1,110,2|8,0:0|0:0,0:0:0:0:
108,92,150651,1,2,0:0:0:0:
191,78,150788,1,10,0:0:0:0:
12,263,150924,6,0,P|78:245|152:345,1,165,4|0,0:0|0:0,0:0:0:0:
146,383,151197,1,0,0:0:0:0:
146,383,151333,1,8,0:0:0:0:
264,326,151469,1,0,0:0:0:0:
264,326,151606,1,8,0:0:0:0:
380,364,151742,1,0,0:0:0:0:
379,373,151810,1,0,0:0:0:0:
377,381,151879,1,8,0:0:0:0:
455,275,152015,5,0,0:0:0:0:
469,376,152151,1,8,0:0:0:0:
335,269,152288,5,2,0:0:0:0:
418,143,152424,2,0,P|442:220|325:263,1,220,10|8,0:0|0:0,0:0:0:0:
170,203,152833,2,0,P|241:186|301:223,1,110,2|8,0:0|0:0,0:0:0:0:
105,261,153106,5,2,0:0:0:0:
105,261,153242,1,8,0:0:0:0:
21,162,153379,1,0,0:0:0:0:
21,174,153447,1,0,0:0:0:0:
21,186,153515,1,8,0:0:0:0:
107,136,153651,1,0,0:0:0:0:
107,136,153787,1,8,0:0:0:0:
23,37,153924,1,0,0:0:0:0:
23,49,153992,1,0,0:0:0:0:
23,61,154060,1,8,0:0:0:0:
143,30,154197,5,10,0:0:0:0:
173,18,154265,1,8,0:0:0:0:
206,22,154333,1,8,0:0:0:0:
234,38,154401,1,0,0:0:0:0:
252,66,154469,2,0,L|246:134,3,55,10|8|8|0,0:0|0:0|0:0|0:0,0:0:0:0:
306,205,154742,6,0,L|298:289,1,55,10|8,0:0|0:0,0:0:0:0:
389,87,154879,2,0,L|380:171,1,55,10|0,0:0|0:0,0:0:0:0:
437,283,155015,5,2,0:0:0:0:
387,285,155083,1,0,0:0:0:0:
338,287,155151,1,0,0:0:0:0:
288,289,155219,1,0,0:0:0:0:
239,291,155288,6,0,B|179:293|179:293|131:283|131:283|40:286,1,165,6|0,0:0|0:0,0:0:0:0:
5,221,155560,1,0,0:0:0:0:
5,221,155697,1,8,0:0:0:0:
103,143,155833,1,0,0:0:0:0:
103,143,155969,1,8,0:0:0:0:
22,31,156106,1,0,0:0:0:0:
21,44,156174,1,0,0:0:0:0:
20,55,156242,1,8,0:0:0:0:
119,12,156379,5,0,0:0:0:0:
103,143,156515,1,10,0:0:0:0:
224,0,156651,5,2,0:0:0:0:
204,183,156788,1,8,0:0:0:0:
372,114,156924,2,0,P|320:97|269:115,1,110,2|8,0:0|0:0,0:0:0:0:
261,250,157197,2,0,P|312:266|363:248,1,110,2|10,0:0|0:0,0:0:0:0:
204,183,157469,6,0,P|176:259|266:329,1,165,4|0,0:0|0:0,0:0:0:0:
297,343,157742,1,0,0:0:0:0:
297,343,157879,1,8,0:0:0:0:
421,307,158015,1,0,0:0:0:0:
421,307,158151,1,8,0:0:0:0:
425,155,158288,1,0,0:0:0:0:
425,168,158356,1,0,0:0:0:0:
424,178,158424,1,8,0:0:0:0:
360,248,158560,1,0,0:0:0:0:
308,130,158697,5,10,0:0:0:0:
238,277,158833,2,0,B|227:222|227:222|245:141,1,110,2|8,0:0|0:0,0:0:0:0:
381,0,159106,2,0,B|392:55|392:55|374:136,1,110,2|8,0:0|0:0,0:0:0:0:
306,146,159379,1,2,0:0:0:0:
307,138,159447,1,0,0:0:0:0:
308,130,159516,1,10,0:0:0:0:
172,32,159651,6,0,P|138:96|256:161,1,220,6|0,0:0|0:0,0:0:0:0:
390,180,160060,2,0,P|351:118|236:188,1,220,10|8,0:0|0:0,0:0:0:0:
296,322,160469,2,0,P|312:263|274:207,1,110,2|8,0:0|0:0,0:0:0:0:
162,352,160742,6,0,L|401:354,1,220,2|0,0:0|0:0,0:0:0:0:
511,223,161151,2,0,L|291:221,1,220,10|8,0:0|0:0,0:0:0:0:
152,242,161560,2,0,L|163:369,1,110,2|8,0:0|0:0,0:0:0:0:
292,224,161833,5,2,0:0:0:0:
313,189,161901,1,0,0:0:0:0:
315,148,161969,1,8,0:0:0:0:
298,111,162037,1,8,0:0:0:0:
265,87,162105,1,8,0:0:0:0:
224,83,162173,1,0,0:0:0:0:
186,98,162242,1,10,3:0:0:0:
160,129,162310,1,0,0:0:0:0:
153,169,162378,5,8,0:0:0:0:
401,167,162515,1,8,0:0:0:0:
226,7,162651,5,10,0:0:0:0:
239,169,162788,2,0,L|246:239,1,55
413,35,162924,5,10,0:0:0:0:
321,39,163060,1,8,0:0:0:0:
460,117,163197,5,8,0:0:0:0:
377,114,163333,1,10,0:0:0:0:
425,203,163469,5,10,3:3:0:0:
423,214,163538,1,8,3:3:0:0:
422,225,163607,1,8,3:0:0:0:
421,236,163675,1,8,3:0:0:0:
398,251,163743,5,10,3:3:0:0:
398,257,163811,1,8,3:3:0:0:
398,263,163879,1,8,3:3:0:0:
398,269,163947,1,8,3:3:0:0:
397,275,164016,6,0,B|345:312|345:312|165:293,1,242.000007385254,6|0,0:0|0:0,0:0:0:0:
92,283,164424,1,8,0:0:0:0:
182,109,164560,2,0,B|200:175|200:175|183:250,1,121.000003692627,2|8,0:0|0:0,0:0:0:0:
81,97,164833,1,0,0:0:0:0:
93,98,164901,1,0,0:0:0:0:
105,99,164969,1,8,0:0:0:0:
286,248,165106,6,0,P|199:323|91:282,1,242.000007385254,2|0,0:0|0:0,0:0:0:0:
65,210,165515,1,8,0:0:0:0:
267,138,165651,2,0,P|298:205|269:269,1,121.000003692627,2|8,0:0|0:0,0:0:0:0:
182,109,165924,2,0,P|171:50|201:0,1,121.000003692627,2|8,0:0|0:0,0:0:0:0:
441,137,166197,6,0,L|431:288,1,121.000003692627,6|0,0:0|0:0,0:0:0:0:
373,76,166469,1,0,0:0:0:0:
286,247,166606,2,0,L|296:96,1,121.000003692627,10|0,0:0|0:0,0:0:0:0:
354,308,166878,1,8,0:0:0:0:
217,303,167015,1,2,0:0:0:0:
205,303,167083,1,0,0:0:0:0:
193,303,167151,1,8,0:0:0:0:
83,150,167288,6,0,P|165:134|222:176,1,121.000003692627,2|8,0:0|0:0,0:0:0:0:
193,303,167560,2,0,P|111:319|54:277,2,121.000003692627,2|8|8,0:0|0:0|0:0,0:0:0:0:
311,188,167969,1,0,0:0:0:0:
361,258,168106,2,0,L|507:264,1,121.000003692627,2|8,0:0|0:0,0:0:0:0:
406,32,168379,6,0,B|359:89|359:89|361:288,1,242.000007385254,6|0,0:0|0:0,0:0:0:0:
439,122,168788,1,8,0:0:0:0:
319,9,168924,2,0,B|272:66|272:66|274:265,1,242.000007385254,2|0,0:0|0:0,0:0:0:0:
283,236,169265,1,0,0:0:0:0:
293,239,169333,1,8,0:0:0:0:
160,125,169469,6,0,P|64:136|84:271,1,242.000007385254,2|0,0:0|0:0,0:0:0:0:
171,255,169879,1,8,0:0:0:0:
160,125,170015,2,0,L|155:-5,1,121.000003692627,2|8,0:0|0:0,0:0:0:0:
65,258,170288,2,0,L|60:378,1,121.000003692627,2|8,0:0|0:0,0:0:0:0:
259,331,170560,6,0,P|347:341|402:289,1,121.000003692627,6|8,0:0|0:0,0:0:0:0:
424,260,170833,1,2,0:0:0:0:
373,126,170969,2,0,P|285:116|230:168,2,121.000003692627,10|0|8,0:0|0:0|0:0,0:0:0:0:
423,238,171379,1,2,0:0:0:0:
423,249,171447,1,0,0:0:0:0:
424,260,171515,1,8,0:0:0:0:
213,181,171651,6,0,L|85:170,1,121.000003692627,2|8,0:0|0:0,0:0:0:0:
302,248,171924,2,0,L|430:237,1,121.000003692627,2|8,0:0|0:0,0:0:0:0:
200,267,172196,6,0,P|175:343|203:397,1,121.000003692627,2|8,0:0|0:0,0:0:0:0:
298,163,172469,2,0,P|311:106|285:52,1,121.000003692627,2|8,0:0|0:0,0:0:0:0:
59,78,172742,6,0,L|43:327,1,242.000007385254,6|0,0:0|0:0,0:0:0:0:
127,325,173151,1,8,0:0:0:0:
143,84,173288,2,0,L|127:333,1,242.000007385254,2|0,0:0|0:0,0:0:0:0:
214,338,173697,1,8,0:0:0:0:
395,298,173833,6,0,P|336:218|206:300,2,242.000007385254,2|0|0,0:0|0:0|0:0,0:0:0:0:
396,377,174515,1,8,0:0:0:0:
485,288,174651,1,0,0:0:0:0:
484,275,174719,1,0,0:0:0:0:
483,260,174787,1,8,0:0:0:0:
367,91,174924,6,0,L|362:226,1,121.000003692627,0|8,0:0|0:0,0:0:0:0:
481,120,175197,2,0,L|476:0,1,121.000003692627,0|8,0:0|0:0,0:0:0:0:
356,95,175469,2,0,L|351:230,1,121.000003692627,0|8,0:0|0:0,0:0:0:0:
470,124,175742,2,0,L|465:3,1,121.000003692627,0|8,0:0|0:0,0:0:0:0:
252,23,176016,5,8,3:0:0:0:
245,23,176084,1,8,3:0:0:0:
237,24,176152,1,8,3:0:0:0:
230,24,176220,1,8,3:0:0:0:
222,25,176288,1,8,3:0:0:0:
215,25,176356,1,8,3:0:0:0:
207,26,176425,1,8,3:0:0:0:
200,27,176493,1,8,3:0:0:0:
192,27,176561,5,10,0:0:0:0:
181,70,176629,1,8,0:0:0:0:
191,114,176697,1,8,0:0:0:0:
221,147,176765,1,8,0:0:0:0:
264,162,176834,5,10,0:0:0:0:
276,205,176902,1,8,0:0:0:0:
266,249,176970,1,8,0:0:0:0:
236,282,177038,1,8,0:0:0:0:
193,300,177106,6,0,B|131:275|131:275|111:63,1,242.000007385254,6|0,0:0|0:0,0:0:0:0:
200,217,177515,1,8,0:0:0:0:
124,355,177651,2,0,B|62:330|62:330|42:118,1,242.000007385254,2|0,0:0|0:0,0:0:0:0:
132,274,178060,1,8,0:0:0:0:
310,356,178197,6,0,L|316:91,2,242.000007385254,2|0|0,0:0|0:0|0:0,0:0:0:0:
402,313,178879,1,8,0:0:0:0:
404,217,179015,1,0,0:0:0:0:
404,204,179083,1,0,0:0:0:0:
403,191,179151,1,8,0:0:0:0:
291,243,179288,5,4,0:0:0:0:
264,258,179356,1,8,0:0:0:0:
234,263,179424,1,8,0:0:0:0:
205,258,179492,1,8,0:0:0:0:
179,243,179560,1,8,0:0:0:0:
183,89,179697,5,8,3:0:0:0:
209,104,179765,1,8,0:0:0:0:
228,128,179833,1,8,0:0:0:0:
238,155,179901,1,8,0:0:0:0:
239,185,179969,1,8,0:0:0:0:
101,259,180106,5,8,3:0:0:0:
101,228,180174,1,8,0:0:0:0:
113,200,180242,1,8,0:0:0:0:
131,178,180310,1,8,0:0:0:0:
156,162,180378,1,12,0:0:0:0:
399,326,180583,5,8,0:0:0:0:
399,326,180651,2,0,L|395:239,1,60.5000018463135,10|0,0:0|0:0,0:0:0:0:
392,187,180788,2,0,L|388:100,1,60.5000018463135,8|0,0:0|0:0,0:0:0:0:
284,254,180924,2,0,L|276:405,1,121.000003692627,10|8,0:0|0:0,0:0:0:0:
472,211,181197,2,0,L|465:90,1,121.000003692627,10|8,3:0|3:0,0:0:0:0:
284,254,181469,6,0,P|202:282|131:206,1,181.500005538941,6|0,0:0|0:0,0:0:0:0:
104,147,181742,1,2,0:0:0:0:
223,81,181879,2,0,L|218:222,1,121.000003692627,10|0,0:0|0:0,0:0:0:0:
104,147,182151,2,0,L|99:26,1,121.000003692627,10|0,0:0|0:0,0:0:0:0:
23,204,182424,1,10,0:0:0:0:
80,348,182560,6,0,P|143:366|206:327,1,121.000003692627,2|8,0:0|0:0,0:0:0:0:
187,186,182833,2,0,P|139:231|141:305,1,121.000003692627,2|8,0:0|0:0,0:0:0:0:
266,384,183106,2,0,P|244:275|133:282,1,242.000007385254,2|0,0:0|0:0,0:0:0:0:
136,295,183447,1,0,0:0:0:0:
137,306,183515,1,8,0:0:0:0:
257,164,183651,6,0,L|253:18,1,121.000003692627,4|0,0:0|0:0,0:0:0:0:
303,243,183924,1,2,0:0:0:0:
396,201,184060,2,0,P|419:136|388:74,1,121.000003692627,10|0,0:0|0:0,0:0:0:0:
303,243,184333,2,0,P|280:308|311:370,1,121.000003692627,10|0,0:0|0:0,0:0:0:0:
308,357,184538,1,0,0:0:0:0:
320,359,184606,1,10,0:0:0:0:
212,247,184742,6,0,B|155:234|155:234|93:245,1,121.000003692627,2|0,0:0|0:0,0:0:0:0:
32,146,185015,1,10,0:0:0:0:
33,130,185083,1,8,0:0:0:0:
34,115,185151,1,8,0:0:0:0:
36,100,185219,1,8,0:0:0:0:
37,84,185288,5,10,3:0:0:0:
72,111,185356,1,8,3:0:0:0:
116,119,185424,1,8,3:0:0:0:
159,106,185492,1,8,3:0:0:0:
190,74,185560,5,8,0:0:0:0:
135,93,185629,1,8,0:0:0:0:
116,149,185697,1,8,0:0:0:0:
148,197,185765,1,8,0:0:0:0:
207,202,185833,6,0,L|399:194,1,181.500005538941,4|0,0:0|0:0,0:0:0:0:
466,147,186106,1,2,0:0:0:0:
372,0,186242,2,0,L|383:136,1,121.000003692627,10|0,0:0|0:0,0:0:0:0:
456,267,186515,2,0,L|465:146,1,121.000003692627,10|0,0:0|0:0,0:0:0:0:
372,0,186788,1,10,0:0:0:0:
248,148,186924,5,2,0:0:0:0:
276,35,187060,1,10,0:0:0:0:
306,208,187197,2,0,P|255:228|189:207,1,121.000003692627,2|8,0:0|0:0,0:0:0:0:
112,85,187469,6,0,P|157:192|63:264,1,242.000007385254,2|0,0:0|0:0,0:0:0:0:
64,260,187810,1,0,0:0:0:0:
53,256,187879,1,8,0:0:0:0:
58,362,188015,5,8,0:0:0:0:
92,333,188083,1,8,0:0:0:0:
137,327,188151,1,8,0:0:0:0:
178,345,188219,1,8,0:0:0:0:
204,381,188288,6,0,L|217:300,1,60.5000018463135,2|0,0:0|0:0,0:0:0:0:
301,330,188424,2,0,L|314:249,3,60.5000018463135,10|8|8|8,3:0|3:0|3:0|3:0,0:0:0:0:
395,288,188697,2,0,L|408:207,3,60.5000018463135,10|8|8|8,3:0|3:0|3:0|3:0,0:0:0:0:
497,245,188969,2,0,L|510:164,1,60.5000018463135,10|8,3:0|3:0,0:0:0:0:
455,102,189106,5,10,0:0:0:0:
432,81,189174,1,8,0:0:0:0:
404,71,189242,1,8,0:0:0:0:
374,71,189310,1,8,0:0:0:0:
347,83,189379,5,10,3:0:0:0:
316,115,189447,1,8,3:0:0:0:
272,127,189515,1,8,3:0:0:0:
229,113,189583,1,8,3:0:0:0:
200,80,189651,5,10,3:0:0:0:
256,97,189719,1,0,0:0:0:0:
282,149,189787,1,2,3:0:0:0:
262,204,189855,1,0,0:0:0:0:
202,222,189924,6,0,L|114:209,1,60.5000018463135,10|8,3:0|3:0,0:0:0:0:
3,118,190060,2,0,L|96:108,1,60.5000018463135,10|8,3:0|3:0,0:0:0:0:
347,83,190197,5,14,0:0:0:0:
359,308,190333,2,0,B|443:345|513:269|513:269|418:197|311:250|311:250|206:338|95:258|95:258|164:186|250:207|250:207|219:208|186:230,1,847.00002584839,14|0,0:0|0:0,0:0:0:0:
