osu file format v14

[General]
AudioFilename: audio.mp3
AudioLeadIn: 0
PreviewTime: 35254
Countdown: 0
SampleSet: Soft
StackLeniency: 0.7
Mode: 0
LetterboxInBreaks: 0
WidescreenStoryboard: 0

[Editor]
Bookmarks: 9106,17833,35288,52742,61469,78924,96379,105106,146560,164015,181469,190197
DistanceSpacing: 2.4
BeatDivisor: 4
GridSize: 4
TimelineZoom: 3.199999

[Metadata]
Title:Ring of Fire
TitleUnicode:Ring of Fire
Artist:DragonForce
ArtistUnicode:DragonForce
Creator:MashaSG
Version:Kawa's Insane
Source:
Tags:legend insane dragon force stream deathstream herman li speedmetal speed metal Maximum Overload marathon power powermetal cover Johnny Cash Danii emu1337 Akitoshi SnowNiNo_ Kawashiro sdafsf
BeatmapID:1537313
BeatmapSetID:717015

[Difficulty]
HPDrainRate:6
CircleSize:4
OverallDifficulty:7
ApproachRate:9
SliderMultiplier:1.9
SliderTickRate:1

[Events]
//Background and Video events
0,0,"bg5 (1).jpg",0,0
//Break Periods
//Storyboard Layer 0 (Background)
//Storyboard Layer 1 (Fail)
//Storyboard Layer 2 (Pass)
//Storyboard Layer 3 (Foreground)
//Storyboard Sound Samples

[TimingPoints]
379,272.727272727273,4,2,1,70,1,0
4742,-200,4,2,1,70,0,0
6515,-200,4,2,1,5,0,0
6651,-200,4,2,1,70,0,0
6924,-200,4,2,1,70,0,0
7197,-200,4,2,1,5,0,0
7231,-200,4,2,1,30,0,0
7469,-200,4,2,1,70,0,0
7742,-200,4,2,1,5,0,0
7776,-200,4,2,1,30,0,0
8015,-133.333333333333,4,2,1,70,0,0
17833,-133.333333333333,4,2,1,60,0,0
35288,-133.333333333333,4,2,1,70,0,1
43469,-133.333333333333,4,2,1,70,0,1
44015,-133.333333333333,4,2,1,70,0,1
44560,-133.333333333333,4,2,1,70,0,1
45106,-133.333333333333,4,2,1,70,0,1
46742,-133.333333333333,4,2,1,70,0,1
48379,-133.333333333333,4,2,1,70,0,1
48924,-133.333333333333,4,2,1,70,0,1
49469,-133.333333333333,4,2,1,70,0,1
50288,-133.333333333333,4,2,1,70,0,1
52742,-133.333333333333,4,2,1,70,0,0
61469,-133.333333333333,4,2,1,60,0,0
78924,-133.333333333333,4,2,1,70,0,1
87106,-133.333333333333,4,2,1,70,0,1
87651,-133.333333333333,4,2,1,70,0,1
88197,-133.333333333333,4,2,1,70,0,1
88742,-133.333333333333,4,2,1,70,0,1
90379,-133.333333333333,4,2,1,70,0,1
92015,-133.333333333333,4,2,1,70,0,1
92560,-133.333333333333,4,2,1,70,0,1
93106,-133.333333333333,4,2,1,70,0,1
93924,-133.333333333333,4,2,1,70,0,1
96379,-200,4,2,1,70,0,0
100879,-200,4,2,1,5,0,0
101015,-200,4,2,1,30,0,0
102924,-200,4,2,1,70,0,0
105106,-133.333333333333,4,2,1,70,0,1
111106,-133.333333333333,4,2,1,70,0,1
112742,-133.333333333333,4,2,1,70,0,1
117651,-133.333333333333,4,2,1,70,0,1
118129,-133.333333333333,4,2,1,70,0,1
121469,-133.333333333333,4,2,1,70,0,1
122560,-133.333333333333,4,2,1,70,0,0
123106,-133.333333333333,4,2,1,70,0,0
123924,-133.333333333333,4,2,1,70,0,0
124197,-133.333333333333,4,2,1,70,0,0
125015,-133.333333333333,4,2,1,70,0,0
125288,-133.333333333333,4,2,1,70,0,0
125560,-133.333333333333,4,2,1,70,0,0
125833,-133.333333333333,4,2,1,70,0,0
125969,-133.333333333333,4,2,1,70,0,0
126242,-133.333333333333,4,2,1,70,0,0
126515,-133.333333333333,4,2,1,70,0,0
126924,-133.333333333333,4,2,1,70,0,0
129106,-133.333333333333,4,2,1,70,0,0
129924,-133.333333333333,4,2,1,70,0,0
131015,-133.333333333333,4,2,1,70,0,0
131288,-133.333333333333,4,2,1,70,0,0
133469,-133.333333333333,4,2,1,70,0,0
133742,-133.333333333333,4,2,1,70,0,0
134560,-133.333333333333,4,2,1,70,0,0
134697,-133.333333333333,4,2,1,70,0,0
134969,-133.333333333333,4,2,1,70,0,0
138924,-133.333333333333,4,2,1,70,0,0
139742,-133.333333333333,4,2,1,70,0,0
140015,-133.333333333333,4,2,1,70,0,0
140833,-133.333333333333,4,2,1,70,0,0
141106,-133.333333333333,4,2,1,70,0,0
144379,-133.333333333333,4,2,1,70,0,0
146560,-133.333333333333,4,2,1,60,0,0
149969,-133.333333333333,4,2,1,60,0,0
150651,-133.333333333333,4,2,1,60,0,0
156515,-133.333333333333,4,2,1,60,0,0
157469,-133.333333333333,4,2,1,60,0,0
158697,-133.333333333333,4,2,1,60,0,0
159651,-133.333333333333,4,2,1,60,0,0
164015,-133.333333333333,4,2,1,70,0,1
172197,-133.333333333333,4,2,1,70,0,1
172742,-133.333333333333,4,2,1,70,0,1
173288,-133.333333333333,4,2,1,70,0,1
173833,-133.333333333333,4,2,1,70,0,1
175469,-133.333333333333,4,2,1,70,0,1
177106,-133.333333333333,4,2,1,70,0,1
177651,-133.333333333333,4,2,1,70,0,1
178197,-133.333333333333,4,2,1,70,0,1
180379,-133.333333333333,4,2,1,70,0,1
181469,-133.333333333333,4,2,1,70,0,0
190333,-50,4,2,1,70,0,0

[Colours]
Combo1 : 164,28,28
Combo2 : 255,0,128
Combo3 : 255,0,0
Combo4 : 255,128,64

[HitObjects]
256,192,379,5,6,0:0:0:0:
256,128,2288,5,6,0:0:0:0:
310,223,2424,1,6,0:0:0:0:
201,223,2560,1,6,0:0:0:0:
256,356,4742,5,6,0:0:0:0:
256,192,4810,12,0,6515,0:0:0:0:
256,192,6651,5,10,0:0:0:0:
316,120,6788,1,10,0:0:0:0:
280,284,6924,2,0,B|220:284|220:284|196:264|196:264|145:264,1,142.5,6|0,0:0|0:0,0:0:0:0:
356,324,7469,2,0,P|404:296|388:364,1,142.5,6|0,0:0|0:0,0:0:0:0:
256,360,8015,5,2,0:0:0:0:
496,288,8151,1,2,0:0:0:0:
32,132,8560,5,2,0:0:0:0:
272,60,8696,1,2,0:0:0:0:
124,348,9106,6,0,P|105:317|105:282,1,71.2500027179719,4|0,0:0|0:0,0:0:0:0:
192,152,9379,1,2,0:0:0:0:
232,220,9515,2,0,B|208:232|208:232|148:228,1,71.2500027179719,10|0,0:0|0:0,0:0:0:0:
316,268,9788,2,0,B|328:212|328:212|320:188|320:188|331:129,1,142.500005435944,10|10,0:0|0:0,0:0:0:0:
476,188,10197,6,0,B|456:196|456:196|388:184,1,71.2500027179719,2|8,0:0|0:0,0:0:0:0:
300,52,10469,2,0,B|320:44|320:44|388:56,1,71.2500027179719,2|8,0:0|0:0,0:0:0:0:
254,157,10742,2,0,B|166:141|166:141|126:133|122:89|146:57|186:69,1,213.750008153916,2|8,0:0|0:0,0:0:0:0:
330,129,11288,6,0,P|336:163|327:198,1,71.2500027179719,4|0,0:0|0:0,0:0:0:0:
260,340,11560,1,2,0:0:0:0:
224,272,11697,2,0,B|260:264|260:264|294:271,1,71.2500027179719,10|0,0:0|0:0,0:0:0:0:
148,324,11969,2,0,L|152:168,1,142.500005435944,10|10,0:0|0:0,0:0:0:0:
16,208,12379,6,0,P|43:229|79:233,1,71.2500027179719,2|8,0:0|0:0,0:0:0:0:
156,96,12651,2,0,P|120:99|92:121,1,71.2500027179719,2|8,0:0|0:0,0:0:0:0:
247,192,12924,2,0,L|253:156,3,35.625001358986,10|8|8|8,0:0|0:0|0:0|0:0,0:0:0:0:
326,99,13197,1,8,3:0:0:0:
326,99,13265,1,8,3:0:0:0:
326,99,13333,1,8,3:0:0:0:
326,99,13401,1,8,3:0:0:0:
326,99,13469,6,0,P|345:129|345:164,1,71.2500027179719,4|0,0:0|0:0,0:0:0:0:
380,276,13742,1,2,0:0:0:0:
436,332,13879,2,0,L|507:328,1,71.2500027179719,10|0,0:0|0:0,0:0:0:0:
356,354,14151,2,0,B|320:336|320:336|218:339,1,142.500005435944,10|10,0:0|0:0,0:0:0:0:
64,324,14560,5,2,0:0:0:0:
124,376,14697,2,0,P|144:328|140:304,1,71.2500027179719,10|0,0:0|0:0,0:0:0:0:
64,324,14969,1,8,0:0:0:0:
215,258,15106,2,0,B|252:272|292:244|292:244|324:260|324:260|360:220|432:220|488:280|440:352|376:312,1,356.25001358986,2|8,0:0|3:0,0:0:0:0:
240,180,15924,6,0,L|248:36,1,142.500005435944,10|8,0:0|3:0,0:0:0:0:
116,120,16333,2,0,P|106:153|114:190,1,71.2500027179719,10|8,0:0|3:0,0:0:0:0:
180,228,16606,1,10,0:0:0:0:
316,156,16742,6,0,B|344:148|344:148|420:159,1,106.875004076958,10|8,0:0|3:0,0:0:0:0:
444,164,17015,2,0,P|417:187|382:193,1,71.2500027179719,10|8,0:0|3:0,0:0:0:0:
264,300,17288,1,10,0:0:0:0:
264,300,17424,1,10,0:0:0:0:
336,264,17560,2,0,L|406:271,1,71.2500027179719,10|8,3:0|3:0,0:0:0:0:
192,343,17833,6,0,B|172:312|187:267|187:267|204:224|168:192|124:200|115:240,1,213.750008153916,6|8,0:0|0:0,0:0:0:0:
263,299,18379,2,0,P|276:332|273:368,1,71.2500027179719,0|8,0:0|0:0,0:0:0:0:
116,360,18651,2,0,L|76:376,2,35.625001358986,0|0|8,0:0|0:0|0:0,0:0:0:0:
208,232,18924,2,0,L|206:160,1,71.2500027179719,0|10,0:0|0:0,0:0:0:0:
100,44,19197,1,0,0:0:0:0:
100,44,19333,1,10,0:0:0:0:
164,92,19469,2,0,P|179:59|179:24,1,71.2500027179719,2|8,0:0|0:0,0:0:0:0:
20,28,19742,2,0,P|20:63|35:95,1,71.2500027179719,2|8,0:0|0:0,0:0:0:0:
148,208,20015,6,0,B|168:180|160:148|88:140|80:192|80:252|120:296,1,213.750008153916,2|8,0:0|0:0,0:0:0:0:
272,304,20560,2,0,P|240:289|200:291,1,71.2500027179719,0|8,0:0|0:0,0:0:0:0:
51,346,20833,1,0,0:0:0:0:
51,346,20901,1,0,0:0:0:0:
51,346,20969,1,8,0:0:0:0:
8,192,21106,1,0,0:0:0:0:
76,227,21242,2,0,P|112:231|145:219,1,71.2500027179719,10|0,0:0|0:0,0:0:0:0:
252,104,21515,2,0,P|219:92|184:95,1,71.2500027179719,10|2,0:0|0:0,0:0:0:0:
208,172,21788,1,8,0:0:0:0:
328,72,21924,2,0,P|344:40|342:4,1,71.2500027179719,2|10,0:0|0:0,0:0:0:0:
432,136,22197,6,0,B|416:284|416:284|384:212,1,213.750008153916,4|8,0:0|0:0,0:0:0:0:
300,352,22742,2,0,P|333:362|368:356,1,71.2500027179719,0|8,0:0|0:0,0:0:0:0:
504,276,23015,2,0,L|508:216,2,35.625001358986,0|0|8,0:0|0:0|0:0,0:0:0:0:
432,136,23288,2,0,P|455:118|456:147,1,71.2500027179719,0|8,0:0|0:0,0:0:0:0:
296,212,23560,1,2,0:0:0:0:
219,192,23697,2,0,P|271:137|333:142,1,142.500005435944,10|8,0:0|0:0,0:0:0:0:
240,271,24106,6,0,P|204:274|172:259,1,71.2500027179719,2|8,0:0|0:0,0:0:0:0:
32,188,24379,2,0,P|67:185|99:200,1,71.2500027179719,2|8,0:0|0:0,0:0:0:0:
176,351,24651,1,0,0:0:0:0:
176,351,24719,1,0,0:0:0:0:
176,351,24788,1,8,0:0:0:0:
219,192,24924,2,0,L|215:108,1,71.2500027179719,0|8,0:0|0:0,0:0:0:0:
64,72,25197,2,0,P|91:94|126:95,1,71.2500027179719,0|8,0:0|0:0,0:0:0:0:
276,48,25469,5,6,0:0:0:0:
352,184,25606,1,10,0:0:0:0:
352,184,25742,2,0,L|348:219,3,35.625001358986,10|8|8|8,0:0|0:0|0:0|0:0,0:0:0:0:
428,160,26015,2,0,L|424:116,3,35.625001358986,6|0|10|8,0:0|0:0|0:0|0:0,0:0:0:0:
482,266,26288,2,0,P|438:258|478:234,1,106.875004076958,10|8,0:0|0:0,0:0:0:0:
504,348,26560,6,0,B|456:364|412:344|412:344|344:312|276:340,1,213.750008153916,4|8,0:0|0:0,0:0:0:0:
144,368,27106,2,0,B|168:378|168:378|212:371,1,71.2500027179719,0|8,0:0|0:0,0:0:0:0:
316,252,27379,2,0,L|372:256,2,35.625001358986,0|0|8,0:0|0:0|0:0,0:0:0:0:
172,188,27651,2,0,P|156:219|157:254,1,71.2500027179719,0|10,0:0|0:0,0:0:0:0:
295,333,27924,1,2,0:0:0:0:
295,333,28060,1,8,0:0:0:0:
236,279,28197,2,0,B|232:260|232:260|248:188,1,71.2500027179719,2|8,0:0|0:0,0:0:0:0:
372,304,28469,2,0,B|376:323|376:323|360:395,1,71.2500027179719,2|10,0:0|0:0,0:0:0:0:
324,224,28742,6,0,L|336:4,1,213.750008153916,4|8,0:0|0:0,0:0:0:0:
188,68,29288,2,0,P|216:89|250:93,1,71.2500027179719,0|8,0:0|0:0,0:0:0:0:
421,64,29560,1,0,0:0:0:0:
421,64,29629,1,0,0:0:0:0:
421,64,29697,1,8,0:0:0:0:
352,224,29833,1,0,0:0:0:0:
416,180,29969,2,0,L|492:184,2,71.2500027179719,10|2|8,0:0|0:0|0:0,0:0:0:0:
284,264,30379,2,0,L|212:267,1,71.2500027179719,2|8,0:0|0:0,0:0:0:0:
328,372,30651,2,0,P|347:342|353:307,1,71.2500027179719,2|10,0:0|0:0,0:0:0:0:
276,172,30924,6,0,B|264:196|292:204|310:190|294:160|294:160|280:129|297:86,1,142.500005435944,6|0,0:0|0:0,0:0:0:0:
449,116,31333,2,0,B|477:136|477:136|369:128,1,142.500005435944,10|8,0:0|0:0,0:0:0:0:
218,91,31742,2,0,P|224:56|247:30,1,71.2500027179719,2|8,0:0|0:0,0:0:0:0:
288,184,32015,2,0,L|124:176,1,142.500005435944,2|0,0:0|0:0,0:0:0:0:
164,332,32424,2,0,B|176:364|176:364|203:259,1,142.500005435944,10|8,0:0|0:0,0:0:0:0:
176,104,32833,2,0,P|141:98|107:108,1,71.2500027179719,2|8,0:0|0:0,0:0:0:0:
252,172,33106,6,0,L|416:176,1,142.500005435944,2|8,0:0|0:0,0:0:0:0:
324,316,33515,2,0,P|266:301|307:257,1,142.500005435944,10|8,0:0|0:0,0:0:0:0:
456,308,33924,2,0,L|448:380,1,71.2500027179719,10|8,0:0|0:0,0:0:0:0:
394,175,34197,6,0,L|402:119,3,35.625001358986,2|0|0|0,0:0|0:0|0:0|0:0,0:0:0:0:
406,103,34469,1,8,0:0:0:0:
293,184,34606,2,0,L|301:240,3,35.625001358986,10|8|0|8,0:0|0:0|0:0|3:0,0:0:0:0:
305,256,34878,1,8,3:0:0:0:
176,104,35015,2,0,L|184:8,1,71.2500027179719,10|8,3:0|3:0,0:0:0:0:
48,176,35288,6,0,L|55:318,1,142.500005435944,6|0,0:0|0:0,0:0:0:0:
108,376,35697,1,8,0:0:0:0:
226,327,35833,2,0,P|194:312|160:316,1,71.2500027179719,2|8,0:0|0:0,0:0:0:0:
264,248,36106,2,0,P|295:232|330:236,1,71.2500027179719,0|8,0:0|0:0,0:0:0:0:
460,264,36379,6,0,B|436:292|436:292|412:172,1,142.500005435944,2|0,0:0|0:0,0:0:0:0:
400,112,36788,1,8,0:0:0:0:
476,8,36924,2,0,P|480:43|467:76,1,71.2500027179719,2|8,0:0|0:0,0:0:0:0:
328,156,37197,2,0,P|315:123|319:87,1,71.2500027179719,2|8,0:0|0:0,0:0:0:0:
501,247,37469,6,0,L|353:251,1,142.500005435944,6|0,0:0|0:0,0:0:0:0:
128,208,37879,2,0,L|276:212,1,142.500005435944,10|8,0:0|0:0,0:0:0:0:
296,368,38288,2,0,P|278:337|278:302,1,71.2500027179719,2|8,0:0|0:0,0:0:0:0:
352,160,38560,6,0,L|435:157,1,71.2500027179719,2|8,0:0|0:0,0:0:0:0:
270,211,38833,2,0,L|187:208,1,71.2500027179719,2|8,0:0|0:0,0:0:0:0:
359,251,39106,2,0,L|442:248,1,71.2500027179719,0|10,0:0|0:0,0:0:0:0:
277,302,39379,2,0,L|194:299,1,71.2500027179719,2|8,0:0|0:0,0:0:0:0:
64,244,39651,6,0,P|128:219|149:153,1,142.500005435944,6|0,0:0|0:0,0:0:0:0:
72,164,40060,1,8,0:0:0:0:
212,96,40197,2,0,L|288:104,1,71.2500027179719,2|8,0:0|0:0,0:0:0:0:
128,68,40469,2,0,L|52:76,1,71.2500027179719,0|8,0:0|0:0,0:0:0:0:
196,8,40742,6,0,L|340:24,1,142.500005435944,2|0,0:0|0:0,0:0:0:0:
416,32,41151,1,8,0:0:0:0:
390,165,41288,2,0,P|371:135|372:100,1,71.2500027179719,2|8,0:0|0:0,0:0:0:0:
480,168,41560,2,0,P|480:203|461:233,1,71.2500027179719,2|8,0:0|0:0,0:0:0:0:
264,264,41833,6,0,B|245:259|236:244|236:244|343:251,1,142.500005435944,6|2,0:0|0:0,0:0:0:0:
508,360,42242,2,0,B|526:355|536:340|536:340|428:347,1,142.500005435944,10|8,0:0|0:0,0:0:0:0:
272,352,42651,2,0,P|307:350|337:332,1,71.2500027179719,2|8,0:0|0:0,0:0:0:0:
461,233,42924,6,0,L|455:157,1,71.2500027179719,2|8,0:0|0:0,0:0:0:0:
396,28,43197,2,0,L|392:99,1,71.2500027179719,2|8,0:0|0:0,0:0:0:0:
316,196,43469,2,0,L|310:120,1,71.2500027179719,2|8,0:0|0:0,0:0:0:0:
232,76,43742,2,0,L|228:147,1,71.2500027179719,2|8,0:0|0:0,0:0:0:0:
100,130,44015,6,0,B|102:108|120:92|120:92|136:264,1,213.750008153916,6|8,0:0|0:0,0:0:0:0:
30,372,44560,2,0,B|-6:360|-2:316|38:300|80:334|80:334|115:362|167:349,1,213.750008153916,2|8,0:0|0:0,0:0:0:0:
312,272,45106,2,0,B|288:224|216:232|196:308|232:368|316:388|368:356|392:304|392:304|432:244|352:120|416:68|480:80|488:168|420:212|328:228|296:136,1,712.500027179719,2|0,0:0|0:0,0:0:0:0:
252,104,46606,5,8,0:0:0:0:
252,104,46742,2,0,P|280:83|315:78,1,71.2500027179719,0|8,0:0|0:0,0:0:0:0:
232,180,47015,2,0,L|144:168,1,71.2500027179719,0|8,0:0|0:0,0:0:0:0:
288,240,47287,2,0,L|339:233,3,35.625001358986,8|8|8|8,0:0|0:0|0:0|0:0,0:0:0:0:
177,267,47560,1,8,0:0:0:0:
166,265,47628,1,8,0:0:0:0:
155,264,47696,1,8,0:0:0:0:
145,262,47764,1,8,0:0:0:0:
135,260,47833,2,0,L|64:269,1,71.2500027179719,10|8,3:0|3:0,0:0:0:0:
231,179,48106,2,0,L|302:189,1,71.2500027179719,10|8,0:0|0:0,0:0:0:0:
371,367,48379,6,0,P|460:358|410:285,1,213.750008153916,6|8,0:0|0:0,0:0:0:0:
302,189,48924,2,0,B|277:208|277:236|277:236|321:252|353:224|353:224|389:196|425:206,1,213.750008153916,2|8,0:0|0:0,0:0:0:0:
304,321,49469,2,0,B|260:336|216:320|184:272|192:224|192:224|160:240|160:240|192:204|184:136|140:116,1,356.25001358986,2|8,0:0|0:0,0:0:0:0:
64,104,50288,2,0,P|63:139|81:169,1,71.2500027179719,0|8,0:0|0:0,0:0:0:0:
204,64,50560,6,0,L|223:19,3,35.625001358986,4|8|8|8,0:0|0:0|0:0|0:0,0:0:0:0:
292,77,50833,2,0,L|330:48,3,35.625001358986,8|0|8|8,0:0|0:0|3:0|0:0,0:0:0:0:
361,134,51106,2,0,L|408:128,3,35.625001358986,8|0|0|0,0:0|0:0|0:0|0:0,0:0:0:0:
393,217,51379,2,0,L|437:236,3,35.625001358986,8|8|8|8,3:0|0:0|0:0|0:0,0:0:0:0:
379,305,51651,2,0,L|407:343,3,35.625001358986,8|8|8|8,3:0|0:0|0:0|0:0,0:0:0:0:
308,372,51924,5,10,3:0:0:0:
308,372,52060,1,8,3:0:0:0:
316,248,52197,2,0,L|320:159,1,71.2500027179719,10|8,3:0|3:0,0:0:0:0:
244,315,52469,2,0,P|225:345|224:384,1,71.2500027179719,10|8,0:0|3:0,0:0:0:0:
59,255,52742,6,0,P|78:285|79:324,1,71.2500027179719,14|0,0:0|0:0,0:0:0:0:
192,152,53015,1,2,0:0:0:0:
221,237,53151,2,0,B|138:222,1,71.2500027179719,10|0,0:0|0:0,0:0:0:0:
288,154,53424,2,0,P|326:228|310:296,1,142.500005435944,10|10,0:0|0:0,0:0:0:0:
426,199,53833,6,0,B|355:211,1,71.2500027179719,2|8,0:0|0:0,0:0:0:0:
292,77,54106,2,0,B|362:89,1,71.2500027179719,2|8,0:0|0:0,0:0:0:0:
192,152,54379,2,0,B|107:135|107:135|79:110|79:110|-8:91,1,213.750008153916,2|8,0:0|0:0,0:0:0:0:
160,0,54924,6,0,B|168:20|168:20|156:88,1,71.2500027179719,4|0,0:0|0:0,0:0:0:0:
35,182,55197,1,2,0:0:0:0:
123,295,55333,2,0,B|131:275|131:275|119:207,1,71.2500027179719,10|0,0:0|0:0,0:0:0:0:
248,128,55606,2,0,B|233:144|233:144|221:212,1,71.2500027179719,10|0,0:0|0:0,0:0:0:0:
237,332,55879,1,10,0:0:0:0:
122,226,56015,5,2,0:0:0:0:
122,226,56151,1,10,0:0:0:0:
248,128,56288,2,0,P|282:134|310:155,1,71.2500027179719,10|8,0:0|0:0,0:0:0:0:
316,283,56560,2,0,P|330:188|429:125,1,213.750008153916,2|8,0:0|0:0,0:0:0:0:
512,236,57106,6,0,L|437:222,1,71.2500027179719,4|0,0:0|0:0,0:0:0:0:
316,283,57379,1,2,0:0:0:0:
240,168,57515,2,0,L|314:154,1,71.2500027179719,10|0,0:0|0:0,0:0:0:0:
205,268,57788,1,10,0:0:0:0:
110,195,57924,1,2,0:0:0:0:
110,195,57992,1,0,0:0:0:0:
110,195,58060,1,10,0:0:0:0:
64,324,58197,6,0,P|99:332|132:320,1,71.2500027179719,2|8,0:0|0:0,0:0:0:0:
209,200,58469,2,0,P|198:234|205:268,1,71.2500027179719,2|8,0:0|0:0,0:0:0:0:
340,288,58742,2,0,B|354:251|326:211|326:211|342:179|342:179|302:143|302:71|362:15|434:63|394:127,1,356.25001358986,2|8,0:0|0:0,0:0:0:0:
236,176,59560,5,10,0:0:0:0:
180,124,59697,2,0,L|184:48,1,71.2500027179719,6|0,0:0|0:0,0:0:0:0:
76,220,59969,2,0,L|84:296,2,71.2500027179719,10|10|2,0:0|3:0|0:0,0:0:0:0:
0,44,60379,6,0,L|8:0,3,35.625001358986,10|0|0|0,3:0|0:0|0:0|0:0,0:0:0:0:
56,112,60651,2,0,L|64:156,3,35.625001358986,10|0|0|0,3:0|0:0|0:0|0:0,0:0:0:0:
112,44,60924,2,0,L|120:0,3,35.625001358986,10|0|0|0,3:0|0:0|0:0|0:0,0:0:0:0:
176,104,61197,2,0,P|210:115|246:114,1,71.2500027179719,2|0,0:0|0:0,0:0:0:0:
400,68,61469,6,0,B|410:22|355:-2|314:13|296:63|317:109|352:136,1,213.750008153916,6|8,0:0|0:0,0:0:0:0:
492,192,62015,2,0,P|469:165|436:152,1,71.2500027179719,0|8,0:0|0:0,0:0:0:0:
284,188,62288,2,0,P|266:183|249:182,2,35.625001358986,0|0|8,0:0|0:0|0:0,0:0:0:0:
420,268,62560,2,0,L|416:360,1,71.2500027179719,0|8,0:0|0:0,0:0:0:0:
280,264,62833,1,2,0:0:0:0:
223,319,62969,2,0,P|289:341|347:303,1,142.500005435944,10|8,0:0|0:0,0:0:0:0:
204,240,63379,2,0,P|171:252|149:280,1,71.2500027179719,2|8,0:0|0:0,0:0:0:0:
268,176,63651,6,0,B|296:24|296:24|320:92,1,213.750008153916,2|8,0:0|0:0,0:0:0:0:
320,236,64197,2,0,P|288:252|244:252,1,71.2500027179719,0|8,0:0|0:0,0:0:0:0:
196,108,64469,1,0,0:0:0:0:
196,108,64538,1,0,0:0:0:0:
196,108,64606,1,8,0:0:0:0:
56,184,64742,1,0,0:0:0:0:
123,224,64879,2,0,P|133:189|127:155,1,71.2500027179719,10|0,0:0|0:0,0:0:0:0:
36,28,65151,2,0,B|8:52|8:52|120:60,1,142.500005435944,10|8,0:0|0:0,0:0:0:0:
260,8,65560,2,0,P|224:6|191:20,1,71.2500027179719,2|10,0:0|0:0,0:0:0:0:
328,100,65833,6,0,B|420:100|420:100|460:100|472:140|460:180|420:176,1,213.750008153916,4|8,0:0|0:0,0:0:0:0:
288,256,66379,2,0,P|300:223|326:198,1,71.2500027179719,0|8,0:0|0:0,0:0:0:0:
475,247,66651,2,0,P|493:249|511:248,2,35.625001358986,0|0|8,0:0|0:0|0:0,0:0:0:0:
336,324,66924,2,0,P|304:339|268:339,1,71.2500027179719,0|8,0:0|0:0,0:0:0:0:
120,288,67197,1,2,0:0:0:0:
120,288,67333,1,8,0:0:0:0:
193,259,67469,2,0,P|199:294|188:328,1,71.2500027179719,2|8,0:0|0:0,0:0:0:0:
52,248,67742,2,0,P|46:213|56:179,1,71.2500027179719,2|8,0:0|0:0,0:0:0:0:
167,61,68015,6,0,B|191:141|152:197|152:197|127:171|131:128,1,213.750008153916,2|8,0:0|0:0,0:0:0:0:
239,36,68560,2,0,P|273:25|324:40,1,71.2500027179719,0|8,0:0|0:0,0:0:0:0:
440,120,68833,1,0,0:0:0:0:
440,120,68901,1,0,0:0:0:0:
440,120,68969,1,8,0:0:0:0:
280,112,69106,6,0,L|276:192,1,71.2500027179719,4|8,0:0|0:0,0:0:0:0:
279,279,69379,1,10,0:0:0:0:
279,279,69447,1,8,0:0:0:0:
279,279,69515,1,10,0:0:0:0:
128,196,69651,2,0,P|146:182|204:173,1,71.2500027179719,6|8,0:0|0:0,0:0:0:0:
192,332,69924,2,0,L|188:260,1,71.2500027179719,10|8,0:0|0:0,0:0:0:0:
36,213,70197,6,0,B|28:285|28:285|24:329|64:345|116:337|100:273,1,213.750008153916,6|8,0:0|0:0,0:0:0:0:
72,116,70742,2,0,P|32:112|-16:128,1,71.2500027179719,0|8,0:0|0:0,0:0:0:0:
140,48,71015,2,0,L|148:12,2,35.625001358986,0|0|8,0:0|0:0|0:0,0:0:0:0:
260,152,71288,2,0,L|252:236,1,71.2500027179719,0|10,0:0|0:0,0:0:0:0:
228,68,71560,1,2,0:0:0:0:
228,68,71697,1,8,0:0:0:0:
296,28,71833,2,0,B|320:24|320:24|376:36,1,71.2500027179719,2|8,0:0|0:0,0:0:0:0:
260,152,72106,2,0,B|236:156|236:156|180:144,1,71.2500027179719,2|8,0:0|0:0,0:0:0:0:
316,240,72379,6,0,B|472:232|472:232|428:269,1,213.750008153916,4|8,0:0|0:0,0:0:0:0:
276,308,72924,2,0,P|250:283|239:250,1,71.2500027179719,0|8,0:0|0:0,0:0:0:0:
316,112,73197,1,0,0:0:0:0:
316,112,73265,1,0,0:0:0:0:
316,112,73333,1,8,0:0:0:0:
172,176,73469,1,0,0:0:0:0:
220,116,73606,2,0,L|228:36,2,71.2500027179719,10|2|8,0:0|0:0|0:0,0:0:0:0:
132,248,74015,2,0,P|104:224|92:176,1,71.2500027179719,2|10,0:0|0:0,0:0:0:0:
224,280,74288,2,0,P|211:312|184:335,1,71.2500027179719,2|8,0:0|0:0,0:0:0:0:
300,232,74560,6,0,L|456:240,1,142.500005435944,6|0,0:0|0:0,0:0:0:0:
436,84,74969,2,0,B|424:52|424:52|368:164,1,142.500005435944,10|8,0:0|0:0,0:0:0:0:
383,307,75379,2,0,P|415:325|450:329,1,71.2500027179719,2|8,0:0|0:0,0:0:0:0:
303,374,75651,6,0,L|299:210,1,142.500005435944,2|0,0:0|0:0,0:0:0:0:
148,272,76060,2,0,P|156:316|208:268,1,142.500005435944,10|8,0:0|0:0,0:0:0:0:
80,192,76469,2,0,P|44:189|11:201,1,71.2500027179719,2|8,0:0|0:0,0:0:0:0:
156,136,76742,6,0,B|168:100|168:100|164:48,2,71.2500027179719,2|0|8,0:0|0:0|0:0,0:0:0:0:
284,228,77151,2,0,B|296:264|296:264|292:316,2,71.2500027179719,10|0|8,0:0|0:0|0:0,0:0:0:0:
416,144,77560,2,0,L|428:72,1,71.2500027179719,10|8,0:0|0:0,0:0:0:0:
484,220,77833,6,0,L|476:264,3,35.625001358986,10|0|8|8,3:0|0:0|0:0|0:0,0:0:0:0:
472,296,78106,1,0,0:0:0:0:
352,196,78242,2,0,L|344:152,3,35.625001358986,2|0|10|0,0:0|0:0|3:0|0:0,0:0:0:0:
340,120,78515,1,0,0:0:0:0:
296,272,78651,2,0,P|326:289|361:291,1,71.2500027179719,10|0,3:0|0:0,0:0:0:0:
212,340,78924,6,0,L|208:172,1,142.500005435944,6|0,0:0|0:0,0:0:0:0:
208,120,79333,1,8,0:0:0:0:
75,137,79469,2,0,P|104:157|140:159,1,71.2500027179719,2|8,0:0|0:0,0:0:0:0:
264,64,79742,2,0,P|234:44|199:41,1,71.2500027179719,0|8,0:0|0:0,0:0:0:0:
284,176,80015,6,0,L|440:164,1,142.500005435944,2|0,0:0|0:0,0:0:0:0:
396,92,80424,1,8,0:0:0:0:
360,244,80560,2,0,P|356:279|376:317,1,71.2500027179719,2|8,0:0|0:0,0:0:0:0:
492,212,80833,2,0,P|506:179|502:144,1,71.2500027179719,2|8,0:0|0:0,0:0:0:0:
320,36,81106,6,0,L|312:196,1,142.500005435944,6|0,0:0|0:0,0:0:0:0:
228,336,81515,2,0,L|220:193,1,142.500005435944,10|8,0:0|0:0,0:0:0:0:
95,121,81924,2,0,P|129:113|163:122,1,71.2500027179719,2|8,0:0|0:0,0:0:0:0:
312,178,82197,6,0,L|315:261,1,71.2500027179719,2|8,0:0|0:0,0:0:0:0:
256,108,82469,2,0,L|259:25,1,71.2500027179719,2|8,0:0|0:0,0:0:0:0:
220,193,82742,2,0,L|223:276,1,71.2500027179719,8|10,0:0|0:0,0:0:0:0:
164,123,83014,2,0,L|166:51,1,71.2500027179719,2|8,0:0|0:0,0:0:0:0:
312,178,83288,6,0,B|368:188|368:188|392:176|392:176|450:186,1,142.500005435944,6|0,0:0|0:0,0:0:0:0:
416,256,83697,1,8,0:0:0:0:
356,112,83833,2,0,P|351:76|364:40,1,71.2500027179719,2|8,0:0|0:0,0:0:0:0:
240,143,84106,2,0,P|231:178|238:213,1,71.2500027179719,0|8,0:0|0:0,0:0:0:0:
332,340,84379,6,0,B|352:296|344:232|344:232|317:249,1,142.500005435944,2|0,0:0|0:0,0:0:0:0:
260,304,84788,1,8,0:0:0:0:
411,348,84924,2,0,P|439:325|452:292,1,71.2500027179719,2|8,0:0|0:0,0:0:0:0:
380,152,85197,2,0,P|393:184|420:207,1,71.2500027179719,2|8,0:0|0:0,0:0:0:0:
484,64,85469,6,0,B|460:32|460:32|332:24,1,142.500005435944,6|2,0:0|0:0,0:0:0:0:
144,40,85879,2,0,B|168:72|168:72|296:80,1,142.500005435944,10|8,0:0|0:0,0:0:0:0:
344,192,86288,2,0,P|358:159|355:124,1,71.2500027179719,2|8,0:0|0:0,0:0:0:0:
216,264,86560,6,0,L|287:260,1,71.2500027179719,2|8,0:0|0:0,0:0:0:0:
492,220,86833,2,0,L|421:216,1,71.2500027179719,2|8,0:0|0:0,0:0:0:0:
256,360,87106,2,0,L|327:356,1,71.2500027179719,2|8,0:0|0:0,0:0:0:0:
464,312,87379,2,0,L|393:308,1,71.2500027179719,2|8,0:0|0:0,0:0:0:0:
336,146,87651,6,0,B|364:4|364:4|396:36|391:63,1,213.750008153916,6|8,0:0|0:0,0:0:0:0:
252,164,88197,2,0,B|205:195|161:167|161:167|145:179|145:179|101:147|48:172,1,213.750008153916,2|8,0:0|0:0,0:0:0:0:
184,268,88742,2,0,B|288:264|288:264|304:280|304:280|444:276|444:276|476:308|428:372|372:372|312:328|300:272|312:200|384:180|432:200|432:200|456:156|436:108,1,712.500027179719,2|0,0:0|0:0,0:0:0:0:
472,40,90242,5,8,0:0:0:0:
472,40,90379,2,0,P|437:33|402:40,1,71.2500027179719,0|8,0:0|0:0,0:0:0:0:
288,112,90651,2,0,P|322:118|357:111,1,71.2500027179719,0|8,0:0|0:0,0:0:0:0:
220,20,90924,2,0,L|216:55,3,35.625001358986,8|8|8|8,0:0|0:0|0:0|0:0,0:0:0:0:
209,142,91197,1,8,0:0:0:0:
210,152,91265,1,8,0:0:0:0:
211,163,91333,1,8,0:0:0:0:
212,173,91401,1,8,0:0:0:0:
212,183,91469,2,0,L|204:263,1,71.2500027179719,10|8,3:0|3:0,0:0:0:0:
348,252,91742,2,0,L|340:181,1,71.2500027179719,10|8,0:0|0:0,0:0:0:0:
220,20,92015,6,0,L|196:236,1,213.750008153916,6|8,0:0|0:0,0:0:0:0:
79,343,92560,2,0,B|60:324|64:280|104:264|142:298|142:298|176:328|224:313,1,213.750008153916,2|8,0:0|0:0,0:0:0:0:
308,172,93106,2,0,B|337:188|333:228|333:228|365:8|365:8|361:48|384:71,1,356.25001358986,2|8,0:0|0:0,0:0:0:0:
469,88,93924,2,0,P|456:120|429:144,1,71.2500027179719,0|8,0:0|0:0,0:0:0:0:
280,68,94197,6,0,L|261:23,3,35.625001358986,4|8|8|8,0:0|0:0|0:0|0:0,0:0:0:0:
192,81,94470,2,0,L|154:52,3,35.625001358986,8|0|8|8,0:0|0:0|3:0|0:0,0:0:0:0:
123,138,94743,2,0,L|76:132,3,35.625001358986,8|0|0|0,0:0|0:0|0:0|0:0,0:0:0:0:
91,221,95016,2,0,L|47:240,3,35.625001358986,8|8|8|8,3:0|0:0|0:0|0:0,0:0:0:0:
105,309,95288,2,0,L|77:347,3,35.625001358986,8|8|8|8,3:0|0:0|0:0|0:0,0:0:0:0:
176,376,95561,5,10,3:0:0:0:
176,376,95697,1,8,3:0:0:0:
168,252,95834,2,0,L|166:163,1,71.2500027179719,10|8,3:0|3:0,0:0:0:0:
240,319,96106,2,0,P|259:349|260:388,1,71.2500027179719,10|8,3:0|3:0,0:0:0:0:
4,304,96379,5,14,0:0:0:0:
4,304,98288,5,6,0:0:0:0:
184,284,98424,1,6,0:0:0:0:
77,139,98560,1,6,0:0:0:0:
104,377,100742,6,0,L|98:311,1,47.5,6|0,0:0|0:0,0:0:0:0:
256,192,102651,5,10,0:0:0:0:
196,120,102788,1,10,0:0:0:0:
232,284,102924,2,0,B|292:284|292:284|316:264|316:264|367:264,1,142.5,6|8,0:0|3:0,0:0:0:0:
156,324,103469,2,0,P|108:296|124:364,1,142.5,6|0,0:0|0:0,0:0:0:0:
256,360,104015,5,2,0:0:0:0:
16,288,104151,1,2,0:0:0:0:
480,132,104560,5,2,0:0:0:0:
240,64,104696,1,2,0:0:0:0:
98,363,105106,6,0,L|104:292,2,71.2500027179719,6|2|2,0:0|0:0|0:0,0:0:0:0:
48,212,105515,2,0,B|112:176|172:220|172:220|216:256|280:256|313:225,1,285.000010871888,10|8,0:0|0:0,0:0:0:0:
256,72,106197,2,0,L|245:142,2,71.2500027179719,2|10|0,0:0|0:0|0:0,0:0:0:0:
424,96,106606,2,0,B|454:109|454:109|346:125,1,142.500005435944,10|10,0:0|0:0,0:0:0:0:
396,284,107015,2,0,P|410:251|412:215,1,71.2500027179719,2|8,0:0|0:0,0:0:0:0:
256,72,107288,6,0,L|160:88,2,71.2500027179719,2|10|2,0:0|0:0|0:0,0:0:0:0:
128,28,107697,2,0,B|104:68|104:68|120:168,1,142.500005435944,10|10,0:0|0:0,0:0:0:0:
204,304,108106,2,0,P|217:271|210:236,1,71.2500027179719,2|10,0:0|0:0,0:0:0:0:
56,256,108379,1,2,0:0:0:0:
56,256,108515,2,0,P|116:268|136:260,1,71.2500027179719,8|2,0:0|0:0,0:0:0:0:
216,136,108788,1,8,0:0:0:0:
216,136,108924,2,0,L|220:48,1,71.2500027179719,2|8,0:0|0:0,0:0:0:0:
286,0,109197,1,2,0:0:0:0:
327,160,109333,1,8,0:0:0:0:
414,79,109469,6,0,L|318:71,1,71.2500027179719,6|0,0:0|0:0,0:0:0:0:
188,220,109742,2,0,L|284:212,1,71.2500027179719,0|8,0:0|0:0,0:0:0:0:
336,316,110015,2,0,P|348:272|332:240,1,71.2500027179719,2|8,0:0|0:0,0:0:0:0:
252,60,110288,2,0,P|240:104|256:136,1,71.2500027179719,0|8,0:0|0:0,0:0:0:0:
152,284,110560,6,0,L|144:324,3,35.625001358986,2|0|8|0,0:0|0:0|0:0|0:0,0:0:0:0:
76,340,110833,2,0,L|69:305,3,35.625001358986,2|0|8|0,0:0|0:0|0:0|0:0,0:0:0:0:
11,248,111106,2,0,P|46:227|85:224,1,71.2500027179719,2|8,0:0|0:0,0:0:0:0:
216,192,111379,2,0,P|199:160|200:125,1,71.2500027179719,0|8,0:0|0:0,0:0:0:0:
364,72,111651,6,0,L|376:-8,2,71.2500027179719,2|10|2,0:0|0:0|0:0,0:0:0:0:
416,148,112060,1,10,0:0:0:0:
276,80,112197,2,0,L|288:-4,1,71.2500027179719,2|10,0:0|0:0,0:0:0:0:
328,156,112469,2,0,L|336:236,1,71.2500027179719,2|10,0:0|0:0,0:0:0:0:
200,125,112742,6,0,L|148:109,3,35.625001358986,10|8|8|8,0:0|0:0|0:0|0:0,0:0:0:0:
132,87,113015,2,0,L|122:129,1,35.625001358986,10|0,0:0|0:0,0:0:0:0:
96,199,113151,2,0,L|148:215,3,35.625001358986,10|10|8|8,0:0|0:0|0:0|0:0,0:0:0:0:
172,202,113424,2,0,L|163:236,1,35.625001358986,10|0,0:0|0:0,0:0:0:0:
244,236,113561,1,10,0:0:0:0:
280,248,113629,1,10,0:0:0:0:
304,280,113697,1,10,0:0:0:0:
308,320,113765,1,10,0:0:0:0:
296,356,113833,6,0,L|352:368,3,35.625001358986,6|0|2|0,0:0|0:0|0:0|0:0,0:0:0:0:
367,380,114106,2,0,P|386:349|388:314,1,71.2500027179719,2|8,0:0|0:0,0:0:0:0:
512,216,114379,2,0,L|456:228,3,35.625001358986,2|0|10|0,0:0|0:0|0:0|0:0,0:0:0:0:
440,240,114652,2,0,P|421:209|419:174,1,71.2500027179719,2|8,0:0|0:0,0:0:0:0:
264,88,114924,6,0,L|112:72,1,142.500005435944,2|0,0:0|0:0,0:0:0:0:
52,108,115333,1,10,0:0:0:0:
52,108,115469,2,0,P|73:135|116:152,1,71.2500027179719,2|8,0:0|0:0,0:0:0:0:
216,224,115742,2,0,L|312:216,1,71.2500027179719,2|8,0:0|0:0,0:0:0:0:
100,336,116015,6,0,L|56:332,3,35.625001358986,2|0|8|0,0:0|0:0|0:0|0:0,0:0:0:0:
84,300,116288,2,0,L|40:296,3,35.625001358986,2|0|8|0,0:0|0:0|0:0|0:0,0:0:0:0:
68,264,116560,2,0,L|24:260,3,35.625001358986,2|0|8|0,0:0|0:0|0:0|0:0,0:0:0:0:
52,224,116833,2,0,L|8:220,3,35.625001358986,2|0|8|0,0:0|0:0|0:0|0:0,0:0:0:0:
87,228,117106,6,0,P|108:199|109:164,1,71.2500027179719,2|10,0:0|0:0,0:0:0:0:
68,76,117379,1,2,0:0:0:0:
68,76,117447,1,0,0:0:0:0:
68,76,117515,1,10,0:0:0:0:
68,76,117583,1,0,0:0:0:0:
68,76,117651,2,0,B|108:100|156:72|156:72|176:88|176:88|216:56|268:77,1,213.750008153916,2|0,0:0|0:0,0:0:0:0:
240,216,118197,5,6,0:0:0:0:
240,216,118333,2,0,P|227:183|230:147,1,71.2500027179719,0|2,0:0|0:0,0:0:0:0:
308,168,118606,1,8,0:0:0:0:
148,204,118742,1,2,0:0:0:0:
148,204,118879,2,0,L|56:196,1,71.2500027179719,8|2,0:0|0:0,0:0:0:0:
0,188,119151,1,8,0:0:0:0:
124,76,119288,5,2,0:0:0:0:
124,76,119424,2,0,L|204:64,2,71.2500027179719,8|2|8,0:0|0:0|0:0,0:0:0:0:
274,71,119833,2,0,P|272:36|252:8,1,71.2500027179719,2|8,0:0|0:0,0:0:0:0:
232,144,120106,2,0,L|302:154,1,71.2500027179719,2|8,0:0|0:0,0:0:0:0:
300,292,120379,5,10,0:0:0:0:
300,292,120515,2,0,P|268:250|276:213,1,71.2500027179719,8|8,0:0|3:0,0:0:0:0:
384,164,120788,2,0,P|364:212|328:224,1,71.2500027179719,10|8,0:0|3:0,0:0:0:0:
188,248,121060,2,0,L|118:238,1,71.2500027179719,10|10,0:0|0:0,0:0:0:0:
35,151,121333,1,8,3:0:0:0:
21,217,121469,2,0,P|37:185|33:145,1,71.2500027179719,10|10,0:0|0:0,0:0:0:0:
32,364,121742,2,0,P|16:332|20:292,1,71.2500027179719,10|10,0:0|0:0,0:0:0:0:
168,324,122015,1,10,0:0:0:0:
168,324,122151,1,10,0:0:0:0:
168,324,122288,2,0,L|98:314,1,71.2500027179719,10|10,0:0|0:0,0:0:0:0:
259,369,122560,22,0,B|277:328|261:284|261:284|244:247|264:219|288:215|320:239|306:269,1,213.750008153916,6|8,0:0|0:0,0:0:0:0:
168,324,123106,2,0,L|98:314,1,71.2500027179719,2|10,0:0|0:0,0:0:0:0:
20,296,123379,1,2,0:0:0:0:
20,296,123515,1,10,0:0:0:0:
128,176,123651,2,0,P|148:216|140:256,1,71.2500027179719,2|8,0:0|0:0,0:0:0:0:
40,184,123924,2,0,P|39:148|58:118,1,71.2500027179719,2|8,0:0|0:0,0:0:0:0:
200,64,124197,2,0,B|264:56|264:128|264:128|264:272|264:272|264:344|326:336,1,356.25001358986,2|8,0:0|0:0,0:0:0:0:
396,304,125015,6,0,P|365:266|322:261,1,71.2500027179719,2|8,0:0|0:0,0:0:0:0:
184,300,125288,2,0,L|196:376,1,71.2500027179719,2|8,0:0|0:0,0:0:0:0:
256,224,125560,2,0,L|267:153,1,71.2500027179719,2|8,0:0|0:0,0:0:0:0:
127,133,125833,1,2,0:0:0:0:
127,133,125969,2,0,P|147:161|187:177,1,71.2500027179719,10|0,0:0|0:0,0:0:0:0:
344,128,126242,2,0,B|368:28|368:28|389:60,1,142.500005435944,10|10,0:0|0:0,0:0:0:0:
363,231,126651,2,0,P|327:233|294:220,1,71.2500027179719,2|8,0:0|0:0,0:0:0:0:
213,359,126924,6,0,B|168:348|140:296|152:240|152:240|166:173|126:133|126:133|182:125|213:181|213:181|232:150|232:94|232:94|232:46|264:22|264:22|248:94|280:142|280:142|302:173|294:221|294:221|332:208|356:152|352:104|352:104|384:200|384:264|368:316|322:333,1,1140.00004348755,2|4,0:0|0:0,0:0:0:0:
79,348,129379,6,0,P|65:315|66:266,1,71.2500027179719,2|8,0:0|0:0,0:0:0:0:
164,168,129651,2,0,P|162:203|149:236,1,71.2500027179719,2|8,0:0|0:0,0:0:0:0:
8,204,129924,2,0,P|37:185|72:184,1,71.2500027179719,2|8,0:0|0:0,0:0:0:0:
224,264,130197,2,0,L|220:348,1,71.2500027179719,2|10,0:0|0:0,0:0:0:0:
156,152,130469,1,2,0:0:0:0:
156,152,130538,1,0,0:0:0:0:
156,152,130606,1,8,0:0:0:0:
64,280,130742,2,0,P|104:296|140:288,1,71.2500027179719,2|8,0:0|0:0,0:0:0:0:
272,203,131015,2,0,L|284:115,1,71.2500027179719,2|8,0:0|0:0,0:0:0:0:
385,297,131288,6,0,B|433:305|425:233|397:197|317:197|257:253|259:348|297:397|359:420|468:424|540:336|524:216|412:168|412:168|364:136|340:64|396:8|448:4|496:24|524:132|412:168|412:168|364:152|288:160|256:232,1,1140.00004348755,6|4,0:0|0:0,0:0:0:0:
116,348,133742,6,0,P|132:296|124:260,1,71.2500027179719,2|8,0:0|0:0,0:0:0:0:
44,180,134015,2,0,P|44:215|58:247,1,71.2500027179719,2|8,0:0|0:0,0:0:0:0:
196,200,134288,2,0,L|124:196,1,71.2500027179719,2|8,0:0|0:0,0:0:0:0:
0,104,134560,1,2,0:0:0:0:
0,104,134697,2,0,L|71:100,1,71.2500027179719,10|0,0:0|0:0,0:0:0:0:
178,13,134969,2,0,P|153:37|144:72,1,71.2500027179719,10|0,0:0|0:0,0:0:0:0:
196,200,135242,1,10,0:0:0:0:
294,81,135379,2,0,P|260:71|225:81,1,71.2500027179719,2|8,0:0|0:0,0:0:0:0:
312,196,135651,6,0,L|383:192,1,71.2500027179719,2|8,0:0|0:0,0:0:0:0:
252,244,135924,2,0,L|180:240,1,71.2500027179719,2|8,0:0|0:0,0:0:0:0:
310,343,136197,2,0,P|325:311|324:276,1,71.2500027179719,2|8,0:0|0:0,0:0:0:0:
240,168,136469,1,2,0:0:0:0:
300,116,136606,2,0,L|371:112,1,71.2500027179719,10|0,0:0|0:0,0:0:0:0:
224,84,136879,6,0,B|88:96|88:96|40:104|20:64|56:28|112:32|116:116|92:152|92:152|68:192|89:241,1,427.500016307831,10|8,0:0|0:0,0:0:0:0:
52,308,137833,1,10,0:0:0:0:
52,308,137969,1,2,0:0:0:0:
124,340,138106,2,0,B|144:328|144:328|200:336,1,71.2500027179719,2|10,0:0|0:0,0:0:0:0:
268,348,138379,2,0,B|315:354|315:354|335:342,1,71.2500027179719,10|2,0:0|0:0,0:0:0:0:
392,288,138651,1,2,0:0:0:0:
392,288,138788,1,10,0:0:0:0:
328,240,138924,6,0,P|315:207|319:172,1,71.2500027179719,12|0,0:0|0:0,0:0:0:0:
468,184,139197,2,0,L|388:196,1,71.2500027179719,2|8,0:0|0:0,0:0:0:0:
296,88,139469,2,0,L|366:98,1,71.2500027179719,0|8,0:0|0:0,0:0:0:0:
228,132,139742,2,0,P|215:99|219:64,1,71.2500027179719,10|0,0:0|0:0,0:0:0:0:
200,204,140015,2,0,B|159:183|159:183|63:204,1,142.500005435944,14|2,0:0|0:0,0:0:0:0:
112,364,140424,2,0,B|128:384|128:384|152:260,1,142.500005435944,14|0,0:0|0:0,0:0:0:0:
0,268,140833,2,0,P|28:288|63:294,1,71.2500027179719,10|0,0:0|0:0,0:0:0:0:
200,204,141106,6,0,L|283:209,1,71.2500027179719,10|0,0:0|0:0,0:0:0:0:
420,188,141379,2,0,L|348:183,1,71.2500027179719,2|12,0:0|0:0,0:0:0:0:
304,60,141651,2,0,P|288:91|291:127,1,71.2500027179719,0|0,0:0|0:0,0:0:0:0:
332,263,141924,1,14,0:0:0:0:
370,108,142060,1,0,0:0:0:0:
200,204,142197,5,10,0:0:0:0:
200,204,142333,2,0,L|116:208,1,71.2500027179719,8|0,0:0|0:0,0:0:0:0:
152,348,142606,1,8,0:0:0:0:
152,348,142742,1,8,0:0:0:0:
151,348,142879,2,0,P|169:317|171:282,1,71.2500027179719,8|0,0:0|0:0,0:0:0:0:
20,272,143151,2,0,L|96:288,1,71.2500027179719,8|0,0:0|0:0,0:0:0:0:
152,128,143424,2,0,L|76:144,1,71.2500027179719,8|0,0:0|0:0,0:0:0:0:
216,204,143697,2,0,L|368:208,1,142.500005435944,8|8,0:0|0:0,0:0:0:0:
500,100,144106,2,0,P|460:132|452:168,1,71.2500027179719,8|8,0:0|0:0,0:0:0:0:
352,308,144379,6,0,B|362:369|433:383|487:360|508:309|502:240|447:224|403:224|403:224|145:224,1,570.000021743775,10|8,0:0|0:0,0:0:0:0:
23,332,145606,2,0,B|43:375|43:375|71:249,1,142.500005435944,8|8,0:0|0:0,0:0:0:0:
86,97,146015,2,0,B|69:95|55:110|67:133|101:121|101:121|137:107|175:119,1,142.500005435944,8|8,0:0|0:0,0:0:0:0:
241,183,146424,1,8,0:0:0:0:
320,41,146560,6,0,B|340:72|325:117|325:117|308:160|344:192|388:184|397:144,1,213.750008153916,6|8,0:0|0:0,0:0:0:0:
249,85,147106,2,0,P|236:52|239:16,1,71.2500027179719,0|8,0:0|0:0,0:0:0:0:
396,24,147378,2,0,L|436:8,2,35.625001358986,0|0|8,0:0|0:0|0:0,0:0:0:0:
304,152,147651,2,0,L|306:224,1,71.2500027179719,0|10,0:0|0:0,0:0:0:0:
412,340,147924,1,0,0:0:0:0:
412,340,148060,1,10,0:0:0:0:
348,292,148196,2,0,P|333:325|333:360,1,71.2500027179719,2|8,0:0|0:0,0:0:0:0:
492,356,148469,2,0,P|492:321|477:289,1,71.2500027179719,2|8,0:0|0:0,0:0:0:0:
364,176,148742,6,0,B|344:204|352:236|424:244|432:192|432:132|392:88,1,213.750008153916,2|8,0:0|0:0,0:0:0:0:
240,80,149287,2,0,P|272:95|312:93,1,71.2500027179719,0|8,0:0|0:0,0:0:0:0:
460,37,149560,1,0,0:0:0:0:
460,37,149629,1,0,0:0:0:0:
460,37,149697,1,8,0:0:0:0:
504,192,149833,1,0,0:0:0:0:
436,157,149969,2,0,P|400:153|367:165,1,71.2500027179719,10|0,0:0|0:0,0:0:0:0:
260,280,150242,2,0,P|293:292|328:289,1,71.2500027179719,10|2,0:0|0:0,0:0:0:0:
304,212,150515,1,8,0:0:0:0:
184,312,150651,2,0,P|168:344|170:380,1,71.2500027179719,2|10,0:0|0:0,0:0:0:0:
80,248,150924,6,0,B|76:188|76:188|96:164|96:164|88:96|88:96|124:136,1,213.750008153916,4|8,0:0|0:0,0:0:0:0:
212,32,151469,2,0,P|179:22|144:28,1,71.2500027179719,0|8,0:0|0:0,0:0:0:0:
8,108,151742,2,0,L|4:168,2,35.625001358986,0|0|8,0:0|0:0|0:0,0:0:0:0:
80,248,152015,2,0,P|57:266|56:237,1,71.2500027179719,0|8,0:0|0:0,0:0:0:0:
216,172,152287,1,2,0:0:0:0:
293,192,152424,2,0,P|250:246|182:240,1,142.500005435944,10|8,0:0|0:0,0:0:0:0:
272,113,152833,6,0,P|308:110|340:125,1,71.2500027179719,2|8,0:0|0:0,0:0:0:0:
480,196,153106,2,0,P|445:199|413:184,1,71.2500027179719,2|8,0:0|0:0,0:0:0:0:
348,40,153379,1,0,0:0:0:0:
348,40,153447,1,0,0:0:0:0:
348,40,153515,1,8,0:0:0:0:
293,192,153651,2,0,L|297:276,1,71.2500027179719,0|8,0:0|0:0,0:0:0:0:
448,312,153924,2,0,P|421:290|386:289,1,71.2500027179719,0|8,0:0|0:0,0:0:0:0:
224,340,154197,5,10,0:0:0:0:
148,200,154333,1,8,0:0:0:0:
148,200,154401,1,0,0:0:0:0:
148,200,154469,2,0,L|144:284,1,71.2500027179719,10|8,0:0|0:0,0:0:0:0:
108,84,154742,2,0,L|80:48,2,35.625001358986,10|8|10,0:0|0:0|0:0,0:0:0:0:
292,196,155015,2,0,B|334:203|334:203|358:191|358:191|414:199,1,106.875004076958,2|0,0:0|0:0,0:0:0:0:
472,180,155288,6,0,B|480:108|480:108|484:64|444:48|392:56|408:120,1,213.750008153916,6|8,0:0|0:0,0:0:0:0:
440,268,155833,2,0,P|480:272|528:256,1,71.2500027179719,0|8,0:0|0:0,0:0:0:0:
372,336,156106,2,0,L|364:372,2,35.625001358986,0|0|8,0:0|0:0|0:0,0:0:0:0:
252,232,156379,2,0,L|260:148,1,71.2500027179719,0|10,0:0|0:0,0:0:0:0:
284,316,156651,1,2,0:0:0:0:
284,316,156788,1,8,0:0:0:0:
216,356,156924,2,0,B|192:360|192:360|136:348,1,71.2500027179719,2|8,0:0|0:0,0:0:0:0:
252,232,157197,2,0,B|276:228|276:228|332:240,1,71.2500027179719,2|10,0:0|0:0,0:0:0:0:
196,144,157470,6,0,B|40:152|40:152|84:115,1,213.750008153916,4|8,0:0|0:0,0:0:0:0:
236,76,158015,2,0,P|262:101|273:134,1,71.2500027179719,0|8,0:0|0:0,0:0:0:0:
196,272,158288,1,0,0:0:0:0:
196,272,158356,1,0,0:0:0:0:
196,272,158424,1,8,0:0:0:0:
340,208,158560,1,0,0:0:0:0:
292,268,158697,2,0,L|284:348,2,71.2500027179719,10|2|8,0:0|0:0|0:0,0:0:0:0:
380,136,159106,2,0,P|408:160|420:208,1,71.2500027179719,2|8,0:0|0:0,0:0:0:0:
288,104,159379,2,0,P|301:72|328:49,1,71.2500027179719,2|10,0:0|0:0,0:0:0:0:
212,152,159651,6,0,L|56:144,1,142.500005435944,6|0,0:0|0:0,0:0:0:0:
76,300,160060,2,0,B|88:332|88:332|144:220,1,142.500005435944,10|8,0:0|0:0,0:0:0:0:
129,77,160470,2,0,P|98:59|63:55,1,71.2500027179719,2|8,0:0|0:0,0:0:0:0:
212,16,160742,6,0,L|216:180,1,142.500005435944,2|0,0:0|0:0,0:0:0:0:
364,112,161151,2,0,P|356:68|304:116,1,142.500005435944,10|8,0:0|0:0,0:0:0:0:
432,192,161560,2,0,P|468:195|501:183,1,71.2500027179719,2|8,0:0|0:0,0:0:0:0:
352,276,161833,6,0,L|360:352,1,71.2500027179719,2|8,0:0|0:0,0:0:0:0:
368,384,162038,1,8,0:0:0:0:
368,384,162106,2,0,P|333:376|298:381,1,71.2500027179719,8|10,0:0|3:0,0:0:0:0:
440,276,162379,1,8,0:0:0:0:
260,224,162515,2,0,L|268:300,1,71.2500027179719,8|10,0:0|0:0,0:0:0:0:
120,208,162788,5,0,0:0:0:0:
120,208,162856,1,0,0:0:0:0:
120,208,162924,2,0,L|128:120,1,71.2500027179719,10|8,0:0|0:0,0:0:0:0:
132,60,163197,1,8,0:0:0:0:
204,216,163333,1,10,0:0:0:0:
48,148,163469,2,0,L|0:156,2,35.625001358986,10|8|8,3:3|3:3|3:0,0:0:0:0:
239,64,163742,2,0,P|275:64|306:81,1,71.2500027179719,10|8,3:3|3:3,0:0:0:0:
444,184,164015,6,0,L|292:192,1,142.500005435944,6|0,0:0|0:0,0:0:0:0:
224,196,164424,1,8,0:0:0:0:
248,330,164560,2,0,P|263:298|263:262,1,71.2500027179719,2|8,0:0|0:0,0:0:0:0:
144,180,164833,2,0,P|143:215|159:247,1,71.2500027179719,0|8,0:0|0:0,0:0:0:0:
340,312,165106,6,0,B|372:296|372:296|508:304,1,142.500005435944,2|0,0:0|0:0,0:0:0:0:
448,376,165515,1,8,0:0:0:0:
364,224,165651,2,0,P|361:188|380:152,1,71.2500027179719,2|8,0:0|0:0,0:0:0:0:
264,292,165924,2,0,P|261:327|280:364,1,71.2500027179719,2|8,0:0|0:0,0:0:0:0:
120,228,166197,6,0,B|96:208|96:208|216:212,1,142.500005435944,6|0,0:0|0:0,0:0:0:0:
368,136,166606,2,0,B|392:156|392:156|272:152,1,142.500005435944,10|8,0:0|0:0,0:0:0:0:
212,52,167015,2,0,P|194:82|195:117,1,71.2500027179719,2|8,0:0|0:0,0:0:0:0:
320,232,167288,6,0,L|403:229,1,71.2500027179719,2|8,0:0|0:0,0:0:0:0:
250,288,167560,2,0,L|167:285,1,71.2500027179719,2|8,0:0|0:0,0:0:0:0:
335,324,167833,2,0,L|418:321,1,71.2500027179719,8|0,0:0|0:0,0:0:0:0:
265,380,168105,2,0,L|182:377,1,71.2500027179719,2|8,0:0|0:0,0:0:0:0:
74,207,168379,6,0,B|130:217|130:217|154:205|154:205|212:215,1,142.500005435944,6|0,0:0|0:0,0:0:0:0:
178,285,168788,1,8,0:0:0:0:
118,141,168924,2,0,P|113:105|126:69,1,71.2500027179719,2|0,0:0|0:0,0:0:0:0:
2,172,169197,2,0,P|-7:207|0:242,1,71.2500027179719,0|8,0:0|0:0,0:0:0:0:
128,352,169469,6,0,B|172:368|172:368|284:340,1,142.500005435944,2|0,0:0|0:0,0:0:0:0:
340,324,169879,1,8,0:0:0:0:
307,202,170015,2,0,P|290:232|288:268,1,71.2500027179719,2|8,0:0|0:0,0:0:0:0:
424,336,170288,2,0,P|421:300|404:270,1,71.2500027179719,2|8,0:0|0:0,0:0:0:0:
228,180,170560,6,0,L|72:172,1,142.500005435944,6|2,0:0|0:0,0:0:0:0:
304,124,170969,2,0,L|446:116,1,142.500005435944,10|8,0:0|0:0,0:0:0:0:
236,24,171379,2,0,P|218:54|219:92,1,71.2500027179719,2|8,0:0|0:0,0:0:0:0:
316,224,171651,6,0,L|320:295,1,71.2500027179719,2|8,0:0|0:0,0:0:0:0:
358,96,171924,2,0,L|362:25,1,71.2500027179719,2|8,0:0|0:0,0:0:0:0:
404,204,172197,2,0,L|408:275,1,71.2500027179719,2|8,0:0|0:0,0:0:0:0:
446,116,172470,2,0,L|450:45,1,71.2500027179719,2|8,0:0|0:0,0:0:0:0:
316,184,172742,6,0,B|237:180|237:180|189:216|189:216|114:211,1,213.750008153916,6|8,0:0|0:0,0:0:0:0:
7,112,173287,2,0,B|19:76|63:80|79:120|45:158|45:158|15:192|30:240,1,213.750008153916,2|8,0:0|0:0,0:0:0:0:
120,356,173833,2,0,B|160:379|208:347|208:347|260:312|314:351|314:351|377:400|492:404|536:308|536:196|456:148|336:132|296:244,1,712.500027179719,2|0,0:0|0:0,0:0:0:0:
256,156,175333,5,8,0:0:0:0:
256,156,175469,2,0,P|224:171|188:170,1,71.2500027179719,0|8,0:0|0:0,0:0:0:0:
140,72,175742,2,0,P|175:71|207:86,1,71.2500027179719,0|8,0:0|0:0,0:0:0:0:
308,220,176015,2,0,L|301:259,3,35.625001358986,8|8|8|8,3:0|3:0|3:0|3:0,0:0:0:0:
400,166,176288,1,8,3:0:0:0:
402,176,176356,1,8,3:0:0:0:
404,186,176424,1,8,3:0:0:0:
406,197,176492,1,8,3:0:0:0:
408,208,176560,2,0,L|480:220,1,71.2500027179719,10|8,0:0|0:0,0:0:0:0:
277,75,176833,2,0,L|205:87,1,71.2500027179719,10|8,0:0|0:0,0:0:0:0:
1,221,177106,6,0,B|-4:250|28:282|28:282|56:140,1,213.750008153916,6|8,0:0|0:0,0:0:0:0:
120,300,177652,2,0,B|167:331|211:303|211:303|227:315|227:315|271:283|324:308,1,213.750008153916,2|0,0:0|0:0,0:0:0:0:
187,174,178197,2,0,B|167:234|167:234|131:6|131:6|113:65,1,356.25001358986,2|8,0:0|0:0,0:0:0:0:
27,85,179015,2,0,P|40:117|67:141,1,71.2500027179719,0|8,0:0|0:0,0:0:0:0:
264,60,179288,6,0,L|283:15,3,35.625001358986,4|8|8|8,0:0|0:0|0:0|0:0,0:0:0:0:
352,73,179561,2,0,L|390:44,3,35.625001358986,8|0|8|8,0:0|0:0|3:0|0:0,0:0:0:0:
421,130,179834,2,0,L|468:124,3,35.625001358986,8|0|0|0,0:0|0:0|0:0|0:0,0:0:0:0:
453,213,180107,2,0,L|497:232,3,35.625001358986,8|0|0|0,3:0|0:0|0:0|0:0,0:0:0:0:
439,301,180379,2,0,L|467:339,3,35.625001358986,12|0|0|8,0:0|0:0|0:0|0:0,0:0:0:0:
368,368,180652,5,10,0:0:0:0:
368,368,180788,1,8,0:0:0:0:
376,244,180925,2,0,L|380:155,1,71.2500027179719,10|8,0:0|0:0,0:0:0:0:
304,311,181197,2,0,P|285:341|284:380,1,71.2500027179719,10|8,3:0|3:0,0:0:0:0:
167,234,181469,6,0,L|241:220,1,71.2500027179719,6|0,0:0|0:0,0:0:0:0:
120,300,181742,1,2,0:0:0:0:
54,177,181879,2,0,L|67:102,1,71.2500027179719,10|0,0:0|0:0,0:0:0:0:
159,0,182151,2,0,L|171:70,1,71.2500027179719,10|0,0:0|0:0,0:0:0:0:
237,221,182424,1,10,0:0:0:0:
352,73,182560,6,0,L|364:2,1,71.2500027179719,2|8,0:0|0:0,0:0:0:0:
437,124,182833,2,0,L|449:194,1,71.2500027179719,2|8,0:0|0:0,0:0:0:0:
304,311,183106,2,0,B|368:289|368:289|522:316,1,213.750008153916,2|8,0:0|0:0,0:0:0:0:
449,194,183651,6,0,B|424:184|424:184|364:193,1,71.2500027179719,4|0,0:0|0:0,0:0:0:0:
237,221,183924,1,2,0:0:0:0:
304,311,184060,2,0,B|279:320|279:320|219:311,1,71.2500027179719,10|0,0:0|0:0,0:0:0:0:
170,131,184333,2,0,B|194:121|194:121|254:130,1,71.2500027179719,10|0,0:0|0:0,0:0:0:0:
120,300,184606,1,10,0:0:0:0:
54,177,184742,6,0,L|67:102,1,71.2500027179719,2|0,0:0|0:0,0:0:0:0:
159,0,185015,1,10,0:0:0:0:
159,0,185083,1,8,0:0:0:0:
159,0,185151,2,0,L|169:59,1,35.625001358986,8|8,0:0|0:0,0:0:0:0:
239,128,185288,2,0,B|225:213|225:213|239:248|239:248|227:336,1,213.750008153916,10|8,3:0|0:0,0:0:0:0:
388,215,185833,6,0,L|317:202,1,71.2500027179719,4|0,0:0|0:0,0:0:0:0:
239,128,186106,1,2,0:0:0:0:
364,2,186242,2,0,L|293:14,1,71.2500027179719,10|0,0:0|0:0,0:0:0:0:
168,115,186515,2,0,L|238:127,1,71.2500027179719,10|0,0:0|0:0,0:0:0:0:
26,8,186788,1,10,0:0:0:0:
76,124,186924,5,2,0:0:0:0:
4,234,187060,1,10,0:0:0:0:
54,350,187197,2,0,B|78:359|78:359|138:350,1,71.2500027179719,2|8,0:0|0:0,0:0:0:0:
228,214,187469,2,0,P|212:255|288:211,1,213.750008153916,2|8,0:0|0:0,0:0:0:0:
368,370,188015,5,8,0:0:0:0:
368,370,188083,1,8,0:0:0:0:
368,370,188151,1,8,0:0:0:0:
446,283,188288,1,2,0:0:0:0:
309,193,188424,2,0,L|302:232,3,35.625001358986,10|8|8|8,3:0|3:0|3:0|3:0,0:0:0:0:
376,128,188697,2,0,L|369:92,3,35.625001358986,10|8|8|8,3:0|3:0|3:0|3:0,0:0:0:0:
302,27,188969,2,0,L|308:-7,1,35.625001358986,10|8,3:0|3:0,0:0:0:0:
204,120,189106,5,10,0:0:0:0:
204,120,189174,1,8,0:0:0:0:
204,120,189242,1,8,0:0:0:0:
204,120,189310,1,8,0:0:0:0:
204,120,189379,2,0,L|239:126,3,35.625001358986,10|8|8|8,3:0|3:0|3:0|3:0,0:0:0:0:
97,28,189651,2,0,L|110:102,1,71.2500027179719,10|2,3:0|3:0,0:0:0:0:
25,245,189924,2,0,L|37:174,1,71.2500027179719,10|10,3:0|3:0,0:0:0:0:
231,311,190197,5,14,0:0:0:0:
0,384,190333,1,14,0:0:0:0:
