osu file format v14

[General]
AudioFilename: audio.mp3
AudioLeadIn: 0
PreviewTime: 35254
Countdown: 0
SampleSet: Soft
StackLeniency: 0.7
Mode: 0
LetterboxInBreaks: 0
WidescreenStoryboard: 0

[Editor]
Bookmarks: 17788,52697,59288,61424,96334,146515,149356,181424
DistanceSpacing: 2
BeatDivisor: 4
GridSize: 8
TimelineZoom: 2.1

[Metadata]
Title:Ring of Fire
TitleUnicode:Ring of Fire
Artist:DragonForce
ArtistUnicode:DragonForce
Creator:MashaSG
Version:Extra
Source:
Tags:legend insane dragon force stream deathstream herman li speedmetal speed metal Maximum Overload marathon power powermetal cover Johnny Cash Danii emu1337 Akitoshi SnowNiNo_ Kawashiro sdafsf
BeatmapID:1518059
BeatmapSetID:717015

[Difficulty]
HPDrainRate:6
CircleSize:4
OverallDifficulty:8
ApproachRate:9
SliderMultiplier:2.2
SliderTickRate:1

[Events]
//Background and Video events
0,0,"bg5 (1).jpg",0,0
//Break Periods
//Storyboard Layer 0 (Background)
//Storyboard Layer 1 (Fail)
//Storyboard Layer 2 (Pass)
//Storyboard Layer 3 (Foreground)
//Storyboard Sound Samples

[TimingPoints]
379,272.727272727273,4,2,1,70,1,0
4742,-500,4,2,1,70,0,0
6515,-500,4,2,1,5,0,0
6651,-500,4,2,1,70,0,0
6924,-200,4,2,1,70,0,0
7197,-200,4,2,1,5,0,0
7231,-200,4,2,1,30,0,0
7469,-200,4,2,1,70,0,0
7742,-200,4,2,1,5,0,0
7776,-200,4,2,1,30,0,0
8015,-111.111111111111,4,2,1,70,0,0
9310,-111.111111111111,4,2,1,5,0,0
9379,-111.111111111111,4,2,1,70,0,0
11219,-111.111111111111,4,2,1,5,0,0
11288,-111.111111111111,4,2,1,70,0,0
13674,-111.111111111111,4,2,1,5,0,0
13742,-111.111111111111,4,2,1,70,0,0
17833,-125,4,2,1,60,0,0
21242,-111.111111111111,4,2,1,60,0,0
22197,-125,4,2,1,60,0,0
27788,-111.111111111111,4,2,1,60,0,0
28742,-125,4,2,1,60,0,0
29969,-111.111111111111,4,2,1,60,0,0
30924,-125,4,2,1,60,0,0
33106,-111.111111111111,4,2,1,60,0,0
35288,-111.111111111111,4,2,1,70,0,1
43469,-125,4,2,1,70,0,1
44560,-111.111111111111,4,2,1,70,0,1
45106,-100,4,2,1,70,0,1
46742,-111.111111111111,4,2,1,70,0,1
48924,-100,4,2,1,70,0,1
49469,-90.9090909090909,4,2,1,70,0,1
50288,-100,4,2,1,70,0,1
52742,-111.111111111111,4,2,1,70,0,0
52947,-111.111111111111,4,2,1,5,0,0
53015,-111.111111111111,4,2,1,70,0,0
54856,-100,4,2,1,5,0,0
54924,-100,4,2,1,70,0,0
56560,-133.333333333333,4,2,1,70,0,0
56833,-111.111111111111,4,2,1,70,0,0
57310,-111.111111111111,4,2,1,5,0,0
57379,-111.111111111111,4,2,1,70,0,0
59219,-111.111111111111,4,2,1,5,0,0
59288,-111.111111111111,4,2,1,70,0,0
61469,-125,4,2,1,60,0,0
64879,-111.111111111111,4,2,1,60,0,0
65833,-125,4,2,1,60,0,0
71424,-111.111111111111,4,2,1,60,0,0
72379,-125,4,2,1,60,0,0
73606,-111.111111111111,4,2,1,60,0,0
74560,-125,4,2,1,60,0,0
76742,-111.111111111111,4,2,1,60,0,0
78924,-111.111111111111,4,2,1,70,0,1
87106,-125,4,2,1,70,0,1
88197,-111.111111111111,4,2,1,70,0,1
88742,-100,4,2,1,70,0,1
90379,-111.111111111111,4,2,1,70,0,1
92560,-100,4,2,1,70,0,1
93106,-90.9090909090909,4,2,1,70,0,1
93924,-100,4,2,1,70,0,1
96379,-200,4,2,1,70,0,0
101015,-200,4,2,1,30,0,0
102924,-166.666666666667,4,2,1,70,0,0
103469,-125,4,2,1,70,0,0
105106,-100,4,2,1,70,0,1
112742,-90.9090909090908,4,2,1,70,0,1
113833,-100,4,2,1,70,0,1
114924,-100,4,2,1,70,0,1
122560,-90.9090909090909,4,2,1,70,0,0
123106,-100,4,2,1,70,0,0
123174,-100,4,2,1,5,0,0
123242,-100,4,2,1,70,0,0
123310,-100,4,2,1,5,0,0
123379,-100,4,2,1,70,0,0
123583,-100,4,2,1,5,0,0
123651,-100,4,2,1,70,0,0
146560,-125,4,2,1,60,0,0
149969,-111.111111111111,4,2,1,60,0,0
150924,-125,4,2,1,60,0,0
156515,-111.111111111111,4,2,1,60,0,0
157469,-125,4,2,1,60,0,0
158697,-111.111111111111,4,2,1,60,0,0
159651,-125,4,2,1,60,0,0
161833,-111.111111111111,4,2,1,60,0,0
164015,-111.111111111111,4,2,1,70,0,1
172197,-125,4,2,1,70,0,1
173288,-111.111111111111,4,2,1,70,0,1
173833,-100,4,2,1,70,0,1
175469,-111.111111111111,4,2,1,70,0,1
177651,-100,4,2,1,70,0,1
178197,-90.9090909090909,4,2,1,70,0,1
179015,-100,4,2,1,70,0,1
180379,-100,4,2,1,70,0,1
181469,-111.111111111111,4,2,1,70,0,0
181674,-111.111111111111,4,2,1,5,0,0
181742,-111.111111111111,4,2,1,70,0,0
183583,-111.111111111111,4,2,1,5,0,0
183651,-111.111111111111,4,2,1,70,0,0
186038,-111.111111111111,4,2,1,5,0,0
186106,-111.111111111111,4,2,1,70,0,0

[Colours]
Combo1 : 164,28,28
Combo2 : 255,0,128
Combo3 : 255,0,0
Combo4 : 255,128,64

[HitObjects]
332,249,379,21,6,0:0:0:0:
332,249,2288,21,6,0:0:0:0:
268,81,2424,1,6,0:0:0:0:
196,301,2560,1,6,0:0:0:0:
332,249,4742,5,6,0:0:0:0:
256,192,4810,12,0,6515,0:0:0:0:
62,137,6651,5,10,0:0:0:0:
124,299,6787,1,10,0:0:0:0:
179,120,6924,6,0,B|226:149|226:149|342:135,1,165,6|0,0:0|0:0,0:0:0:0:
448,51,7469,2,0,P|423:135|481:200,1,165,6|0,0:0|0:0,0:0:0:0:
510,115,8015,5,2,0:0:0:0:
343,53,8151,1,2,0:0:0:0:
375,252,8560,5,2,0:0:0:0:
448,51,8696,1,2,0:0:0:0:
176,355,9106,6,0,B|171:305|171:305|151:258|151:258|147:211,1,148.49999546814,4|0,0:0|0:0,0:0:0:0:
145,181,9379,1,2,0:0:0:0:
93,320,9515,2,0,P|47:338|0:328,1,98.9999969787599,10|0,0:0|0:0,0:0:0:0:
230,246,9788,2,0,P|275:227|322:237,1,98.9999969787599,10|0,0:0|0:0,0:0:0:0:
371,346,10060,1,10,0:0:0:0:
476,213,10197,2,0,P|429:227|400:266,1,98.9999969787599,2|8,0:0|0:0,0:0:0:0:
296,126,10469,2,0,P|342:140|371:179,1,98.9999969787599,2|8,0:0|0:0,0:0:0:0:
481,33,10742,2,0,B|398:113|303:39|303:39|277:57|277:57|216:22|157:62,1,346.49998942566,2|0,0:0|0:0,0:0:0:0:
143,76,11288,1,4,0:0:0:0:
81,321,11560,5,2,0:0:0:0:
81,321,11697,2,0,P|126:302|173:313,1,98.9999969787599,10|0,0:0|0:0,0:0:0:0:
380,298,11969,2,0,P|339:324|290:322,1,98.9999969787599,10|0,0:0|0:0,0:0:0:0:
239,207,12242,1,10,0:0:0:0:
394,216,12379,2,0,P|437:238|460:281,1,98.9999969787599,2|8,0:0|0:0,0:0:0:0:
316,245,12651,2,0,P|313:196|339:155,1,98.9999969787599,2|8,0:0|0:0,0:0:0:0:
490,73,12924,5,10,0:0:0:0:
475,86,12992,1,8,0:0:0:0:
458,96,13060,1,8,0:0:0:0:
440,102,13128,1,8,0:0:0:0:
420,104,13196,1,8,3:0:0:0:
400,100,13264,1,8,3:0:0:0:
382,93,13333,1,8,3:0:0:0:
367,81,13401,1,8,3:0:0:0:
354,66,13469,6,0,P|288:36|223:67,1,148.49999546814,4|0,0:0|0:0,0:0:0:0:
208,93,13742,1,2,0:0:0:0:
52,23,13879,2,0,P|100:22|141:47,1,98.9999969787599,10|0,0:0|0:0,0:0:0:0:
162,218,14151,2,0,P|136:176|138:128,1,98.9999969787599,10|0,0:0|0:0,0:0:0:0:
247,178,14424,5,10,0:0:0:0:
202,303,14560,1,2,0:0:0:0:
162,218,14697,1,10,0:0:0:0:
287,263,14833,2,0,P|335:264|377:239,1,98.9999969787599,0|8,0:0|0:0,0:0:0:0:
490,89,15106,6,0,B|415:162|490:246|490:246|476:269|476:269|499:299|500:342|471:378,1,296.99999093628,2|8,0:0|0:0,0:0:0:0:
364,340,15651,5,8,0:0:0:0:
386,329,15720,1,8,0:0:0:0:
409,319,15788,1,8,3:0:0:0:
287,263,15924,1,10,0:0:0:0:
277,286,15992,1,8,0:0:0:0:
270,309,16060,6,0,L|252:359,3,49.4999984893799,10|8|8|0,0:0|0:0|3:0|3:0,0:0:0:0:
147,340,16333,2,0,L|169:388,3,49.4999984893799,10|8|8|0,0:0|0:0|3:0|3:0,0:0:0:0:
57,246,16606,2,0,L|107:264,1,49.4999984893799,10|8,0:0|0:0,0:0:0:0:
247,178,16742,6,0,L|197:196,3,49.4999984893799,10|8|8|8,0:0|0:0|3:0|3:0,0:0:0:0:
57,106,17015,2,0,L|107:124,3,49.4999984893799,10|8|8|8,0:0|0:0|3:0|3:0,0:0:0:0:
206,19,17288,5,10,0:0:0:0:
215,51,17356,1,8,0:0:0:0:
235,79,17424,1,10,0:0:0:0:
263,98,17492,1,8,0:0:0:0:
296,108,17560,1,10,3:0:0:0:
330,106,17628,1,8,3:0:0:0:
362,93,17697,1,8,3:0:0:0:
387,69,17765,1,8,3:0:0:0:
404,40,17833,6,0,P|379:107|435:205,1,176,6|0,0:0|0:0,0:0:0:0:
345,314,18242,2,0,L|472:302,1,88,8|0,0:0|0:0,0:0:0:0:
275,257,18515,1,8,0:0:0:0:
187,357,18651,1,0,0:0:0:0:
187,357,18719,1,0,0:0:0:0:
187,357,18788,2,0,L|275:366,1,88,8|0,0:0|0:0,0:0:0:0:
87,320,19060,6,0,L|-1:329,1,88,10|0,0:0|0:0,0:0:0:0:
166,246,19333,1,10,0:0:0:0:
13,174,19469,2,0,P|56:180|91:206,1,88,2|8,0:0|0:0,0:0:0:0:
237,115,19742,2,0,P|201:140|158:146,1,88,2|8,0:0|0:0,0:0:0:0:
243,287,20015,6,0,P|318:243|405:276,1,176,2|0,0:0|0:0,0:0:0:0:
402,276,20356,1,0,0:0:0:0:
407,282,20424,1,8,0:0:0:0:
328,344,20560,1,0,0:0:0:0:
329,209,20697,2,0,P|364:183|407:177,1,88,8|0,0:0|0:0,0:0:0:0:
416,179,20901,1,0,0:0:0:0:
424,181,20969,1,8,0:0:0:0:
323,86,21106,1,0,0:0:0:0:
206,215,21242,6,0,L|195:99,1,98.9999969787599,10|0,0:0|0:0,0:0:0:0:
120,272,21515,1,10,0:0:0:0:
108,158,21651,2,0,L|116:59,1,98.9999969787599,2|8,0:0|0:0,0:0:0:0:
27,215,21924,2,0,L|18:116,1,98.9999969787599,2|10,0:0|0:0,0:0:0:0:
24,324,22197,6,0,P|138:324|169:369,1,176,4|0,0:0|0:0,0:0:0:0:
353,335,22605,2,0,P|309:329|269:344,1,88,8|0,0:0|0:0,0:0:0:0:
422,259,22879,1,8,0:0:0:0:
453,357,23015,1,0,0:0:0:0:
453,357,23083,1,0,0:0:0:0:
453,357,23151,2,0,P|497:363|538:347,1,88,8|0,0:0|0:0,0:0:0:0:
512,163,23424,6,0,B|503:250,1,88,8|2,0:0|0:0,0:0:0:0:
512,64,23697,2,0,B|458:85|458:85|315:72,1,176,10|8,0:0|0:0,0:0:0:0:
169,196,24106,2,0,B|290:184,1,88,2|8,0:0|0:0,0:0:0:0:
85,107,24379,6,0,P|48:185|71:268,1,176,2|0,0:0|0:0,0:0:0:0:
76,274,24719,1,0,0:0:0:0:
81,281,24788,1,8,0:0:0:0:
225,356,24924,1,0,0:0:0:0:
168,211,25060,1,8,0:0:0:0:
295,283,25197,2,0,P|335:298|379:292,1,88,0|8,0:0|0:0,0:0:0:0:
169,196,25469,6,0,L|178:88,1,88,6|10,0:0|0:0,0:0:0:0:
276,20,25742,1,10,0:0:0:0:
277,33,25810,1,8,0:0:0:0:
278,46,25878,1,8,0:0:0:0:
279,59,25946,1,8,0:0:0:0:
280,72,26015,2,0,L|354:65,3,44,6|0|10|8,0:0|0:0|0:0|0:0,0:0:0:0:
413,137,26288,2,0,L|369:132,3,44,10|8|8|8,0:0|0:0|0:0|0:0,0:0:0:0:
280,198,26560,6,0,B|284:253|284:253|313:307|313:307|320:383,1,176,4|0,0:0|0:0,0:0:0:0:
364,229,26969,1,8,0:0:0:0:
234,335,27106,2,0,P|190:341|149:326,1,88,0|8,0:0|0:0,0:0:0:0:
0,263,27379,2,0,P|40:247|84:254,1,88,0|8,0:0|0:0,0:0:0:0:
228,189,27651,1,0,0:0:0:0:
149,326,27788,5,10,0:0:0:0:
132,169,27924,2,0,L|142:45,1,98.9999969787599,2|8,0:0|0:0,0:0:0:0:
321,185,28197,2,0,P|280:200|214:180,1,98.9999969787599,2|8,0:0|0:0,0:0:0:0:
410,130,28469,2,0,P|457:118|503:134,1,98.9999969787599,2|10,0:0|0:0,0:0:0:0:
420,301,28742,6,0,B|399:247|399:247|412:104,1,176,4|0,0:0|0:0,0:0:0:0:
411,120,29083,1,0,0:0:0:0:
412,111,29151,1,8,0:0:0:0:
321,184,29288,2,0,B|309:58,1,88,0|8,0:0|0:0,0:0:0:0:
254,252,29560,2,0,P|290:275|334:279,1,88,0|8,0:0|0:0,0:0:0:0:
228,159,29833,1,0,0:0:0:0:
161,278,29969,5,10,0:0:0:0:
36,194,30106,2,0,B|134:184,1,98.9999969787599,2|8,0:0|0:0,0:0:0:0:
259,287,30379,2,0,B|160:277,1,98.9999969787599,2|8,0:0|0:0,0:0:0:0:
342,228,30651,2,0,P|360:267|346:335,1,98.9999969787599,2|10,0:0|0:0,0:0:0:0:
312,148,30924,6,0,P|385:197|494:155,1,176,6|0,0:0|0:0,0:0:0:0:
308,37,31333,2,0,P|229:75|210:191,1,176,10|8,0:0|0:0,0:0:0:0:
406,89,31742,2,0,P|419:35|412:-2,1,88,2|8,0:0|0:0,0:0:0:0:
312,148,32015,6,0,P|382:196|466:180,1,176,2|0,0:0|0:0,0:0:0:0:
354,321,32424,2,0,P|269:304|199:353,1,176,10|8,0:0|0:0,0:0:0:0:
52,260,32833,2,0,P|103:263|149:294,1,88,2|8,0:0|0:0,0:0:0:0:
312,148,33106,6,0,P|267:169|218:170,1,98.9999969787599,2|0,0:0|0:0,0:0:0:0:
60,49,33379,1,8,0:0:0:0:
60,49,33447,1,8,0:0:0:0:
60,49,33515,2,0,P|111:52|160:86,1,98.9999969787599,10|0,0:0|0:0,0:0:0:0:
318,51,33788,5,8,0:0:0:0:
289,53,33856,1,8,0:0:0:0:
263,66,33924,1,10,0:0:0:0:
240,87,33992,1,8,0:0:0:0:
225,112,34060,1,8,0:0:0:0:
218,141,34129,1,8,0:0:0:0:
218,170,34197,2,0,P|234:204|266:227,3,49.4999984893799,2|0|0|0,0:0|0:0|0:0|0:0,0:0:0:0:
120,304,34469,5,8,0:0:0:0:
154,300,34537,1,8,0:0:0:0:
189,297,34605,1,10,0:0:0:0:
223,294,34673,1,8,0:0:0:0:
258,291,34742,2,0,L|313:288,3,49.4999984893799,10|8|8|8,3:0|3:0|3:0|3:0,0:0:0:0:
396,357,35015,2,0,L|340:354,3,49.4999984893799,10|8|8|8,3:0|3:0|3:0|3:0,0:0:0:0:
224,376,35288,6,0,P|296:328|407:369,1,197.99999395752,6|0,0:0|0:0,0:0:0:0:
505,282,35697,1,8,0:0:0:0:
409,164,35833,2,0,B|385:225|385:225|397:369,1,197.99999395752,2|0,0:0|0:0,0:0:0:0:
397,366,36174,1,0,0:0:0:0:
398,375,36242,1,8,0:0:0:0:
305,268,36379,6,0,B|281:326|281:326|271:192,1,197.99999395752,2|0,0:0|0:0,0:0:0:0:
269,182,36720,1,0,0:0:0:0:
268,173,36788,1,8,0:0:0:0:
183,318,36924,2,0,B|281:326,1,98.9999969787599,2|8,0:0|0:0,0:0:0:0:
154,222,37197,2,0,B|55:230,1,98.9999969787599,2|8,0:0|0:0,0:0:0:0:
267,164,37469,6,0,B|464:180,1,197.99999395752,6|0,0:0|0:0,0:0:0:0:
206,50,37879,2,0,P|145:125|154:222,1,197.99999395752,10|8,0:0|0:0,0:0:0:0:
281,326,38288,2,0,B|154:336,1,98.9999969787599,2|8,0:0|0:0,0:0:0:0:
357,270,38560,6,0,P|375:323|364:371,1,98.9999969787599,2|8,0:0|0:0,0:0:0:0:
303,183,38833,2,0,P|366:168|457:279,1,197.99999395752,2|0,0:0|0:0,0:0:0:0:
357,270,39242,1,10,0:0:0:0:
414,134,39379,2,0,P|467:116|515:127,1,98.9999969787599,2|8,0:0|0:0,0:0:0:0:
365,23,39651,6,0,B|304:47|304:47|160:35,1,197.99999395752,6|0,0:0|0:0,0:0:0:0:
20,23,40060,1,8,0:0:0:0:
84,161,40197,2,0,B|26:137|26:137|160:127,1,197.99999395752,2|0,0:0|0:0,0:0:0:0:
171,126,40538,1,0,0:0:0:0:
180,125,40606,1,8,0:0:0:0:
246,285,40742,6,0,B|179:279|179:279|121:254|121:254|53:248,1,197.99999395752,2|0,0:0|0:0,0:0:0:0:
43,247,41083,1,0,0:0:0:0:
33,246,41151,1,8,0:0:0:0:
113,378,41288,2,0,B|222:368,1,98.9999969787599,2|8,0:0|0:0,0:0:0:0:
344,293,41560,2,0,B|234:283,1,98.9999969787599,2|8,0:0|0:0,0:0:0:0:
475,370,41833,6,0,B|499:309|499:309|487:165,1,197.99999395752,6|2,0:0|0:0,0:0:0:0:
429,42,42242,2,0,B|405:103|405:103|417:247,1,197.99999395752,10|8,0:0|0:0,0:0:0:0:
319,196,42651,2,0,B|327:97,1,98.9999969787599,2|8,0:0|0:0,0:0:0:0:
244,267,42924,2,0,P|285:294|334:298,1,98.9999969787599,2|8,0:0|0:0,0:0:0:0:
220,166,43197,2,0,P|171:169|130:196,1,98.9999969787599,2|8,0:0|0:0,0:0:0:0:
32,330,43469,6,0,P|53:285|50:236,1,88,2|8,0:0|0:0,0:0:0:0:
24,71,43742,2,0,P|25:114|45:153,1,88,2|8,0:0|0:0,0:0:0:0:
199,86,44015,6,0,L|1:68,1,176,6|0,0:0|0:0,0:0:0:0:
257,27,44424,1,8,0:0:0:0:
319,196,44560,6,0,L|516:178,1,197.99999395752,2|0,0:0|0:0,0:0:0:0:
259,141,44969,1,8,0:0:0:0:
192,338,45106,6,0,B|134:426|26:391|-19:317|-22:228|91:146|175:189|203:278|203:278|232:362|328:376|328:376|378:341|383:287|383:287|440:272|492:291|492:291|422:268|383:219|387:142|429:103,1,1100,2|0,0:0|0:0,0:0:0:0:
512,177,46606,1,8,0:0:0:0:
361,215,46742,2,0,L|229:203,1,98.9999969787599,0|8,0:0|0:0,0:0:0:0:
199,86,47015,2,0,L|330:74,1,98.9999969787599,0|8,0:0|0:0,0:0:0:0:
79,149,47288,6,0,L|72:71,3,49.4999984893799,8|8|8|8,0:0|0:0|0:0|0:0,0:0:0:0:
165,226,47560,2,0,L|171:148,3,49.4999984893799,8|8|8|8,0:0|0:0|0:0|0:0,0:0:0:0:
88,312,47833,6,0,L|38:307,3,49.4999984893799,10|8|8|8,3:0|3:0|3:0|3:0,0:0:0:0:
175,384,48106,1,10,0:0:0:0:
197,364,48174,1,8,0:0:0:0:
224,353,48242,1,8,0:0:0:0:
254,350,48310,1,8,0:0:0:0:
283,357,48379,6,0,P|393:382|455:296,1,197.99999395752,6|0,0:0|0:0,0:0:0:0:
356,286,48788,1,8,0:0:0:0:
512,219,48924,6,0,B|442:246|442:246|278:232,1,220,2|0,0:0|0:0,0:0:0:0:
421,125,49333,1,8,0:0:0:0:
254,21,49469,6,0,B|293:74|278:123|263:157|211:205|135:201|83:138|90:72|90:72|81:168|81:168|96:237|96:237|87:318,1,605.000018463135,2|8,0:0|0:0,0:0:0:0:
283,357,50288,2,0,L|171:366,1,110,0|8,0:0|0:0,0:0:0:0:
356,286,50560,5,4,0:0:0:0:
356,286,50629,1,8,0:0:0:0:
356,286,50697,2,0,L|454:294,3,55,8|8|8|8,0:0|0:0|0:0|0:0,0:0:0:0:
312,195,50969,1,8,3:0:0:0:
312,195,51038,1,8,0:0:0:0:
312,195,51106,2,0,L|213:203,3,55,8|8|8|8,0:0|0:0|0:0|0:0,0:0:0:0:
356,104,51379,2,0,L|454:112,3,55,8|8|8|8,3:0|0:0|0:0|0:0,0:0:0:0:
312,13,51651,2,0,L|213:21,3,55,8|8|8|8,3:0|0:0|0:0|0:0,0:0:0:0:
166,108,51924,5,10,3:0:0:0:
165,97,51992,1,8,3:0:0:0:
164,86,52060,1,8,3:0:0:0:
163,75,52128,1,8,3:0:0:0:
162,64,52197,5,10,3:0:0:0:
143,91,52265,1,8,3:0:0:0:
136,123,52333,1,8,3:0:0:0:
140,155,52401,1,8,3:0:0:0:
156,184,52469,1,10,0:0:0:0:
167,220,52537,1,8,0:0:0:0:
162,258,52605,1,8,3:0:0:0:
142,290,52673,1,8,3:0:0:0:
110,311,52742,6,0,P|211:283|276:326,1,148.49999546814,14|0,0:0|0:0,0:0:0:0:
281,333,53015,1,2,0:0:0:0:
411,253,53151,2,0,P|361:246|317:263,1,98.9999969787599,10|0,0:0|0:0,0:0:0:0:
448,140,53424,2,0,P|466:185|503:216,1,98.9999969787599,10|0,0:0|0:0,0:0:0:0:
335,156,53697,1,10,0:0:0:0:
426,52,53833,6,0,P|380:70|331:65,1,98.9999969787599,2|8,0:0|0:0,0:0:0:0:
159,99,54106,2,0,P|207:94|253:112,1,98.9999969787599,2|8,0:0|0:0,0:0:0:0:
50,158,54379,2,0,B|31:112|64:64|64:64|146:81|169:170|142:237|52:256,1,346.49998942566,2|0,0:0|0:0,0:0:0:0:
52,252,54924,1,4,0:0:0:0:
379,324,55197,5,2,0:0:0:0:
379,324,55333,2,0,L|267:333,1,110,10|0,0:0|0:0,0:0:0:0:
405,207,55606,2,0,L|516:216,1,110,10|0,0:0|0:0,0:0:0:0:
298,112,55879,1,10,0:0:0:0:
306,200,56015,1,2,0:0:0:0:
233,251,56151,1,10,0:0:0:0:
153,212,56288,5,10,0:0:0:0:
153,221,56356,1,8,0:0:0:0:
154,231,56424,1,8,0:0:0:0:
155,241,56492,1,8,0:0:0:0:
156,251,56560,2,0,L|104:246,3,41.2500015735627,2|0|0|0,0:0|0:0|0:0|0:0,0:0:0:0:
86,376,56833,5,8,0:0:0:0:
108,356,56901,1,8,0:0:0:0:
135,345,56969,1,8,0:0:0:0:
165,342,57037,1,8,0:0:0:0:
194,349,57106,6,0,P|304:374|351:336,1,148.49999546814,4|0,0:0|0:0,0:0:0:0:
358,321,57379,1,2,0:0:0:0:
502,384,57515,2,0,P|494:335|512:289,1,98.9999969787599,10|0,0:0|0:0,0:0:0:0:
408,172,57788,1,10,0:0:0:0:
426,261,57924,1,2,0:0:0:0:
426,261,57992,1,2,0:0:0:0:
426,261,58060,1,10,0:0:0:0:
500,131,58197,6,0,P|470:91|426:71,1,98.9999969787599,2|8,0:0|0:0,0:0:0:0:
241,139,58469,2,0,P|290:133|329:104,1,98.9999969787599,2|8,0:0|0:0,0:0:0:0:
154,56,58742,2,0,B|95:132|146:213|146:213|132:237|132:237|178:313|127:380,1,346.49998942566,2|0,0:0|0:0,0:0:0:0:
193,299,59288,6,0,P|236:277|285:279,1,98.9999969787599,12|8,0:0|0:0,0:0:0:0:
352,384,59560,2,0,L|352:324,1,49.4999984893799,10|8,0:0|0:0,0:0:0:0:
420,279,59697,2,0,P|468:276|512:298,1,98.9999969787599,6|0,0:0|0:0,0:0:0:0:
472,168,59969,5,10,0:0:0:0:
451,181,60037,1,8,0:0:0:0:
428,190,60105,1,10,3:0:0:0:
403,192,60173,1,0,0:0:0:0:
379,188,60241,1,2,0:0:0:0:
356,178,60309,1,0,0:0:0:0:
337,163,60379,6,0,L|341:111,3,49.4999984893799,10|0|0|0,3:0|0:0|0:0|0:0,0:0:0:0:
258,74,60651,2,0,L|253:22,3,49.4999984893799,10|0|0|0,3:0|0:0|0:0|0:0,0:0:0:0:
170,163,60924,2,0,L|174:111,3,49.4999984893799,10|0|0|0,3:0|0:0|0:0|0:0,0:0:0:0:
91,74,61197,2,0,L|86:22,3,49.4999984893799,2|0|0|0,0:0|0:0|0:0|0:0,0:0:0:0:
3,163,61469,6,0,P|82:193|102:288,1,176,6|0,0:0|0:0,0:0:0:0:
15,384,61879,2,0,P|60:367|108:376,1,88,8|0,0:0|0:0,0:0:0:0:
282,355,62151,2,0,P|238:359|198:343,1,88,8|0,0:0|0:0,0:0:0:0:
191,337,62356,1,0,0:0:0:0:
186,329,62424,1,8,0:0:0:0:
341,286,62560,6,0,P|366:321|372:364,1,88,0|8,0:0|0:0,0:0:0:0:
400,217,62833,1,2,0:0:0:0:
224,176,62969,2,0,P|307:189|368:130,1,176,10|8,0:0|0:0,0:0:0:0:
165,107,63379,2,0,P|139:142|133:185,1,88,2|8,0:0|0:0,0:0:0:0:
198,343,63651,6,0,P|137:283|53:297,1,176,2|0,0:0|0:0,0:0:0:0:
47,304,63992,1,0,0:0:0:0:
43,311,64060,1,8,0:0:0:0:
109,374,64197,1,0,0:0:0:0:
186,259,64333,2,0,P|221:233|264:227,1,88,8|0,0:0|0:0,0:0:0:0:
273,229,64537,1,0,0:0:0:0:
281,231,64605,1,8,0:0:0:0:
339,320,64742,1,0,0:0:0:0:
408,198,64879,6,0,L|418:321,1,98.9999969787599,10|0,0:0|0:0,0:0:0:0:
329,157,65151,1,10,0:0:0:0:
370,78,65288,2,0,L|474:69,1,98.9999969787599,2|8,0:0|0:0,0:0:0:0:
291,37,65560,2,0,L|181:28,1,98.9999969787599,2|10,0:0|0:0,0:0:0:0:
73,129,65833,6,0,L|278:112,1,176,4|0,0:0|0:0,0:0:0:0:
281,231,66242,2,0,L|184:222,1,88,8|0,0:0|0:0,0:0:0:0:
76,252,66515,1,8,0:0:0:0:
160,339,66651,1,0,0:0:0:0:
160,339,66719,1,0,0:0:0:0:
160,339,66788,2,0,L|257:330,1,88,8|0,0:0|0:0,0:0:0:0:
365,360,67060,1,8,0:0:0:0:
372,225,67197,6,0,P|388:265|421:293,1,88,2|8,0:0|0:0,0:0:0:0:
406,141,67469,2,0,P|362:134|321:150,1,88,2|8,0:0|0:0,0:0:0:0:
462,213,67742,2,0,P|488:178|496:135,1,88,2|8,0:0|0:0,0:0:0:0:
401,50,68015,6,0,B|436:45|436:45|376:20|376:20|302:28,1,176,2|0,0:0|0:0,0:0:0:0:
293,31,68356,1,0,0:0:0:0:
284,33,68424,1,8,0:0:0:0:
132,113,68560,2,0,P|172:128|216:122,1,88,0|8,0:0|0:0,0:0:0:0:
73,24,68833,1,0,0:0:0:0:
73,24,68901,1,0,0:0:0:0:
73,24,68969,1,8,0:0:0:0:
43,172,69106,6,0,L|51:267,1,88,4|8,0:0|0:0,0:0:0:0:
160,339,69379,1,10,0:0:0:0:
161,317,69447,1,8,0:0:0:0:
163,295,69515,1,10,0:0:0:0:
165,273,69583,1,8,0:0:0:0:
167,251,69651,2,0,L|172:182,3,44,6|0|8|8,0:0|0:0|0:0|0:0,0:0:0:0:
263,292,69924,2,0,L|266:335,3,44,10|8|8|8,0:0|0:0|0:0|0:0,0:0:0:0:
364,184,70197,6,0,L|347:367,1,176,6|0,0:0|0:0,0:0:0:0:
255,195,70606,2,0,L|247:107,1,88,8|0,0:0|0:0,0:0:0:0:
288,0,70879,1,8,0:0:0:0:
408,81,71015,1,0,0:0:0:0:
408,81,71083,1,0,0:0:0:0:
408,81,71151,2,0,L|320:73,1,88,8|0,0:0|0:0,0:0:0:0:
452,15,71424,5,10,0:0:0:0:
474,125,71560,2,0,P|467:173|436:211,1,98.9999969787599,2|8,0:0|0:0,0:0:0:0:
255,195,71833,2,0,P|300:176|348:184,1,98.9999969787599,2|8,0:0|0:0,0:0:0:0:
425,349,72106,2,0,P|386:319|368:273,1,98.9999969787599,2|8,0:0|0:0,0:0:0:0:
253,359,72379,6,0,B|307:338|307:338|450:351,1,176,4|0,0:0|0:0,0:0:0:0:
253,277,72788,2,0,L|165:269,1,88,8|0,0:0|0:0,0:0:0:0:
61,359,73060,2,0,L|148:351,1,88,8|0,0:0|0:0,0:0:0:0:
157,351,73264,1,0,0:0:0:0:
165,351,73332,1,8,0:0:0:0:
53,260,73469,1,0,0:0:0:0:
148,169,73606,5,10,0:0:0:0:
31,76,73742,2,0,L|158:64,1,98.9999969787599,2|8,0:0|0:0,0:0:0:0:
242,116,74015,1,2,0:0:0:0:
242,116,74083,1,0,0:0:0:0:
242,116,74151,1,10,0:0:0:0:
242,116,74219,1,0,0:0:0:0:
242,116,74288,2,0,P|223:76|237:8,1,98.9999969787599,2|8,0:0|0:0,0:0:0:0:
300,207,74560,6,0,P|215:221|148:169,1,176,6|0,0:0|0:0,0:0:0:0:
350,112,74969,2,0,P|404:178|392:264,1,176,10|8,0:0|0:0,0:0:0:0:
249,346,75379,2,0,L|356:355,1,88,2|8,0:0|0:0,0:0:0:0:
205,251,75651,6,0,L|14:267,1,176,2|0,0:0|0:0,0:0:0:0:
148,169,76060,2,0,L|338:185,1,176,10|8,0:0|0:0,0:0:0:0:
480,255,76469,2,0,L|367:264,1,88,2|8,0:0|0:0,0:0:0:0:
434,64,76742,6,0,L|424:176,1,98.9999969787599,2|0,0:0|0:0,0:0:0:0:
280,34,77015,1,8,0:0:0:0:
280,34,77083,1,8,0:0:0:0:
280,34,77151,2,0,P|328:31|371:6,1,98.9999969787599,10|0,0:0|0:0,0:0:0:0:
323,184,77424,5,8,0:0:0:0:
306,159,77492,1,8,0:0:0:0:
281,143,77560,1,10,0:0:0:0:
252,134,77628,1,8,0:0:0:0:
223,133,77696,1,8,0:0:0:0:
195,142,77765,1,8,0:0:0:0:
169,156,77833,2,0,P|147:186|143:226,3,49.4999984893799,10|0|8|8,3:0|0:0|0:0|0:0,0:0:0:0:
216,286,78106,5,0,0:0:0:0:
206,286,78174,1,0,0:0:0:0:
196,287,78242,1,2,0:0:0:0:
186,288,78310,1,0,0:0:0:0:
176,289,78379,2,0,L|88:281,3,49.4999984893799,10|0|0|0,3:0|0:0|0:0|0:0,0:0:0:0:
252,352,78651,2,0,L|339:344,3,49.4999984893799,10|0|0|0,3:0|0:0|0:0|0:0,0:0:0:0:
392,261,78924,6,0,B|409:309|409:309|427:148,1,197.99999395752,6|0,0:0|0:0,0:0:0:0:
444,0,79333,1,8,0:0:0:0:
278,65,79469,2,0,B|339:89|339:89|483:77,1,197.99999395752,2|0,0:0|0:0,0:0:0:0:
480,77,79810,1,0,0:0:0:0:
490,76,79879,1,8,0:0:0:0:
361,0,80015,6,0,B|339:196,1,197.99999395752,2|0,0:0|0:0,0:0:0:0:
337,206,80356,1,0,0:0:0:0:
336,215,80424,1,8,0:0:0:0:
466,317,80560,2,0,P|420:299|371:306,1,98.9999969787599,2|8,0:0|0:0,0:0:0:0:
185,330,80833,2,0,P|233:322|279:340,1,98.9999969787599,2|8,0:0|0:0,0:0:0:0:
242,184,81106,6,0,P|224:240|84:277,1,197.99999395752,6|0,0:0|0:0,0:0:0:0:
52,140,81515,2,0,B|46:207|46:207|21:265|21:265|15:333,1,197.99999395752,10|8,0:0|0:0,0:0:0:0:
135,181,81924,2,0,B|125:70,1,98.9999969787599,2|8,0:0|0:0,0:0:0:0:
0,11,82197,6,0,P|48:17|94:0,1,98.9999969787599,2|8,0:0|0:0,0:0:0:0:
295,54,82469,2,0,P|242:27|117:99,1,197.99999395752,2|8,0:0|0:0,0:0:0:0:
221,135,82879,1,10,0:0:0:0:
370,111,83015,2,0,P|387:65|381:16,1,98.9999969787599,2|8,0:0|0:0,0:0:0:0:
313,186,83288,6,0,L|330:385,1,197.99999395752,6|0,0:0|0:0,0:0:0:0:
222,240,83697,1,8,0:0:0:0:
151,366,83833,2,0,B|209:342|209:342|75:332,1,197.99999395752,2|0,0:0|0:0,0:0:0:0:
64,331,84174,1,0,0:0:0:0:
55,330,84242,1,8,0:0:0:0:
222,240,84379,6,0,B|154:234|154:234|96:209|96:209|28:203,1,197.99999395752,2|0,0:0|0:0,0:0:0:0:
19,201,84720,1,0,0:0:0:0:
9,200,84788,1,8,0:0:0:0:
125,81,84924,2,0,B|20:90,1,98.9999969787599,2|8,0:0|0:0,0:0:0:0:
221,135,85197,2,0,B|325:144,1,98.9999969787599,2|8,0:0|0:0,0:0:0:0:
444,0,85469,6,0,B|420:61|420:61|432:205,1,197.99999395752,6|2,0:0|0:0,0:0:0:0:
490,328,85879,2,0,B|514:267|514:267|502:123,1,197.99999395752,10|8,0:0|0:0,0:0:0:0:
405,270,86288,2,0,P|387:316|393:364,1,98.9999969787599,2|8,0:0|0:0,0:0:0:0:
209,342,86560,6,0,P|255:359|303:353,1,98.9999969787599,2|8,0:0|0:0,0:0:0:0:
209,231,86833,2,0,P|160:225|114:242,1,98.9999969787599,2|8,0:0|0:0,0:0:0:0:
24,384,87106,6,0,B|33:279,1,88,2|8,0:0|0:0,0:0:0:0:
106,154,87379,2,0,B|113:241,1,88,2|8,0:0|0:0,0:0:0:0:
2,84,87651,6,0,P|85:30|178:50,1,176,6|0,0:0|0:0,0:0:0:0:
227,120,88060,1,8,0:0:0:0:
349,22,88197,6,0,B|325:83|325:83|337:227,1,197.99999395752,2|0,0:0|0:0,0:0:0:0:
351,384,88606,1,8,0:0:0:0:
506,250,88742,6,0,B|455:184|336:188|282:305|351:384|351:384|263:321|263:321|185:395|55:363|55:363|51:302|88:262|88:262|86:217|52:158|52:158|98:216|204:203|228:119,1,1100,2|0,0:0|0:0,0:0:0:0:
130,92,90242,1,8,0:0:0:0:
255,23,90379,2,0,L|155:14,1,98.9999969787599,0|8,0:0|0:0,0:0:0:0:
326,96,90651,2,0,L|425:87,1,98.9999969787599,0|8,0:0|0:0,0:0:0:0:
302,243,90924,6,0,L|297:193,3,49.4999984893799,8|8|8|8,0:0|0:0|0:0|0:0,0:0:0:0:
400,234,91197,2,0,L|404:184,3,49.4999984893799,8|0|8|8,0:0|0:0|0:0|0:0,0:0:0:0:
456,314,91469,6,0,L|505:309,3,49.4999984893799,10|8|8|8,3:0|3:0|3:0|3:0,0:0:0:0:
369,384,91742,1,10,0:0:0:0:
347,364,91810,1,8,0:0:0:0:
320,353,91878,1,8,0:0:0:0:
290,350,91946,1,8,0:0:0:0:
261,357,92015,6,0,P|151:382|89:296,1,197.99999395752,6|0,0:0|0:0,0:0:0:0:
106,211,92424,1,8,0:0:0:0:
230,74,92560,6,0,B|223:149|223:149|194:207|194:207|185:307,1,220,2|0,0:0|0:0,0:0:0:0:
116,94,92969,1,8,0:0:0:0:
315,1,93106,6,0,B|301:175|301:175|271:231|271:231|260:356|260:356|374:315|374:315|510:368,1,605.000018463135,2|8,0:0|0:0,0:0:0:0:
397,237,93924,2,0,L|499:276,1,110,0|8,0:0|0:0,0:0:0:0:
454,105,94197,5,4,0:0:0:0:
454,105,94265,1,8,0:0:0:0:
454,105,94333,2,0,L|407:133,3,55,8|8|8|8,0:0|0:0|0:0|0:0,0:0:0:0:
310,69,94606,1,8,3:0:0:0:
310,69,94674,1,8,0:0:0:0:
310,69,94742,2,0,L|305:124,3,55,8|8|8|8,0:0|0:0|0:0|0:0,0:0:0:0:
314,261,95015,2,0,L|318:205,3,55,8|8|8|8,3:0|0:0|0:0|0:0,0:0:0:0:
170,225,95288,2,0,L|216:196,3,55,8|8|8|8,3:0|0:0|0:0|0:0,0:0:0:0:
227,93,95560,5,10,3:0:0:0:
216,89,95628,1,8,3:0:0:0:
206,85,95696,1,8,3:0:0:0:
196,81,95765,1,0,0:0:0:0:
186,77,95833,5,10,3:0:0:0:
153,69,95901,1,8,3:0:0:0:
121,74,95969,1,8,3:0:0:0:
93,91,96037,1,8,3:0:0:0:
72,117,96106,1,10,3:0:0:0:
91,150,96174,1,8,3:0:0:0:
98,188,96242,1,8,3:0:0:0:
94,226,96310,1,8,3:0:0:0:
78,261,96378,5,14,3:0:0:0:
180,249,98288,21,6,0:0:0:0:
244,81,98424,1,6,0:0:0:0:
316,301,98560,1,6,0:0:0:0:
244,81,100742,5,6,0:0:0:0:
175,191,101015,2,0,L|179:238,2,27.5
256,224,101288,2,0,L|251:271,2,27.5,0|0|0,0:0|0:0|0:0,0:0:0:0:
164,204,101560,2,0,L|168:251,2,27.5,0|0|0,0:0|0:0|0:0,0:0:0:0:
267,237,101833,2,0,L|263:284,2,27.5,0|0|0,0:0|0:0|0:0,0:0:0:0:
153,217,102106,2,0,L|157:264,2,27.5,0|0|0,0:0|0:0|0:0,0:0:0:0:
278,250,102379,2,0,L|274:297,2,27.5,0|0|0,0:0|0:0|0:0,0:0:0:0:
173,322,102651,5,10,0:0:0:0:
250,152,102788,1,10,0:0:0:0:
309,355,102924,2,0,P|351:328|439:337,1,131.99999597168,6|8,0:0|3:0,0:0:0:0:
512,210,103333,1,8,3:0:0:0:
512,210,103401,1,8,3:0:0:0:
512,210,103469,2,0,B|465:238|465:238|320:221,1,176,6|0,0:0|0:0,0:0:0:0:
90,21,104015,5,2,0:0:0:0:
153,217,104151,1,2,0:0:0:0:
273,74,104560,5,2,0:0:0:0:
46,146,104696,1,2,0:0:0:0:
344,223,105106,6,0,L|459:212,1,110,6|2,0:0|0:0,0:0:0:0:
250,152,105379,1,2,0:0:0:0:
268,333,105515,2,0,B|244:301|202:290|177:296|157:302|128:327|128:327|84:362|45:358|10:329|-19:317|-22:240|13:195|85:190|109:238,1,440,10|8,0:0|0:0,0:0:0:0:
250,152,106197,6,0,P|187:157|134:119,1,110,2|10,0:0|0:0,0:0:0:0:
327,86,106469,1,0,0:0:0:0:
327,86,106538,1,0,0:0:0:0:
327,86,106606,2,0,P|351:134|344:188,1,110,10|0,0:0|0:0,0:0:0:0:
268,333,106879,1,2,0:0:0:0:
422,263,107015,2,0,P|397:311|404:365,1,110,2|0,0:0|0:0,0:0:0:0:
512,235,107288,6,0,P|481:189|431:169,1,110,2|10,0:0|0:0,0:0:0:0:
250,152,107560,1,2,0:0:0:0:
400,32,107697,2,0,P|356:64|216:-9,1,220,10|10,0:0|0:0,0:0:0:0:
108,104,108106,1,2,0:0:0:0:
108,104,108174,1,0,0:0:0:0:
108,104,108242,1,10,0:0:0:0:
250,152,108379,5,2,0:0:0:0:
128,260,108515,2,0,L|12:249,1,110,8|2,0:0|0:0,0:0:0:0:
234,296,108788,2,0,L|349:285,1,110,8|2,0:0|0:0,0:0:0:0:
431,169,109060,1,8,0:0:0:0:
456,322,109197,1,2,0:0:0:0:
456,322,109265,1,0,0:0:0:0:
456,322,109333,1,8,0:0:0:0:
330,202,109469,5,6,0:0:0:0:
326,185,109537,1,0,0:0:0:0:
324,169,109605,1,0,0:0:0:0:
326,153,109673,1,0,0:0:0:0:
330,137,109741,1,0,0:0:0:0:
336,121,109809,1,0,0:0:0:0:
344,107,109878,1,8,0:0:0:0:
355,94,109946,1,0,0:0:0:0:
367,84,110015,2,0,P|403:66|442:64,3,55,2|0|8|0,0:0|0:0|0:0|0:0,0:0:0:0:
270,23,110288,2,0,P|234:5|195:3,3,55,0|0|8|0,0:0|0:0|0:0|0:0,0:0:0:0:
247,136,110560,5,2,0:0:0:0:
234,147,110628,1,0,0:0:0:0:
221,156,110696,1,8,0:0:0:0:
206,163,110764,1,0,0:0:0:0:
190,168,110832,1,0,0:0:0:0:
174,170,110900,1,0,0:0:0:0:
157,170,110969,1,8,0:0:0:0:
141,167,111037,1,0,0:0:0:0:
126,162,111106,2,0,P|92:139|71:107,3,55,2|0|8|0,0:0|0:0|0:0|0:0,0:0:0:0:
42,247,111379,2,0,P|8:269|-12:301,3,55,0|0|8|0,0:0|0:0|0:0|0:0,0:0:0:0:
195,253,111651,5,2,0:0:0:0:
174,170,111788,1,10,0:0:0:0:
135,323,111924,2,0,P|190:345|249:328,1,110,2|10,0:0|0:0,0:0:0:0:
391,258,112197,1,2,0:0:0:0:
370,341,112334,1,10,0:0:0:0:
331,188,112470,2,0,P|386:166|443:181,1,110,2|10,0:0|0:0,0:0:0:0:
512,56,112742,6,0,P|459:68|399:44,1,121.000003692627,10|8,0:0|0:0,0:0:0:0:
220,3,113015,5,10,0:0:0:0:
236,29,113083,1,10,0:0:0:0:
242,58,113151,1,10,0:0:0:0:
242,88,113219,1,10,0:0:0:0:
231,117,113287,1,8,0:0:0:0:
77,222,113424,5,10,0:0:0:0:
104,199,113492,1,10,0:0:0:0:
139,187,113560,1,10,0:0:0:0:
175,189,113628,1,10,0:0:0:0:
208,203,113696,1,10,0:0:0:0:
234,228,113764,1,10,0:0:0:0:
249,261,113833,6,0,P|253:293|247:323,3,55,6|0|2|0,0:0|0:0|0:0|0:0,0:0:0:0:
353,307,114106,2,0,P|299:295|249:315,1,110,2|8,0:0|0:0,0:0:0:0:
441,144,114379,6,0,P|437:176|443:206,3,55,2|0|10|0,0:0|0:0|0:0|0:0,0:0:0:0:
336,190,114651,2,0,P|386:209|439:198,1,110,2|8,0:0|0:0,0:0:0:0:
261,90,114924,6,0,P|212:109|137:84,1,110,2|10,0:0|0:0,0:0:0:0:
26,181,115197,1,0,0:0:0:0:
47,170,115265,1,0,0:0:0:0:
71,166,115333,1,10,0:0:0:0:
95,170,115401,1,0,0:0:0:0:
116,182,115470,1,2,0:0:0:0:
141,197,115538,1,0,0:0:0:0:
170,204,115606,1,8,0:0:0:0:
200,200,115674,1,0,0:0:0:0:
227,186,115742,6,0,P|285:171|340:194,1,110,2|0,0:0|0:0,0:0:0:0:
437,316,116015,2,0,L|442:252,3,55,2|0|8|0,0:0|0:0|0:0|0:0,0:0:0:0:
336,242,116288,2,0,L|330:178,3,55,2|0|8|0,0:0|0:0|0:0|0:0,0:0:0:0:
437,168,116560,2,0,L|442:104,3,55,2|0|8|0,0:0|0:0|0:0|0:0,0:0:0:0:
336,94,116833,2,0,L|330:30,3,55,2|0|8|0,0:0|0:0|0:0|0:0,0:0:0:0:
228,187,117106,6,0,L|239:58,1,110,2|10,0:0|0:0,0:0:0:0:
254,268,117379,1,0,0:0:0:0:
232,272,117447,1,0,0:0:0:0:
211,270,117515,1,10,0:0:0:0:
190,263,117583,1,0,0:0:0:0:
172,250,117651,2,0,P|150:221|144:195,3,55,2|0|8|0,0:0|0:0|0:0|0:0,0:0:0:0:
64,270,117924,2,0,P|36:290|24:310,3,55,2|0|10|0,0:0|0:0|0:0|0:0,0:0:0:0:
120,360,118197,5,6,0:0:0:0:
144,347,118265,1,0,0:0:0:0:
172,344,118333,1,0,0:0:0:0:
199,349,118401,1,0,0:0:0:0:
223,364,118470,1,2,0:0:0:0:
247,379,118538,1,0,0:0:0:0:
274,384,118606,1,8,0:0:0:0:
302,381,118674,1,0,0:0:0:0:
327,369,118742,2,0,P|351:359|380:361,3,55,2|0|8|0,0:0|0:0|0:0|0:0,0:0:0:0:
284,268,119015,2,0,P|259:258|230:260,3,55,2|0|8|0,0:0|0:0|0:0|0:0,0:0:0:0:
401,179,119288,5,2,0:0:0:0:
378,195,119356,1,0,0:0:0:0:
351,200,119424,1,8,0:0:0:0:
324,195,119492,1,0,0:0:0:0:
301,179,119560,1,2,0:0:0:0:
287,155,119628,1,0,0:0:0:0:
284,127,119697,1,8,0:0:0:0:
291,100,119765,1,0,0:0:0:0:
310,80,119833,2,0,P|323:68|360:63,3,55,2|0|8|0,0:0|0:0|0:0|0:0,0:0:0:0:
227,17,120106,2,0,P|214:5|177:0,3,55,2|0|8|0,0:0|0:0|0:0|0:0,0:0:0:0:
213,120,120379,5,10,0:0:0:0:
191,145,120447,1,8,0:0:0:0:
163,162,120515,1,8,0:0:0:0:
131,169,120583,1,8,0:0:0:0:
98,166,120651,1,8,3:0:0:0:
68,153,120719,1,8,3:0:0:0:
44,131,120788,2,0,P|30:103|29:70,3,55,10|8|8|8,0:0|0:0|3:0|3:0,0:0:0:0:
16,265,121060,2,0,P|12:292|0:316,3,55,10|8|10|8,0:0|0:0|0:0|0:0,0:0:0:0:
139,237,121333,2,0,P|166:240|190:253,1,55,8|8,3:0|3:0,0:0:0:0:
277,349,121469,6,0,L|340:343,3,55,10|8|10|8,0:0|0:0|0:0|0:0,0:0:0:0:
468,292,121742,2,0,L|404:286,3,55,10|8|10|8,0:0|0:0|0:0|0:0,0:0:0:0:
279,193,122015,1,10,0:0:0:0:
314,217,122083,1,8,0:0:0:0:
358,220,122151,1,10,0:0:0:0:
396,200,122219,1,8,0:0:0:0:
419,163,122287,1,10,0:0:0:0:
419,119,122355,1,8,0:0:0:0:
397,82,122424,1,10,0:0:0:0:
358,62,122492,1,8,0:0:0:0:
315,64,122560,6,0,B|254:95|201:59|201:59|152:107|152:107|112:73|112:73|56:103|-8:72,1,363.000011077881,6|8,0:0|0:0,0:0:0:0:
88,216,123106,6,0,L|92:160,1,55,2|0,0:0|0:0,0:0:0:0:
4,273,123242,2,0,L|0:217,1,55,10|0,0:0|0:0,0:0:0:0:
96,318,123379,1,2,0:0:0:0:
96,318,123447,1,0,0:0:0:0:
96,318,123515,2,0,L|151:313,1,55,10|0,0:0|0:0,0:0:0:0:
273,275,123651,6,0,P|263:328|282:379,1,110,2|8,0:0|0:0,0:0:0:0:
358,220,123924,2,0,P|317:184|263:175,1,110,2|8,0:0|0:0,0:0:0:0:
448,328,124197,2,0,B|424:237|495:186|495:186|480:164|480:164|560:60|483:-76|316:13|385:130,1,550,2|8,0:0|0:0,0:0:0:0:
161,186,125015,6,0,P|210:163|262:174,1,110,10|8,0:0|0:0,0:0:0:0:
133,271,125288,2,0,P|88:239|72:188,1,110,2|8,0:0|0:0,0:0:0:0:
220,252,125560,2,0,P|215:305|178:345,1,110,2|8,0:0|0:0,0:0:0:0:
161,186,125833,5,2,0:0:0:0:
309,250,125969,2,0,P|331:299|320:351,1,110,10|0,0:0|0:0,0:0:0:0:
354,125,126242,2,0,P|384:171|533:151,1,220,10|10,0:0|0:0,0:0:0:0:
348,34,126651,2,0,P|297:53|268:97,1,110,2|8,0:0|0:0,0:0:0:0:
195,236,126924,6,0,B|177:189|127:171|74:152|17:211|-28:252|-7:341|66:393|90:386|164:381|167:350|204:343|209:290|278:271|278:271|417:243|457:360|457:360|328:389|278:271|278:271|259:131|122:113,1,1210,2|8,0:0|0:0,0:0:0:0:
78,18,128560,5,8,3:0:0:0:
101,32,128628,1,0,0:0:0:0:
127,40,128696,1,0,0:0:0:0:
154,40,128764,1,0,0:0:0:0:
180,32,128833,1,8,3:0:0:0:
206,24,128901,1,0,0:0:0:0:
233,24,128969,1,0,0:0:0:0:
259,32,129037,1,0,0:0:0:0:
282,46,129106,6,0,P|337:28|400:47,1,110,4|0,0:0|0:0,0:0:0:0:
466,188,129379,2,0,P|454:135|476:85,1,110,2|8,0:0|0:0,0:0:0:0:
349,232,129651,2,0,P|360:179|338:129,1,110,2|8,0:0|0:0,0:0:0:0:
448,325,129924,2,0,P|395:312|345:334,1,110,2|8,0:0|0:0,0:0:0:0:
166,260,130197,5,2,0:0:0:0:
166,260,130265,1,0,0:0:0:0:
166,260,130333,1,8,0:0:0:0:
273,184,130469,1,2,0:0:0:0:
273,184,130538,1,0,0:0:0:0:
273,184,130606,1,8,0:0:0:0:
78,244,130742,2,0,P|83:297|120:337,1,110,2|8,0:0|0:0,0:0:0:0:
135,175,131015,2,0,P|85:153|32:166,1,110,2|8,0:0|0:0,0:0:0:0:
166,260,131288,6,0,P|246:280|289:142,1,220,6|0,0:0|0:0,0:0:0:0:
282,46,131697,2,0,L|393:55,1,110,2|0,0:0|0:0,0:0:0:0:
192,106,131969,1,8,0:0:0:0:
306,175,132106,2,0,L|194:184,1,110,2|8,0:0|0:0,0:0:0:0:
409,157,132379,5,8,0:0:0:0:
407,173,132447,1,8,0:0:0:0:
406,189,132515,1,8,0:0:0:0:
405,206,132583,1,8,0:0:0:0:
415,235,132652,1,8,0:0:0:0:
413,251,132720,1,8,0:0:0:0:
412,267,132788,1,8,0:0:0:0:
411,284,132856,1,8,0:0:0:0:
421,313,132924,5,8,0:0:0:0:
419,329,132992,1,8,0:0:0:0:
418,345,133060,1,8,0:0:0:0:
417,362,133128,1,8,0:0:0:0:
425,376,133197,1,8,0:0:0:0:
400,363,133265,1,8,0:0:0:0:
373,358,133333,1,8,0:0:0:0:
346,363,133401,1,8,0:0:0:0:
323,376,133469,6,0,P|263:384|191:333,1,110,4|0,0:0|0:0,0:0:0:0:
131,233,133742,2,0,P|139:293|88:365,1,110,2|8,0:0|0:0,0:0:0:0:
139,131,134015,2,0,P|194:154|231:234,1,110,2|8,0:0|0:0,0:0:0:0:
54,73,134288,2,0,P|101:36|189:44,1,110,2|8,0:0|0:0,0:0:0:0:
47,176,134560,5,2,0:0:0:0:
149,321,134697,2,0,P|95:313|54:279,1,110,10|0,0:0|0:0,0:0:0:0:
245,260,134969,2,0,P|264:310|255:364,1,110,10|0,0:0|0:0,0:0:0:0:
144,208,135242,1,10,0:0:0:0:
259,159,135379,2,0,P|308:180|340:225,1,110,2|8,0:0|0:0,0:0:0:0:
458,101,135651,6,0,P|409:125|355:120,1,110,2|0,0:0|0:0,0:0:0:0:
171,37,135924,2,0,P|225:32|273:56,1,110,2|8,0:0|0:0,0:0:0:0:
105,116,136197,2,0,P|73:71|70:17,1,110,2|8,0:0|0:0,0:0:0:0:
207,134,136469,1,2,0:0:0:0:
87,218,136606,2,0,P|141:213|189:237,1,110,10|0,0:0|0:0,0:0:0:0:
359,219,136879,6,0,B|319:202|276:224|276:224|279:282|326:315|370:323|410:308|440:271|469:245|453:160|383:139,1,440,10|8,0:0|0:0,0:0:0:0:
207,134,137560,2,0,P|261:139|309:115,1,110,0|8,0:0|0:0,0:0:0:0:
105,116,137833,5,10,0:0:0:0:
105,116,137901,1,0,0:0:0:0:
105,116,137969,2,0,L|100:172,1,55,2|0,0:0|0:0,0:0:0:0:
176,260,138106,2,0,L|171:204,1,55,2|0,0:0|0:0,0:0:0:0:
62,316,138242,5,2,0:0:0:0:
62,316,138310,1,0,0:0:0:0:
62,316,138378,2,0,L|118:321,1,55,2|0,0:0|0:0,0:0:0:0:
230,375,138515,2,0,L|174:380,1,55,2|0,0:0|0:0,0:0:0:0:
255,271,138651,1,2,0:0:0:0:
285,283,138719,1,0,0:0:0:0:
310,304,138787,1,10,0:0:0:0:
327,332,138855,1,0,0:0:0:0:
335,364,138924,6,0,L|346:236,1,110,4|0,0:0|0:0,0:0:0:0:
358,90,139197,1,2,0:0:0:0:
255,271,139333,2,0,L|235:52,1,220,8|0,0:0|0:0,0:0:0:0:
100,170,139742,2,0,L|111:42,1,110,10|0,0:0|0:0,0:0:0:0:
157,269,140015,6,0,P|88:284|27:257,1,110,14|0,0:0|0:0,0:0:0:0:
215,171,140288,1,2,0:0:0:0:
261,345,140424,2,0,P|311:297|458:335,1,220,14|0,0:0|0:0,0:0:0:0:
391,146,140833,2,0,P|379:199|395:251,1,110,10|0,0:0|0:0,0:0:0:0:
509,27,141106,6,0,L|381:38,1,110,10|0,0:0|0:0,0:0:0:0:
234,51,141379,1,2,0:0:0:0:
391,146,141515,2,0,L|145:124,1,220,12|0,0:0|0:0,0:0:0:0:
285,261,141924,2,0,L|438:247,1,110,14|0,0:0|0:0,0:0:0:0:
173,318,142197,5,10,0:0:0:0:
283,136,142333,1,8,0:0:0:0:
362,384,142606,5,8,0:0:0:0:
173,318,142742,1,8,0:0:0:0:
394,250,142879,1,8,0:0:0:0:
100,170,143151,5,8,0:0:0:0:
394,250,143424,1,8,0:0:0:0:
173,318,143697,1,8,0:0:0:0:
301,21,143969,5,8,0:0:0:0:
397,153,144106,1,8,0:0:0:0:
415,39,144242,1,8,0:0:0:0:
283,136,144379,5,10,0:0:0:0:
255,132,144447,1,8,0:0:0:0:
228,128,144515,2,0,L|159:115,3,55,8|8|8|8,0:0|0:0|3:0|3:0,0:0:0:0:
118,221,144788,1,8,0:0:0:0:
108,196,144856,1,8,0:0:0:0:
98,170,144924,2,0,L|74:103,1,55,10|8,3:0|3:0,0:0:0:0:
235,217,145061,1,8,0:0:0:0:
218,239,145129,1,8,0:0:0:0:
201,261,145197,2,0,L|165:302,3,55,8|0|8|8,0:0|0:0|3:0|3:0,0:0:0:0:
289,356,145469,5,8,0:0:0:0:
299,336,145537,1,8,0:0:0:0:
314,320,145605,1,8,0:0:0:0:
333,310,145673,1,8,0:0:0:0:
355,305,145741,1,8,0:0:0:0:
376,307,145809,1,8,0:0:0:0:
397,314,145879,5,8,0:0:0:0:
370,295,145947,1,8,0:0:0:0:
352,267,146015,1,8,0:0:0:0:
347,235,146083,1,8,0:0:0:0:
354,203,146151,1,8,0:0:0:0:
374,176,146219,1,8,0:0:0:0:
402,160,146288,1,8,0:0:0:0:
434,155,146356,1,8,0:0:0:0:
466,164,146424,1,8,0:0:0:0:
492,184,146492,1,8,0:0:0:0:
508,212,146560,6,0,P|470:148|533:35,1,176,6|0,0:0|0:0,0:0:0:0:
344,26,146969,2,0,L|431:18,1,88,8|0,0:0|0:0,0:0:0:0:
308,108,147242,1,8,0:0:0:0:
227,12,147379,1,0,0:0:0:0:
227,12,147447,1,0,0:0:0:0:
227,12,147515,2,0,L|219:99,1,88,8|0,0:0|0:0,0:0:0:0:
316,195,147788,6,0,L|308:108,1,88,10|0,0:0|0:0,0:0:0:0:
206,231,148060,1,10,0:0:0:0:
352,305,148197,2,0,L|439:297,1,88,2|8,0:0|0:0,0:0:0:0:
242,341,148469,2,0,L|155:333,1,88,2|8,0:0|0:0,0:0:0:0:
34,221,148742,6,0,P|71:299|30:383,1,176,2|0,0:0|0:0,0:0:0:0:
31,380,149083,1,0,0:0:0:0:
24,384,149151,1,8,0:0:0:0:
154,332,149288,1,0,0:0:0:0:
30,211,149425,2,0,L|117:203,1,88,8|0,0:0|0:0,0:0:0:0:
126,203,149629,1,0,0:0:0:0:
134,203,149697,1,8,0:0:0:0:
114,74,149833,1,0,0:0:0:0:
328,108,149969,6,0,P|288:126|220:112,1,98.9999969787599,10|0,0:0|0:0,0:0:0:0:
350,21,150242,1,10,0:0:0:0:
434,155,150379,2,0,P|430:198|384:249,1,98.9999969787599,2|8,0:0|0:0,0:0:0:0:
242,341,150651,2,0,L|365:351,1,98.9999969787599,2|10,0:0|0:0,0:0:0:0:
257,251,150924,6,0,B|199:256|199:256|140:277|140:277|85:282,1,176,4|0,0:0|0:0,0:0:0:0:
12,184,151333,2,0,L|100:192,1,88,8|0,0:0|0:0,0:0:0:0:
255,125,151606,1,8,0:0:0:0:
255,125,151674,1,0,0:0:0:0:
255,125,151742,2,0,L|167:133,1,88,0|8,0:0|0:0,0:0:0:0:
107,8,152015,1,0,0:0:0:0:
319,46,152151,6,0,P|349:83|355:132,1,88,8|2,0:0|0:0,0:0:0:0:
335,271,152424,2,0,P|364:186|474:177,1,176,10|8,0:0|0:0,0:0:0:0:
431,340,152833,2,0,L|422:248,1,88,2|8,0:0|0:0,0:0:0:0:
342,358,153106,2,0,B|288:379|288:379|145:366,1,176,2|0,0:0|0:0,0:0:0:0:
161,367,153447,1,0,0:0:0:0:
152,366,153515,1,8,0:0:0:0:
134,203,153651,1,0,0:0:0:0:
224,275,153788,1,8,0:0:0:0:
61,293,153924,2,0,L|52:201,1,88,0|8,0:0|0:0,0:0:0:0:
99,63,154197,5,10,0:0:0:0:
99,63,154265,1,8,0:0:0:0:
99,63,154333,2,0,L|43:67,1,44,8|0,0:0|0:0,0:0:0:0:
186,115,154470,1,10,0:0:0:0:
186,115,154538,1,8,0:0:0:0:
186,115,154606,2,0,L|241:119,1,44,8|0,0:0|0:0,0:0:0:0:
364,34,154742,5,10,0:0:0:0:
361,55,154810,1,8,0:0:0:0:
359,77,154878,1,10,0:0:0:0:
357,99,154946,1,8,0:0:0:0:
355,121,155015,2,0,L|398:117,3,44,2|0|0|0,0:0|0:0|0:0|0:0,0:0:0:0:
287,227,155288,6,0,P|364:206|461:270,1,176,6|0,0:0|0:0,0:0:0:0:
357,327,155697,1,8,0:0:0:0:
221,285,155833,2,0,P|202:246|204:203,1,88,0|8,0:0|0:0,0:0:0:0:
306,145,156106,2,0,P|307:188|288:227,1,88,0|8,0:0|0:0,0:0:0:0:
205,85,156379,1,0,0:0:0:0:
308,28,156515,5,10,0:0:0:0:
404,136,156651,2,0,L|300:145,1,98.9999969787599,2|8,0:0|0:0,0:0:0:0:
477,80,156924,2,0,P|495:119|481:187,1,98.9999969787599,2|8,0:0|0:0,0:0:0:0:
401,320,157197,2,0,P|393:271|412:226,1,98.9999969787599,2|10,0:0|0:0,0:0:0:0:
512,384,157469,6,0,L|320:367,1,176,4|0,0:0|0:0,0:0:0:0:
190,376,157879,1,8,0:0:0:0:
248,216,158015,2,0,P|264:256|260:299,1,88,0|8,0:0|0:0,0:0:0:0:
157,171,158287,2,0,P|183:136|223:118,1,88,0|8,0:0|0:0,0:0:0:0:
163,272,158560,1,0,0:0:0:0:
51,198,158697,5,10,0:0:0:0:
25,332,158833,2,0,P|43:286|35:238,1,98.9999969787599,2|8,0:0|0:0,0:0:0:0:
146,77,159106,2,0,P|137:125|156:170,1,98.9999969787599,2|8,0:0|0:0,0:0:0:0:
256,261,159379,2,0,P|207:252|162:271,1,98.9999969787599,2|10,0:0|0:0,0:0:0:0:
336,368,159651,6,0,L|351:192,1,176,6|0,0:0|0:0,0:0:0:0:
511,317,160060,2,0,L|495:141,1,176,10|8,0:0|0:0,0:0:0:0:
334,270,160469,2,0,L|344:152,1,88,2|8,0:0|0:0,0:0:0:0:
405,364,160742,6,0,P|312:386|232:328,1,176,2|0,0:0|0:0,0:0:0:0:
129,185,161151,2,0,P|168:261|144:343,1,176,10|8,0:0|0:0,0:0:0:0:
41,192,161560,2,0,L|136:183,1,88,2|8,0:0|0:0,0:0:0:0:
271,122,161833,5,2,0:0:0:0:
271,122,161901,1,0,0:0:0:0:
271,122,161969,1,8,0:0:0:0:
271,122,162038,1,8,0:0:0:0:
271,122,162106,2,0,L|221:117,1,49.4999984893799,8|0,0:0|0:0,0:0:0:0:
128,51,162242,5,10,3:0:0:0:
325,32,162379,1,8,0:0:0:0:
242,212,162515,1,8,0:0:0:0:
214,103,162651,2,0,L|320:113,1,98.9999969787599,10|8,0:0|0:0,0:0:0:0:
471,44,162924,6,0,P|432:112|469:244,1,197.99999395752,10|8,0:0|0:0,0:0:0:0:
361,303,163333,1,10,0:0:0:0:
361,303,163401,1,8,0:0:0:0:
361,303,163469,2,0,L|311:298,3,49.4999984893799,10|8|8|8,3:3|3:3|3:3|3:3,0:0:0:0:
242,212,163742,2,0,L|192:216,3,49.4999984893799,10|8|8|8,3:3|3:3|3:3|3:3,0:0:0:0:
119,309,164015,6,0,P|78:189|138:110,1,197.99999395752,6|0,0:0|0:0,0:0:0:0:
68,0,164424,1,8,0:0:0:0:
214,103,164560,2,0,P|308:119|385:61,1,197.99999395752,2|0,0:0|0:0,0:0:0:0:
389,52,164901,1,0,0:0:0:0:
391,42,164969,1,8,0:0:0:0:
282,3,165106,6,0,L|299:202,1,197.99999395752,2|0,0:0|0:0,0:0:0:0:
301,210,165447,1,0,0:0:0:0:
302,219,165515,1,8,0:0:0:0:
455,292,165651,2,0,P|406:284|360:302,1,98.9999969787599,2|8,0:0|0:0,0:0:0:0:
227,370,165924,2,0,P|178:377|132:359,1,98.9999969787599,2|8,0:0|0:0,0:0:0:0:
46,161,166197,6,0,P|72:261|-2:329,1,197.99999395752,6|0,0:0|0:0,0:0:0:0:
32,160,166606,2,0,P|105:87|201:117,1,197.99999395752,10|8,0:0|0:0,0:0:0:0:
316,220,167015,2,0,P|308:171|326:125,1,98.9999969787599,2|8,0:0|0:0,0:0:0:0:
360,302,167288,6,0,L|261:293,1,98.9999969787599,2|8,0:0|0:0,0:0:0:0:
427,217,167560,2,0,P|467:290|409:399,1,197.99999395752,2|0,0:0|0:0,0:0:0:0:
360,302,167969,1,8,0:0:0:0:
218,384,168106,2,0,L|317:375,1,98.9999969787599,2|8,0:0|0:0,0:0:0:0:
129,296,168379,6,0,B|105:354|105:354|95:220,1,197.99999395752,6|0,0:0|0:0,0:0:0:0:
152,69,168788,1,8,0:0:0:0:
287,206,168924,2,0,B|226:230|226:230|82:218,1,197.99999395752,2|0,0:0|0:0,0:0:0:0:
84,217,169265,1,0,0:0:0:0:
74,216,169333,1,8,0:0:0:0:
218,384,169469,6,0,B|285:378|285:378|343:353|343:353|411:347,1,197.99999395752,2|0,0:0|0:0,0:0:0:0:
420,346,169810,1,0,0:0:0:0:
430,345,169879,1,8,0:0:0:0:
392,170,170015,2,0,P|374:215|382:264,1,98.9999969787599,2|8,0:0|0:0,0:0:0:0:
475,100,170288,2,0,P|483:51|465:5,1,98.9999969787599,2|8,0:0|0:0,0:0:0:0:
277,82,170560,6,0,L|484:100,1,197.99999395752,6|2,0:0|0:0,0:0:0:0:
327,0,170969,2,0,L|129:17,1,197.99999395752,10|8,0:0|0:0,0:0:0:0:
15,156,171379,2,0,L|143:167,1,98.9999969787599,2|8,0:0|0:0,0:0:0:0:
341,212,171651,2,0,P|292:204|246:222,1,98.9999969787599,2|8,0:0|0:0,0:0:0:0:
404,293,171924,2,0,P|435:254|442:205,1,98.9999969787599,2|8,0:0|0:0,0:0:0:0:
302,307,172197,6,0,P|319:353|358:384,1,88,2|8,0:0|0:0,0:0:0:0:
246,221,172469,2,0,P|228:267|189:298,1,88,2|8,0:0|0:0,0:0:0:0:
0,288,172742,6,0,P|87:296|137:394,1,176,6|0,0:0|0:0,0:0:0:0:
35,384,173151,1,8,0:0:0:0:
145,208,173288,6,0,L|344:190,1,197.99999395752,2|0,0:0|0:0,0:0:0:0:
466,179,173697,1,8,0:0:0:0:
273,100,173833,6,0,B|325:141|384:130|488:54|386:-77|286:-81|257:-13|238:5|249:52|200:165|22:137|8:4|8:4|15:64|7:113|7:113|42:154|42:215|42:215|-19:308|76:400|153:368,1,1100,2|0,0:0|0:0,0:0:0:0:
124,273,175333,1,8,0:0:0:0:
240,347,175469,2,0,L|359:336,1,98.9999969787599,0|8,0:0|0:0,0:0:0:0:
506,265,175742,2,0,L|386:254,1,98.9999969787599,0|8,0:0|0:0,0:0:0:0:
225,202,176015,6,0,L|308:194,3,49.4999984893799,8|8|8|8,3:0|3:0|3:0|3:0,0:0:0:0:
288,89,176288,2,0,L|204:81,3,49.4999984893799,8|8|8|8,3:0|3:0|3:0|3:0,0:0:0:0:
129,131,176560,6,0,L|137:47,3,49.4999984893799,10|8|8|8,0:0|0:0|0:0|0:0,0:0:0:0:
0,198,176833,1,10,0:0:0:0:
2,168,176901,1,8,0:0:0:0:
5,138,176969,1,8,0:0:0:0:
7,109,177037,1,8,0:0:0:0:
10,79,177106,6,0,L|27:282,1,197.99999395752,6|0,0:0|0:0,0:0:0:0:
149,207,177515,1,8,0:0:0:0:
210,371,177651,6,0,P|281:330|407:393,1,220,2|0,0:0|0:0,0:0:0:0:
475,222,178060,1,8,0:0:0:0:
276,170,178197,6,0,B|315:193|380:187|435:110|398:49|353:-5|268:7|240:73|240:73|184:45|124:79|124:79|66:111|6:77,1,605.000018463135,2|8,0:0|0:0,0:0:0:0:
188,168,179015,2,0,P|197:241|172:292,1,110,0|8,0:0|0:0,0:0:0:0:
63,366,179288,5,4,0:0:0:0:
63,366,179356,1,8,0:0:0:0:
63,366,179424,2,0,L|147:374,3,55,8|8|8|8,0:0|0:0|0:0|0:0,0:0:0:0:
192,281,179697,1,8,3:0:0:0:
192,281,179765,1,8,0:0:0:0:
192,281,179833,2,0,L|276:274,3,55,8|8|8|8,0:0|0:0|0:0|0:0,0:0:0:0:
330,384,180106,5,8,3:0:0:0:
355,363,180174,1,8,0:0:0:0:
386,352,180242,1,8,0:0:0:0:
419,352,180310,1,8,0:0:0:0:
449,364,180379,2,0,B|439:255|439:255|460:199,2,165,12|8|8,0:0|0:0|0:0,0:0:0:0:
314,221,180924,5,10,0:0:0:0:
283,198,180992,1,8,0:0:0:0:
245,190,181060,1,8,0:0:0:0:
208,199,181128,1,8,0:0:0:0:
178,223,181197,1,10,3:0:0:0:
178,233,181265,1,8,3:0:0:0:
179,244,181333,1,8,3:0:0:0:
180,255,181401,1,8,3:0:0:0:
181,266,181469,6,0,P|114:294|50:263,1,148.49999546814,6|0,0:0|0:0,0:0:0:0:
34,236,181742,1,2,0:0:0:0:
95,77,181879,2,0,P|64:117|21:136,1,98.9999969787599,10|0,0:0|0:0,0:0:0:0:
192,41,182151,2,0,P|242:47|280:74,1,98.9999969787599,10|0,0:0|0:0,0:0:0:0:
314,221,182424,1,10,0:0:0:0:
448,108,182560,2,0,P|441:158|458:202,1,98.9999969787599,2|8,0:0|0:0,0:0:0:0:
449,364,182833,2,0,P|403:346|354:353,1,98.9999969787599,2|8,0:0|0:0,0:0:0:0:
76,293,183106,2,0,B|159:349|242:276|242:276|267:302|267:302|313:234|391:258,1,346.49998942566,2|0,0:0|0:0,0:0:0:0:
404,264,183651,1,4,0:0:0:0:
108,135,183924,5,2,0:0:0:0:
108,135,184060,2,0,P|150:159|199:159,1,98.9999969787599,10|0,0:0|0:0,0:0:0:0:
362,81,184333,2,0,P|315:66|267:76,1,98.9999969787599,10|0,0:0|0:0,0:0:0:0:
421,173,184606,1,10,0:0:0:0:
507,19,184742,2,0,P|497:66|512:113,1,98.9999969787599,2|0,0:0|0:0,0:0:0:0:
481,264,185015,5,10,0:0:0:0:
488,287,185083,1,8,0:0:0:0:
490,311,185151,1,8,0:0:0:0:
486,336,185219,1,8,0:0:0:0:
475,358,185288,2,0,P|428:343|380:352,1,98.9999969787599,10|8,3:0|3:0,0:0:0:0:
274,300,185560,5,8,0:0:0:0:
252,311,185629,1,8,0:0:0:0:
227,315,185697,1,8,0:0:0:0:
203,313,185765,1,8,0:0:0:0:
180,306,185833,2,0,P|123:292|41:336,1,148.49999546814,4|0,0:0|0:0,0:0:0:0:
30,356,186106,1,2,0:0:0:0:
0,204,186242,2,0,P|46:218|94:209,1,98.9999969787599,10|0,0:0|0:0,0:0:0:0:
294,164,186515,2,0,P|247:149|199:158,1,98.9999969787599,10|0,0:0|0:0,0:0:0:0:
327,271,186788,5,10,0:0:0:0:
399,128,186924,1,2,0:0:0:0:
294,164,187061,1,10,0:0:0:0:
433,236,187197,2,0,P|473:277|485:334,1,98.9999969787599,2|8,0:0|0:0,0:0:0:0:
509,140,187469,2,0,B|447:144|416:84|416:84|382:103|382:103|356:63|299:41|244:68,1,296.99999093628,2|0,0:0|0:0,0:0:0:0:
147,145,188015,5,8,0:0:0:0:
167,125,188083,1,8,0:0:0:0:
178,100,188151,1,8,0:0:0:0:
180,71,188219,1,8,0:0:0:0:
170,45,188288,2,0,P|150:17|122:6,1,49.4999984893799,2|0,0:0|0:0,0:0:0:0:
32,56,188424,6,0,L|38:-15,3,49.4999984893799,10|8|8|8,3:0|3:0|3:0|3:0,0:0:0:0:
147,145,188697,2,0,L|140:73,3,49.4999984893799,10|8|8|8,3:0|3:0|3:0|3:0,0:0:0:0:
32,234,188969,2,0,L|38:162,1,49.4999984893799,10|8,3:0|3:0,0:0:0:0:
118,333,189106,5,10,0:0:0:0:
142,301,189174,1,8,0:0:0:0:
176,281,189242,1,8,0:0:0:0:
214,275,189310,1,8,0:0:0:0:
253,282,189379,2,0,P|281:295|302:325,3,49.4999984893799,10|8|8|8,3:0|3:0|3:0|3:0,0:0:0:0:
295,193,189651,6,0,L|366:186,1,49.4999984893799,10|0,3:0|0:0,0:0:0:0:
464,137,189788,2,0,L|392:130,1,49.4999984893799,2|0,3:0|0:0,0:0:0:0:
285,111,189924,2,0,L|356:104,1,49.4999984893799,10|8,3:0|3:0,0:0:0:0:
454,55,190061,2,0,L|382:48,1,49.4999984893799,10|8,3:0|3:0,0:0:0:0:
275,29,190197,5,14,0:0:0:0:
344,188,190333,1,14,0:0:0:0:
