osu file format v14

[General]
AudioFilename: audio.mp3
AudioLeadIn: 0
PreviewTime: 327706
Countdown: 0
SampleSet: Drum
StackLeniency: 0.6
Mode: 0
LetterboxInBreaks: 0
WidescreenStoryboard: 1

[Editor]
Bookmarks: 27545,76916,137259,150972,260585,307220,329156,356585
DistanceSpacing: 0.3
BeatDivisor: 4
GridSize: 8
TimelineZoom: 4.099998

[Metadata]
Title:Reasons to Live
TitleUnicode:Reasons to Live
Artist:DragonForce
ArtistUnicode:DragonForce
Creator:ItsWinter
Version:Reason to Survive
Source:
Tags:english SILENCE PLAYER dragon force df power Dave Mackintosh speed metal speedmetal powermetal herman li zp theart sam totman ultra beatdown marathon deathstream stream rsi rock Frédéric Leclercq Vadim Pruzhanov
BeatmapID:2554945
BeatmapSetID:1228734

[Difficulty]
HPDrainRate:5
CircleSize:4.5
OverallDifficulty:9.4
ApproachRate:9.7
SliderMultiplier:2
SliderTickRate:1

[Events]
//Background and Video events
0,0,"TdUfhe2_waifu2x_art_noise3_scale_tta_1.jpg",0,0
//Break Periods
2,26172,27098
2,170422,183060
//Storyboard Layer 0 (Background)
//Storyboard Layer 1 (Fail)
//Storyboard Layer 2 (Pass)
//Storyboard Layer 3 (Foreground)
//Storyboard Layer 4 (Overlay)
//Storyboard Sound Samples

[TimingPoints]
4279,342.857142857143,4,3,1,65,1,0
4279,-66.6666666666667,4,3,1,65,0,0
6336,-50,4,3,1,65,0,0
8393,-100,4,3,7,65,0,0
8479,-100,4,3,1,65,0,0
8650,-100,4,3,7,65,0,0
8736,-100,4,3,1,65,0,0
8907,-100,4,3,7,65,0,0
8993,-100,4,3,1,65,0,0
9079,-100,4,3,10,65,0,0
9164,-100,4,3,7,65,0,0
9250,-100,4,3,1,45,0,0
9421,-100,4,3,1,55,0,0
9593,-66.6666666666667,4,3,1,65,0,0
9764,-50,4,3,1,65,0,0
15250,-50,4,3,1,65,0,0
17993,-50,4,3,1,65,0,0
19364,-100,4,3,7,65,0,0
19707,-100,4,3,8,65,0,0
20050,-100,4,3,9,65,0,0
20393,-100,4,3,10,65,0,0
20736,-50,4,3,1,65,0,0
22107,-100,4,3,1,65,0,0
27593,-83.3333333333333,4,3,1,65,0,0
35821,-83.3333333333333,4,3,7,65,0,0
36507,-83.3333333333333,4,3,8,65,0,0
36850,-83.3333333333333,4,3,9,65,0,0
37193,-83.3333333333333,4,3,10,65,0,0
37364,-83.3333333333333,4,3,1,65,0,0
37707,-83.3333333333333,4,3,7,65,0,0
37879,-83.3333333333333,4,3,1,65,0,0
38221,-83.3333333333333,4,3,8,65,0,0
38393,-83.3333333333333,4,3,9,65,0,0
38564,-66.6666666666667,4,3,1,65,0,0
38736,-66.6666666666667,4,3,1,5,0,0
39936,-66.6666666666667,4,3,1,65,0,0
40107,-66.6666666666667,4,3,1,5,0,0
41307,-80,4,3,1,65,0,0
42679,-80,4,3,7,65,0,0
42850,-80,4,3,1,65,0,0
42936,-80,4,3,7,65,0,0
43021,-80,4,3,1,65,0,0
43107,-80,4,3,7,65,0,0
43193,-80,4,3,8,65,0,0
43279,-80,4,3,1,65,0,0
43364,-80,4,3,9,65,0,0
43450,-80,4,3,1,45,0,0
43621,-80,4,3,1,50,0,0
43707,-80,4,3,1,55,0,0
43879,-80,4,3,1,60,0,0
44050,-80,4,3,1,65,0,0
47479,-80,4,3,8,65,0,0
47821,-80,4,3,9,65,0,0
47993,-80,4,3,10,65,0,0
48164,-80,4,3,1,65,0,0
49021,-80,4,3,7,65,0,0
49193,-80,4,3,1,65,0,0
49536,-80,4,3,1,65,0,1
60679,-80,4,3,1,5,0,1
60850,-80,4,3,1,65,0,1
61021,-80,4,3,1,5,0,1
61193,-80,4,3,1,65,0,1
61364,-80,4,3,1,5,0,1
61536,-80,4,3,1,65,0,1
61707,-80,4,3,1,5,0,1
61879,-80,4,3,1,65,0,0
63250,-100,4,3,1,65,0,1
68736,-80,4,3,1,65,0,1
72936,-80,4,3,1,5,0,1
73021,-80,4,3,1,65,0,1
74221,-66.6666666666667,4,3,1,65,0,0
74393,-66.6666666666667,4,3,1,5,0,0
74907,-66.6666666666667,4,3,1,65,0,0
75079,-66.6666666666667,4,3,1,5,0,0
75593,-66.6666666666667,4,3,1,65,0,0
75765,-66.6666666666667,4,3,1,5,0,0
76279,-133.333333333333,4,3,1,65,0,0
76621,-133.333333333333,4,3,1,5,0,0
76964,-133.333333333333,4,3,1,65,0,1
77650,-133.333333333333,4,3,1,65,0,0
78336,-100,4,3,1,65,0,0
78507,-100,4,3,1,5,0,0
79707,-100,4,3,1,65,0,1
84850,-200,4,3,1,65,0,0
85193,-100,4,3,1,65,0,1
90679,-80,4,3,1,65,0,0
93421,-100,4,3,1,65,0,0
96164,-80,4,3,1,65,0,0
100279,-80,4,3,1,65,0,0
100879,-80,4,3,1,5,0,0
101650,-83.3333333333333,4,3,1,65,0,0
111250,-83.3333333333333,4,3,7,65,0,0
111336,-83.3333333333333,4,3,1,65,0,0
111507,-83.3333333333333,4,3,7,65,0,0
111593,-83.3333333333333,4,3,1,65,0,0
111764,-83.3333333333333,4,3,8,65,0,0
111850,-83.3333333333333,4,3,1,65,0,0
111936,-83.3333333333333,4,3,7,65,0,0
112021,-83.3333333333333,4,3,1,40,0,0
112107,-83.3333333333333,4,3,1,45,0,0
112279,-83.3333333333333,4,3,1,55,0,0
112450,-83.3333333333333,4,3,1,60,0,0
112621,-83.3333333333333,4,3,1,65,0,0
112793,-83.3333333333333,4,3,1,5,0,0
113993,-83.3333333333333,4,3,1,65,0,0
114164,-83.3333333333333,4,3,1,5,0,0
115364,-83.3333333333333,4,3,1,65,0,0
115450,-83.3333333333333,4,3,1,50,0,0
115707,-83.3333333333333,4,3,1,65,0,0
115793,-83.3333333333333,4,3,1,50,0,0
116050,-83.3333333333333,4,3,1,65,0,0
116136,-83.3333333333333,4,3,1,50,0,0
116393,-83.3333333333333,4,3,1,65,0,0
116479,-83.3333333333333,4,3,1,50,0,0
116736,-83.3333333333333,4,3,1,65,0,0
120850,-83.3333333333333,4,3,7,65,0,0
121021,-83.3333333333333,4,3,1,65,0,0
121364,-83.3333333333333,4,3,8,65,0,0
121536,-83.3333333333333,4,3,1,65,0,0
123507,-83.3333333333333,4,3,1,5,0,0
123593,-83.3333333333333,4,3,1,65,0,1
133193,-83.3333333333333,4,3,7,65,0,1
133279,-83.3333333333333,4,3,1,65,0,1
133450,-83.3333333333333,4,3,8,65,0,1
133536,-83.3333333333333,4,3,1,65,0,1
133707,-83.3333333333333,4,3,8,65,0,1
133793,-83.3333333333333,4,3,1,65,0,1
133879,-83.3333333333333,4,3,9,65,0,1
133964,-83.3333333333333,4,3,1,40,0,1
134050,-83.3333333333333,4,3,1,45,0,1
134221,-83.3333333333333,4,3,1,55,0,1
134393,-83.3333333333333,4,3,1,60,0,1
134564,-83.3333333333333,4,3,1,65,0,0
134736,-83.3333333333333,4,3,1,5,0,0
135936,-83.3333333333333,4,3,1,65,0,0
136107,-83.3333333333333,4,3,1,5,0,0
137307,-83.3333333333333,4,3,1,65,0,1
141507,-83.3333333333333,4,3,1,65,0,1
141679,-83.3333333333333,4,3,1,65,0,1
141764,-83.3333333333333,4,3,1,65,0,1
141936,-83.3333333333333,4,3,1,65,0,1
142021,-83.3333333333333,4,3,1,65,0,1
142107,-83.3333333333333,4,3,1,65,0,1
148279,-66.6666666666667,4,3,1,65,0,0
148451,-66.6666666666667,4,3,1,5,0,0
148964,-66.6666666666667,4,3,1,65,0,0
149136,-66.6666666666667,4,3,1,5,0,0
149650,-66.6666666666667,4,3,1,65,0,0
149822,-66.6666666666667,4,3,1,5,0,0
150336,-133.333333333333,4,3,1,65,0,0
150679,-133.333333333333,4,3,1,5,0,0
151021,-83.3333333333333,4,3,1,65,0,1
151707,-83.3333333333333,4,3,1,65,0,0
152564,-83.3333333333333,4,3,1,5,0,0
153764,-83.3333333333333,4,3,1,65,0,1
158907,-200,4,3,1,65,0,1
160279,-83.3333333333333,4,3,1,65,0,1
164736,-83.3333333333333,4,3,7,65,0,0
164993,-83.3333333333333,4,3,8,65,0,0
165079,-83.3333333333333,4,3,7,65,0,0
165250,-83.3333333333333,4,3,8,65,0,0
165336,-83.3333333333333,4,3,7,65,0,0
165421,-83.3333333333333,4,3,8,65,0,0
165764,-83.3333333333333,4,3,9,65,0,0
166107,-83.3333333333333,4,3,10,65,0,0
166279,-83.3333333333333,4,3,1,65,0,0
166621,-83.3333333333333,4,3,7,65,0,0
166793,-83.3333333333333,4,3,1,65,0,0
167136,-83.3333333333333,4,3,8,65,0,0
167307,-83.3333333333333,4,3,9,65,0,0
167479,-83.3333333333333,4,3,1,65,0,0
168764,-83.3333333333333,4,3,1,5,0,0
168850,-1000,4,3,1,65,0,0
170136,-1000,4,3,1,5,0,0
170222,555.555555555556,4,3,1,65,1,0
183555,-66.6666666666667,4,3,1,55,0,0
185777,-66.6666666666667,4,3,8,55,0,0
185847,-66.6666666666667,4,3,1,55,0,0
186055,-66.6666666666667,4,3,8,55,0,0
186124,-66.6666666666667,4,3,1,55,0,0
186610,-66.6666666666667,4,3,8,55,0,0
187166,-66.6666666666667,4,3,1,55,0,0
187305,-50,4,3,8,55,0,0
187722,-50,4,3,1,55,0,0
187999,-80,4,3,1,55,0,0
189041,-80,4,3,1,5,0,0
189110,-80,4,3,1,55,0,0
189666,-200,4,3,1,55,0,0
190221,-66.6666666666667,4,3,1,55,0,0
190499,-66.6666666666667,4,3,1,5,0,0
190777,-66.6666666666667,4,3,1,55,0,0
191888,-200,4,3,1,55,0,0
192374,-200,4,3,1,5,0,0
192444,-66.6666666666667,4,3,1,55,0,0
192722,-66.6666666666667,4,3,1,5,0,0
192999,-66.6666666666667,4,3,1,55,0,0
194110,-200,4,3,1,55,0,0
194666,-66.6666666666667,4,3,1,55,0,0
194944,-66.6666666666667,4,3,1,5,0,0
195222,-66.6666666666667,4,3,1,55,0,0
196333,-200,4,3,1,55,0,0
196819,-200,4,3,1,5,0,0
196888,-66.6666666666667,4,3,1,55,0,0
197166,-66.6666666666667,4,3,1,5,0,0
197444,-66.6666666666667,4,3,1,55,0,0
198555,-200,4,3,1,55,0,0
199110,-66.6666666666667,4,3,1,55,0,0
199388,-66.6666666666667,4,3,1,5,0,0
199666,-66.6666666666667,4,3,1,55,0,0
200777,-200,4,3,1,55,0,0
201263,-200,4,3,1,5,0,0
201333,-200,4,3,1,55,0,0
203555,-33.3333333333333,4,3,1,55,0,0
203833,-33.3333333333333,4,3,10,55,0,0
204110,-33.3333333333333,4,3,9,55,0,0
204388,-33.3333333333333,4,3,8,55,0,0
204666,-33.3333333333333,4,3,7,55,0,0
204944,-33.3333333333333,4,3,1,55,0,0
205222,-33.3333333333333,4,3,10,55,0,0
205499,-33.3333333333333,4,3,9,55,0,0
205777,342.857142857143,4,3,1,65,1,0
205948,-100,4,3,7,65,0,0
206119,-100,4,3,1,65,0,0
206291,-100,4,3,7,65,0,0
206634,-100,4,3,1,65,0,0
206805,-100,4,3,7,65,0,0
207319,-100,4,3,1,65,0,0
208005,-100,4,3,7,65,0,0
208177,-66.6666666666667,4,3,1,65,0,0
208348,-66.6666666666667,4,3,8,65,0,0
208519,-80,4,3,1,65,0,0
209377,-80,4,3,8,65,0,0
209548,-80,4,3,1,65,0,0
210234,-80,4,3,8,65,0,0
210577,-66.6666666666667,4,3,1,65,0,0
211177,-66.6666666666667,4,3,1,5,0,0
211262,-66.6666666666667,4,3,8,65,0,0
211434,-66.6666666666667,4,3,7,65,0,0
211605,-66.6666666666667,4,3,1,65,0,0
211777,-66.6666666666667,4,3,7,65,0,0
212119,-66.6666666666667,4,3,1,65,0,0
212291,-66.6666666666667,4,3,9,65,0,0
212462,-66.6666666666667,4,3,8,65,0,0
212805,-66.6666666666667,4,3,1,65,0,0
213319,-66.6666666666667,4,3,7,65,0,0
213662,-66.6666666666667,4,3,1,65,0,0
213834,-66.6666666666667,4,3,8,65,0,0
214005,-66.6666666666667,4,3,1,65,0,0
215377,-66.6666666666667,4,3,1,5,0,0
215548,-66.6666666666667,4,3,1,65,0,0
215719,-66.6666666666667,4,3,1,5,0,0
215891,-66.6666666666667,4,3,1,65,0,0
216062,-66.6666666666667,4,3,1,5,0,0
216234,-66.6666666666667,4,3,1,65,0,0
216405,-66.6666666666667,4,3,1,5,0,0
216748,-100,4,3,1,65,0,0
217005,-100,4,3,1,5,0,0
217091,-100,4,3,1,65,0,0
219748,-100,4,3,1,5,0,0
219834,-100,4,3,1,65,0,0
220262,-100,4,3,1,5,0,0
220348,-100,4,3,1,65,0,0
221805,-100,4,3,1,65,0,0
222062,-133.333333333333,4,3,1,65,0,0
222234,-80,4,3,1,65,0,0
225234,-80,4,3,1,5,0,0
225319,-80,4,3,1,65,0,0
227377,-80,4,3,10,65,0,0
227548,-80,4,3,9,65,0,0
227719,-80,4,3,1,65,0,0
227977,-80,4,3,1,5,0,0
228062,-80,4,3,1,65,0,0
228491,-80,4,3,1,5,0,0
228577,-80,4,3,1,65,0,0
231577,-80,4,3,1,5,0,0
231662,-80,4,3,1,65,0,0
236205,-80,4,3,1,5,0,0
236291,-80,4,3,1,65,0,0
238948,-80,4,3,1,5,0,0
239034,-80,4,3,1,65,0,0
243577,-80,4,3,1,5,0,0
243662,-80,4,3,1,65,0,0
243748,-80,4,3,1,5,0,0
243834,-66.6666666666667,4,3,1,65,0,0
243919,-66.6666666666667,4,3,1,5,0,0
244005,-66.6666666666667,4,3,1,65,0,0
244091,-66.6666666666667,4,3,1,5,0,0
244177,-100,4,3,1,65,0,0
244434,-100,4,3,1,5,0,0
244519,-66.6666666666667,4,3,1,65,0,0
244605,-66.6666666666667,4,3,1,5,0,0
244691,-80,4,3,1,65,0,0
250434,-80,4,3,1,5,0,0
250519,-80,4,3,1,65,0,0
251119,-80,4,3,1,5,0,0
251205,-80,4,3,1,65,0,0
253862,-80,4,3,1,5,0,0
253948,-80,4,3,1,65,0,0
254548,-80,4,3,1,5,0,0
254634,-80,4,3,1,65,0,0
260634,-66.6666666666667,4,3,1,65,0,0
260891,-80,4,3,1,5,0,0
260977,-66.6666666666667,4,3,1,65,0,0
261319,-80,4,3,1,65,0,0
263634,-80,4,3,1,5,0,0
263719,-80,4,3,1,65,0,0
266034,-80,4,3,1,5,0,0
266119,-100,4,3,1,65,0,0
266377,-100,4,3,1,5,0,0
266462,-100,4,3,1,65,0,0
268519,-80,4,3,1,65,0,0
268777,-80,4,3,1,5,0,0
268862,-80,4,3,1,65,0,0
269377,-100,4,3,1,65,0,0
270319,-100,4,3,7,65,0,0
270405,-100,4,3,1,65,0,0
270662,-100,4,3,7,65,0,0
270748,-100,4,3,1,65,0,0
270834,-100,4,3,7,65,0,0
270919,-100,4,3,1,65,0,0
271177,-100,4,3,7,65,0,0
271262,-100,4,3,1,65,0,0
271348,-100,4,3,7,65,0,0
271434,-100,4,3,1,65,0,0
271605,-100,4,3,1,65,0,1
279834,-66.6666666666667,4,3,1,65,0,1
280348,-58.8235294117647,4,3,1,65,0,1
280862,-50,4,3,1,65,0,1
282577,-100,4,3,1,65,0,0
283177,-100,4,3,1,5,0,0
283262,-100,4,3,1,65,0,0
288062,-100,4,3,1,65,0,0
292177,-100,4,3,1,65,0,0
292219,-100,4,3,1,25,0,0
292262,-100,4,3,1,65,0,0
292304,-100,4,3,1,25,0,0
292348,-100,4,3,1,65,0,0
292390,-100,4,3,1,25,0,0
292434,-100,4,3,1,65,0,0
292476,-100,4,3,1,25,0,0
292519,-100,4,3,1,65,0,0
292561,-100,4,3,1,25,0,0
292605,-100,4,3,1,65,0,0
292647,-100,4,3,1,25,0,0
292691,-100,4,3,1,65,0,0
292733,-100,4,3,1,25,0,0
292777,-100,4,3,1,65,0,0
292819,-100,4,3,1,25,0,0
292862,-100,4,3,1,65,0,0
292904,-100,4,3,1,25,0,0
292948,-100,4,3,1,65,0,0
292990,-100,4,3,1,25,0,0
293034,-100,4,3,1,65,0,0
293076,-100,4,3,1,25,0,0
293119,-100,4,3,1,65,0,0
293161,-100,4,3,1,25,0,0
293205,-100,4,3,1,65,0,0
293247,-100,4,3,1,25,0,0
293291,-100,4,3,1,65,0,0
293333,-100,4,3,1,25,0,0
293377,-100,4,3,1,65,0,0
293419,-100,4,3,1,25,0,0
293462,-100,4,3,1,65,0,0
293504,-100,4,3,1,25,0,0
293548,-100,4,3,1,65,0,0
296462,-100,4,3,1,5,0,0
296519,-100,4,3,1,65,0,0
296919,-100,4,3,1,5,0,0
296977,-100,4,3,1,65,0,0
297205,-100,4,3,1,5,0,0
297262,-100,4,3,1,65,0,0
297377,-100,4,3,1,5,0,0
297434,-100,4,3,1,65,0,0
297548,-100,4,3,1,5,0,0
297662,-100,4,3,1,65,0,0
304691,-100,4,3,1,5,0,0
304862,-100,4,3,1,65,0,0
305034,-100,4,3,1,5,0,0
305205,-100,4,3,1,65,0,0
307262,-80,4,3,1,65,0,1
308677,-80,4,3,1,25,0,1
308719,-80,4,3,1,65,0,1
308762,-80,4,3,1,25,0,1
308805,-80,4,3,1,65,0,1
308848,-80,4,3,1,25,0,1
308891,-80,4,3,1,65,0,1
308934,-80,4,3,1,25,0,1
308977,-80,4,3,1,65,0,1
309020,-80,4,3,1,25,0,1
309062,-80,4,3,1,65,0,1
309105,-80,4,3,1,25,0,1
309148,-80,4,3,1,65,0,1
309362,-80,4,3,1,25,0,1
309405,-80,4,3,1,65,0,1
309448,-80,4,3,1,25,0,1
309491,-80,4,3,1,65,0,1
309534,-80,4,3,1,25,0,1
309577,-80,4,3,1,65,0,1
309620,-80,4,3,1,25,0,1
309662,-80,4,3,1,65,0,1
309705,-80,4,3,1,25,0,1
309748,-80,4,3,1,65,0,1
309791,-80,4,3,1,25,0,1
309834,-80,4,3,1,65,0,1
309877,-80,4,3,1,25,0,1
309919,-80,4,3,1,65,0,1
309962,-80,4,3,1,25,0,1
310005,-66.6666666666667,4,3,1,65,0,1
310262,-80,4,3,1,65,0,1
311634,-80,4,3,1,5,0,1
311719,-80,4,3,1,65,0,1
311977,-80,4,3,1,5,0,1
312062,-66.6666666666667,4,3,1,65,0,1
312662,-66.6666666666667,4,3,1,5,0,1
312748,-66.6666666666667,4,3,1,65,0,1
316862,-66.6666666666667,4,3,8,65,0,1
317205,-66.6666666666667,4,3,9,65,0,1
317548,-66.6666666666667,4,3,1,65,0,1
321748,-66.6666666666667,4,3,1,5,0,1
321834,-66.6666666666667,4,3,1,65,0,1
322348,-66.6666666666667,4,3,7,65,0,1
322434,-66.6666666666667,4,3,1,65,0,1
322519,-66.6666666666667,4,3,7,65,0,1
322605,-66.6666666666667,4,3,8,65,0,1
322691,-66.6666666666667,4,3,1,65,0,1
322862,-66.6666666666667,4,3,9,65,0,1
322948,-66.6666666666667,4,3,1,65,0,1
323034,-66.6666666666667,4,3,9,65,0,1
323119,-66.6666666666667,4,3,1,65,0,1
338805,-66.6666666666667,4,3,7,65,0,1
338891,-66.6666666666667,4,3,1,65,0,1
339062,-66.6666666666667,4,3,7,65,0,1
339148,-66.6666666666667,4,3,1,65,0,1
339319,-66.6666666666667,4,3,8,65,0,1
339405,-66.6666666666667,4,3,1,65,0,1
339491,-66.6666666666667,4,3,9,65,0,1
339662,-66.6666666666667,4,3,1,65,0,1
340348,-66.6666666666667,4,3,1,5,0,1
340519,-66.6666666666667,4,3,1,65,0,1
340691,-66.6666666666667,4,3,1,5,0,1
340862,-66.6666666666667,4,3,1,65,0,1
341034,-66.6666666666667,4,3,1,5,0,1
341205,-66.6666666666667,4,3,1,65,0,1
341377,-66.6666666666667,4,3,1,5,0,1
341548,-100,4,3,1,65,0,0
342919,-80,4,3,1,65,0,1
352605,-80,4,3,1,5,0,1
352691,-80,4,3,1,65,0,1
353119,-80,4,3,9,65,0,1
353205,-80,4,3,1,65,0,1
353291,-80,4,3,8,65,0,1
353377,-80,4,3,1,65,0,1
353719,-80,4,3,10,65,0,1
353891,-80,4,3,1,65,0,1
356634,-80,4,3,1,75,0,1
358005,-100,4,3,1,65,0,0
359377,684.931506849315,4,3,1,50,1,0
359377,-66.6666666666667,4,3,1,50,0,0
364770,-66.6666666666667,4,3,1,5,0,0
364856,-66.6666666666667,4,3,1,50,0,0
369822,-66.6666666666667,4,3,9,50,0,0
370335,759.493670886076,4,3,1,40,1,0
370904,-100,4,2,0,40,0,0
371841,769.230769230768,4,2,0,35,1,0
373458,789.473684210525,4,2,0,30,1,0
373458,-500.000000000003,4,2,0,30,0,0
377580,857.142857142856,4,2,0,25,1,0
382722,-100,4,3,1,5,0,0

[Colours]
Combo1 : 255,0,0
Combo2 : 255,128,64
Combo3 : 128,64,64
Combo4 : 128,64,0

[HitObjects]
165,288,4279,6,0,L|250:274,5,50.0000019073487,14|0|10|0|10|0,0:0|0:0|0:0|0:0|0:0|0:0,0:0:0:0:
310,218,4621,1,10,0:0:0:0:
313,213,4679,1,0,0:0:0:0:
315,208,4736,1,10,0:0:0:0:
316,203,4793,1,0,0:0:0:0:
316,198,4850,1,10,0:0:0:0:
315,193,4907,1,0,0:0:0:0:
313,188,4964,1,10,0:0:0:0:
310,183,5021,1,0,0:0:0:0:
306,179,5079,1,10,0:0:0:0:
302,175,5136,1,0,0:0:0:0:
298,172,5193,1,10,0:0:0:0:
293,169,5250,1,0,0:0:0:0:
288,167,5307,2,0,P|254:175|230:193,5,50.0000019073487,10|0|10|0|10|0,0:0|0:0|0:0|0:0|0:0|0:0,0:0:0:0:
141,166,5650,5,10,0:0:0:0:
137,162,5707,1,0,0:0:0:0:
133,158,5764,1,10,0:0:0:0:
127,149,5821,1,0,0:0:0:0:
122,139,5879,1,10,0:0:0:0:
116,124,5936,1,0,0:0:0:0:
116,109,5993,1,10,0:0:0:0:
122,90,6050,1,0,0:0:0:0:
133,73,6107,1,10,0:0:0:0:
154,60,6164,1,0,0:0:0:0:
178,53,6221,1,10,0:0:0:0:
207,61,6279,1,0,0:0:0:0:
227,79,6336,2,0,P|240:112|227:174,5,66.6666666666667,10|0|10|0|10|0,0:0|0:0|0:0|0:0|0:0|0:0,0:0:0:0:
178,243,6679,1,10,0:0:0:0:
178,265,6736,1,0,0:0:0:0:
187,287,6793,1,10,0:0:0:0:
205,301,6850,1,0,0:0:0:0:
228,305,6907,1,10,0:0:0:0:
249,297,6964,1,0,0:0:0:0:
266,278,7021,6,0,P|256:251|221:215,2,66.6666666666667,10|0|0,0:0|0:0|0:0,0:0:0:0:
350,251,7364,2,0,P|362:224|362:174,2,66.6666666666667,10|0|0,0:0|0:0|0:0,0:0:0:0:
213,359,7707,6,0,P|190:340|142:326,2,66.6666666666667,10|0|0,0:0|0:0|0:0,0:0:0:0:
410,306,8050,2,0,P|436:293|468:255,2,66.6666666666667,10|0|0,0:0|0:0|0:0,0:0:0:0:
301,128,8393,5,0,0:0:0:0:
294,137,8479,2,0,L|303:206,1,50,8|8,2:0|2:0,0:0:0:0:
411,103,8650,5,8,0:0:0:0:
422,97,8736,2,0,L|431:28,1,50,8|8,2:0|2:0,0:0:0:0:
249,7,8907,2,0,L|255:56,1,50,8|8,0:0|2:0,0:0:0:0:
162,173,9079,5,8,0:0:0:0:
150,182,9164,1,8,0:0:0:0:
130,186,9250,1,8,2:0:0:0:
102,174,9336,1,8,2:0:0:0:
86,137,9421,1,8,2:0:0:0:
109,92,9507,1,8,2:0:0:0:
172,69,9593,1,8,2:0:0:0:
242,95,9679,1,8,2:0:0:0:
266,169,9764,6,0,L|252:243,5,66.6666666666667,14|0|10|0|10|0,0:0|0:0|0:0|0:0|0:0|0:0,0:0:0:0:
298,321,10107,5,10,0:0:0:0:
307,311,10164,1,0,0:0:0:0:
317,303,10221,1,10,0:0:0:0:
330,299,10279,1,0,0:0:0:0:
343,298,10336,1,10,0:0:0:0:
356,300,10393,1,0,0:0:0:0:
367,306,10450,1,10,0:0:0:0:
375,316,10507,1,0,0:0:0:0:
386,323,10564,1,10,0:0:0:0:
398,327,10621,1,0,0:0:0:0:
411,328,10679,1,10,0:0:0:0:
424,325,10736,1,0,0:0:0:0:
433,316,10793,2,0,P|440:287|417:249,5,66.6666666666667,10|0|10|0|10|0,0:0|0:0|0:0|0:0|0:0|0:0,0:0:0:0:
338,202,11136,5,10,0:0:0:0:
331,204,11193,1,0,0:0:0:0:
324,206,11250,1,10,0:0:0:0:
318,209,11307,1,0,0:0:0:0:
312,212,11364,1,10,0:0:0:0:
306,215,11421,1,0,0:0:0:0:
300,218,11479,1,10,0:0:0:0:
294,222,11536,1,0,0:0:0:0:
288,226,11593,1,10,0:0:0:0:
283,230,11650,1,0,0:0:0:0:
278,234,11707,1,10,0:0:0:0:
273,238,11764,1,0,0:0:0:0:
268,243,11821,2,0,P|247:280|234:323,5,66.6666666666667,10|0|10|0|10|0,0:0|0:0|0:0|0:0|0:0|0:0,0:0:0:0:
197,359,12164,1,10,0:0:0:0:
194,352,12221,1,0,0:0:0:0:
191,346,12279,1,10,0:0:0:0:
187,341,12336,1,0,0:0:0:0:
183,336,12393,1,10,0:0:0:0:
180,331,12450,1,0,0:0:0:0:
176,326,12507,5,8,2:0:0:0:
9,85,12679,1,8,2:0:0:0:
3,73,13021,5,8,2:0:0:0:
323,57,13193,1,8,2:0:0:0:
336,47,13536,5,8,2:0:0:0:
104,233,13707,1,8,2:0:0:0:
91,230,14050,5,8,2:0:0:0:
364,303,14221,1,8,2:0:0:0:
229,24,15250,6,0,P|232:33|229:25,5,66.6666666666667,14|0|10|0|10|0,0:0|0:0|0:0|0:0|0:0|0:0,0:0:0:0:
172,73,15593,1,10,0:0:0:0:
169,79,15650,1,0,0:0:0:0:
167,85,15707,1,10,0:0:0:0:
166,91,15764,1,0,0:0:0:0:
166,97,15821,1,10,0:0:0:0:
167,103,15879,1,0,0:0:0:0:
168,109,15936,1,10,0:0:0:0:
170,115,15993,1,0,0:0:0:0:
172,121,16050,1,10,0:0:0:0:
175,126,16107,1,0,0:0:0:0:
179,131,16164,1,10,0:0:0:0:
183,136,16221,1,0,0:0:0:0:
187,140,16279,2,0,P|212:123|262:116,5,66.6666666666667,10|0|10|0|10|0,0:0|0:0|0:0|0:0|0:0|0:0,0:0:0:0:
389,184,16621,5,10,0:0:0:0:
396,183,16679,1,0,0:0:0:0:
408,177,16736,1,10,0:0:0:0:
419,168,16793,1,0,0:0:0:0:
428,150,16850,1,10,0:0:0:0:
427,130,16907,1,0,0:0:0:0:
413,107,16964,1,10,0:0:0:0:
389,97,17021,1,0,0:0:0:0:
362,95,17079,1,10,0:0:0:0:
338,105,17136,1,0,0:0:0:0:
324,125,17193,1,10,0:0:0:0:
316,148,17250,1,0,0:0:0:0:
317,172,17307,2,0,P|345:195|385:199,5,66.6666666666667,10|0|10|0|10|0,0:0|0:0|0:0|0:0|0:0|0:0,0:0:0:0:
354,300,17650,1,10,0:0:0:0:
336,316,17707,1,0,0:0:0:0:
313,324,17764,1,10,0:0:0:0:
289,322,17821,1,0,0:0:0:0:
267,311,17879,1,10,0:0:0:0:
254,290,17936,1,0,0:0:0:0:
254,264,17993,6,0,P|294:248|347:253,2,66.6666666666667,10|0|0,0:0|0:0|0:0,0:0:0:0:
322,139,18336,2,0,P|361:155|395:196,2,66.6666666666667,10|0|0,0:0|0:0|0:0,0:0:0:0:
177,153,18679,6,0,P|137:137|84:142,2,66.6666666666667,10|0|0,0:0|0:0|0:0,0:0:0:0:
109,28,19022,2,0,P|69:44|35:85,2,66.6666666666667,10|0|0,0:0|0:0|0:0,0:0:0:0:
10,183,19364,5,8,0:0:0:0:
19,182,19450,1,8,0:0:0:0:
28,185,19536,1,8,0:0:0:0:
36,188,19621,1,8,0:0:0:0:
55,253,19707,5,8,0:0:0:0:
63,258,19793,1,8,0:0:0:0:
69,265,19879,1,8,0:0:0:0:
75,272,19964,1,8,0:0:0:0:
146,302,20050,5,8,0:0:0:0:
147,297,20136,1,8,0:0:0:0:
148,292,20221,1,8,0:0:0:0:
149,287,20307,1,8,0:0:0:0:
209,239,20393,5,8,0:0:0:0:
210,244,20479,1,8,0:0:0:0:
211,249,20564,1,8,0:0:0:0:
212,254,20650,1,8,0:0:0:0:
238,322,20736,6,0,L|326:312,5,66.6666666666667,14|0|10|0|10|0,0:0|0:0|0:0|0:0|0:0|0:0,0:0:0:0:
385,358,21079,1,10,0:0:0:0:
386,351,21136,1,0,0:0:0:0:
388,344,21193,1,10,0:0:0:0:
390,337,21250,1,0,0:0:0:0:
392,330,21307,1,10,0:0:0:0:
394,323,21364,1,0,0:0:0:0:
396,316,21421,1,10,0:0:0:0:
398,309,21479,1,0,0:0:0:0:
400,302,21536,1,10,0:0:0:0:
402,295,21593,1,0,0:0:0:0:
404,288,21650,1,10,0:0:0:0:
406,281,21707,1,0,0:0:0:0:
408,274,21764,2,0,P|443:261|481:259,5,66.6666666666667,10|0|10|0|10|0,0:0|0:0|0:0|0:0|0:0|0:0,0:0:0:0:
512,162,22107,5,10,0:0:0:0:
511,165,22164,1,0,0:0:0:0:
508,171,22221,1,10,0:0:0:0:
504,176,22279,1,0,0:0:0:0:
495,181,22336,1,10,0:0:0:0:
485,184,22393,1,0,0:0:0:0:
471,186,22450,1,10,0:0:0:0:
457,185,22507,1,0,0:0:0:0:
441,179,22564,1,10,0:0:0:0:
428,168,22621,1,0,0:0:0:0:
419,149,22679,1,10,0:0:0:0:
420,129,22736,1,0,0:0:0:0:
430,111,22793,1,10,0:0:0:0:
447,101,22850,1,0,0:0:0:0:
464,85,22907,1,10,0:0:0:0:
468,62,22964,1,0,0:0:0:0:
463,35,23021,1,10,0:0:0:0:
442,17,23079,1,0,0:0:0:0:
412,15,23136,1,10,0:0:0:0:
384,26,23193,1,0,0:0:0:0:
367,54,23250,1,10,0:0:0:0:
349,82,23307,1,0,0:0:0:0:
315,95,23364,1,10,0:0:0:0:
279,88,23421,1,0,0:0:0:0:
260,55,23479,5,10,0:0:0:0:
459,232,23650,1,10,0:0:0:0:
472,239,23993,5,10,0:0:0:0:
142,117,24164,1,10,0:0:0:0:
131,108,24507,5,10,0:0:0:0:
283,366,24679,1,10,0:0:0:0:
285,378,25021,5,10,0:0:0:0:
255,34,25193,1,10,0:0:0:0:
483,162,27593,6,0,B|435:156|435:156|419:160|419:160|329:148,1,119.999996337891,6|10,0:0|0:0,0:0:0:0:
275,223,27850,1,0,0:0:0:0:
251,218,27936,1,0,0:0:0:0:
227,213,28021,1,0,0:0:0:0:
203,208,28107,6,0,L|206:338,1,119.999996337891,10|0,0:0|0:0,0:0:0:0:
133,164,28450,1,10,0:0:0:0:
49,270,28621,2,0,L|121:288,1,59.9999981689454
19,192,28793,1,10,0:0:0:0:
133,88,28964,6,0,P|178:75|236:127,1,119.999996337891,0|10,0:0|0:0,0:0:0:0:
265,238,29307,1,0,0:0:0:0:
265,238,29393,1,0,0:0:0:0:
265,238,29479,2,0,B|294:211|294:211|426:243,1,119.999996337891,10|0,0:0|0:0,0:0:0:0:
450,173,29821,1,10,0:0:0:0:
344,84,29993,2,0,L|338:168,1,59.9999981689454
408,27,30164,1,10,0:0:0:0:
224,11,30336,6,0,B|231:65|231:65|226:78|226:78|237:171,1,119.999996337891,0|10,0:0|0:0,0:0:0:0:
119,202,30593,1,0,0:0:0:0:
122,178,30679,1,0,0:0:0:0:
125,154,30764,1,0,0:0:0:0:
128,130,30850,2,0,B|101:119|101:119|6:151,1,119.999996337891,10|0,0:0|0:0,0:0:0:0:
19,26,31107,1,0,0:0:0:0:
42,30,31193,1,10,0:0:0:0:
65,34,31279,1,0,0:0:0:0:
87,40,31364,2,0,L|100:126,1,59.9999981689454
172,7,31536,1,10,0:0:0:0:
232,166,31707,5,0,0:0:0:0:
254,130,31793,1,0,0:0:0:0:
291,111,31879,1,10,0:0:0:0:
332,114,31964,1,0,0:0:0:0:
362,143,32050,1,0,0:0:0:0:
399,162,32136,1,0,0:0:0:0:
439,150,32221,5,10,0:0:0:0:
470,4,32393,1,0,0:0:0:0:
360,252,32564,1,10,0:0:0:0:
306,91,32736,1,0,0:0:0:0:
267,119,32821,1,0,0:0:0:0:
257,166,32907,1,10,0:0:0:0:
275,210,32993,1,0,0:0:0:0:
315,235,33079,6,0,B|340:207|340:207|182:200,1,179.999994506836,6|0,0:0|0:0,0:0:0:0:
178,209,33421,2,0,L|184:287,1,59.9999981689454
73,142,33593,2,0,L|77:82,1,59.9999981689454,10|0,0:0|0:0,0:0:0:0:
194,7,33764,2,0,L|210:142,1,119.999996337891,0|10,0:0|0:0,0:0:0:0:
349,0,34107,2,0,L|343:71,1,59.9999981689454
335,173,34279,1,10,0:0:0:0:
512,85,34450,6,0,P|475:70|409:106,1,119.999996337891,0|10,0:0|0:0,0:0:0:0:
406,229,34793,2,0,L|484:211,1,59.9999981689454
486,323,34964,2,0,L|318:304,1,119.999996337891,10|0,0:0|0:0,0:0:0:0:
286,243,35307,1,10,0:0:0:0:
198,345,35479,2,0,L|280:354,1,59.9999981689454
355,301,35650,2,0,L|437:310,1,59.9999981689454,10|0,0:0|0:0,0:0:0:0:
502,181,35821,5,8,0:0:0:0:
496,195,35907,1,8,0:0:0:0:
358,217,36079,5,8,0:0:0:0:
364,203,36165,1,8,0:0:0:0:
371,187,36250,1,8,0:0:0:0:
329,163,36336,1,8,0:0:0:0:
281,169,36421,1,8,0:0:0:0:
247,204,36507,1,8,0:0:0:0:
206,216,36593,1,8,0:0:0:0:
172,202,36679,1,8,0:0:0:0:
158,175,36764,1,8,0:0:0:0:
187,110,36850,5,8,0:0:0:0:
204,111,36936,1,8,0:0:0:0:
221,112,37021,1,8,0:0:0:0:
238,113,37107,1,8,0:0:0:0:
255,114,37193,5,8,0:0:0:0:
118,11,37364,1,8,2:0:0:0:
111,64,37450,1,8,2:0:0:0:
104,117,37536,1,8,2:0:0:0:
97,170,37621,1,8,2:0:0:0:
90,223,37707,2,0,L|28:215,1,59.9999981689454,8|8,0:0|0:0,0:0:0:0:
101,370,37879,5,8,2:0:0:0:
154,363,37964,1,8,2:0:0:0:
207,357,38050,1,8,2:0:0:0:
260,351,38136,1,8,2:0:0:0:
313,345,38221,2,0,L|317:269,1,59.9999981689454,8|8,0:0|0:0,0:0:0:0:
211,220,38393,2,0,L|208:161,1,59.9999981689454,8|8,0:0|0:0,0:0:0:0:
404,97,38564,6,0,L|411:267,1,150.000005722046,6|0,0:0|0:0,0:0:0:0:
82,354,39936,6,0,L|88:204,1,150.000005722046,6|0,0:0|0:0,0:0:0:0:
361,12,41307,5,8,2:0:0:0:
360,19,41393,1,8,2:0:0:0:
359,26,41479,1,8,2:0:0:0:
358,33,41564,1,8,2:0:0:0:
357,40,41650,2,0,L|430:23,1,62.5,8|8,2:0|2:0,0:0:0:0:
501,152,41821,5,8,2:0:0:0:
476,148,41907,1,8,2:0:0:0:
451,144,41993,1,8,2:0:0:0:
426,140,42079,1,8,2:0:0:0:
370,218,42164,5,8,2:0:0:0:
386,215,42250,1,8,2:0:0:0:
403,213,42336,1,8,2:0:0:0:
420,211,42421,1,8,2:0:0:0:
437,210,42507,2,0,L|449:283,1,62.5,8|8,2:0|2:0,0:0:0:0:
336,370,42679,5,8,0:0:0:0:
314,325,42764,1,8,0:0:0:0:
269,301,42850,1,8,2:0:0:0:
218,302,42936,1,8,0:0:0:0:
176,329,43021,2,0,P|165:365|166:393,1,62.5,8|0,2:0|0:0,0:0:0:0:
59,283,43193,5,8,0:0:0:0:
55,271,43279,1,8,2:0:0:0:
51,259,43364,5,8,0:0:0:0:
95,281,43450,1,8,2:0:0:0:
144,276,43536,1,8,2:0:0:0:
175,237,43621,1,8,2:0:0:0:
170,165,43707,5,8,2:0:0:0:
117,199,43793,1,8,2:0:0:0:
107,261,43879,1,8,2:0:0:0:
141,312,43964,1,8,2:0:0:0:
202,321,44050,5,6,0:0:0:0:
235,283,44136,1,0,0:0:0:0:
283,275,44221,1,10,0:0:0:0:
330,292,44307,1,0,0:0:0:0:
353,336,44393,2,0,P|346:353|310:379,1,62.5
461,327,44564,5,10,0:0:0:0:
427,289,44650,1,0,0:0:0:0:
416,239,44736,1,0,0:0:0:0:
440,195,44821,1,0,0:0:0:0:
482,167,44907,1,10,0:0:0:0:
492,117,44993,1,0,0:0:0:0:
441,64,45079,5,0,0:0:0:0:
386,76,45164,1,0,0:0:0:0:
331,88,45250,1,10,0:0:0:0:
276,100,45336,1,0,0:0:0:0:
233,80,45421,6,0,L|238:13,2,62.5,0|0|10,0:0|0:0|0:0,0:0:0:0:
123,148,45679,2,0,L|118:81,2,62.5
214,209,45936,2,0,L|204:293,1,62.5,10|0,0:0|0:0,0:0:0:0:
105,354,46107,5,0,0:0:0:0:
56,339,46193,1,0,0:0:0:0:
34,293,46279,1,10,0:0:0:0:
43,244,46364,1,0,0:0:0:0:
81,211,46450,1,0,0:0:0:0:
93,162,46536,1,0,0:0:0:0:
70,118,46621,2,0,P|54:108|8:106,1,62.5,10|0,0:0|0:0,0:0:0:0:
109,283,46793,5,8,3:2:0:0:
164,274,46879,1,8,2:0:0:0:
219,265,46964,1,8,2:0:0:0:
274,256,47050,1,8,2:0:0:0:
335,198,47136,5,8,3:2:0:0:
280,189,47222,1,8,2:0:0:0:
225,180,47307,1,8,2:0:0:0:
170,171,47393,1,8,2:0:0:0:
138,103,47479,5,8,0:0:0:0:
168,95,47564,1,8,0:0:0:0:
198,87,47650,1,8,0:0:0:0:
228,79,47736,1,8,0:0:0:0:
267,19,47821,5,8,0:0:0:0:
249,14,47906,1,8,0:0:0:0:
231,9,47992,1,8,0:0:0:0:
213,4,48078,1,8,0:0:0:0:
143,11,48164,5,14,0:0:0:0:
94,294,48336,1,14,0:0:0:0:
377,343,48507,1,14,0:0:0:0:
426,60,48679,1,14,0:0:0:0:
182,204,48850,5,8,2:0:0:0:
221,260,48936,1,8,2:0:0:0:
276,267,49021,1,8,0:0:0:0:
306,244,49107,1,8,0:0:0:0:
306,212,49193,5,8,2:0:0:0:
248,250,49279,1,8,2:0:0:0:
254,317,49364,1,8,2:0:0:0:
310,356,49450,1,8,2:0:0:0:
382,346,49536,5,6,0:0:0:0:
391,303,49621,1,0,0:0:0:0:
400,260,49707,1,10,0:2:0:0:
409,217,49793,1,0,0:0:0:0:
418,174,49879,2,0,L|502:166,1,62.5
388,20,50050,5,10,0:2:0:0:
369,66,50136,1,0,0:0:0:0:
325,88,50221,1,0,0:0:0:0:
274,85,50307,1,0,0:0:0:0:
237,50,50393,1,10,0:2:0:0:
188,36,50479,1,0,0:0:0:0:
142,55,50564,6,0,L|131:134,1,62.5
304,226,50736,2,0,L|295:164,1,62.5,10|0,0:2|0:0,0:0:0:0:
115,282,50907,5,6,0:0:0:0:
146,336,50993,1,0,0:0:0:0:
204,357,51079,1,10,0:2:0:0:
264,341,51164,1,0,0:0:0:0:
297,288,51250,1,0,0:0:0:0:
341,243,51336,1,0,0:0:0:0:
402,236,51421,1,10,0:2:0:0:
452,270,51507,1,0,0:0:0:0:
463,332,51593,1,0,0:0:0:0:
423,380,51679,1,0,0:0:0:0:
361,377,51764,1,10,0:2:0:0:
324,324,51850,1,0,0:0:0:0:
337,263,51936,1,0,0:0:0:0:
389,230,52021,1,0,0:0:0:0:
403,169,52107,1,10,0:2:0:0:
373,113,52193,1,0,0:0:0:0:
312,94,52279,6,0,L|302:177,2,62.5,2|0|10,0:2|0:0|0:2,0:0:0:0:
209,18,52536,2,0,L|219:101,2,62.5,2|0|0,0:2|0:0|0:0,0:0:0:0:
114,74,52793,2,0,L|107:136,1,62.5,10|0,0:2|0:0,0:0:0:0:
168,233,52964,6,0,L|253:225,2,62.5,2|0|10,0:2|0:0|0:2,0:0:0:0:
111,320,53221,2,0,L|26:312,2,62.5,2|0|0,0:2|0:0|0:0,0:0:0:0:
181,382,53479,2,0,L|266:374,1,62.5,10|0,0:2|0:0,0:0:0:0:
349,346,53650,6,0,L|355:257,1,62.5,2|0,0:2|0:0,0:0:0:0:
423,228,53821,1,10,0:2:0:0:
444,214,53907,2,0,L|449:141,1,62.5,2|0,0:2|0:0,0:0:0:0:
370,115,54079,1,0,0:0:0:0:
360,103,54165,2,0,L|355:30,1,62.5,10|0,0:2|0:0,0:0:0:0:
221,1,54336,5,0,0:0:0:0:
167,16,54421,1,0,0:0:0:0:
143,60,54507,1,10,0:2:0:0:
143,103,54593,1,0,0:0:0:0:
166,132,54679,1,0,0:0:0:0:
195,140,54764,1,0,0:0:0:0:
218,131,54850,2,0,P|231:111|228:62,1,62.5,10|0,0:2|0:0,0:0:0:0:
72,25,55021,5,6,0:0:0:0:
65,74,55107,1,0,0:0:0:0:
58,123,55193,1,10,0:0:0:0:
51,172,55279,1,0,0:0:0:0:
45,221,55364,2,0,L|132:208,1,62.5
222,351,55536,5,10,0:0:0:0:
168,366,55621,1,0,0:0:0:0:
119,337,55707,1,0,0:0:0:0:
106,282,55793,1,0,0:0:0:0:
132,232,55879,2,0,P|158:211|208:207,1,62.5,10|0,0:0|0:0,0:0:0:0:
352,202,56050,5,0,0:0:0:0:
345,264,56136,1,0,0:0:0:0:
339,325,56221,2,0,L|335:388,1,62.5,10|0,0:0|0:0,0:0:0:0:
509,229,56393,5,6,0:0:0:0:
488,183,56479,1,0,0:0:0:0:
441,166,56564,1,10,0:0:0:0:
390,169,56650,1,0,0:0:0:0:
352,202,56736,2,0,L|345:278,1,62.5
214,337,56907,5,10,0:0:0:0:
180,308,56993,1,0,0:0:0:0:
166,266,57079,1,0,0:0:0:0:
176,223,57164,1,0,0:0:0:0:
211,197,57250,1,10,0:0:0:0:
223,154,57336,1,0,0:0:0:0:
179,90,57421,5,0,0:0:0:0:
159,92,57507,1,0,0:0:0:0:
139,94,57593,1,10,0:0:0:0:
118,96,57679,1,0,0:0:0:0:
96,99,57764,6,0,L|90:178,1,62.5
239,276,57936,1,8,2:0:0:0:
299,261,58021,1,8,2:0:0:0:
329,205,58107,1,8,2:0:0:0:
314,143,58193,1,8,2:0:0:0:
261,108,58279,5,0,0:0:0:0:
258,120,58364,1,0,0:0:0:0:
255,132,58450,5,8,2:0:0:0:
280,189,58536,1,8,2:0:0:0:
339,205,58621,1,8,2:0:0:0:
397,183,58707,1,8,2:0:0:0:
417,116,58793,5,0,0:0:0:0:
413,97,58879,1,0,0:0:0:0:
410,78,58964,1,0,0:0:0:0:
407,59,59050,1,0,0:0:0:0:
359,5,59136,5,8,2:0:0:0:
296,32,59221,1,8,2:0:0:0:
278,98,59307,1,8,2:0:0:0:
307,160,59393,1,8,2:0:0:0:
367,193,59479,2,0,L|466:176,1,62.5,2|0,0:0|0:0,0:0:0:0:
357,364,59650,5,8,2:0:0:0:
291,341,59736,1,8,2:0:0:0:
263,278,59821,1,8,2:0:0:0:
276,210,59907,1,8,2:0:0:0:
340,184,59993,2,0,L|439:167,1,62.5,2|0,0:0|0:0,0:0:0:0:
203,380,60164,5,8,2:0:0:0:
192,311,60250,1,8,2:0:0:0:
181,242,60336,1,8,2:0:0:0:
170,174,60421,1,8,2:0:0:0:
160,105,60507,6,0,L|18:96,1,125,10|0,0:0|0:0,0:0:0:0:
352,279,60850,2,0,L|494:270,1,125,10|0,0:0|0:0,0:0:0:0:
103,15,61193,6,0,L|95:182,1,125,10|0,0:0|0:0,0:0:0:0:
420,369,61536,2,0,L|414:244,1,125,10|0,0:0|0:0,0:0:0:0:
314,5,61879,5,14,0:0:0:0:
314,5,63250,5,14,0:0:0:0:
265,16,63336,1,0,0:0:0:0:
233,54,63421,1,0,0:0:0:0:
223,103,63507,1,0,0:0:0:0:
240,149,63593,1,10,0:2:0:0:
283,174,63679,1,0,0:0:0:0:
332,167,63764,5,0,0:0:0:0:
375,142,63850,1,0,0:0:0:0:
424,151,63936,1,10,0:2:0:0:
456,188,64021,1,0,0:0:0:0:
462,237,64107,1,0,0:0:0:0:
446,284,64193,1,0,0:0:0:0:
400,305,64279,5,10,0:2:0:0:
372,257,64364,1,0,0:0:0:0:
318,241,64450,1,0,0:0:0:0:
265,258,64536,1,0,0:0:0:0:
234,327,64621,5,10,0:2:0:0:
278,334,64707,1,0,0:0:0:0:
322,341,64793,1,0,0:0:0:0:
366,348,64879,1,0,0:0:0:0:
409,356,64964,2,0,L|418:277,1,50,10|0,0:2|0:0,0:0:0:0:
381,154,65136,5,0,0:0:0:0:
354,189,65221,1,0,0:0:0:0:
309,198,65307,1,10,0:2:0:0:
267,180,65393,1,0,0:0:0:0:
251,137,65479,1,0,0:0:0:0:
269,96,65564,1,0,0:0:0:0:
297,73,65650,5,10,0:2:0:0:
317,75,65736,1,0,0:0:0:0:
337,77,65821,1,0,0:0:0:0:
357,79,65907,1,0,0:0:0:0:
416,30,65993,5,14,0:0:0:0:
371,6,66079,1,0,0:0:0:0:
322,16,66164,1,0,0:0:0:0:
295,58,66250,1,0,0:0:0:0:
300,107,66336,2,0,L|359:118,1,50,10|0,0:2|0:0,0:0:0:0:
448,250,66507,5,0,0:0:0:0:
418,290,66593,1,0,0:0:0:0:
368,298,66679,1,10,0:2:0:0:
324,274,66764,1,0,0:0:0:0:
274,268,66850,1,0,0:0:0:0:
234,298,66936,1,0,0:0:0:0:
228,347,67021,6,0,P|248:366|283:371,1,50,10|0,0:2|0:0,0:0:0:0:
368,215,67193,2,0,P|343:206|292:204,1,50
402,380,67364,5,10,0:2:0:0:
452,357,67450,1,0,0:0:0:0:
466,303,67536,1,0,0:0:0:0:
446,252,67621,1,0,0:0:0:0:
397,226,67707,1,10,0:2:0:0:
366,179,67793,1,0,0:0:0:0:
359,124,67879,1,0,0:0:0:0:
387,77,67964,1,0,0:0:0:0:
439,61,68050,2,0,P|462:60|492:75,1,50,10|0,0:2|0:0,0:0:0:0:
511,218,68221,5,8,2:0:0:0:
445,212,68307,1,8,2:0:0:0:
379,207,68393,1,8,2:0:0:0:
313,202,68479,1,8,2:0:0:0:
248,197,68564,1,8,2:0:0:0:
182,192,68650,1,8,2:0:0:0:
116,187,68736,6,0,B|116:142|116:142|112:132|112:132|114:33,1,125,6|10,0:0|0:2,0:0:0:0:
225,11,68993,1,0,0:0:0:0:
227,29,69079,1,0,0:0:0:0:
229,47,69164,1,0,0:0:0:0:
231,65,69250,2,0,B|269:42|269:42|368:61,1,125,10|0,0:2|0:0,0:0:0:0:
431,14,69593,1,10,0:2:0:0:
481,160,69764,2,0,L|401:144,1,62.5
298,126,69936,1,10,0:2:0:0:
350,340,70107,6,0,B|384:331|384:331|392:218,1,125,0|10,0:0|0:2,0:0:0:0:
487,172,70450,2,0,L|496:254,1,62.5
419,86,70621,2,0,P|361:66|278:104,1,125,10|0,0:2|0:0,0:0:0:0:
228,172,70964,1,10,0:2:0:0:
88,80,71136,2,0,L|174:68,1,62.5
230,190,71307,2,0,L|144:178,1,62.5,10|0,0:2|0:0,0:0:0:0:
31,157,71479,5,6,0:0:0:0:
262,70,71650,1,8,0:0:0:0:
109,265,71821,5,6,0:0:0:0:
271,58,71993,1,8,0:0:0:0:
244,326,72164,5,2,0:0:0:0:
154,119,72336,1,2,0:0:0:0:
361,29,72507,1,10,0:0:0:0:
451,236,72679,2,0,P|411:265|340:176,1,187.5,6|0,0:0|0:0,0:0:0:0:
347,168,73021,5,0,0:0:0:0:
396,357,73193,1,8,2:0:0:0:
351,296,73279,1,8,2:0:0:0:
283,284,73364,1,0,0:0:0:0:
250,313,73450,1,0,0:0:0:0:
249,338,73536,6,0,P|276:350|331:338,1,62.5
333,142,73707,2,0,P|305:152|275:199,1,62.5
465,279,73879,6,0,L|515:265,1,31.25,8|8,2:0|2:0,0:0:0:0:
123,26,74221,6,0,L|112:176,1,150.000005722046,6|0,0:0|0:0,0:0:0:0:
389,26,74907,6,0,L|400:176,1,150.000005722046,6|0,0:0|0:0,0:0:0:0:
123,358,75593,6,0,L|112:208,1,150.000005722046,6|0,0:0|0:0,0:0:0:0:
389,358,76279,6,0,L|400:208,1,150.000005722046,6|0,0:0|0:0,0:0:0:0:
221,41,76964,5,10,0:0:0:0:
199,53,77021,1,0,0:0:0:0:
187,75,77078,1,10,0:0:0:0:
185,99,77135,1,0,0:0:0:0:
195,122,77192,1,10,0:0:0:0:
214,137,77249,1,0,0:0:0:0:
238,142,77306,1,10,0:0:0:0:
262,135,77363,1,0,0:0:0:0:
280,118,77421,1,10,0:0:0:0:
288,95,77478,1,0,0:0:0:0:
284,70,77535,1,10,0:0:0:0:
269,50,77592,1,0,0:0:0:0:
221,41,77649,5,8,2:0:0:0:
51,54,78336,6,0,L|56:174,1,100,6|0,0:0|0:0,0:0:0:0:
313,363,79707,5,14,0:0:0:0:
355,348,79793,1,0,0:0:0:0:
374,307,79879,1,0,0:0:0:0:
369,262,79964,1,0,0:0:0:0:
335,231,80050,1,10,0:2:0:0:
290,222,80136,1,0,0:0:0:0:
249,240,80221,5,0,0:0:0:0:
209,234,80307,1,0,0:0:0:0:
179,206,80393,1,10,0:2:0:0:
170,166,80479,1,0,0:0:0:0:
191,132,80564,1,0,0:0:0:0:
229,121,80650,1,0,0:0:0:0:
265,138,80736,2,0,L|274:226,3,50,10|0|0|0,0:2|0:0|0:0|0:0,0:0:0:0:
427,249,81079,5,14,0:0:0:0:
479,232,81164,1,0,0:0:0:0:
502,180,81250,1,0,0:0:0:0:
485,126,81336,1,0,0:0:0:0:
442,91,81421,1,10,0:2:0:0:
387,85,81507,1,0,0:0:0:0:
322,117,81593,5,0,0:0:0:0:
314,161,81679,1,0,0:0:0:0:
306,205,81764,1,10,0:2:0:0:
299,249,81850,1,0,0:0:0:0:
292,293,81936,1,0,0:0:0:0:
285,337,82021,1,0,0:0:0:0:
280,381,82107,2,0,L|338:374,3,50,10|0|0|0,0:2|0:0|0:0|0:0,0:0:0:0:
478,264,82450,5,10,0:2:0:0:
452,220,82536,1,0,0:0:0:0:
404,204,82621,1,0,0:0:0:0:
354,212,82707,1,0,0:0:0:0:
319,248,82793,1,10,0:2:0:0:
309,297,82879,1,0,0:0:0:0:
268,325,82964,1,0,0:0:0:0:
217,326,83050,1,0,0:0:0:0:
174,298,83136,1,10,0:2:0:0:
160,250,83221,1,0,0:0:0:0:
184,206,83307,1,0,0:0:0:0:
176,156,83393,1,0,0:0:0:0:
139,121,83479,1,10,0:2:0:0:
89,118,83564,1,0,0:0:0:0:
50,150,83650,1,0,0:0:0:0:
43,199,83736,1,0,0:0:0:0:
73,238,83821,5,10,0:2:0:0:
102,232,83907,1,0,0:0:0:0:
131,226,83993,1,0,0:0:0:0:
160,220,84079,1,0,0:0:0:0:
200,159,84164,5,10,0:2:0:0:
171,153,84250,1,0,0:0:0:0:
142,147,84336,1,0,0:0:0:0:
113,141,84422,1,0,0:0:0:0:
61,91,84507,5,8,2:0:0:0:
104,32,84593,1,8,2:0:0:0:
173,42,84679,1,0,0:0:0:0:
191,74,84764,1,0,0:0:0:0:
185,96,84850,6,0,L|120:86,1,50,6|0,0:0|0:0,0:0:0:0:
297,4,85193,5,14,0:0:0:0:
344,20,85279,1,0,0:0:0:0:
366,64,85364,1,0,0:0:0:0:
358,113,85450,1,0,0:0:0:0:
318,143,85536,1,10,0:2:0:0:
269,134,85621,1,0,0:0:0:0:
246,89,85707,5,0,0:0:0:0:
284,66,85793,1,0,0:0:0:0:
326,80,85879,1,10,0:2:0:0:
344,120,85964,1,0,0:0:0:0:
385,138,86050,1,0,0:0:0:0:
428,127,86136,1,0,0:0:0:0:
449,87,86221,2,0,L|454:37,3,50,10|0|0|0,0:2|0:0|0:0|0:0,0:0:0:0:
510,226,86564,5,14,0:0:0:0:
492,273,86650,1,0,0:0:0:0:
444,289,86736,1,0,0:0:0:0:
396,274,86821,1,0,0:0:0:0:
367,233,86907,1,10,0:2:0:0:
318,218,86993,1,0,0:0:0:0:
272,240,87079,5,0,0:0:0:0:
260,288,87164,1,0,0:0:0:0:
286,330,87250,1,10,0:2:0:0:
334,342,87336,1,0,0:0:0:0:
380,324,87421,1,0,0:0:0:0:
394,276,87507,1,0,0:0:0:0:
367,233,87593,2,0,L|306:236,3,50,10|0|0|0,0:2|0:0|0:0|0:0,0:0:0:0:
210,347,87936,5,14,0:0:0:0:
156,334,88021,1,0,0:0:0:0:
126,287,88107,1,0,0:0:0:0:
126,231,88193,1,0,0:0:0:0:
163,190,88279,2,0,L|238:187,1,50,10|0,0:2|0:0,0:0:0:0:
342,103,88450,5,0,0:0:0:0:
316,59,88536,1,0,0:0:0:0:
268,45,88621,1,10,0:2:0:0:
219,57,88707,1,0,0:0:0:0:
187,96,88793,1,0,0:0:0:0:
137,102,88879,1,0,0:0:0:0:
92,79,88964,2,0,L|83:19,1,50,10|0,0:2|0:0,0:0:0:0:
269,131,89136,2,0,L|261:180,1,50
103,292,89307,5,8,2:0:0:0:
54,256,89393,1,8,2:0:0:0:
50,195,89479,1,8,2:0:0:0:
85,147,89564,1,8,2:0:0:0:
144,139,89650,2,0,P|171:149|189:173,1,50
118,348,89821,2,0,P|103:332|100:287,1,50,8|8,2:0|2:0,0:0:0:0:
261,248,89993,5,8,2:0:0:0:
308,306,90079,1,8,2:0:0:0:
368,303,90164,1,0,0:0:0:0:
391,269,90250,1,0,0:0:0:0:
383,240,90336,5,8,2:0:0:0:
327,288,90421,1,8,2:0:0:0:
333,347,90507,1,0,0:0:0:0:
369,366,90593,1,0,0:0:0:0:
408,352,90679,6,0,B|433:330|433:330|204:311,1,250,6|0,0:0|0:0,0:0:0:0:
133,369,91107,1,0,0:0:0:0:
119,374,91193,2,0,L|130:242,1,125,10|0,0:0|0:0,0:0:0:0:
90,150,91536,1,10,0:0:0:0:
284,249,91707,2,0,L|199:242,1,62.5
161,123,91879,2,0,L|246:116,1,62.5,10|0,0:0|0:0,0:0:0:0:
358,110,92050,5,0,0:0:0:0:
250,2,92221,1,10,0:0:0:0:
250,2,92307,1,0,0:0:0:0:
250,2,92393,1,0,0:0:0:0:
200,6,92479,1,0,0:0:0:0:
150,10,92564,1,10,0:0:0:0:
100,14,92650,1,0,0:0:0:0:
82,40,92736,5,0,0:0:0:0:
137,44,92821,1,0,0:0:0:0:
193,48,92907,1,10,0:0:0:0:
249,52,92993,1,0,0:0:0:0:
268,77,93079,6,0,L|275:156,1,62.5
167,167,93250,2,0,L|174:246,1,62.5,10|0,0:0|0:0,0:0:0:0:
290,338,93421,5,0,0:0:0:0:
348,322,93507,1,0,0:0:0:0:
365,279,93593,1,10,0:0:0:0:
351,236,93679,1,0,0:0:0:0:
331,222,93764,2,0,L|260:212,1,50
203,352,93936,2,0,L|274:342,1,50,10|0,0:0|0:0,0:0:0:0:
120,125,94107,5,0,0:0:0:0:
77,159,94193,1,0,0:0:0:0:
66,213,94279,1,10,0:0:0:0:
91,261,94364,1,0,0:0:0:0:
140,285,94450,5,0,0:0:0:0:
161,336,94536,1,0,0:0:0:0:
126,378,94621,2,0,L|73:368,1,50,10|0,0:0|0:0,0:0:0:0:
67,84,94793,5,8,0:2:0:0:
109,34,94879,1,8,2:0:0:0:
173,29,94964,1,8,2:0:0:0:
225,67,95050,1,8,0:2:0:0:
269,132,95136,5,8,2:0:0:0:
327,169,95221,1,8,2:0:0:0:
396,160,95307,1,8,0:2:0:0:
434,101,95393,1,8,2:0:0:0:
416,27,95479,5,8,3:2:0:0:
366,33,95564,1,8,2:0:0:0:
316,40,95650,1,8,2:0:0:0:
266,47,95736,1,8,2:2:0:0:
207,94,95821,5,8,3:2:0:0:
280,108,95907,1,8,2:0:0:0:
353,122,95993,1,8,2:0:0:0:
426,136,96079,1,8,2:0:0:0:
495,148,96164,6,0,B|499:190|499:190|496:195|496:195|504:281,1,125,6|10,0:0|0:0,0:0:0:0:
418,356,96421,1,0,0:0:0:0:
372,377,96507,1,0,0:0:0:0:
330,348,96593,1,0,0:0:0:0:
315,299,96679,2,0,B|345:266|345:266|455:291,1,125,10|0,0:0|0:0,0:0:0:0:
500,138,97021,2,0,L|364:154,1,125,10|0,0:0|0:0,0:0:0:0:
357,155,97279,1,0,0:0:0:0:
338,157,97364,1,10,0:0:0:0:
201,29,97536,6,0,L|293:16,1,62.5
333,199,97707,1,10,0:0:0:0:
301,238,97793,1,0,0:0:0:0:
251,247,97879,1,0,0:0:0:0:
206,224,97964,1,0,0:0:0:0:
186,177,98050,2,0,L|194:113,1,62.5,10|0,0:0|0:0,0:0:0:0:
365,11,98221,5,0,0:0:0:0:
370,67,98307,1,0,0:0:0:0:
375,123,98393,1,10,0:0:0:0:
380,179,98479,1,0,0:0:0:0:
385,234,98564,2,0,L|467:246,1,62.5
511,68,98736,2,0,L|429:80,1,62.5,10|0,0:0|0:0,0:0:0:0:
318,294,98907,6,0,L|393:309,3,62.5,10|0|0|0,0:0|2:0|2:0|2:0,0:0:0:0:
194,294,99250,6,0,L|119:309,3,62.5,10|0|0|0,0:0|2:0|2:0|2:0,0:0:0:0:
300,158,99593,5,10,0:0:0:0:
335,146,99679,1,0,2:0:0:0:
370,134,99764,2,0,L|380:210,1,62.5,0|0,2:0|2:0,2:0:0:0:
206,84,99936,5,10,0:0:0:0:
171,72,100022,1,0,2:0:0:0:
136,60,100107,2,0,L|126:136,1,62.5,0|0,2:0|2:0,2:0:0:0:
158,351,100279,6,0,B|207:368|255:345|255:345|333:300|233:180|154:323|255:345|255:345|333:300|399:351,1,437.5,10|0,0:0|2:0,0:0:0:0:
499,106,101650,6,0,B|478:130|478:130|362:112,1,119.999996337891,6|10,0:0|0:0,0:0:0:0:
307,169,101907,1,0,0:0:0:0:
291,180,101993,2,0,L|213:168,1,59.9999981689454
112,279,102164,2,0,L|254:260,1,119.999996337891,10|0,0:0|0:0,0:0:0:0:
305,313,102507,1,10,0:0:0:0:
404,210,102679,2,0,L|415:302,1,59.9999981689454
422,359,102850,1,10,0:0:0:0:
237,382,103021,6,0,L|229:243,1,119.999996337891,0|10,0:0|0:0,0:0:0:0:
162,180,103364,2,0,L|156:259,1,59.9999981689454
0,139,103536,2,0,P|46:113|119:149,1,119.999996337891,10|0,0:0|0:0,0:0:0:0:
157,239,103879,1,10,0:0:0:0:
320,96,104050,2,0,L|218:108,1,59.9999981689454
175,115,104221,1,10,0:0:0:0:
354,4,104393,6,0,B|361:54|361:54|356:65|356:65|364:136,1,119.999996337891,0|10,0:0|0:0,0:0:0:0:
422,201,104650,1,0,0:0:0:0:
432,212,104736,2,0,L|503:200,1,59.9999981689454
461,330,104907,2,0,L|327:312,1,119.999996337891,10|0,0:0|0:0,0:0:0:0:
272,358,105164,1,0,0:0:0:0:
242,352,105250,1,10,0:0:0:0:
212,346,105336,1,0,0:0:0:0:
182,340,105421,2,0,L|173:258,1,59.9999981689454
99,375,105593,1,10,0:0:0:0:
41,255,105764,5,0,0:0:0:0:
47,241,105850,1,0,0:0:0:0:
37,222,105936,1,10,0:0:0:0:
44,202,106021,1,0,0:0:0:0:
109,159,106107,5,0,0:0:0:0:
120,168,106193,1,0,0:0:0:0:
119,190,106279,1,10,0:0:0:0:
134,205,106364,1,0,0:0:0:0:
197,254,106450,5,0,0:0:0:0:
228,252,106536,1,0,0:0:0:0:
250,230,106621,1,10,0:0:0:0:
274,228,106707,1,0,0:0:0:0:
311,157,106793,5,0,0:0:0:0:
279,141,106879,1,0,0:0:0:0:
247,164,106964,1,10,0:0:0:0:
213,158,107050,1,0,0:0:0:0:
162,113,107136,6,0,B|171:51|171:51|182:44|182:44|191:-35,1,119.999996337891,6|10,0:0|0:0,0:0:0:0:
377,7,107393,1,0,0:0:0:0:
394,20,107479,2,0,L|399:106,1,59.9999981689454
475,126,107650,2,0,L|470:212,1,59.9999981689454,10|0,0:0|0:0,0:0:0:0:
294,230,107821,2,0,B|304:198|304:198|425:188,1,119.999996337891,0|10,0:0|0:0,0:0:0:0:
500,301,108164,2,0,L|437:292,1,59.9999981689454
366,283,108336,1,10,0:0:0:0:
244,379,108507,6,0,P|280:363|281:272,1,119.999996337891,0|10,0:0|0:0,0:0:0:0:
212,178,108850,2,0,L|208:254,1,59.9999981689454
117,342,109021,2,0,L|109:215,1,119.999996337891,10|0,0:0|0:0,0:0:0:0:
143,120,109364,1,10,0:0:0:0:
19,252,109536,2,0,L|13:181,1,59.9999981689454
7,107,109707,1,10,0:0:0:0:
184,213,109879,5,8,2:0:0:0:
220,166,109964,1,8,2:0:0:0:
278,154,110050,1,8,2:0:0:0:
333,177,110136,1,8,2:0:0:0:
359,230,110221,2,0,L|348:322,1,59.9999981689454,8|8,2:0|2:0,0:0:0:0:
170,367,110393,5,8,2:0:0:0:
164,307,110479,1,8,2:0:0:0:
158,247,110564,1,8,2:0:0:0:
153,186,110650,1,8,2:0:0:0:
148,125,110736,2,0,L|226:101,1,59.9999981689454,8|8,2:0|2:0,0:0:0:0:
369,122,110907,5,8,2:0:0:0:
408,76,110993,1,8,2:0:0:0:
394,17,111079,2,0,P|376:10|328:8,1,59.9999981689454,8|8,2:0|2:0,0:0:0:0:
224,183,111250,5,8,0:0:0:0:
268,214,111336,1,8,2:0:0:0:
321,212,111421,1,8,2:0:0:0:
362,176,111507,1,8,0:0:0:0:
414,164,111593,1,8,2:0:0:0:
463,185,111679,1,8,2:0:0:0:
478,230,111764,1,8,0:0:0:0:
456,266,111850,1,8,2:0:0:0:
422,270,111936,2,0,P|396:265|373:239,1,59.9999981689454,8|8,0:0|2:0,0:0:0:0:
357,31,112107,5,8,2:0:0:0:
369,71,112193,1,8,2:0:0:0:
351,115,112279,1,8,2:0:0:0:
298,127,112364,1,8,2:0:0:0:
245,89,112450,1,8,2:0:0:0:
171,82,112536,1,8,2:0:0:0:
104,129,112621,6,0,L|97:256,1,119.999996337891,6|0,0:0|0:0,0:0:0:0:
393,125,113993,6,0,L|400:252,1,119.999996337891,6|0,0:0|0:0,0:0:0:0:
158,368,115364,5,8,2:0:0:0:
156,356,115450,1,8,2:0:0:0:
154,344,115536,1,8,2:0:0:0:
152,332,115621,1,8,2:0:0:0:
150,320,115707,2,0,L|226:328,1,59.9999981689454,8|8,2:0|2:0,0:0:0:0:
346,221,115879,5,8,2:0:0:0:
322,224,115964,1,8,2:0:0:0:
298,227,116050,1,8,2:0:0:0:
274,231,116136,1,8,2:0:0:0:
237,157,116221,5,8,2:0:0:0:
255,158,116307,1,8,2:0:0:0:
273,159,116393,1,8,2:0:0:0:
291,160,116479,1,8,2:0:0:0:
308,161,116564,2,0,L|316:85,1,59.9999981689454,8|8,2:0|2:0,0:0:0:0:
156,6,116736,5,8,3:2:0:0:
99,23,116821,1,8,2:0:0:0:
68,75,116907,1,8,2:0:0:0:
66,135,116993,1,8,2:0:0:0:
99,184,117079,2,0,P|126:198|165:194,1,59.9999981689454,8|8,3:2|2:0,0:0:0:0:
309,66,117250,2,0,P|282:52|243:56,1,59.9999981689454,8|8,3:2|2:0,0:0:0:0:
326,261,117421,5,8,0:2:0:0:
363,253,117507,1,8,2:0:0:0:
400,246,117593,1,8,2:0:0:0:
437,239,117679,1,8,2:0:0:0:
486,178,117764,5,8,0:2:0:0:
420,167,117850,1,8,2:0:0:0:
354,156,117936,1,8,2:0:0:0:
289,145,118021,1,8,2:0:0:0:
223,134,118107,5,6,0:0:0:0:
178,164,118193,1,0,0:0:0:0:
166,216,118279,1,10,0:0:0:0:
182,267,118364,1,0,0:0:0:0:
231,290,118450,2,0,P|255:294|295:277,1,59.9999981689454
407,182,118621,5,10,0:0:0:0:
425,144,118707,1,0,0:0:0:0:
422,101,118793,1,0,0:0:0:0:
399,65,118879,1,0,0:0:0:0:
360,50,118964,2,0,P|331:43|282:58,1,59.9999981689454,10|0,0:0|0:0,0:0:0:0:
202,148,119136,5,0,0:0:0:0:
149,153,119221,1,0,0:0:0:0:
112,112,119307,1,10,0:0:0:0:
108,57,119393,1,0,0:0:0:0:
140,12,119479,6,0,L|210:5,2,59.9999981689454,0|0|10,0:0|0:0|0:0,0:0:0:0:
243,88,119736,2,0,L|313:95,2,59.9999981689454
358,26,119993,2,0,L|428:19,1,59.9999981689454,10|0,0:0|0:0,0:0:0:0:
497,136,120164,5,0,0:0:0:0:
451,151,120250,1,0,0:0:0:0:
420,188,120336,1,10,0:0:0:0:
415,235,120421,1,0,0:0:0:0:
436,277,120507,1,0,0:0:0:0:
437,325,120593,1,0,0:0:0:0:
408,364,120679,2,0,P|381:373|348:363,1,59.9999981689454,10|0,0:0|0:0,0:0:0:0:
246,261,120850,5,8,0:0:0:0:
243,248,120936,1,8,0:0:0:0:
241,236,121021,5,8,2:0:0:0:
192,233,121107,1,8,2:0:0:0:
143,230,121193,1,8,2:0:0:0:
94,227,121279,1,8,2:0:0:0:
46,224,121364,5,8,0:0:0:0:
44,212,121450,1,8,0:0:0:0:
42,200,121536,5,8,2:0:0:0:
92,190,121621,1,8,2:0:0:0:
145,179,121707,1,8,2:0:0:0:
198,168,121793,1,8,2:0:0:0:
243,106,121879,5,8,2:0:0:0:
183,98,121964,1,8,2:0:0:0:
123,90,122050,1,8,2:0:0:0:
63,83,122136,1,8,2:0:0:0:
3,76,122221,5,14,0:0:0:0:
204,352,122393,1,14,0:0:0:0:
203,12,122564,1,14,0:0:0:0:
3,286,122735,1,14,0:0:0:0:
327,181,122907,2,0,P|326:136|286:235,1,419.999987182618,14|0,0:0|0:0,0:0:0:0:
243,162,123593,5,6,0:0:0:0:
197,131,123679,1,0,0:0:0:0:
143,128,123764,1,10,0:2:0:0:
95,154,123850,1,0,0:0:0:0:
76,205,123936,2,0,L|82:268,1,59.9999981689454
186,362,124107,5,10,0:2:0:0:
211,321,124193,1,0,0:0:0:0:
255,301,124279,1,0,0:0:0:0:
300,314,124364,1,0,0:0:0:0:
337,345,124450,1,10,0:2:0:0:
384,350,124536,1,0,0:0:0:0:
426,328,124621,2,0,L|434:252,1,59.9999981689454
286,165,124793,2,0,L|292:224,1,59.9999981689454,10|0,0:2|0:0,0:0:0:0:
441,72,124964,5,6,0:0:0:0:
400,27,125050,1,0,0:0:0:0:
339,23,125136,1,10,0:2:0:0:
285,49,125221,1,0,0:0:0:0:
259,103,125307,1,0,0:0:0:0:
264,162,125393,1,0,0:0:0:0:
299,210,125479,1,10,0:2:0:0:
300,269,125564,1,0,0:0:0:0:
258,312,125650,1,0,0:0:0:0:
198,318,125736,1,0,0:0:0:0:
149,283,125821,1,10,0:2:0:0:
140,223,125907,1,0,0:0:0:0:
168,169,125993,1,0,0:0:0:0:
159,109,126079,1,0,0:0:0:0:
110,74,126164,1,10,0:2:0:0:
49,74,126250,1,0,0:0:0:0:
11,121,126336,6,0,L|14:194,1,59.9999981689454,2|0,0:2|0:0,0:0:0:0:
107,211,126507,1,10,0:2:0:0:
117,216,126593,2,0,L|114:289,1,59.9999981689454,2|0,0:2|0:0,0:0:0:0:
36,290,126764,1,0,0:0:0:0:
27,298,126850,2,0,L|30:371,1,59.9999981689454,10|0,0:2|0:0,0:0:0:0:
178,370,127021,6,0,P|217:364|239:337,1,59.9999981689454,2|0,0:2|0:0,0:0:0:0:
225,201,127193,1,10,0:2:0:0:
216,208,127279,2,0,P|197:229|190:264,1,59.9999981689454,2|0,0:2|0:0,0:0:0:0:
344,289,127450,1,0,0:0:0:0:
335,278,127536,2,0,P|313:267|275:270,1,59.9999981689454,10|0,0:2|0:0,0:0:0:0:
491,337,127707,6,0,L|498:265,1,59.9999981689454,2|0,0:2|0:0,0:0:0:0:
399,173,127879,1,10,0:2:0:0:
389,182,127964,2,0,L|396:264,1,59.9999981689454,2|0,0:2|0:0,0:0:0:0:
500,140,128136,1,0,0:0:0:0:
509,132,128221,2,0,L|502:50,1,59.9999981689454,10|0,0:2|0:0,0:0:0:0:
308,1,128393,5,0,0:0:0:0:
260,7,128479,1,0,0:0:0:0:
212,13,128564,1,10,0:2:0:0:
164,19,128650,1,0,0:0:0:0:
116,25,128736,1,0,0:0:0:0:
68,32,128821,1,0,0:0:0:0:
20,39,128907,2,0,L|11:115,1,59.9999981689454,10|0,0:2|0:0,0:0:0:0:
85,269,129079,5,6,0:0:0:0:
138,273,129164,1,0,0:0:0:0:
181,240,129250,1,10,0:2:0:0:
188,186,129336,1,0,0:0:0:0:
165,137,129421,2,0,L|104:125,1,59.9999981689454
266,15,129593,5,10,0:2:0:0:
271,74,129679,1,0,0:0:0:0:
276,133,129764,1,0,0:0:0:0:
282,192,129850,1,0,0:0:0:0:
288,251,129936,2,0,L|363:235,1,59.9999981689454,10|0,0:2|0:0,0:0:0:0:
480,83,130107,5,0,0:0:0:0:
414,76,130193,1,0,0:0:0:0:
348,69,130279,2,0,L|265:58,1,59.9999981689454,10|0,0:2|0:0,0:0:0:0:
149,168,130450,5,6,0:0:0:0:
202,163,130536,1,0,0:0:0:0:
247,190,130621,1,10,0:2:0:0:
273,237,130707,1,0,0:0:0:0:
273,291,130793,2,0,P|254:327|230:340,1,59.9999981689454
69,358,130964,5,10,0:2:0:0:
34,324,131050,1,0,0:0:0:0:
32,275,131136,1,0,0:0:0:0:
52,231,131221,1,0,0:0:0:0:
94,209,131307,1,10,0:2:0:0:
103,161,131393,1,0,0:0:0:0:
48,97,131479,5,0,0:0:0:0:
44,114,131564,1,0,0:0:0:0:
40,131,131650,1,10,0:2:0:0:
36,148,131736,1,0,0:0:0:0:
56,219,131821,5,8,2:0:0:0:
115,210,131907,1,8,2:0:0:0:
174,201,131993,1,8,2:0:0:0:
233,192,132079,1,8,2:0:0:0:
291,184,132164,2,0,L|282:267,1,59.9999981689454,2|0,0:0|0:0,0:0:0:0:
424,99,132336,5,8,2:0:0:0:
365,90,132422,1,8,2:0:0:0:
306,81,132508,1,8,2:0:0:0:
247,72,132594,1,8,2:0:0:0:
189,64,132679,2,0,L|198:147,1,59.9999981689454,2|0,0:0|0:0,0:0:0:0:
259,324,132850,5,8,2:0:0:0:
318,312,132936,1,8,2:0:0:0:
376,300,133021,1,8,2:0:0:0:
435,289,133107,1,8,2:0:0:0:
485,226,133193,5,8,0:0:0:0:
445,173,133279,1,8,2:0:0:0:
380,162,133364,1,8,2:0:0:0:
323,196,133450,1,8,0:0:0:0:
295,256,133536,1,8,2:0:0:0:
231,273,133621,1,8,2:0:0:0:
168,249,133707,1,8,0:0:0:0:
152,184,133793,1,8,2:0:0:0:
178,123,133879,5,8,0:0:0:0:
198,134,133964,1,8,2:0:0:0:
209,161,134050,1,8,2:0:0:0:
199,202,134136,1,8,2:0:0:0:
151,226,134221,1,8,2:0:0:0:
93,207,134307,1,8,2:0:0:0:
58,142,134393,1,8,2:0:0:0:
47,69,134479,1,8,2:0:0:0:
67,0,134564,6,0,L|221:14,1,119.999996337891,14|0,0:0|0:0,0:0:0:0:
445,0,135936,6,0,L|291:14,1,119.999996337891,14|0,0:0|0:0,0:0:0:0:
315,374,137307,5,14,0:0:0:0:
361,361,137393,1,0,0:0:0:0:
388,321,137479,1,0,0:0:0:0:
389,273,137564,1,0,0:0:0:0:
362,232,137650,1,10,0:2:0:0:
316,217,137736,1,0,0:0:0:0:
269,224,137821,5,0,0:0:0:0:
242,271,137907,1,0,0:0:0:0:
190,287,137993,1,10,0:2:0:0:
141,262,138079,1,0,0:0:0:0:
123,211,138164,1,0,0:0:0:0:
146,162,138250,1,0,0:0:0:0:
198,149,138336,5,10,0:2:0:0:
257,156,138421,1,0,0:0:0:0:
316,163,138507,1,0,0:0:0:0:
375,170,138593,1,0,0:0:0:0:
444,122,138679,5,10,0:2:0:0:
433,69,138764,1,0,0:0:0:0:
387,39,138850,1,0,0:0:0:0:
332,38,138936,1,0,0:0:0:0:
287,67,139021,2,0,L|293:149,1,59.9999981689454,10|0,0:2|0:0,0:0:0:0:
179,274,139193,5,0,0:0:0:0:
171,232,139279,1,0,0:0:0:0:
164,190,139364,1,10,0:2:0:0:
157,148,139450,1,0,0:0:0:0:
150,106,139536,1,0,0:0:0:0:
144,64,139621,1,0,0:0:0:0:
80,23,139707,5,10,0:2:0:0:
78,34,139793,1,0,0:0:0:0:
76,45,139879,1,0,0:0:0:0:
74,56,139964,1,0,0:0:0:0:
34,117,140050,5,14,0:0:0:0:
78,99,140136,1,0,0:0:0:0:
125,105,140221,1,0,0:0:0:0:
160,137,140307,1,0,0:0:0:0:
164,190,140393,2,0,L|100:228,1,59.9999981689454,10|0,0:2|0:0,0:0:0:0:
179,372,140564,5,0,0:0:0:0:
232,366,140650,1,0,0:0:0:0:
271,329,140736,1,10,0:2:0:0:
279,276,140821,1,0,0:0:0:0:
255,227,140907,1,0,0:0:0:0:
253,172,140993,1,0,0:0:0:0:
283,127,141079,2,0,P|309:111|364:114,1,59.9999981689454,10|0,0:2|0:0,0:0:0:0:
420,303,141250,2,0,P|386:293|354:259,1,59.9999981689454
470,105,141421,5,8,3:2:0:0:
472,122,141507,1,8,2:0:0:0:
474,139,141593,1,8,2:0:0:0:
444,176,141679,5,8,3:2:0:0:
442,193,141765,1,8,2:0:0:0:
440,210,141851,1,8,2:0:0:0:
477,272,141936,5,8,3:2:0:0:
479,289,142022,1,8,2:0:0:0:
439,348,142107,5,8,3:2:0:0:
215,183,142279,1,8,2:0:0:0:
157,226,142365,1,8,2:0:0:0:
157,298,142451,1,8,2:0:0:0:
200,354,142536,1,8,2:0:0:0:
271,361,142622,1,8,2:0:0:0:
324,312,142708,1,8,2:0:0:0:
326,236,142793,6,0,B|276:229|276:229|270:232|270:232|187:221,1,119.999996337891,6|10,0:0|0:2,0:0:0:0:
99,225,143050,1,0,0:0:0:0:
95,201,143136,1,0,0:0:0:0:
91,177,143221,1,0,0:0:0:0:
87,153,143307,2,0,B|116:123|116:123|212:138,1,119.999996337891,10|0,0:2|0:0,0:0:0:0:
266,61,143650,1,10,0:2:0:0:
364,173,143821,2,0,L|262:181,1,59.9999981689454
451,67,143993,1,10,0:2:0:0:
497,272,144164,6,0,P|471:252|378:267,1,119.999996337891,0|10,0:0|0:2,0:0:0:0:
334,365,144507,2,0,L|415:359,1,59.9999981689454
244,250,144679,2,0,L|233:387,1,119.999996337891,10|0,0:2|0:0,0:0:0:0:
183,184,145021,1,10,0:2:0:0:
71,337,145193,2,0,L|136:328,1,59.9999981689454
277,182,145364,2,0,L|212:173,1,59.9999981689454,10|0,0:2|0:0,0:0:0:0:
377,346,145536,5,6,0:0:0:0:
295,70,145707,1,8,0:0:0:0:
228,371,145879,5,6,0:0:0:0:
304,55,146050,1,8,0:0:0:0:
117,273,146221,5,2,0:0:0:0:
350,353,146393,1,2,0:0:0:0:
430,120,146564,1,10,0:0:0:0:
197,40,146736,1,6,0:0:0:0:
230,284,146907,5,8,2:0:0:0:
275,254,146993,1,8,2:0:0:0:
288,201,147079,1,8,2:0:0:0:
265,152,147164,1,8,2:0:0:0:
216,128,147250,2,0,L|140:131,1,59.9999981689454,2|0,0:0|0:0,0:0:0:0:
72,303,147421,5,8,2:0:0:0:
110,256,147507,1,8,2:0:0:0:
168,244,147593,1,8,2:0:0:0:
226,259,147679,1,8,2:0:0:0:
255,310,147764,2,0,L|246:372,1,59.9999981689454,2|0,0:0|0:0,0:0:0:0:
456,268,147936,6,0,L|417:261,1,29.9999990844727,8|8,2:0|2:0,0:0:0:0:
35,72,148279,6,0,L|198:55,1,150.000005722046,6|0,0:0|0:0,0:0:0:0:
477,72,148964,6,0,L|314:55,1,150.000005722046,6|0,0:0|0:0,0:0:0:0:
35,312,149650,6,0,L|198:329,1,150.000005722046,6|0,0:0|0:0,0:0:0:0:
477,312,150336,6,0,L|314:329,1,150.000005722046,6|0,0:0|0:0,0:0:0:0:
232,201,151021,5,10,0:0:0:0:
210,189,151078,1,0,0:0:0:0:
198,167,151135,1,10,0:0:0:0:
196,143,151192,1,0,0:0:0:0:
206,120,151249,1,10,0:0:0:0:
225,105,151306,1,0,0:0:0:0:
249,100,151363,1,10,0:0:0:0:
273,107,151420,1,0,0:0:0:0:
291,124,151478,1,10,0:0:0:0:
299,147,151535,1,0,0:0:0:0:
295,172,151592,1,10,0:0:0:0:
280,192,151649,1,0,0:0:0:0:
232,201,151706,5,10,0:0:0:0:
57,340,152393,6,0,L|47:173,1,119.999996337891,6|0,0:0|0:0,0:0:0:0:
310,8,153764,5,6,0:0:0:0:
351,31,153850,1,0,0:0:0:0:
365,76,153936,1,0,0:0:0:0:
355,122,154021,1,0,0:0:0:0:
318,152,154107,1,10,0:2:0:0:
269,150,154193,1,0,0:0:0:0:
233,117,154279,5,0,0:0:0:0:
180,104,154364,1,0,0:0:0:0:
130,126,154450,1,10,0:2:0:0:
103,173,154536,1,0,0:0:0:0:
102,226,154621,1,0,0:0:0:0:
136,267,154707,1,0,0:0:0:0:
189,271,154793,2,0,L|201:204,3,59.9999981689454,10|0|0|0,0:2|0:0|0:0|0:0,0:0:0:0:
271,126,155136,5,14,0:0:0:0:
317,100,155221,1,0,0:0:0:0:
370,105,155307,1,0,0:0:0:0:
406,144,155393,1,0,0:0:0:0:
456,164,155479,1,10,0:2:0:0:
505,144,155564,1,0,0:0:0:0:
506,73,155650,5,0,0:0:0:0:
466,59,155736,1,0,0:0:0:0:
428,76,155821,1,10,0:2:0:0:
400,107,155907,1,0,0:0:0:0:
395,148,155993,1,0,0:0:0:0:
413,186,156079,1,0,0:0:0:0:
447,208,156164,2,0,L|513:217,3,59.9999981689454,10|0|0|0,0:2|0:0|0:0|0:0,0:0:0:0:
358,374,156507,5,10,0:2:0:0:
397,345,156593,1,0,0:0:0:0:
410,298,156679,1,0,0:0:0:0:
396,252,156764,1,0,0:0:0:0:
358,222,156850,1,10,0:2:0:0:
310,214,156936,1,0,0:0:0:0:
265,231,157021,1,0,0:0:0:0:
243,273,157107,1,0,0:0:0:0:
206,304,157193,1,10,0:2:0:0:
158,310,157279,1,0,0:0:0:0:
114,291,157364,1,0,0:0:0:0:
86,251,157450,1,0,0:0:0:0:
90,203,157536,1,10,0:2:0:0:
124,169,157621,1,0,0:0:0:0:
172,166,157707,2,0,P|183:190|177:237,1,59.9999981689454
317,295,157879,5,8,2:0:0:0:
372,255,157964,1,8,2:0:0:0:
375,195,158050,1,0,0:0:0:0:
342,161,158136,1,0,0:0:0:0:
307,168,158221,2,0,L|300:241,3,59.9999981689454,14|0|0|0,0:0|0:0|0:0|0:0,0:0:0:0:
350,13,158564,5,8,2:0:0:0:
411,51,158650,1,8,2:0:0:0:
413,115,158736,1,0,0:0:0:0:
381,143,158821,1,0,0:0:0:0:
318,108,158907,6,0,L|311:68,3,25,14|0|0|0,0:0|0:0|0:0|0:0,0:0:0:0:
261,34,159250,5,14,0:0:0:0:
206,39,159336,1,0,0:0:0:0:
174,80,159421,1,0,0:0:0:0:
170,134,159507,1,0,0:0:0:0:
196,181,159593,1,10,0:0:0:0:
248,192,159679,1,0,0:0:0:0:
289,158,159764,5,0,0:0:0:0:
260,118,159850,1,0,0:0:0:0:
212,107,159936,1,10,0:2:0:0:
166,121,160021,1,0,0:0:0:0:
135,158,160107,1,0,0:0:0:0:
88,171,160193,1,0,0:0:0:0:
41,158,160279,2,0,P|26:132|26:98,3,59.9999981689454,10|0|0|0,0:2|0:0|0:0|0:0,0:0:0:0:
176,10,160621,5,14,0:0:0:0:
183,57,160707,1,0,0:0:0:0:
190,104,160793,1,0,0:0:0:0:
197,151,160879,1,0,0:0:0:0:
204,198,160964,1,10,0:2:0:0:
211,245,161050,1,0,0:0:0:0:
218,292,161136,5,0,0:0:0:0:
259,249,161221,1,0,0:0:0:0:
318,241,161307,1,10,0:2:0:0:
370,271,161393,1,0,0:0:0:0:
407,318,161479,1,0,0:0:0:0:
466,315,161564,1,0,0:0:0:0:
502,267,161650,2,0,L|506:194,3,59.9999981689454,10|0|0|0,0:2|0:0|0:0|0:0,0:0:0:0:
383,45,161993,5,14,0:0:0:0:
335,40,162079,1,0,0:0:0:0:
291,59,162164,1,0,0:0:0:0:
271,103,162250,1,0,0:0:0:0:
270,151,162336,2,0,P|292:174|337:180,1,59.9999981689454,10|0,0:2|0:0,0:0:0:0:
405,318,162507,5,0,0:0:0:0:
363,282,162593,1,0,0:0:0:0:
308,278,162679,1,10,0:2:0:0:
260,302,162764,1,0,0:0:0:0:
232,348,162850,1,0,0:0:0:0:
180,363,162936,1,0,0:0:0:0:
122,347,163021,1,10,0:2:0:0:
88,304,163107,1,0,0:0:0:0:
92,249,163193,1,0,0:0:0:0:
133,214,163279,1,0,0:0:0:0:
186,210,163364,1,10,0:2:0:0:
234,185,163450,1,0,0:0:0:0:
258,136,163536,1,0,0:0:0:0:
247,83,163621,1,0,0:0:0:0:
213,36,163707,2,0,L|149:23,1,59.9999981689454,10|0,0:2|0:0,0:0:0:0:
242,164,163879,2,0,L|306:151,1,59.9999981689454
367,34,164050,5,10,0:2:0:0:
369,51,164136,1,0,0:0:0:0:
371,68,164221,1,0,0:0:0:0:
374,85,164307,1,0,0:0:0:0:
421,146,164393,5,10,0:2:0:0:
419,161,164479,1,0,0:0:0:0:
417,176,164564,1,0,0:0:0:0:
414,191,164650,1,0,0:0:0:0:
378,252,164736,6,0,L|311:263,1,59.9999981689454,8|8,0:0|0:0,0:0:0:0:
266,334,164907,1,8,0:0:0:0:
255,346,164993,2,0,L|188:335,1,59.9999981689454,8|8,0:0|0:0,0:0:0:0:
152,256,165164,1,8,0:0:0:0:
141,244,165250,2,0,L|74:255,1,59.9999981689454,8|8,0:0|0:0,0:0:0:0:
53,372,165421,5,8,0:0:0:0:
90,341,165507,1,8,0:0:0:0:
93,293,165593,1,8,0:0:0:0:
68,250,165679,1,8,0:0:0:0:
21,190,165764,5,8,0:0:0:0:
2,171,165850,1,8,0:0:0:0:
0,142,165936,1,8,0:0:0:0:
15,117,166022,1,8,0:0:0:0:
86,94,166107,6,0,L|94:162,1,59.9999981689454,8|8,0:0|0:0,0:0:0:0:
209,266,166279,1,8,2:0:0:0:
265,248,166364,1,8,2:0:0:0:
292,194,166450,1,8,2:0:0:0:
279,135,166536,1,8,2:0:0:0:
238,91,166621,2,0,L|168:97,1,59.9999981689454,8|8,0:0|0:0,0:0:0:0:
56,258,166793,5,8,2:0:0:0:
94,318,166879,1,8,2:0:0:0:
163,334,166964,1,8,2:0:0:0:
229,306,167050,1,8,2:0:0:0:
286,253,167136,5,8,0:0:0:0:
308,237,167221,1,8,0:0:0:0:
336,238,167307,1,8,0:0:0:0:
359,253,167393,1,8,0:0:0:0:
380,327,167479,6,0,B|315:325|241:220|299:159|299:159|364:81|252:-16|168:136|298:159|298:159|371:102|508:80|617:248|476:361|380:243|426:208,1,899.999972534181,14|0,0:0|0:0,0:0:0:0:
424,213,168850,6,0,L|501:219,1,75,6|0,0:0|0:0,0:0:0:0:
357,78,170222,5,6,0:0:0:0:
308,178,183555,6,0,L|361:190,3,37.5000014305115,2|0|0|0,0:0|2:0|2:0|2:0,0:0:0:0:
223,244,183833,2,0,L|170:256,3,37.5000014305115,0|0|0|0,2:0|2:0|2:0|2:0,2:0:0:0:
316,167,184110,2,0,L|369:179,3,37.5000014305115,2|0|0|0,2:3|2:0|2:0|2:0,2:0:0:0:
218,254,184388,2,0,L|165:266,3,37.5000014305115,0|0|0|0,2:0|2:0|2:0|2:0,2:0:0:0:
325,321,184666,6,0,L|332:270,3,37.5000014305115,10|0|0|0,2:3|2:0|2:0|2:0,2:0:0:0:
212,147,184944,2,0,L|217:184,3,37.5000014305115,0|0|0|0,2:0|2:0|2:0|2:0,2:0:0:0:
335,317,185221,2,0,L|342:266,3,37.5000014305115,2|0|0|0,2:3|2:0|2:0|2:0,2:0:0:0:
204,139,185499,2,0,L|209:176,3,37.5000014305115,0|0|0|0,2:0|2:0|2:0|2:0,2:0:0:0:
161,311,185777,6,0,L|164:293,1,18.7500007152558,8|8,0:0|0:0,0:0:0:0:
114,297,185846,1,0,2:0:0:0:
92,256,185916,1,0,2:0:0:0:
97,215,185985,1,0,2:0:0:0:
120,185,186055,2,0,L|142:195,1,18.7500007152558,8|8,0:0|0:0,0:0:0:0:
151,173,186124,1,0,2:0:0:0:
167,147,186194,1,0,2:0:0:0:
166,120,186263,1,0,2:0:0:0:
155,99,186333,1,0,0:0:0:0:
139,88,186402,1,0,2:0:0:0:
124,85,186471,1,0,2:0:0:0:
112,87,186541,1,0,2:0:0:0:
100,95,186610,2,0,L|110:120,1,18.7500007152558,8|8,0:0|0:0,0:0:0:0:
95,102,186680,1,0,2:0:0:0:
92,110,186749,1,0,2:0:0:0:
89,121,186819,1,0,2:0:0:0:
92,131,186888,6,0,L|97:157,1,18.7500007152558,8|8,0:0|0:0,0:0:0:0:
121,107,186958,1,0,2:0:0:0:
161,101,187027,1,0,2:0:0:0:
200,122,187096,1,0,2:0:0:0:
217,167,187166,1,0,0:0:0:0:
265,185,187235,1,0,2:0:0:0:
315,159,187305,2,0,P|324:144|329:100,1,50,0|0,2:0|2:0,2:0:0:0:
272,18,187444,6,0,L|302:28,1,25,8|8,0:0|0:0,0:0:0:0:
260,33,187513,1,0,2:0:0:0:
257,58,187583,1,0,2:0:0:0:
278,85,187652,1,0,2:0:0:0:
317,84,187721,1,0,0:0:0:0:
344,47,187791,1,0,2:0:0:0:
398,39,187860,1,0,2:0:0:0:
458,64,187930,1,0,2:0:0:0:
483,135,187999,6,0,B|445:191|384:181|351:150|351:150|241:205|320:281|404:237|351:150|351:150|312:121|255:141,1,468.75,6|0,0:0|0:0,0:0:0:0:
261,150,189110,1,10,0:0:0:0:
154,314,189388,1,0,2:0:0:0:
4,169,189666,2,0,B|28:169|28:169|31:172|31:172|61:173,1,50,2|2,2:3|2:1,2:0:0:0:
139,225,190221,6,0,L|131:54,1,150.000005722046,2|0,0:0|2:0,0:0:0:0:
72,315,190777,1,2,2:3:0:0:
214,207,191055,1,0,2:0:0:0:
317,377,191333,5,10,0:0:0:0:
212,229,191610,1,0,2:0:0:0:
341,103,191888,2,0,B|364:122|366:136|366:136|371:140|371:140|371:158|354:184,1,87.5,2|2,2:2|0:0,0:0:0:0:
348,200,192444,6,0,B|381:204|402:181|402:181|438:225|499:212,1,150.000005722046,2|0,0:0|0:0,0:0:0:0:
473,37,192999,1,2,2:3:0:0:
371,157,193277,1,0,2:0:0:0:
258,10,193555,5,10,0:0:0:0:
362,174,193833,1,0,2:0:0:0:
267,295,194110,2,0,P|228:288|215:289,1,50,2|2,2:3|2:1,0:0:0:0:
161,379,194666,6,0,P|197:354|165:248,1,150.000005722046,2|0,0:0|0:0,0:0:0:0:
93,187,195221,1,2,2:3:0:0:
40,297,195499,1,0,2:0:0:0:
274,329,195777,5,10,0:0:0:0:
209,166,196055,1,0,2:0:0:0:
348,62,196333,2,0,B|358:85|344:92|344:92|306:92|305:61,1,87.5,2|0,2:1|0:0,0:0:0:0:
310,33,196888,6,0,L|460:47,1,150.000005722046,2|0,0:0|0:0,0:0:0:0:
511,223,197444,1,2,2:3:0:0:
408,165,197721,1,0,2:0:0:0:
280,348,197999,5,10,0:0:0:0:
354,254,198277,1,0,2:0:0:0:
183,331,198555,2,0,L|188:257,1,50,2|2,2:3|0:1,0:0:0:0:
316,345,199110,6,0,P|276:380|192:339,1,150.000005722046,2|0,0:0|0:0,0:0:0:0:
117,230,199666,1,2,2:3:0:0:
10,286,199944,1,0,2:0:0:0:
63,52,200221,5,10,0:0:0:0:
184,181,200499,1,0,2:0:0:0:
326,63,200777,2,0,B|294:47|294:47|291:51|291:51|239:63,1,87.5,2|0,2:1|0:0,0:0:0:0:
231,71,201333,5,2,0:0:0:0:
98,39,201610,1,0,2:0:0:0:
257,142,201888,1,2,2:3:0:0:
86,199,202166,1,0,2:0:0:0:
314,207,202444,5,10,0:0:0:0:
242,21,202721,1,0,2:0:0:0:
161,306,202999,1,2,2:3:0:0:
118,96,203277,1,0,2:0:0:0:
35,284,203555,6,0,L|85:278,1,37.5000014305115,8|8,2:0|2:0,0:0:0:0:
345,161,203833,2,0,L|295:155,1,37.5000014305115,8|8,0:0|0:0,0:0:0:0:
87,67,204110,1,8,0:0:0:0:
257,8,204388,1,8,0:0:0:0:
391,328,204666,5,8,0:0:0:0:
155,53,204944,2,0,L|151:98,1,37.5000014305115,8|8,2:0|2:0,0:0:0:0:
133,339,205222,5,8,0:0:0:0:
373,44,205499,1,8,0:0:0:0:
473,303,205777,6,0,L|401:291,1,50,2|0,0:0|0:0,0:0:0:0:
357,237,205948,1,10,0:0:0:0:
190,363,206119,6,0,L|259:350,1,50
338,250,206291,1,10,0:0:0:0:
134,186,206462,6,0,L|217:197,1,50,10|0,0:0|0:0,0:0:0:0:
376,221,206634,1,0,0:0:0:0:
275,37,206805,6,0,L|286:107,1,50,10|0,0:0|0:0,0:0:0:0:
207,189,206977,2,0,L|196:259,1,50,10|0,0:0|0:0,0:0:0:0:
47,48,207319,5,0,0:0:0:0:
96,37,207405,1,0,0:0:0:0:
145,26,207491,1,2,0:0:0:0:
31,222,207662,5,10,0:0:0:0:
253,59,207834,2,0,L|260:131,1,50,2|0,0:0|2:0,0:0:0:0:
268,183,208005,1,8,0:0:0:0:
500,59,208177,6,0,B|469:54|469:54|463:54|462:54|462:55|462:55|422:49|422:49|412:53|412:53|329:41,1,150.000005722046,2|8,0:0|0:0,0:0:0:0:
293,323,208519,6,0,P|337:307|342:202,1,125,2|2,0:1|0:2,0:0:0:0:
404,381,208862,2,0,L|471:370,1,62.5,2|0,0:2|2:0,0:0:0:0:
241,199,209034,1,0,0:0:0:0:
238,236,209119,1,0,0:0:0:0:
235,273,209205,5,2,0:2:0:0:
138,167,209377,1,8,0:0:0:0:
69,376,209548,6,0,L|159:366,1,62.5,10|0,0:0|0:0,0:0:0:0:
312,285,209719,2,0,L|222:275,1,62.5,2|0,0:2|0:0,0:0:0:0:
406,162,210062,5,0,0:0:0:0:
411,192,210148,1,0,0:0:0:0:
416,222,210234,1,8,0:0:0:0:
499,80,210405,5,8,0:0:0:0:
411,309,210577,2,0,B|337:356|255:295|255:295|130:330|266:443|305:346|255:295|255:295|206:261|123:278,1,525.000020027161,14|0,0:0|0:0,0:0:0:0:
114,286,211262,6,0,L|126:369,1,75.0000028610231,8|0,0:0|0:0,0:0:0:0:
52,233,211434,1,10,0:0:0:0:
217,198,211605,6,0,L|214:300,1,75.0000028610231
295,131,211777,1,10,0:0:0:0:
105,97,211948,6,0,L|117:180,1,75.0000028610231,10|0,0:0|0:0,0:0:0:0:
43,44,212120,1,0,0:0:0:0:
283,27,212291,6,0,L|183:28,1,75.0000028610231,8|0,0:0|0:0,0:0:0:0:
383,151,212462,2,0,L|483:152,1,75.0000028610231,8|0,0:0|0:0,0:0:0:0:
258,275,212805,5,0,0:0:0:0:
302,267,212891,1,0,0:0:0:0:
340,290,212977,1,0,0:0:0:0:
161,142,213148,6,0,L|169:239,1,75.0000028610231,10|0,0:0|0:0,0:0:0:0:
120,312,213319,1,8,0:0:0:0:
308,192,213491,6,0,L|300:289,1,75.0000028610231,10|0,0:0|0:0,0:0:0:0:
349,362,213662,1,0,0:0:0:0:
419,302,213834,1,8,0:0:0:0:
196,330,214005,6,0,L|200:372,6,37.5000014305115,2|0|0|0|2|0|0,3:1|2:0|2:0|2:0|2:2|2:0|2:0,2:0:0:0:
292,238,214348,2,0,L|288:280,6,37.5000014305115,2|0|0|0|0|0|0,3:1|2:0|2:0|2:0|0:0|2:0|0:0,0:0:0:0:
194,150,214691,2,0,L|198:192,6,37.5000014305115,2|0|0|0|2|0|0,0:1|2:0|2:0|2:0|0:2|2:0|2:0,0:0:0:0:
276,58,215034,5,8,2:0:0:0:
183,300,215205,2,0,B|154:305|137:293|137:293|126:292|126:292|93:265|101:190,1,150.000005722046,2|0,0:0|0:0,0:0:0:0:
375,66,215548,2,0,B|396:89|399:105|399:105|405:114|405:114|406:157|343:199,1,150.000005722046,2|0,0:0|0:0,0:0:0:0:
72,80,215891,6,0,B|134:70|134:70|147:74|147:74|227:62,1,150.000005722046,2|0,0:0|0:0,0:0:0:0:
439,301,216234,2,2,B|377:291|377:291|364:295|364:295|284:283,1,150.000005722046,2|0,0:0|0:0,0:0:0:0:
51,303,216748,6,0,B|38:328|70:362|119:341|113:289|98:272|72:282|94:207,1,150,6|0,0:0|0:0,0:0:0:0:
84,229,217091,1,10,0:1:0:0:
338,229,217262,2,0,B|291:234|291:234|285:239|285:239|208:248,2,100,0|2|0,2:0|2:0|0:0,0:0:0:0:
180,158,217777,5,10,0:0:0:0:
323,338,217948,1,2,2:0:0:0:
511,163,218119,2,0,B|469:132|386:154|422:172|362:200|281:155,1,200,2|10,2:1|0:0,0:0:0:0:
231,78,218634,1,0,2:0:0:0:
81,220,218805,5,2,0:1:0:0:
202,298,218977,1,0,0:0:0:0:
273,172,219148,1,10,2:2:0:0:
150,104,219319,1,2,2:0:0:0:
60,314,219491,6,0,B|87:339|143:319|114:307|184:275|224:308,1,150,2|0,0:1|0:0,0:0:0:0:
210,309,219834,1,10,0:0:0:0:
108,53,220005,2,0,P|81:97|125:213,1,150,2|0,0:1|0:0,0:0:0:0:
121,197,220348,1,2,0:1:0:0:
300,80,220519,6,0,B|253:57|211:79|211:79|244:101,2,100,10|2|2,0:0|2:2|0:1,0:0:0:0:
359,154,221034,1,0,2:0:0:0:
486,67,221205,5,10,0:0:0:0:
438,258,221377,1,0,2:0:0:0:
270,209,221548,6,0,P|276:164|226:86,1,100,2|0,2:0|0:0,0:0:0:0:
242,26,221805,2,0,P|196:20|118:70,1,100,2|0,2:0|0:0,0:0:0:0:
101,217,222062,1,2,2:2:0:0:
71,200,222148,1,0,2:0:0:0:
51,164,222234,6,0,B|96:138|173:138|151:182|195:205|301:164,1,250,2|10,0:1|0:0,0:0:0:0:
428,24,222748,2,0,L|454:287,1,250,2|2,0:1|0:2,0:0:0:0:
257,370,223262,1,10,0:0:0:0:
243,328,223348,1,0,2:0:0:0:
204,306,223434,1,2,2:0:0:0:
160,307,223519,1,0,2:0:0:0:
128,338,223605,5,2,0:1:0:0:
77,186,223777,1,0,2:0:0:0:
131,355,223948,1,10,2:0:0:0:
191,163,224119,1,2,2:2:0:0:
282,317,224291,5,2,2:0:0:0:
90,283,224462,1,0,0:0:0:0:
124,91,224634,1,10,0:0:0:0:
316,125,224805,1,0,2:0:0:0:
194,352,224977,6,0,B|156:314|156:314|193:251|265:266|305:335,1,187.5,2|0,0:1|0:0,0:0:0:0:
282,317,225319,1,10,0:0:0:0:
512,212,225491,2,0,B|465:179|386:179|418:227|338:231|255:196,1,250,2|2,2:1|0:2,0:0:0:0:
200,78,226005,5,10,2:2:0:0:
155,253,226177,1,2,2:0:0:0:
92,46,226348,5,2,0:1:0:0:
149,268,226519,1,10,0:0:0:0:
32,206,226691,5,2,2:1:0:0:
72,136,226862,1,0,0:0:0:0:
47,358,227034,5,10,0:1:0:0:
203,205,227205,2,0,L|193:142,1,62.5
256,303,227377,1,8,0:0:0:0:
64,222,227548,1,8,0:0:0:0:
285,8,227719,6,0,B|335:51|309:136|309:136|286:124|276:93,1,187.5,4|0,0:2|0:0,0:0:0:0:
274,88,228062,1,10,0:0:0:0:
503,187,228234,2,0,B|468:216|429:206|429:206|426:202|426:202|377:181|304:220,1,187.5
321,221,228577,1,0,0:0:0:0:
182,359,228748,6,0,B|205:336|205:336|210:275|210:275|176:207,2,125,10|4|4,0:0|2:2|2:2,0:0:0:0:
180,233,229262,1,0,0:0:0:0:
297,375,229434,5,10,0:1:0:0:
227,167,229605,1,2,2:0:0:0:
111,308,229777,5,2,0:2:0:0:
358,286,229948,1,2,2:2:0:0:
118,150,230119,1,10,2:2:0:0:
340,136,230291,2,0,L|259:130,1,62.5,2|4,0:2|0:2,0:0:0:0:
401,28,230462,5,4,0:2:0:0:
425,260,230634,1,0,2:0:0:0:
235,68,230805,1,10,0:0:0:0:
156,315,230977,6,0,L|293:295,1,125,2|0,0:0|2:0,0:0:0:0:
437,180,231319,2,0,B|360:171|360:171|349:177|349:177|222:158,1,187.5,2|0,0:2|0:0,0:0:0:0:
230,150,231662,2,0,L|236:222,1,62.5,4|0,0:2|0:0,0:0:0:0:
71,325,231834,6,0,L|82:190,1,125,4|0,0:2|0:0,0:0:0:0:
191,0,232177,2,0,B|123:5|87:70|155:157|289:122|238:61|334:7|412:103,1,375,10|0,0:2|0:0,0:0:0:0:
502,283,232862,5,10,0:2:0:0:
302,170,233034,2,0,L|294:251,1,62.5,0|4,0:0|0:2,0:0:0:0:
151,332,233205,1,4,0:2:0:0:
144,349,233548,5,10,0:2:0:0:
48,138,233719,2,0,B|14:189|14:189|61:188|101:160|101:160|108:168|108:168|149:140|211:183,1,250,2|0,0:0|0:0,0:0:0:0:
250,278,234234,2,0,L|161:270,1,62.5,10|0,0:0|0:0,0:0:0:0:
282,357,234405,2,0,L|371:349,1,62.5,4|0,0:2|0:0,0:0:0:0:
440,224,234577,6,0,L|459:356,1,125,4|0,0:2|0:0,0:0:0:0:
488,155,234919,1,10,0:2:0:0:
356,278,235091,2,0,P|320:239|203:262,2,125,0|2|0,0:0|0:1|0:0,0:0:0:0:
452,70,235605,1,10,0:2:0:0:
427,106,235691,1,0,0:0:0:0:
383,112,235777,2,0,P|351:99|327:63,1,62.5,0|4,0:0|0:2,0:0:0:0:
166,127,235948,6,0,B|184:168|184:168|238:109|180:1,1,187.5,4|0,0:2|0:0,0:0:0:0:
186,17,236291,1,10,0:2:0:0:
4,225,236462,2,0,L|141:212,1,125,4|2,0:2|0:1,0:0:0:0:
371,335,236805,2,0,L|234:322,1,125,2|10,0:2|0:2,0:0:0:0:
52,360,237148,5,0,0:0:0:0:
95,368,237234,1,4,0:2:0:0:
133,348,237319,2,0,L|123:263,1,62.5,4|0,0:1|0:0,0:0:0:0:
266,189,237491,6,0,L|251:320,1,125,0|10,0:0|0:2,0:0:0:0:
343,130,237834,1,0,0:0:0:0:
478,328,238005,1,0,0:0:0:0:
453,324,238091,1,0,0:0:0:0:
428,320,238177,1,0,0:0:0:0:
403,316,238262,1,0,0:0:0:0:
378,312,238348,6,0,L|381:362,1,31.25,8|8,2:0|2:0,0:0:0:0:
490,173,238519,1,0,0:0:0:0:
246,42,238691,6,0,B|229:89|248:123|248:123|289:75|377:96,1,187.5,6|0,0:0|0:0,0:0:0:0:
357,96,239034,1,10,0:0:0:0:
334,308,239205,2,0,P|300:286|205:268,1,125,0|2,2:0|0:0,0:0:0:0:
96,354,239548,2,0,P|119:344|171:343,1,62.5
71,121,239719,6,0,L|55:395,1,250,10|2,0:0|0:0,0:0:0:0:
202,153,240234,1,0,2:0:0:0:
218,250,240405,1,10,0:0:0:0:
198,134,240577,1,0,0:0:0:0:
155,309,240748,5,2,2:3:0:0:
365,227,240919,1,0,0:0:0:0:
309,219,241005,1,0,0:0:0:0:
253,211,241091,1,10,0:0:0:0:
406,343,241262,1,0,0:0:0:0:
248,295,241434,5,2,0:0:0:0:
241,274,241519,1,0,2:0:0:0:
250,258,241605,1,0,2:0:0:0:
239,241,241691,1,0,2:0:0:0:
266,198,241777,5,10,0:0:0:0:
260,186,241862,1,0,2:0:0:0:
266,172,241948,1,0,0:0:0:0:
258,157,242034,1,0,2:0:0:0:
227,131,242119,5,2,2:3:0:0:
213,165,242205,1,0,2:0:0:0:
228,204,242291,1,0,0:0:0:0:
275,203,242377,1,0,2:0:0:0:
310,227,242462,1,10,0:0:0:0:
351,203,242548,1,0,2:0:0:0:
396,223,242634,2,0,L|392:297,1,62.5,0|0,2:0|2:0,2:0:0:0:
502,94,242805,5,2,2:3:0:0:
475,107,242891,1,0,2:0:0:0:
449,97,242977,1,0,0:0:0:0:
423,107,243062,1,0,2:0:0:0:
396,92,243148,1,10,0:0:0:0:
368,108,243234,1,0,2:0:0:0:
333,92,243319,1,0,2:0:0:0:
301,109,243405,1,0,2:0:0:0:
266,93,243491,6,0,P|257:65|257:14,1,62.5,2|0,0:0|2:0,0:0:0:0:
167,200,243662,2,0,P|194:190|261:191,1,62.5,0|0,2:0|0:0,2:0:0:0:
107,53,243834,2,0,P|111:85|111:139,1,75.0000028610231,10|0,0:0|2:0,0:0:0:0:
221,271,244005,2,0,P|226:308|215:344,1,75.0000028610231,0|0,0:0|2:0,0:0:0:0:
28,220,244177,6,0,P|41:290|38:369,1,150,2|0,0:0|0:0,0:0:0:0:
27,373,244519,2,0,P|76:361|119:365,1,75.0000028610231,10|0,0:0|0:0,0:0:0:0:
283,341,244691,2,0,P|238:320|146:325,1,125,2|2,0:0|2:3,0:0:0:0:
74,250,245034,2,0,P|122:223|206:216,1,125,2|10,0:0|0:0,0:0:0:0:
290,137,245377,2,0,P|247:121|215:115,1,62.5,0|0,2:0|2:0,2:0:0:0:
132,84,245548,5,2,2:3:0:0:
277,22,245719,1,0,0:0:0:0:
200,199,245891,1,10,0:0:0:0:
261,11,246062,1,0,2:0:0:0:
363,246,246234,5,2,0:0:0:0:
176,281,246405,1,0,0:0:0:0:
116,113,246577,1,10,0:0:0:0:
364,86,246748,1,0,0:0:0:0:
423,308,246919,5,2,0:0:0:0:
389,336,247005,1,0,2:0:0:0:
345,335,247091,1,0,2:0:0:0:
305,316,247177,1,0,2:0:0:0:
269,246,247262,5,10,0:0:0:0:
282,234,247348,1,0,2:0:0:0:
258,213,247434,1,0,0:0:0:0:
269,202,247519,1,0,2:0:0:0:
241,128,247605,5,2,2:3:0:0:
219,141,247691,1,0,2:0:0:0:
194,144,247777,1,0,3:0:0:0:
169,137,247862,1,0,2:0:0:0:
143,73,247948,5,10,0:0:0:0:
118,66,248034,1,0,2:0:0:0:
98,51,248120,1,0,0:0:0:0:
85,28,248205,1,0,2:0:0:0:
155,0,248291,5,2,0:0:0:0:
221,44,248377,1,0,2:0:0:0:
225,110,248462,1,10,0:0:0:0:
192,151,248548,1,0,2:0:0:0:
150,164,248634,1,0,2:0:0:0:
136,185,248719,1,0,2:0:0:0:
134,211,248805,2,0,P|144:237|186:263,1,62.5,0|0,0:0|2:0,0:0:0:0:
499,142,248977,5,10,0:0:0:0:
431,134,249062,1,0,2:0:0:0:
362,126,249148,1,0,0:0:0:0:
293,118,249234,1,0,2:0:0:0:
225,110,249319,6,0,L|219:157,1,31.25,8|8,2:0|2:0,0:0:0:0:
73,361,249662,5,6,0:0:0:0:
251,276,249834,1,0,2:0:0:0:
84,212,250005,1,10,0:0:0:0:
171,368,250177,2,0,P|200:340|351:331,1,187.5
352,339,250519,5,0,0:0:0:0:
215,247,250691,1,10,0:0:0:0:
326,139,250862,2,0,P|356:230|351:333,1,187.5
352,339,251205,5,0,0:0:0:0:
492,228,251377,1,10,0:0:0:0:
367,75,251548,1,0,2:0:0:0:
264,202,251719,5,2,0:0:0:0:
480,125,251891,1,0,0:0:0:0:
273,38,252062,1,10,0:0:0:0:
373,295,252234,1,0,2:0:0:0:
206,149,252405,5,2,0:0:0:0:
169,139,252491,1,0,2:0:0:0:
134,154,252577,1,0,2:0:0:0:
99,141,252662,1,0,2:0:0:0:
63,152,252748,2,0,L|52:227,1,62.5,10|0,0:0|2:0,0:0:0:0:
145,328,252919,5,0,0:0:0:0:
178,336,253005,1,0,2:0:0:0:
209,323,253091,1,0,2:0:0:0:
241,335,253176,1,0,2:0:0:0:
273,325,253262,2,0,L|282:257,1,62.5,0|0,0:0|2:0,0:0:0:0:
374,123,253434,5,10,0:0:0:0:
364,165,253519,1,0,2:0:0:0:
381,205,253605,1,0,2:0:0:0:
422,221,253691,1,0,2:0:0:0:
463,212,253777,6,0,L|471:126,1,62.5,6|0,0:0|2:0,0:0:0:0:
290,14,253948,2,0,B|293:70|293:70|289:77|289:77|299:173,1,125,0|10,0:0|0:0,0:0:0:0:
50,143,254291,6,0,P|87:108|210:143,1,187.5
213,157,254634,2,0,P|203:185|173:214,1,62.5,2|0,0:0|2:0,0:0:0:0:
220,283,254805,2,0,P|178:288|137:279,1,62.5,10|0,0:0|2:0,0:0:0:0:
135,377,254977,2,0,P|101:350|79:315,1,62.5,0|0,2:0|2:0,2:0:0:0:
44,122,255148,5,4,0:1:0:0:
97,78,255234,1,0,2:0:0:0:
158,83,255319,1,0,2:0:0:0:
200,120,255405,1,0,2:0:0:0:
203,170,255491,1,12,0:1:0:0:
172,201,255577,1,0,2:0:0:0:
141,195,255662,2,0,P|130:173|141:126,1,62.5,0|0,0:0|2:0,0:0:0:0:
302,37,255834,5,4,2:1:0:0:
357,56,255919,1,0,2:0:0:0:
374,106,256005,1,0,0:0:0:0:
348,156,256091,1,0,2:0:0:0:
298,164,256177,2,0,P|285:147|275:108,1,62.5,12|0,0:1|2:0,0:0:0:0:
476,198,256348,2,0,P|473:219|452:253,1,62.5,0|0,2:0|2:0,0:0:0:0:
330,313,256519,5,4,0:1:0:0:
326,305,256577,1,0,2:0:0:0:
322,297,256634,2,0,L|336:235,3,41.6666666666667,0|0|0|0,2:0|0:0|2:0|2:0,0:0:0:0:
254,350,256862,5,12,0:1:0:0:
245,347,256920,1,0,2:0:0:0:
237,344,256977,2,0,L|203:290,3,41.6666666666667,0|0|0|0,2:0|2:0|2:0|2:0,0:0:0:0:
135,276,257205,5,4,0:1:0:0:
132,283,257262,1,0,2:0:0:0:
129,290,257319,1,0,2:0:0:0:
126,298,257377,1,0,0:0:0:0:
123,305,257434,2,0,L|74:314,1,41.6666666666667,0|0,2:0|2:0,0:0:0:0:
19,255,257548,5,12,0:1:0:0:
22,248,257605,1,0,2:0:0:0:
25,241,257662,1,0,2:0:0:0:
28,233,257720,1,0,2:0:0:0:
31,226,257777,2,0,L|80:217,1,41.6666666666667,0|0,2:0|2:0,0:0:0:0:
163,200,257891,5,4,0:1:0:0:
202,193,257977,1,0,2:0:0:0:
240,187,258062,1,0,2:0:0:0:
279,180,258148,1,0,2:0:0:0:
318,174,258234,2,0,L|314:242,1,62.5,12|0,0:1|2:0,0:0:0:0:
198,121,258405,1,0,0:0:0:0:
171,357,258577,6,0,P|180:322|196:273,1,62.5,4|0,0:1|2:0,0:0:0:0:
335,232,258748,2,0,B|341:282|341:282|339:298|339:298|351:377,1,125,0|12,0:0|0:1,0:0:0:0:
371,348,259005,1,0,2:0:0:0:
394,340,259091,1,0,2:0:0:0:
417,332,259177,1,0,2:0:0:0:
440,324,259262,5,12,0:2:0:0:
328,157,259434,1,0,0:0:0:0:
441,20,259605,1,0,0:0:0:0:
307,347,259777,5,12,0:2:0:0:
254,121,259948,1,0,0:0:0:0:
491,146,260119,1,0,0:0:0:0:
432,359,260291,5,12,0:2:0:0:
243,110,260462,1,4,0:2:0:0:
141,321,260634,6,0,B|131:370|181:380|181:380|226:352|234:290|176:230,1,225.000008583069,6|0,0:0|0:0,0:0:0:0:
183,243,260977,1,10,0:1:0:0:
290,368,261148,1,0,0:0:0:0:
359,148,261319,2,0,P|340:218|331:277,1,125,2|0,2:1|0:0,0:0:0:0:
183,57,261662,5,10,0:1:0:0:
244,197,261834,1,0,2:0:0:0:
433,77,262005,2,0,P|394:52|310:33,1,125,2|0,2:1|0:0,0:0:0:0:
481,210,262348,5,10,0:1:0:0:
312,20,262519,1,0,2:0:0:0:
243,219,262691,1,2,0:1:0:0:
383,140,262862,1,0,0:0:0:0:
358,354,263034,5,10,0:1:0:0:
272,138,263205,1,0,2:0:0:0:
116,311,263377,2,0,B|142:358|142:358|156:170,1,187.5,2|0,0:1|0:0,0:0:0:0:
153,211,263719,5,10,0:1:0:0:
43,160,263891,1,0,0:0:0:0:
166,112,264062,1,2,2:1:0:0:
41,252,264234,1,0,0:0:0:0:
83,89,264405,1,10,0:1:0:0:
156,226,264577,1,0,2:0:0:0:
326,100,264748,6,0,P|304:75|204:79,1,125,2|0,2:1|0:0,0:0:0:0:
218,296,265091,2,0,P|265:263|258:182,1,125,10|0,0:1|0:0,0:0:0:0:
110,63,265434,2,0,L|105:234,1,125,6|0,0:2|0:0,0:0:0:0:
24,260,265691,1,0,0:0:0:0:
15,250,265777,2,0,B|2:232|2:232|185:221,1,187.5,14|0,0:0|0:0,0:0:0:0:
179,214,266119,6,0,B|177:281|177:281|172:292|172:292|170:395,1,150,6|0,0:0|0:0,0:0:0:0:
169,377,266462,1,10,0:1:0:0:
271,260,266634,1,0,0:0:0:0:
356,370,266805,2,0,P|308:377|258:333,1,100,2|0,2:1|0:0,0:0:0:0:
375,212,267148,5,10,0:1:0:0:
430,328,267319,1,0,2:0:0:0:
466,157,267491,1,2,2:1:0:0:
426,343,267662,1,0,0:0:0:0:
298,250,267834,5,10,0:1:0:0:
460,173,268005,1,0,2:0:0:0:
293,265,268177,1,2,0:1:0:0:
510,310,268348,1,0,0:0:0:0:
282,132,268519,6,0,B|262:164|262:164|287:314,1,187.5,10|0,0:1|0:0,0:0:0:0:
381,333,268862,6,0,B|384:297|359:253|315:261|254:273|289:298|238:324|133:291,1,250,6|10,0:0|0:1,0:0:0:0:
108,130,269377,2,0,B|114:191|158:206|158:206|221:181|212:101,1,200
98,28,269891,5,10,0:1:0:0:
44,245,270062,1,0,0:0:0:0:
298,168,270234,5,8,2:0:0:0:
240,152,270319,1,8,0:0:0:0:
191,178,270405,1,0,0:0:0:0:
174,225,270491,1,0,0:0:0:0:
186,263,270577,2,0,P|210:258|257:274,1,50,8|8,2:0|0:0,0:0:0:0:
439,260,270748,5,8,2:0:0:0:
458,312,270834,1,8,0:0:0:0:
433,355,270919,1,0,0:0:0:0:
388,360,271005,1,0,0:0:0:0:
367,343,271091,2,0,P|376:319|401:301,1,50,8|8,2:0|0:0,0:0:0:0:
492,128,271262,5,8,2:0:0:0:
455,175,271348,1,8,0:0:0:0:
399,172,271434,1,0,0:0:0:0:
373,129,271519,1,0,0:0:0:0:
387,96,271605,6,0,L|512:107,1,100,14|0,0:0|2:0,0:0:0:0:
365,292,271948,6,0,L|352:227,1,50,12|0,2:2|2:0,0:0:0:0:
294,53,272119,2,0,L|284:123,1,50,0|0,0:0|2:0,0:0:0:0:
227,282,272291,2,0,L|243:220,1,50,12|0,2:0|2:0,0:0:0:0:
301,44,272462,2,0,L|257:86,1,50,0|0,0:0|2:0,0:0:0:0:
90,201,272634,2,0,L|147:219,1,50,12|0,2:2|2:0,0:0:0:0:
82,196,272977,6,0,L|156:220,1,50,12|0,2:0|2:0,0:0:0:0:
316,314,273148,2,0,L|256:316,1,50,0|0,0:0|2:0,0:0:0:0:
54,313,273319,2,0,L|113:287,1,50,12|0,2:0|2:0,0:0:0:0:
332,189,273577,5,0,0:0:0:0:
332,189,273662,2,0,L|277:162,1,50,12|0,2:0|2:0,0:0:0:0:
120,81,273834,2,0,L|131:147,1,50,0|0,0:0|2:0,0:0:0:0:
167,363,274005,2,0,L|186:308,1,50,12|0,2:0|2:0,0:0:0:0:
264,101,274177,2,0,L|291:152,1,50,0|0,0:0|2:0,0:0:0:0:
387,323,274348,2,0,L|268:300,1,100,12|0,2:0|2:0,0:0:0:0:
397,336,274691,6,0,L|361:283,1,50,12|0,2:0|2:0,0:0:0:0:
259,88,274862,2,0,L|226:139,1,50,0|0,0:0|2:0,0:0:0:0:
127,281,275034,2,0,L|189:271,1,50,12|0,2:0|2:0,0:0:0:0:
450,212,275205,2,0,L|398:196,1,50,0|0,0:0|2:0,0:0:0:0:
157,108,275377,2,0,L|184:166,1,50,12|0,2:0|2:0,0:0:0:0:
286,353,275634,5,0,0:0:0:0:
286,353,275719,2,0,L|312:291,1,50,12|0,2:0|2:0,0:0:0:0:
377,125,275891,2,0,L|346:199,1,50,0|0,0:0|2:0,0:0:0:0:
282,364,276062,2,0,L|249:321,1,50,12|0,2:0|2:0,0:0:0:0:
144,182,276234,5,0,0:0:0:0:
144,182,276319,1,0,0:0:0:0:
144,182,276405,2,0,L|201:196,1,50,12|0,2:0|2:0,0:0:0:0:
374,241,276577,2,0,L|290:258,1,50,0|0,0:0|2:0,0:0:0:0:
66,297,276748,2,0,L|124:286,1,50,12|0,2:0|2:0,0:0:0:0:
384,250,276919,2,0,L|318:223,1,50,0|0,0:0|2:0,0:0:0:0:
171,24,277091,5,12,2:0:0:0:
109,68,277177,1,0,2:0:0:0:
108,142,277262,1,0,0:0:0:0:
149,178,277348,1,0,2:0:0:0:
189,175,277434,1,12,2:0:0:0:
211,155,277519,1,0,2:0:0:0:
207,135,277605,1,0,0:0:0:0:
191,120,277691,1,0,2:0:0:0:
160,123,277777,5,12,2:0:0:0:
132,179,277862,1,0,2:0:0:0:
155,248,277948,1,0,0:0:0:0:
229,272,278034,1,0,2:0:0:0:
299,238,278119,1,12,2:0:0:0:
357,263,278205,1,0,2:0:0:0:
364,310,278291,1,0,0:0:0:0:
343,338,278377,1,0,2:0:0:0:
316,339,278462,5,12,2:0:0:0:
298,329,278548,1,0,2:0:0:0:
290,304,278634,1,0,0:0:0:0:
302,276,278719,1,0,2:0:0:0:
340,251,278805,1,12,2:0:0:0:
348,201,278891,1,0,2:0:0:0:
314,157,278977,1,0,0:0:0:0:
254,150,279062,1,0,2:0:0:0:
210,191,279148,5,12,2:0:0:0:
265,201,279234,1,0,2:0:0:0:
300,170,279319,1,0,0:0:0:0:
298,128,279405,1,0,2:0:0:0:
269,102,279491,5,12,2:0:0:0:
184,284,279662,1,0,0:0:0:0:
184,284,279748,1,0,0:0:0:0:
184,284,279834,6,0,B|246:280|246:280|257:288|257:288|370:279,1,150,14|0,0:0|0:0,0:0:0:0:
455,344,280177,1,12,2:2:0:0:
280,163,280348,6,0,B|218:167|218:167|207:159|207:159|95:166,1,170.000003242493,0|12,0:0|2:0,0:0:0:0:
24,235,280691,1,0,0:0:0:0:
229,55,280862,6,0,B|299:60|299:60|323:51|323:51|480:62,1,200,12|0,2:0|0:0,0:0:0:0:
141,4,281205,5,12,2:0:0:0:
218,285,281377,1,0,0:0:0:0:
395,144,281548,1,0,0:0:0:0:
103,119,281719,5,12,2:0:0:0:
311,307,281891,1,0,0:0:0:0:
315,86,282062,1,0,0:0:0:0:
101,286,282234,5,12,2:0:0:0:
415,191,282405,1,0,0:0:0:0:
146,5,282577,6,0,B|69:55|86:126|121:158|121:158|196:111|258:197|207:248,1,350,6|0,0:0|0:0,0:0:0:0:
217,244,283262,2,0,L|14:233,1,200,10|2,0:0|0:0,0:0:0:0:
70,329,283777,1,0,0:0:0:0:
150,362,283948,6,0,L|352:352,1,200,2|2,0:0|0:0,0:0:0:0:
288,280,284462,1,0,0:0:0:0:
416,176,284634,2,0,L|430:380,1,200,10|2,0:0|0:0,0:0:0:0:
501,111,285148,1,0,0:0:0:0:
497,96,285234,2,0,L|477:121,1,25,0|0,2:0|2:0,2:0:0:0:
486,85,285319,6,0,B|426:30|323:78|366:81|282:143|186:83,1,300,6|0,0:0|0:0,0:0:0:0:
108,0,286005,2,0,P|127:33|128:116,1,100,10|0,0:0|0:0,0:0:0:0:
0,201,286348,2,0,P|58:182|123:195,1,100,2|0,0:0|0:0,0:0:0:0:
198,249,286691,2,0,L|188:376,1,100,2|0,0:0|0:0,0:0:0:0:
316,346,287034,5,2,2:3:0:0:
327,338,287119,1,0,2:0:0:0:
337,323,287205,1,0,2:0:0:0:
335,302,287291,1,0,2:0:0:0:
280,239,287377,5,10,0:0:0:0:
307,256,287462,1,0,2:0:0:0:
339,244,287548,1,0,2:0:0:0:
369,259,287634,1,0,2:0:0:0:
416,193,287719,5,2,0:0:0:0:
393,176,287804,1,0,2:0:0:0:
353,174,287890,1,0,2:0:0:0:
331,206,287976,1,0,2:0:0:0:
331,277,288062,5,6,0:0:0:0:
381,276,288148,1,0,2:0:0:0:
413,237,288234,1,0,2:0:0:0:
411,187,288319,1,0,2:0:0:0:
375,151,288405,1,2,2:2:0:0:
353,94,288491,1,0,2:0:0:0:
380,40,288577,1,2,0:2:0:0:
438,27,288662,1,0,2:0:0:0:
492,90,288748,5,10,0:0:0:0:
468,150,288834,1,0,2:0:0:0:
407,171,288919,1,0,2:0:0:0:
346,147,289005,1,0,2:0:0:0:
316,88,289091,1,2,2:3:0:0:
257,49,289177,1,0,2:0:0:0:
188,61,289262,1,0,2:0:0:0:
158,124,289348,1,0,2:0:0:0:
182,198,289434,5,2,0:0:0:0:
196,196,289519,1,0,2:0:0:0:
210,194,289605,1,0,2:0:0:0:
224,192,289691,1,0,2:0:0:0:
258,116,289777,5,2,2:2:0:0:
248,111,289862,1,0,2:0:0:0:
238,113,289948,1,2,0:2:0:0:
226,112,290034,1,0,2:0:0:0:
158,90,290119,5,10,0:0:0:0:
143,104,290205,1,0,2:0:0:0:
128,136,290291,1,0,2:0:0:0:
134,185,290377,1,0,2:0:0:0:
173,225,290462,1,2,2:3:0:0:
197,280,290548,1,0,2:0:0:0:
168,338,290634,1,0,0:0:0:0:
98,340,290719,1,0,2:0:0:0:
47,275,290805,6,0,B|122:227|203:265|157:295|252:345|342:273,1,300,6|0,0:0|0:0,0:0:0:0:
370,174,291491,2,0,P|418:177|486:210,1,100,10|0,0:0|2:0,0:0:0:0:
512,109,291719,2,0,P|480:119|422:185,1,100,2|0,0:2|2:0,0:0:0:0:
428,174,291948,1,0,3:0:0:0:
444,283,292177,6,0,L|446:319,1,25,2|0,0:0|2:0,0:0:0:0:
434,284,292262,2,0,L|436:320,1,25,0|0,2:0|2:0,2:0:0:0:
424,285,292348,2,0,L|426:321,1,25,8|0,2:0|2:0,0:0:0:0:
414,286,292434,2,0,L|416:322,1,25,0|0,2:0|2:0,2:0:0:0:
404,287,292519,2,0,L|406:323,1,25,2|0,2:0|2:0,2:0:0:0:
394,288,292605,2,0,L|396:324,1,25,0|0,2:0|2:0,2:0:0:0:
384,289,292691,2,0,L|386:325,1,25,0|0,0:0|2:0,0:0:0:0:
374,290,292777,2,0,L|376:326,1,25,0|0,2:0|2:0,2:0:0:0:
364,296,292862,6,0,L|366:260,1,25,8|0,2:0|0:0,0:0:0:0:
354,295,292948,2,0,L|356:259,1,25,0|0,2:0|2:0,2:0:0:0:
344,294,293034,2,0,L|346:258,1,25,0|0,2:0|2:0,2:0:0:0:
334,293,293119,2,0,L|336:257,1,25,0|0,2:0|2:0,2:0:0:0:
325,300,293205,6,0,L|327:336,1,25,0|0,0:0|2:0,0:0:0:0:
315,301,293291,2,0,L|317:337,1,25,0|0,2:0|2:0,2:0:0:0:
305,302,293377,2,0,L|307:338,1,25,0|0,0:0|2:0,0:0:0:0:
295,303,293462,2,0,L|297:339,1,25,0|0,2:0|2:0,2:0:0:0:
264,300,293548,6,0,P|259:286|261:210,2,66.6666666666667,6|0|0,0:0|2:0|2:0,0:0:0:0:
156,356,293891,2,0,P|191:348|236:357,2,66.6666666666667,2|0|0,2:3|2:0|2:0,0:0:0:0:
83,288,294234,5,10,0:0:0:0:
73,215,294348,1,0,2:0:0:0:
64,142,294462,1,0,2:0:0:0:
171,122,294577,5,2,0:0:0:0:
163,180,294691,1,0,2:0:0:0:
155,238,294805,1,0,2:0:0:0:
210,301,294919,5,2,2:2:0:0:
229,316,295005,1,0,2:0:0:0:
279,318,295091,1,0,2:0:0:0:
308,271,295177,1,0,2:0:0:0:
287,210,295262,1,2,2:3:0:0:
292,140,295348,1,0,2:0:0:0:
361,111,295434,1,0,0:0:0:0:
415,161,295519,1,0,2:0:0:0:
412,236,295605,5,8,2:0:0:0:
397,240,295691,1,0,2:0:0:0:
382,244,295777,1,0,2:0:0:0:
367,248,295862,1,0,2:0:0:0:
313,318,295948,5,2,2:3:0:0:
328,322,296034,1,0,2:0:0:0:
343,326,296120,1,0,0:0:0:0:
358,330,296205,1,0,2:0:0:0:
421,370,296291,6,0,L|431:252,1,100,6|0,0:0|2:0,0:0:0:0:
490,212,296519,2,0,L|504:277,1,66.6666666666667,2|2,0:2|2:2,0:0:0:0:
411,187,296719,2,0,L|294:176,1,116.666666666667,2|0,2:2|2:0,0:0:0:0:
164,150,296977,5,10,2:0:0:0:
164,150,297034,1,0,2:0:0:0:
164,150,297091,2,0,L|240:135,1,66.6666666666667,2|0,2:2|2:0,0:0:0:0:
291,59,297262,2,0,L|215:44,1,66.6666666666667,2|0,2:2|2:0,0:0:0:0:
306,163,297434,2,0,L|382:148,1,66.6666666666667,2|0,2:2|2:0,0:0:0:0:
450,50,297662,5,2,0:3:0:0:
432,67,297748,1,0,2:0:0:0:
421,95,297834,1,0,2:0:0:0:
423,129,297919,1,0,2:0:0:0:
447,160,298005,1,2,2:3:0:0:
448,205,298091,1,0,2:0:0:0:
413,241,298177,1,0,3:0:0:0:
356,239,298262,1,0,2:0:0:0:
332,195,298348,5,10,2:0:0:0:
381,202,298434,1,0,2:0:0:0:
403,245,298519,1,0,2:0:0:0:
391,288,298605,1,0,2:0:0:0:
355,305,298691,2,0,L|243:295,1,100,2|0,0:0|2:0,0:0:0:0:
115,352,299034,5,6,0:0:0:0:
143,343,299119,1,0,2:0:0:0:
154,312,299205,1,0,2:0:0:0:
137,259,299291,1,0,2:0:0:0:
93,225,299377,1,0,2:0:0:0:
74,163,299462,1,0,2:0:0:0:
103,104,299548,1,0,3:0:0:0:
167,94,299634,1,0,2:0:0:0:
216,134,299719,5,10,2:3:0:0:
218,153,299805,1,0,2:0:0:0:
204,178,299891,1,0,2:0:0:0:
154,200,299977,1,0,2:0:0:0:
132,255,300062,1,2,2:3:0:0:
158,310,300148,1,0,2:0:0:0:
215,314,300234,1,0,2:0:0:0:
262,281,300319,1,0,2:0:0:0:
314,293,300405,6,0,P|325:320|327:358,2,66.6666666666667,2|0|0,0:0|2:0|2:0,0:0:0:0:
215,264,300748,6,0,P|204:291|202:329,2,66.6666666666667,2|0|0,2:3|2:0|2:0,2:0:0:0:
386,258,301091,6,0,L|444:249,2,33.3333333333333,10|0|0,2:3|2:0|2:0,0:0:0:0:
324,190,301262,2,0,L|266:181,2,33.3333333333333,0|0|0,2:0|2:0|2:0,2:0:0:0:
428,117,301434,2,0,L|473:110,2,25,2|0|0,2:3|2:0|2:0,2:0:0:0:
323,33,301605,2,0,L|281:26,2,25,0|0|0,2:0|2:0|2:0,2:0:0:0:
444,14,301777,6,0,L|524:2,3,50,6|0|0|0,0:0|2:0|2:0|2:0,0:0:0:0:
299,117,302119,2,0,L|213:109,3,50,2|0|0|0,2:3|2:0|2:0|2:0,2:0:0:0:
426,173,302462,5,10,2:3:0:0:
424,182,302548,1,0,2:0:0:0:
422,191,302634,1,0,2:0:0:0:
420,200,302719,1,0,2:0:0:0:
358,243,302805,5,2,2:3:0:0:
360,252,302891,1,0,2:0:0:0:
362,261,302977,1,0,0:0:0:0:
364,270,303062,1,0,2:0:0:0:
409,331,303148,5,6,0:2:0:0:
419,339,303234,2,0,L|476:322,2,50,0|0|0,2:0|2:0|2:0,0:0:0:0:
329,364,303491,1,2,2:2:0:0:
321,371,303577,2,0,L|264:354,2,50,0|0|0,2:2|3:0|2:0,0:0:0:0:
247,271,303834,5,10,2:3:0:0:
241,236,303919,1,0,2:0:0:0:
220,207,304005,1,0,2:0:0:0:
186,196,304091,1,0,2:0:0:0:
145,262,304177,5,2,2:3:0:0:
166,265,304262,1,0,2:0:0:0:
183,277,304348,1,0,2:0:0:0:
190,298,304434,1,0,2:0:0:0:
158,365,304519,6,0,L|28:373,1,100,10|0,0:0|0:0,0:0:0:0:
308,161,304862,6,0,L|408:168,1,100,10|0,0:0|0:0,0:0:0:0:
83,65,305205,5,8,0:2:0:0:
346,270,305377,1,8,0:2:0:0:
289,32,305548,5,8,0:2:0:0:
110,299,305719,1,8,0:2:0:0:
178,29,305891,5,8,0:2:0:0:
67,311,307262,6,0,L|199:287,1,125,6|10,0:0|0:0,0:0:0:0:
272,340,307519,1,0,0:0:0:0:
285,349,307605,2,0,L|376:334,1,62.5
303,138,307777,2,0,P|275:180|300:264,1,125,10|0,0:0|0:0,0:0:0:0:
362,327,308119,1,10,0:0:0:0:
500,206,308291,2,0,L|427:203,1,62.5
351,202,308462,1,10,0:0:0:0:
294,63,308634,6,0,P|300:78|306:99,1,31.25,2|0,0:0|0:0,0:0:0:0:
326,34,308719,2,0,P|336:53|337:71,1,31.25,0|0,2:0|2:0,2:0:0:0:
369,27,308805,2,0,P|374:48|371:72,1,31.25,10|0,0:0|0:0,0:0:0:0:
409,43,308891,2,0,P|400:62|386:74,1,31.25,0|0,2:0|2:0,2:0:0:0:
430,81,308977,2,0,P|405:88|391:85,1,31.25,0|0,3:0|0:0,0:0:0:0:
426,117,309062,2,0,P|404:121|391:117,1,31.25,0|0,3:0|2:0,2:0:0:0:
422,154,309148,2,0,L|507:146,1,62.5,10|0,0:0|0:0,0:0:0:0:
395,274,309319,6,0,P|387:256|385:243,1,31.25,0|0,0:0|2:0,0:0:0:0:
359,300,309405,2,0,P|354:284|352:264,1,31.25,0|0,2:0|2:0,2:0:0:0:
315,301,309491,2,0,P|315:284|318:258,1,31.25,10|0,0:0|0:0,0:0:0:0:
281,272,309577,2,0,P|281:257|286:237,1,31.25,0|0,2:0|2:0,2:0:0:0:
254,301,309662,6,0,P|246:315|243:332,1,31.25,0|0,0:0|2:0,0:0:0:0:
218,275,309748,2,0,P|209:300|207:316,1,31.25,0|0,0:0|2:0,0:0:0:0:
174,274,309834,2,0,P|168:297|170:312,1,31.25,10|0,0:0|2:0,0:0:0:0:
140,303,309919,2,0,P|139:319|145:340,1,31.25,0|0,2:0|2:0,2:0:0:0:
151,381,310005,6,0,B|174:370|174:370|159:217,1,150.000005722046,6|10,0:0|0:0,0:0:0:0:
60,167,310262,2,0,L|52:310,1,125,2|0,0:0|0:0,0:0:0:0:
157,132,310519,2,0,L|146:41,1,62.5,10|0,0:0|0:0,0:0:0:0:
235,192,310691,6,0,P|264:166|364:152,1,125,2|10,0:0|0:0,0:0:0:0:
408,224,310948,2,0,L|398:373,1,125,2|0,0:0|0:0,0:0:0:0:
496,374,311205,2,0,L|488:275,1,62.5,10|0,0:0|0:0,0:0:0:0:
315,238,311377,6,0,B|235:241|235:241|210:259|210:259|77:262,1,187.5,6|0,0:0|0:0,0:0:0:0:
15,206,311719,2,0,B|33:170|33:170|217:168,1,187.5,6|0,0:0|0:0,0:0:0:0:
226,76,312062,2,0,B|233:12|116:-2|96:102|183:147|183:147|187:139|187:139|225:166|256:145|256:145|262:157|262:157|315:154|351:121|351:121|360:127|360:127|418:112|456:160,1,525.000020027161,2|0,0:0|0:0,0:0:0:0:
471,213,312748,5,6,0:0:0:0:
469,228,312834,1,0,0:0:0:0:
466,247,312919,1,10,0:0:0:0:
464,266,313005,1,0,0:0:0:0:
406,340,313091,5,0,0:0:0:0:
391,337,313177,1,0,0:0:0:0:
351,270,313262,5,10,0:0:0:0:
335,275,313348,1,0,0:0:0:0:
285,334,313434,5,0,0:0:0:0:
262,331,313519,1,0,0:0:0:0:
239,328,313605,1,10,0:0:0:0:
216,325,313691,1,0,0:0:0:0:
158,271,313777,5,0,0:0:0:0:
163,251,313862,1,0,0:0:0:0:
230,195,313948,5,10,0:0:0:0:
225,178,314033,1,0,0:0:0:0:
171,121,314119,6,0,L|78:110,1,75.0000028610231
43,248,314291,1,10,0:0:0:0:
69,305,314377,1,0,0:0:0:0:
119,306,314462,1,0,0:0:0:0:
153,276,314548,1,0,0:0:0:0:
147,242,314634,1,10,0:0:0:0:
131,231,314719,1,0,0:0:0:0:
94,298,314805,5,0,0:0:0:0:
134,342,314891,1,0,0:0:0:0:
194,342,314977,1,10,0:0:0:0:
236,301,315062,1,0,0:0:0:0:
278,238,315148,5,0,0:0:0:0:
298,229,315234,1,0,0:0:0:0:
320,231,315319,1,10,0:0:0:0:
340,240,315405,1,0,0:0:0:0:
350,322,315491,6,0,B|319:357|319:357|304:245,1,150.000005722046,6|10,0:0|0:0,0:0:0:0:
375,177,315748,1,0,0:0:0:0:
396,171,315834,2,0,L|484:193,2,75.0000028610231,0|0|10,0:0|0:0|0:0,0:0:0:0:
287,84,316091,1,0,0:0:0:0:
268,112,316177,2,0,L|180:90,1,75.0000028610231
400,72,316348,2,0,L|488:50,1,75.0000028610231,10|0,0:0|0:0,0:0:0:0:
451,208,316519,5,0,0:0:0:0:
426,262,316605,1,0,0:0:0:0:
368,278,316691,1,10,0:0:0:0:
312,254,316777,1,0,0:0:0:0:
291,197,316862,6,0,L|294:110,2,75.0000028610231,8|8|8,0:0|0:0|0:0,0:0:0:0:
192,112,317119,2,0,L|189:25,2,75.0000028610231,8|8|8,0:0|0:0|0:0,0:0:0:0:
106,158,317377,2,0,L|103:245,1,75.0000028610231,8|8,0:0|0:0,0:0:0:0:
152,331,317548,5,8,2:0:0:0:
218,320,317634,1,8,2:0:0:0:
284,310,317719,2,0,L|280:394,1,75.0000028610231,2|0,0:0|0:0,0:0:0:0:
165,159,317891,5,8,2:0:0:0:
99,148,317977,1,8,2:0:0:0:
33,138,318062,2,0,L|37:222,1,75.0000028610231,2|0,0:0|0:0,0:0:0:0:
156,341,318234,5,6,0:0:0:0:
181,322,318319,1,0,0:0:0:0:
210,330,318405,1,10,0:0:0:0:
284,348,318491,5,0,0:0:0:0:
304,354,318576,1,0,0:0:0:0:
324,338,318662,1,0,0:0:0:0:
371,274,318748,6,0,L|290:258,1,75.0000028610231,10|0,0:0|0:0,0:0:0:0:
321,31,318919,5,6,0:0:0:0:
380,40,319005,1,0,0:0:0:0:
415,88,319091,1,10,0:0:0:0:
412,148,319177,1,0,0:0:0:0:
373,193,319262,1,0,0:0:0:0:
313,203,319348,1,0,0:0:0:0:
262,170,319434,2,0,L|271:83,1,75.0000028610231,10|0,0:0|0:0,0:0:0:0:
96,17,319605,6,0,B|68:43|68:43|79:171,1,150.000005722046,0|10,0:0|0:0,0:0:0:0:
128,220,319834,2,0,L|283:194,1,150.000005722046,2|0,0:0|0:0,0:0:0:0:
361,301,320062,2,0,P|308:282|298:194,1,150.000005722046,2|0,0:0|0:0,0:0:0:0:
444,133,320291,6,0,L|436:291,1,150.000005722046,2|0,0:0|0:0,0:0:0:0:
352,354,320519,2,0,L|344:196,1,150.000005722046,2|0,0:0|0:0,0:0:0:0:
258,116,320748,2,0,B|257:157|257:157|249:165|249:165|249:244,1,100.000003814697,2|0,0:0|0:0,0:0:0:0:
183,309,320977,6,0,B|134:248|39:285|39:285|-45:381|83:431|133:332|39:286|39:286|-8:205|44:116|96:102|96:102|77:128|68:200,1,675.000025749208,6|0,0:0|0:0,0:0:0:0:
89,167,321834,2,0,P|119:183|167:177,1,75.0000028610231,10|0,0:0|0:0,0:0:0:0:
221,3,322005,2,0,P|191:31|183:80,1,75.0000028610231
361,162,322177,2,0,P|349:133|303:99,1,75.0000028610231,10|0,0:0|0:0,0:0:0:0:
216,297,322348,5,8,0:0:0:0:
270,338,322434,1,8,2:0:0:0:
336,337,322519,1,8,0:0:0:0:
380,287,322605,1,8,0:0:0:0:
369,217,322691,5,8,2:0:0:0:
375,182,322777,1,8,2:0:0:0:
395,164,322862,1,8,0:0:0:0:
424,171,322948,1,8,2:0:0:0:
465,158,323034,5,8,0:0:0:0:
409,108,323119,1,8,2:0:0:0:
333,110,323205,1,8,2:0:0:0:
281,164,323291,1,8,2:0:0:0:
266,237,323377,5,8,2:0:0:0:
209,296,323462,1,8,2:0:0:0:
126,294,323548,1,8,2:0:0:0:
75,228,323634,1,8,2:0:0:0:
82,146,323719,5,6,0:0:0:0:
139,128,323805,1,0,0:0:0:0:
191,156,323891,1,10,0:0:0:0:
205,214,323977,1,0,0:0:0:0:
183,269,324062,2,0,L|96:283,1,75.0000028610231
296,361,324234,5,10,0:0:0:0:
354,328,324319,1,0,0:0:0:0:
357,271,324405,1,0,0:0:0:0:
320,223,324491,1,0,0:0:0:0:
309,166,324577,1,10,0:0:0:0:
330,119,324662,1,0,0:0:0:0:
409,122,324748,5,0,0:0:0:0:
384,177,324834,1,0,0:0:0:0:
327,194,324919,1,10,0:0:0:0:
272,169,325005,1,0,0:0:0:0:
250,112,325091,5,0,0:0:0:0:
262,92,325177,1,0,0:0:0:0:
248,68,325262,1,10,0:0:0:0:
261,46,325348,1,0,0:0:0:0:
241,21,325434,5,0,0:0:0:0:
214,45,325519,1,0,0:0:0:0:
181,39,325605,1,10,0:0:0:0:
151,61,325691,1,0,0:0:0:0:
105,27,325777,5,0,0:0:0:0:
142,82,325862,1,0,0:0:0:0:
125,140,325948,1,10,0:0:0:0:
73,172,326034,1,0,0:0:0:0:
33,208,326119,5,0,0:0:0:0:
28,280,326205,1,0,0:0:0:0:
63,342,326291,1,10,0:0:0:0:
136,347,326377,1,0,0:0:0:0:
200,281,326462,5,8,2:0:0:0:
203,266,326548,1,8,2:0:0:0:
206,251,326634,1,8,2:0:0:0:
209,236,326719,1,8,2:0:0:0:
212,221,326805,2,0,L|99:232,1,75.0000028610231,2|0,0:0|0:0,0:0:0:0:
295,81,326977,2,0,L|408:92,1,75.0000028610231,2|0,0:0|0:0,0:0:0:0:
413,330,327148,5,8,2:0:0:0:
368,339,327234,1,8,2:0:0:0:
326,322,327319,1,8,2:0:0:0:
304,282,327405,1,8,2:0:0:0:
305,236,327491,2,0,L|402:211,1,75.0000028610231,2|0,0:0|0:0,0:0:0:0:
263,81,327662,2,0,L|166:56,1,75.0000028610231,2|0,0:0|0:0,0:0:0:0:
41,337,327834,5,8,3:2:0:0:
107,345,327919,1,8,2:0:0:0:
167,314,328005,1,8,2:0:0:0:
183,248,328091,1,8,3:2:0:0:
153,187,328177,1,8,2:0:0:0:
93,156,328262,1,8,2:0:0:0:
75,90,328348,1,8,3:2:0:0:
105,29,328434,1,8,2:0:0:0:
171,17,328519,2,0,P|197:20|241:50,1,75.0000028610231,8|0,2:3|2:0,0:0:0:0:
343,278,328691,5,8,3:2:0:0:
283,337,328776,1,8,2:0:0:0:
201,344,328862,1,8,2:0:0:0:
132,295,328948,1,8,2:0:0:0:
111,214,329033,1,8,2:0:0:0:
149,140,329119,1,8,2:0:0:0:
226,108,329205,5,6,0:0:0:0:
278,126,329291,1,0,0:0:0:0:
306,170,329377,1,10,0:2:0:0:
299,221,329462,1,0,0:0:0:0:
258,254,329548,2,0,L|164:246,1,75.0000028610231
321,374,329719,5,10,0:2:0:0:
364,361,329805,1,0,0:0:0:0:
389,323,329891,1,0,0:0:0:0:
388,277,329977,1,0,0:0:0:0:
359,243,330062,1,10,0:2:0:0:
342,201,330148,1,0,0:0:0:0:
353,157,330234,2,0,L|452:142,1,75.0000028610231
487,339,330405,2,0,L|388:324,1,75.0000028610231,10|0,0:2|0:0,0:0:0:0:
175,182,330577,5,6,0:0:0:0:
124,225,330662,1,0,0:0:0:0:
116,292,330748,1,10,0:2:0:0:
149,350,330834,1,0,0:0:0:0:
213,369,330919,1,0,0:0:0:0:
280,359,331005,1,0,0:0:0:0:
325,308,331091,1,10,0:2:0:0:
325,240,331177,1,0,0:0:0:0:
288,183,331262,1,0,0:0:0:0:
277,116,331348,1,0,0:0:0:0:
307,55,331434,1,10,0:2:0:0:
371,36,331519,1,0,0:0:0:0:
435,55,331605,1,0,0:0:0:0:
471,112,331691,1,0,0:0:0:0:
464,179,331777,1,10,0:2:0:0:
418,227,331862,1,0,0:0:0:0:
350,232,331948,6,0,L|341:150,1,75.0000028610231,2|0,0:2|0:0,0:0:0:0:
260,133,332119,1,8,0:0:0:0:
252,119,332205,2,0,L|261:37,1,75.0000028610231,2|0,0:2|0:0,0:0:0:0:
140,184,332377,1,0,0:0:0:0:
154,180,332462,2,0,L|145:105,1,75.0000028610231,10|0,0:2|0:0,0:0:0:0:
82,359,332634,6,0,L|173:345,1,75.0000028610231,2|0,0:2|0:0,0:0:0:0:
200,270,332805,1,8,0:0:0:0:
205,258,332891,2,0,L|296:272,1,75.0000028610231,2|0,0:2|0:0,0:0:0:0:
285,358,333062,1,0,0:0:0:0:
295,364,333148,2,0,L|386:350,1,75.0000028610231,10|0,0:2|0:0,0:0:0:0:
466,256,333319,6,0,L|382:241,1,75.0000028610231,2|0,0:2|0:0,0:0:0:0:
316,169,333491,1,10,0:2:0:0:
306,156,333577,2,0,L|318:78,1,75.0000028610231,2|0,0:2|0:0,0:0:0:0:
441,65,333748,1,0,0:0:0:0:
451,78,333834,2,0,L|439:156,1,75.0000028610231,10|0,0:2|0:0,0:0:0:0:
382,268,334005,5,0,0:0:0:0:
332,233,334091,1,0,0:0:0:0:
272,227,334177,1,10,0:2:0:0:
217,251,334262,1,0,0:0:0:0:
188,303,334348,1,0,0:0:0:0:
136,333,334434,1,0,0:0:0:0:
77,321,334519,2,0,P|46:315|16:272,1,75.0000028610231,10|0,0:2|0:0,0:0:0:0:
139,43,334691,5,6,0:0:0:0:
189,58,334777,1,0,0:0:0:0:
213,104,334862,1,10,0:2:0:0:
205,156,334948,1,0,0:0:0:0:
165,190,335034,2,0,L|59:184,1,75.0000028610231
124,26,335205,5,10,0:2:0:0:
183,21,335291,1,0,0:0:0:0:
243,21,335377,1,0,0:0:0:0:
302,22,335462,1,0,0:0:0:0:
362,20,335548,2,0,L|438:17,1,75.0000028610231,10|0,0:2|0:0,0:0:0:0:
403,264,335719,5,0,0:0:0:0:
338,242,335805,1,0,0:0:0:0:
312,179,335891,2,0,P|308:138|323:106,1,75.0000028610231,10|0,0:2|0:0,0:0:0:0:
487,272,336062,5,6,0:0:0:0:
434,278,336148,1,0,0:0:0:0:
381,284,336234,1,10,0:2:0:0:
329,291,336319,1,0,0:0:0:0:
276,298,336405,2,0,L|263:376,1,75.0000028610231
93,372,336577,5,10,0:2:0:0:
46,348,336662,1,0,0:0:0:0:
28,298,336748,1,0,0:0:0:0:
38,246,336834,1,0,0:0:0:0:
76,210,336919,1,10,0:2:0:0:
127,199,337005,1,0,0:0:0:0:
188,246,337091,5,0,0:0:0:0:
187,261,337177,1,0,0:0:0:0:
186,275,337262,1,10,0:2:0:0:
185,290,337348,1,0,0:0:0:0:
215,360,337434,5,8,0:2:0:0:
258,349,337519,1,8,2:0:0:0:
301,338,337605,1,8,2:0:0:0:
345,328,337691,1,8,2:0:0:0:
383,257,337777,5,8,0:2:0:0:
340,246,337862,1,8,2:0:0:0:
297,235,337948,1,8,2:0:0:0:
253,225,338034,1,8,2:0:0:0:
224,153,338119,5,8,0:2:0:0:
267,142,338204,1,8,2:0:0:0:
310,131,338290,1,8,2:0:0:0:
354,121,338376,1,8,2:0:0:0:
396,56,338462,5,8,0:2:0:0:
353,45,338547,1,8,2:0:0:0:
310,34,338633,1,8,2:0:0:0:
266,24,338719,1,8,2:0:0:0:
194,46,338805,5,8,0:0:0:0:
191,52,338891,2,0,P|191:93|182:151,1,75.0000028610231,8|8,2:0|2:0,0:0:0:0:
86,161,339062,5,8,0:0:0:0:
83,174,339148,2,0,P|111:204|146:250,1,75.0000028610231,8|8,2:0|2:0,0:0:0:0:
116,332,339319,2,0,P|151:332|214:340,1,75.0000028610231,8|8,0:0|2:0,0:0:0:0:
340,359,339491,5,8,0:0:0:0:
352,346,339577,1,8,0:0:0:0:
365,325,339662,1,8,2:0:0:0:
376,293,339748,1,8,2:0:0:0:
382,251,339834,1,8,2:0:0:0:
384,201,339919,1,8,2:0:0:0:
375,142,340005,1,8,2:0:0:0:
349,71,340091,1,8,2:0:0:0:
294,14,340177,6,0,L|133:8,1,150.000005722046,10|0,0:0|0:0,0:0:0:0:
6,290,340519,2,0,L|167:284,1,150.000005722046,10|0,0:0|0:0,0:0:0:0:
63,43,340862,6,0,L|57:204,1,150.000005722046,10|0,0:0|0:0,0:0:0:0:
395,358,341205,2,0,L|389:197,1,150.000005722046,10|0,0:0|0:0,0:0:0:0:
208,85,341548,5,14,0:0:0:0:
171,354,342919,5,14,0:0:0:0:
225,344,343005,1,0,0:0:0:0:
257,299,343091,1,0,0:0:0:0:
254,243,343177,1,0,0:0:0:0:
221,198,343262,1,10,0:2:0:0:
168,181,343348,1,0,0:0:0:0:
115,197,343434,5,0,0:0:0:0:
63,177,343519,1,0,0:0:0:0:
45,124,343605,1,10,0:2:0:0:
64,72,343691,1,0,0:0:0:0:
112,45,343777,1,0,0:0:0:0:
166,52,343862,1,0,0:0:0:0:
200,95,343948,5,10,0:2:0:0:
194,154,344034,1,0,0:0:0:0:
189,213,344119,1,0,0:0:0:0:
184,273,344205,1,0,0:0:0:0:
180,333,344291,5,10,0:2:0:0:
222,298,344377,1,0,0:0:0:0:
276,293,344462,1,0,0:0:0:0:
326,319,344548,1,0,0:0:0:0:
359,360,344634,2,0,P|396:374|440:350,1,62.5,10|0,0:2|0:0,0:0:0:0:
405,137,344805,5,0,0:0:0:0:
363,121,344891,1,0,0:0:0:0:
319,129,344977,1,10,0:2:0:0:
290,161,345062,1,0,0:0:0:0:
280,203,345148,1,0,0:0:0:0:
292,245,345234,1,0,0:0:0:0:
370,280,345319,5,10,0:2:0:0:
384,277,345405,1,0,0:0:0:0:
398,275,345491,1,0,0:0:0:0:
413,272,345577,1,0,0:0:0:0:
451,200,345662,5,14,0:0:0:0:
419,160,345748,1,0,0:0:0:0:
369,149,345834,1,0,0:0:0:0:
320,158,345919,1,0,0:0:0:0:
284,193,346005,2,0,L|281:274,1,62.5,10|0,0:2|0:0,0:0:0:0:
176,353,346177,5,0,0:0:0:0:
120,349,346262,1,0,0:0:0:0:
80,309,346348,1,10,0:2:0:0:
73,252,346434,1,0,0:0:0:0:
96,201,346519,1,0,0:0:0:0:
147,178,346605,1,0,0:0:0:0:
203,182,346691,2,0,P|233:193|257:226,1,62.5,10|0,0:2|0:0,0:0:0:0:
287,333,346862,2,0,P|312:346|363:351,1,62.5
498,211,347034,5,10,0:2:0:0:
485,150,347119,1,0,0:0:0:0:
432,116,347205,1,0,0:0:0:0:
369,118,347291,1,0,0:0:0:0:
322,160,347377,1,10,0:2:0:0:
260,166,347462,1,0,0:0:0:0:
205,135,347548,1,0,0:0:0:0:
198,72,347634,1,0,0:0:0:0:
232,20,347719,2,0,P|251:7|303:5,1,62.5,10|0,0:2|0:0,0:0:0:0:
411,203,347891,5,8,2:0:0:0:
370,266,347977,1,8,2:0:0:0:
296,277,348062,1,8,2:0:0:0:
232,236,348148,1,8,2:0:0:0:
162,207,348234,1,8,2:0:0:0:
90,228,348319,1,8,2:0:0:0:
59,296,348405,6,0,P|92:328|167:308,1,125,6|10,0:0|0:2,0:0:0:0:
242,209,348662,1,0,0:0:0:0:
239,186,348748,1,0,0:0:0:0:
237,167,348834,1,0,0:0:0:0:
237,147,348919,2,0,L|95:164,1,125,10|0,0:2|0:0,0:0:0:0:
211,30,349262,1,10,0:2:0:0:
303,271,349434,2,0,L|315:187,1,62.5
338,58,349605,1,10,0:2:0:0:
512,211,349777,6,0,B|482:195|482:195|384:226,1,125,0|10,0:0|0:2,0:0:0:0:
336,352,350119,2,0,L|416:364,1,62.5
250,227,350291,2,0,P|215:264|242:365,1,125,10|0,0:2|0:0,0:0:0:0:
296,373,350634,1,10,0:2:0:0:
181,267,350805,2,0,L|171:349,1,62.5
76,379,350977,2,0,L|68:316,1,62.5,10|0,0:2|0:0,0:0:0:0:
48,167,351148,5,6,0:0:0:0:
330,265,351319,1,8,0:0:0:0:
38,192,351491,5,6,0:0:0:0:
331,90,351662,1,8,0:0:0:0:
141,336,351834,5,2,0:0:0:0:
97,58,352005,1,2,0:0:0:0:
374,14,352177,1,10,0:0:0:0:
418,292,352348,2,0,P|370:262|267:358,1,187.5,6|0,0:0|0:0,0:0:0:0:
270,338,352691,1,2,0:0:0:0:
151,142,352862,5,8,2:0:0:0:
218,157,352948,1,8,2:0:0:0:
245,206,353034,1,0,0:0:0:0:
235,235,353119,1,8,0:0:0:0:
221,248,353205,2,0,L|151:243,1,62.5,0|8,0:0|0:0,0:0:0:0:
122,314,353377,2,0,L|52:309,1,62.5
273,373,353548,6,0,L|277:341,1,31.25,8|8,2:0|2:0,0:0:0:0:
418,272,353719,1,8,0:0:0:0:
205,11,353891,5,6,0:0:0:0:
158,53,353977,1,0,0:0:0:0:
155,114,354062,1,0,0:0:0:0:
195,161,354148,1,0,0:0:0:0:
256,175,354234,1,10,0:0:0:0:
315,158,354319,1,0,0:0:0:0:
362,116,354405,1,0,0:0:0:0:
423,104,354491,1,0,0:0:0:0:
481,127,354577,5,2,0:0:0:0:
504,177,354662,1,0,0:0:0:0:
488,231,354748,1,0,0:0:0:0:
440,261,354834,1,0,0:0:0:0:
384,260,354919,1,10,0:0:0:0:
342,222,355005,1,0,0:0:0:0:
325,168,355091,1,0,0:0:0:0:
345,115,355177,1,0,0:0:0:0:
393,87,355262,6,0,P|406:126|402:169,2,62.5,2|0|0,0:0|0:0|0:0,0:0:0:0:
494,178,355519,2,0,P|475:214|442:242,2,62.5,0|10|0,0:0|0:0|0:0,0:0:0:0:
362,241,355777,2,0,L|277:232,1,62.5
419,368,355948,5,6,0:0:0:0:
436,327,356034,1,0,0:0:0:0:
422,285,356119,1,0,0:0:0:0:
385,261,356205,1,0,0:0:0:0:
341,255,356291,2,0,P|309:260|276:291,3,62.5,10|0|0|0,0:0|0:0|0:0|0:0,0:0:0:0:
168,352,356634,5,14,0:0:0:0:
190,340,356691,1,0,0:0:0:0:
202,318,356748,1,10,0:0:0:0:
204,294,356805,1,0,0:0:0:0:
194,271,356862,1,10,0:0:0:0:
175,256,356919,1,0,0:0:0:0:
151,251,356976,1,10,0:0:0:0:
127,258,357033,1,0,0:0:0:0:
109,275,357091,1,10,0:0:0:0:
101,298,357148,1,0,0:0:0:0:
105,323,357205,1,10,0:0:0:0:
120,343,357262,1,0,0:0:0:0:
168,352,357319,5,14,0:0:0:0:
198,322,357377,1,0,0:0:0:0:
204,280,357434,1,10,0:0:0:0:
189,244,357491,1,0,0:0:0:0:
156,214,357548,1,10,0:0:0:0:
131,180,357605,1,0,0:0:0:0:
123,139,357662,1,10,0:0:0:0:
134,99,357719,1,0,0:0:0:0:
164,70,357777,1,10,0:0:0:0:
204,59,357834,1,0,0:0:0:0:
244,67,357891,1,10,0:0:0:0:
271,98,357948,1,0,0:0:0:0:
269,151,358005,5,6,0:0:0:0:
482,163,359377,6,0,B|432:123|318:155|381:187|289:236|193:187,1,300.000011444092,6|8,0:0|2:0,0:0:0:0:
114,71,360404,1,2,2:3:0:0:
114,71,360575,1,2,2:3:0:0:
47,228,360746,2,0,P|51:152|0:78,1,150.000005722046,2|2,2:3|0:0,0:0:0:0:
4,84,361260,1,0,2:0:0:0:
98,279,361431,2,0,L|290:258,1,150.000005722046,10|2,0:0|2:2,0:0:0:0:
257,270,361945,1,0,2:0:0:0:
312,363,362116,6,0,B|337:331|337:331|316:151,1,150.000005722046,2|2,0:0|2:0,0:0:0:0:
370,138,362630,1,0,2:0:0:0:
487,212,362801,2,0,L|482:325,1,75.0000028610231,10|0,0:0|2:0,0:0:0:0:
387,137,363144,2,0,L|383:62,1,75.0000028610231,2|2,2:3|2:0,0:0:0:0:
300,197,363486,5,2,2:2:0:0:
257,131,363657,1,2,2:0:0:0:
183,215,363829,2,0,L|197:326,1,75.0000028610231,2|0,0:0|2:0,0:0:0:0:
66,175,364171,5,10,2:2:0:0:
239,127,364342,1,2,2:0:0:0:
49,193,364513,2,0,L|37:53,1,112.500004291535,2|0,0:2|0:0,0:0:0:0:
198,0,364856,6,0,P|186:63|93:59,1,150.000005722046,2|2,0:0|2:3,0:0:0:0:
104,65,365370,1,2,2:0:0:0:
269,36,365541,2,0,L|262:215,1,150.000005722046,10|2,2:3|2:3,0:0:0:0:
328,248,366055,1,2,2:0:0:0:
492,153,366226,6,0,P|454:117|343:121,1,150.000005722046,2|2,2:3|0:0,0:0:0:0:
282,180,366740,1,0,2:0:0:0:
355,317,366911,2,0,L|519:302,1,150.000005722046,10|2,0:0|2:0,0:0:0:0:
217,362,367596,6,0,P|210:332|98:260,1,150.000005722046,2|2,0:0|2:3,0:0:0:0:
37,288,368109,1,2,2:0:0:0:
138,103,368281,2,0,L|142:260,1,150.000005722046,10|2,2:3|2:3,0:0:0:0:
202,314,368794,1,2,2:3:0:0:
281,263,368966,2,0,L|307:165,1,75.0000028610231,2|0,2:3|2:0,0:0:0:0:
386,353,369308,5,2,0:0:0:0:
269,275,369479,1,0,0:0:0:0:
388,186,369650,1,10,2:3:0:0:
323,61,369822,1,8,0:0:0:0:
493,247,369993,1,8,0:0:0:0:
180,366,370335,6,0,P|169:316|79:263,2,150,6|2|2,0:0|2:0|2:0,0:0:0:0:
353,141,371841,6,0,B|391:129|398:102|398:102|444:93|504:125,2,150,2|2|2,2:0|2:0|2:0,2:0:0:0:
107,32,373458,6,0,L|109:103,1,70,2|2,0:0|0:0,0:0:0:0:
256,192,377580,12,0,382722,2:0:0:0:
