osu file format v14

[General]
AudioFilename: Silence.mp3
AudioLeadIn: 0
PreviewTime: 58934
Countdown: 0
SampleSet: Soft
StackLeniency: 0.7
Mode: 3
LetterboxInBreaks: 0
SpecialStyle: 0
WidescreenStoryboard: 1

[Editor]
DistanceSpacing: 1
BeatDivisor: 4
GridSize: 8
TimelineZoom: 2.299999

[Metadata]
Title:Reaching Into Infinity Album Pack
TitleUnicode:Reaching Into Infinity Album Pack
Artist:DragonForce
ArtistUnicode:DragonForce
Creator:KenZ
Version:Silence
Source:
Tags:Reaching Into Infinity album rock
BeatmapID:0
BeatmapSetID:-1

[Difficulty]
HPDrainRate:9
CircleSize:7
OverallDifficulty:5
ApproachRate:5
SliderMultiplier:1.4
SliderTickRate:1

[Events]
//Background and Video events
0,0,"infinity.jpg",0,0
//Break Periods
//Storyboard Layer 0 (Background)
//Storyboard Layer 1 (Fail)
//Storyboard Layer 2 (Pass)
//Storyboard Layer 3 (Foreground)
//Storyboard Sound Samples

[TimingPoints]
344,461.538461538462,4,2,0,10,1,0
55738,458.015267175573,4,2,0,10,1,0
59392,454.545454545455,4,2,0,10,1,0
86220,461.538461538462,4,2,0,10,1,0
88527,461.538461538462,4,2,0,10,1,0
132844,458.015267175573,4,2,0,10,1,0
143836,454.545454545455,4,2,0,10,1,0
254290,461.538461538462,4,2,0,10,1,0
258443,461.538461538462,4,2,0,10,1,0

[HitObjects]
36,192,344,5,0,0:0:0:0:
182,192,574,1,0,0:0:0:0:
329,192,805,1,0,0:0:0:0:
182,192,1036,1,0,0:0:0:0:
475,192,1267,1,0,0:0:0:0:
329,192,1497,1,0,0:0:0:0:
182,192,1728,1,0,0:0:0:0:
329,192,1959,1,0,0:0:0:0:
109,192,2190,1,0,0:0:0:0:
256,192,2420,1,0,0:0:0:0:
402,192,2651,1,0,0:0:0:0:
256,192,2882,1,0,0:0:0:0:
109,192,3113,1,0,0:0:0:0:
256,192,3344,1,0,0:0:0:0:
475,192,3574,1,0,0:0:0:0:
329,192,3805,1,0,0:0:0:0:
36,192,4036,128,0,4267:0:0:0:0:
182,192,4267,128,0,4497:0:0:0:0:
329,192,4497,128,0,4728:0:0:0:0:
182,192,4728,128,0,4959:0:0:0:0:
36,192,4959,128,0,5190:0:0:0:0:
182,192,5190,128,0,5420:0:0:0:0:
329,192,5420,128,0,5651:0:0:0:0:
182,192,5651,128,0,5882:0:0:0:0:
475,192,5882,128,0,6113:0:0:0:0:
329,192,6113,128,0,6344:0:0:0:0:
182,192,6344,128,0,6574:0:0:0:0:
329,192,6574,128,0,6805:0:0:0:0:
475,192,6805,128,0,7036:0:0:0:0:
329,192,7036,128,0,7267:0:0:0:0:
182,192,7267,128,0,7497:0:0:0:0:
329,192,7497,128,0,7728:0:0:0:0:
475,192,7728,128,0,7959:0:0:0:0:
109,192,7959,128,0,8190:0:0:0:0:
256,192,8190,128,0,8420:0:0:0:0:
109,192,8420,128,0,8651:0:0:0:0:
402,192,8651,128,0,8882:0:0:0:0:
256,192,8882,128,0,9113:0:0:0:0:
402,192,9113,128,0,9344:0:0:0:0:
256,192,9344,128,0,9574:0:0:0:0:
182,192,9574,128,0,9805:0:0:0:0:
329,192,9805,128,0,10036:0:0:0:0:
36,192,10036,128,0,10267:0:0:0:0:
182,192,10267,128,0,10497:0:0:0:0:
475,192,10497,128,0,10728:0:0:0:0:
329,192,10728,128,0,10959:0:0:0:0:
182,192,10959,128,0,11190:0:0:0:0:
329,192,11190,128,0,11420:0:0:0:0:
109,192,11420,128,0,11651:0:0:0:0:
256,192,11651,128,0,11882:0:0:0:0:
402,192,11882,128,0,12113:0:0:0:0:
182,192,12113,128,0,12344:0:0:0:0:
329,192,12344,128,0,12574:0:0:0:0:
109,192,12574,128,0,12805:0:0:0:0:
402,192,12805,128,0,13036:0:0:0:0:
36,192,13036,128,0,13267:0:0:0:0:
475,192,13267,128,0,13497:0:0:0:0:
402,192,13497,128,0,13728:0:0:0:0:
182,192,13728,128,0,13959:0:0:0:0:
256,192,13959,128,0,14190:0:0:0:0:
36,192,14190,128,0,14420:0:0:0:0:
109,192,14420,128,0,14651:0:0:0:0:
329,192,14651,128,0,14882:0:0:0:0:
256,192,14882,128,0,15113:0:0:0:0:
36,192,15113,128,0,18344:0:0:0:0:
475,192,15113,1,0,0:0:0:0:
402,192,15344,1,0,0:0:0:0:
329,192,15574,1,0,0:0:0:0:
402,192,15805,1,0,0:0:0:0:
475,192,16036,1,0,0:0:0:0:
402,192,16267,1,0,0:0:0:0:
329,192,16497,1,0,0:0:0:0:
402,192,16728,1,0,0:0:0:0:
182,192,16959,1,0,0:0:0:0:
256,192,17190,1,0,0:0:0:0:
329,192,17420,1,0,0:0:0:0:
256,192,17651,1,0,0:0:0:0:
182,192,17882,1,0,0:0:0:0:
256,192,18113,1,0,0:0:0:0:
329,192,18344,1,0,0:0:0:0:
36,192,18574,128,0,18805:0:0:0:0:
402,192,18574,1,0,0:0:0:0:
475,192,18805,128,0,19267:0:0:0:0:
182,192,18805,1,0,0:0:0:0:
109,192,19036,1,0,0:0:0:0:
36,192,19267,1,0,0:0:0:0:
109,192,19497,1,0,0:0:0:0:
475,192,19497,128,0,19613:0:0:0:0:
109,192,19728,128,0,20190:0:0:0:0:
402,192,19728,1,0,0:0:0:0:
329,192,19959,1,0,0:0:0:0:
256,192,20190,1,0,0:0:0:0:
109,192,20420,128,0,20536:0:0:0:0:
329,192,20420,1,0,0:0:0:0:
402,192,20651,128,0,21113:0:0:0:0:
256,192,20651,1,0,0:0:0:0:
109,192,20882,1,0,0:0:0:0:
182,192,21113,128,0,22036:0:0:0:0:
256,192,21113,1,0,0:0:0:0:
402,192,21344,1,0,0:0:0:0:
329,192,21574,1,0,0:0:0:0:
256,192,21805,1,0,0:0:0:0:
329,192,22036,128,0,22267:0:0:0:0:
36,192,22036,1,0,0:0:0:0:
475,192,22267,128,0,22497:0:0:0:0:
256,192,22267,1,0,0:0:0:0:
109,192,22497,128,0,23651:0:0:0:0:
182,192,22497,1,0,0:0:0:0:
329,192,22728,1,0,0:0:0:0:
475,192,22959,1,0,0:0:0:0:
329,192,23190,1,0,0:0:0:0:
182,192,23420,1,0,0:0:0:0:
402,192,23651,128,0,23882:0:0:0:0:
256,192,23651,1,0,0:0:0:0:
182,192,23882,128,0,24113:0:0:0:0:
36,192,23882,1,0,0:0:0:0:
329,192,24113,128,0,24344:0:0:0:0:
475,192,24113,1,0,0:0:0:0:
256,192,24344,128,0,24574:0:0:0:0:
109,192,24344,1,0,0:0:0:0:
329,192,24574,128,0,24805:0:0:0:0:
182,192,24574,1,0,0:0:0:0:
402,192,24805,128,0,25728:0:0:0:0:
256,192,24805,1,0,0:0:0:0:
182,192,25036,1,0,0:0:0:0:
109,192,25267,1,0,0:0:0:0:
182,192,25497,1,0,0:0:0:0:
182,192,25728,128,0,25959:0:0:0:0:
256,192,25728,1,0,0:0:0:0:
36,192,25959,128,0,26190:0:0:0:0:
329,192,25959,1,0,0:0:0:0:
329,192,26190,128,0,27574:0:0:0:0:
402,192,26190,128,0,26420:0:0:0:0:
256,192,26420,128,0,26651:0:0:0:0:
109,192,26651,128,0,26882:0:0:0:0:
256,192,26882,128,0,27113:0:0:0:0:
402,192,27113,128,0,27344:0:0:0:0:
182,192,27344,128,0,27574:0:0:0:0:
256,192,27574,128,0,27805:0:0:0:0:
109,192,27574,128,0,27805:0:0:0:0:
475,192,27805,128,0,28036:0:0:0:0:
36,192,27805,128,0,28036:0:0:0:0:
182,192,28036,128,0,29882:0:0:0:0:
329,192,28036,128,0,28267:0:0:0:0:
402,192,28267,128,0,28497:0:0:0:0:
475,192,28497,128,0,28728:0:0:0:0:
329,192,28728,128,0,28959:0:0:0:0:
256,192,28959,128,0,29190:0:0:0:0:
329,192,29190,128,0,29420:0:0:0:0:
402,192,29420,128,0,29651:0:0:0:0:
109,192,29651,128,0,29882:0:0:0:0:
475,192,29882,1,0,0:0:0:0:
36,192,29882,128,0,33113:0:0:0:0:
256,192,29882,1,0,0:0:0:0:
475,192,30113,128,0,30805:0:0:0:0:
329,192,30113,1,0,0:0:0:0:
109,192,30344,1,0,0:0:0:0:
256,192,30574,1,0,0:0:0:0:
402,192,30805,1,0,0:0:0:0:
256,192,31036,1,0,0:0:0:0:
109,192,31267,1,0,0:0:0:0:
256,192,31497,1,0,0:0:0:0:
475,192,31728,1,0,0:0:0:0:
329,192,31959,1,0,0:0:0:0:
182,192,32190,1,0,0:0:0:0:
329,192,32420,1,0,0:0:0:0:
475,192,32651,1,0,0:0:0:0:
109,192,32651,128,0,32882:0:0:0:0:
402,192,32882,1,0,0:0:0:0:
182,192,32882,128,0,33113:0:0:0:0:
256,192,33113,128,0,33574:0:0:0:0:
109,192,33113,1,0,0:0:0:0:
475,192,33113,1,0,0:0:0:0:
36,192,33344,1,0,0:0:0:0:
475,192,33344,128,0,34036:0:0:0:0:
329,192,33574,128,0,37267:0:0:0:0:
182,192,33574,1,0,0:0:0:0:
109,192,33805,1,0,0:0:0:0:
36,192,34036,1,0,0:0:0:0:
402,192,34036,1,0,0:0:0:0:
109,192,34267,1,0,0:0:0:0:
402,192,34267,128,0,34728:0:0:0:0:
182,192,34497,1,0,0:0:0:0:
109,192,34728,1,0,0:0:0:0:
256,192,34728,128,0,35190:0:0:0:0:
36,192,34959,1,0,0:0:0:0:
109,192,35190,1,0,0:0:0:0:
475,192,35190,128,0,36113:0:0:0:0:
256,192,35420,1,0,0:0:0:0:
182,192,35651,1,0,0:0:0:0:
109,192,35882,1,0,0:0:0:0:
182,192,36113,1,0,0:0:0:0:
256,192,36344,1,0,0:0:0:0:
182,192,36574,1,0,0:0:0:0:
109,192,36805,1,0,0:0:0:0:
475,192,36805,128,0,36920:0:0:0:0:
182,192,37036,1,0,0:0:0:0:
36,192,37036,128,0,37267:0:0:0:0:
402,192,37267,128,0,38882:0:0:0:0:
256,192,37267,1,0,0:0:0:0:
109,192,37267,128,0,37728:0:0:0:0:
329,192,37497,1,0,0:0:0:0:
182,192,37728,1,0,0:0:0:0:
475,192,37728,1,0,0:0:0:0:
182,192,37959,128,0,38420:0:0:0:0:
256,192,37959,1,0,0:0:0:0:
475,192,38190,1,0,0:0:0:0:
36,192,38420,128,0,38651:0:0:0:0:
329,192,38420,1,0,0:0:0:0:
182,192,38651,1,0,0:0:0:0:
256,192,38882,128,0,39113:0:0:0:0:
475,192,38882,128,0,39574:0:0:0:0:
36,192,38882,1,0,0:0:0:0:
109,192,39113,128,0,40728:0:0:0:0:
402,192,39113,1,0,0:0:0:0:
256,192,39344,1,0,0:0:0:0:
329,192,39574,128,0,40036:0:0:0:0:
182,192,39574,1,0,0:0:0:0:
36,192,39805,1,0,0:0:0:0:
256,192,40036,1,0,0:0:0:0:
475,192,40267,1,0,0:0:0:0:
256,192,40497,128,0,40728:0:0:0:0:
402,192,40497,1,0,0:0:0:0:
475,192,40728,128,0,40959:0:0:0:0:
329,192,40728,128,0,40959:0:0:0:0:
182,192,40728,1,0,0:0:0:0:
182,192,40959,128,0,44190:0:0:0:0:
36,192,40959,128,0,41420:0:0:0:0:
256,192,40959,1,0,0:0:0:0:
329,192,41190,1,0,0:0:0:0:
109,192,41420,1,0,0:0:0:0:
402,192,41420,1,0,0:0:0:0:
109,192,41651,128,0,42113:0:0:0:0:
329,192,41651,1,0,0:0:0:0:
256,192,41882,1,0,0:0:0:0:
36,192,42113,128,0,42574:0:0:0:0:
329,192,42113,1,0,0:0:0:0:
402,192,42344,1,0,0:0:0:0:
256,192,42574,128,0,43728:0:0:0:0:
329,192,42574,1,0,0:0:0:0:
475,192,42805,1,0,0:0:0:0:
402,192,43036,1,0,0:0:0:0:
109,192,43267,1,0,0:0:0:0:
329,192,43497,1,0,0:0:0:0:
475,192,43728,1,0,0:0:0:0:
402,192,43959,1,0,0:0:0:0:
256,192,44190,128,0,44420:0:0:0:0:
36,192,44190,1,0,0:0:0:0:
402,192,44420,128,0,44651:0:0:0:0:
182,192,44420,1,0,0:0:0:0:
109,192,44651,128,0,47420:0:0:0:0:
475,192,44651,128,0,45344:0:0:0:0:
256,192,44651,1,0,0:0:0:0:
329,192,44882,1,0,0:0:0:0:
256,192,45113,1,0,0:0:0:0:
329,192,45344,128,0,46036:0:0:0:0:
182,192,45344,1,0,0:0:0:0:
36,192,45574,1,0,0:0:0:0:
256,192,45805,1,0,0:0:0:0:
182,192,46036,128,0,46728:0:0:0:0:
475,192,46036,1,0,0:0:0:0:
402,192,46267,1,0,0:0:0:0:
256,192,46497,1,0,0:0:0:0:
329,192,46728,1,0,0:0:0:0:
402,192,46959,1,0,0:0:0:0:
329,192,47190,1,0,0:0:0:0:
256,192,47420,128,0,47651:0:0:0:0:
36,192,47420,1,0,0:0:0:0:
182,192,47651,1,0,0:0:0:0:
402,192,47651,128,0,47882:0:0:0:0:
36,192,47882,1,0,0:0:0:0:
329,192,47882,128,0,48344:0:0:0:0:
109,192,48113,1,0,0:0:0:0:
182,192,48344,128,0,49959:0:0:0:0:
475,192,48344,1,0,0:0:0:0:
402,192,48574,1,0,0:0:0:0:
256,192,48805,1,0,0:0:0:0:
329,192,49036,1,0,0:0:0:0:
36,192,49267,1,0,0:0:0:0:
256,192,49497,1,0,0:0:0:0:
475,192,49728,1,0,0:0:0:0:
329,192,49959,128,0,50190:0:0:0:0:
109,192,49959,1,0,0:0:0:0:
109,192,50190,128,0,50420:0:0:0:0:
402,192,50190,1,0,0:0:0:0:
256,192,50420,128,0,50651:0:0:0:0:
329,192,50420,1,0,0:0:0:0:
182,192,50651,128,0,51574:0:0:0:0:
475,192,50651,1,0,0:0:0:0:
402,192,50882,1,0,0:0:0:0:
256,192,51113,1,0,0:0:0:0:
402,192,51344,1,0,0:0:0:0:
329,192,51574,128,0,51805:0:0:0:0:
36,192,51574,1,0,0:0:0:0:
402,192,51805,128,0,52036:0:0:0:0:
182,192,51805,1,0,0:0:0:0:
475,192,52036,128,0,53420:0:0:0:0:
256,192,52036,1,0,0:0:0:0:
329,192,52267,1,0,0:0:0:0:
402,192,52497,1,0,0:0:0:0:
329,192,52728,1,0,0:0:0:0:
109,192,52959,1,0,0:0:0:0:
329,192,53190,1,0,0:0:0:0:
36,192,53420,1,0,0:0:0:0:
402,192,53420,1,0,0:0:0:0:
36,192,53651,128,0,55728:0:0:0:0:
329,192,53651,1,0,0:0:0:0:
475,192,53882,1,0,0:0:0:0:
402,192,54113,1,0,0:0:0:0:
256,192,54344,1,0,0:0:0:0:
402,192,54574,1,0,0:0:0:0:
475,192,54805,1,0,0:0:0:0:
402,192,55036,1,0,0:0:0:0:
256,192,55267,1,0,0:0:0:0:
402,192,55497,1,0,0:0:0:0:
475,192,55738,1,0,0:0:0:0:
256,192,55738,1,0,0:0:0:0:
475,192,55967,1,0,0:0:0:0:
256,192,55967,1,0,0:0:0:0:
36,192,56196,1,0,0:0:0:0:
329,192,56196,1,0,0:0:0:0:
36,192,56425,1,0,0:0:0:0:
329,192,56425,1,0,0:0:0:0:
109,192,56654,1,0,0:0:0:0:
256,192,56654,1,0,0:0:0:0:
402,192,56654,1,0,0:0:0:0:
109,192,56883,1,0,0:0:0:0:
256,192,56883,1,0,0:0:0:0:
402,192,56883,1,0,0:0:0:0:
182,192,57112,1,0,0:0:0:0:
329,192,57112,1,0,0:0:0:0:
475,192,57112,1,0,0:0:0:0:
475,192,57341,1,0,0:0:0:0:
182,192,57341,1,0,0:0:0:0:
329,192,57341,1,0,0:0:0:0:
36,192,57570,1,0,0:0:0:0:
109,192,57570,1,0,0:0:0:0:
256,192,57570,1,0,0:0:0:0:
402,192,57570,1,0,0:0:0:0:
36,192,57799,1,0,0:0:0:0:
109,192,57799,1,0,0:0:0:0:
256,192,57799,1,0,0:0:0:0:
402,192,57799,1,0,0:0:0:0:
182,192,58028,1,0,0:0:0:0:
329,192,58028,1,0,0:0:0:0:
475,192,58028,1,0,0:0:0:0:
402,192,58028,1,0,0:0:0:0:
182,192,58257,1,0,0:0:0:0:
329,192,58257,1,0,0:0:0:0:
475,192,58257,1,0,0:0:0:0:
402,192,58257,1,0,0:0:0:0:
36,192,58486,1,0,0:0:0:0:
256,192,58486,1,0,0:0:0:0:
109,192,58486,1,0,0:0:0:0:
329,192,58486,1,0,0:0:0:0:
36,192,58715,1,0,0:0:0:0:
256,192,58715,1,0,0:0:0:0:
109,192,58715,1,0,0:0:0:0:
329,192,58715,1,0,0:0:0:0:
109,192,58944,1,0,0:0:0:0:
256,192,58944,1,0,0:0:0:0:
402,192,58944,1,0,0:0:0:0:
475,192,58944,1,0,0:0:0:0:
36,192,59173,1,0,0:0:0:0:
109,192,59173,1,0,0:0:0:0:
402,192,59173,1,0,0:0:0:0:
256,192,59173,1,0,0:0:0:0:
36,192,59392,1,0,0:0:0:0:
182,192,59392,1,0,0:0:0:0:
256,192,59392,1,0,0:0:0:0:
475,192,59392,1,0,0:0:0:0:
329,192,59392,128,0,60073:0:0:0:0:
182,192,59846,1,0,0:0:0:0:
256,192,60073,1,0,0:0:0:0:
36,192,60301,1,0,0:0:0:0:
256,192,60301,1,0,0:0:0:0:
475,192,60301,1,0,0:0:0:0:
182,192,60528,1,0,0:0:0:0:
256,192,60755,128,0,62573:0:0:0:0:
109,192,60755,1,0,0:0:0:0:
402,192,60755,1,0,0:0:0:0:
475,192,60755,1,0,0:0:0:0:
329,192,61210,1,0,0:0:0:0:
182,192,61437,128,0,61664:0:0:0:0:
402,192,61437,1,0,0:0:0:0:
36,192,61664,1,0,0:0:0:0:
329,192,61664,128,0,61892:0:0:0:0:
402,192,61664,1,0,0:0:0:0:
475,192,61892,128,0,62119:0:0:0:0:
182,192,62119,128,0,62346:0:0:0:0:
109,192,62119,1,0,0:0:0:0:
36,192,62119,1,0,0:0:0:0:
329,192,62119,1,0,0:0:0:0:
36,192,62573,1,0,0:0:0:0:
109,192,62573,128,0,62801:0:0:0:0:
475,192,62573,1,0,0:0:0:0:
402,192,62801,128,0,63028:0:0:0:0:
256,192,62801,1,0,0:0:0:0:
182,192,63028,128,0,64392:0:0:0:0:
256,192,63028,1,0,0:0:0:0:
475,192,63028,1,0,0:0:0:0:
36,192,63028,1,0,0:0:0:0:
475,192,63482,1,0,0:0:0:0:
329,192,63710,1,0,0:0:0:0:
256,192,63937,1,0,0:0:0:0:
475,192,63937,1,0,0:0:0:0:
109,192,63937,1,0,0:0:0:0:
329,192,64164,1,0,0:0:0:0:
36,192,64392,128,0,66210:0:0:0:0:
256,192,64392,1,0,0:0:0:0:
402,192,64392,1,0,0:0:0:0:
475,192,64392,1,0,0:0:0:0:
329,192,64846,1,0,0:0:0:0:
256,192,65073,1,0,0:0:0:0:
256,192,65301,1,0,0:0:0:0:
402,192,65301,1,0,0:0:0:0:
182,192,65755,1,0,0:0:0:0:
475,192,65755,1,0,0:0:0:0:
329,192,65755,1,0,0:0:0:0:
109,192,66210,128,0,66437:0:0:0:0:
402,192,66210,1,0,0:0:0:0:
256,192,66437,128,0,66664:0:0:0:0:
329,192,66437,1,0,0:0:0:0:
402,192,66664,128,0,67801:0:0:0:0:
109,192,66664,1,0,0:0:0:0:
475,192,66664,1,0,0:0:0:0:
36,192,66664,1,0,0:0:0:0:
256,192,67119,1,0,0:0:0:0:
182,192,67346,1,0,0:0:0:0:
256,192,67573,1,0,0:0:0:0:
36,192,67573,1,0,0:0:0:0:
475,192,67573,1,0,0:0:0:0:
182,192,67801,1,0,0:0:0:0:
182,192,68028,128,0,68482:0:0:0:0:
256,192,68028,1,0,0:0:0:0:
475,192,68028,1,0,0:0:0:0:
36,192,68028,1,0,0:0:0:0:
402,192,68482,1,0,0:0:0:0:
182,192,68710,1,0,0:0:0:0:
329,192,68710,1,0,0:0:0:0:
182,192,68937,128,0,70073:0:0:0:0:
329,192,68937,1,0,0:0:0:0:
402,192,68937,1,0,0:0:0:0:
256,192,69392,1,0,0:0:0:0:
475,192,69392,1,0,0:0:0:0:
36,192,69392,1,0,0:0:0:0:
402,192,69846,1,0,0:0:0:0:
256,192,70073,1,0,0:0:0:0:
109,192,70073,1,0,0:0:0:0:
256,192,70301,128,0,71437:0:0:0:0:
36,192,70301,1,0,0:0:0:0:
182,192,70301,1,0,0:0:0:0:
402,192,70301,1,0,0:0:0:0:
475,192,70528,1,0,0:0:0:0:
402,192,70528,1,0,0:0:0:0:
109,192,70528,1,0,0:0:0:0:
182,192,70755,1,0,0:0:0:0:
329,192,70982,1,0,0:0:0:0:
475,192,71210,1,0,0:0:0:0:
402,192,71210,1,0,0:0:0:0:
109,192,71210,1,0,0:0:0:0:
182,192,71437,1,0,0:0:0:0:
256,192,71664,128,0,73482:0:0:0:0:
109,192,71664,1,0,0:0:0:0:
402,192,71664,1,0,0:0:0:0:
36,192,71664,1,0,0:0:0:0:
475,192,72119,128,0,72346:0:0:0:0:
182,192,72119,1,0,0:0:0:0:
402,192,72346,128,0,72573:0:0:0:0:
109,192,72346,1,0,0:0:0:0:
329,192,72573,128,0,72801:0:0:0:0:
109,192,72573,1,0,0:0:0:0:
475,192,72573,1,0,0:0:0:0:
182,192,72801,128,0,73028:0:0:0:0:
109,192,73028,128,0,73255:0:0:0:0:
475,192,73028,1,0,0:0:0:0:
329,192,73028,1,0,0:0:0:0:
402,192,73028,1,0,0:0:0:0:
36,192,73255,128,0,73482:0:0:0:0:
182,192,73255,1,0,0:0:0:0:
329,192,73482,128,0,73710:0:0:0:0:
109,192,73482,1,0,0:0:0:0:
475,192,73482,1,0,0:0:0:0:
109,192,73710,128,0,73937:0:0:0:0:
402,192,73710,1,0,0:0:0:0:
475,192,73937,1,0,0:0:0:0:
329,192,73937,1,0,0:0:0:0:
256,192,73937,1,0,0:0:0:0:
36,192,73937,1,0,0:0:0:0:
182,192,73937,128,0,74619:0:0:0:0:
329,192,74392,1,0,0:0:0:0:
256,192,74619,1,0,0:0:0:0:
475,192,74846,1,0,0:0:0:0:
256,192,74846,1,0,0:0:0:0:
36,192,74846,1,0,0:0:0:0:
329,192,75073,1,0,0:0:0:0:
256,192,75301,128,0,77119:0:0:0:0:
402,192,75301,1,0,0:0:0:0:
109,192,75301,1,0,0:0:0:0:
36,192,75301,1,0,0:0:0:0:
182,192,75755,1,0,0:0:0:0:
329,192,75982,128,0,76210:0:0:0:0:
475,192,75982,1,0,0:0:0:0:
475,192,76210,1,0,0:0:0:0:
182,192,76210,128,0,76437:0:0:0:0:
109,192,76210,1,0,0:0:0:0:
36,192,76437,128,0,76664:0:0:0:0:
329,192,76664,128,0,76892:0:0:0:0:
402,192,76664,1,0,0:0:0:0:
475,192,76664,1,0,0:0:0:0:
182,192,76664,1,0,0:0:0:0:
475,192,77119,1,0,0:0:0:0:
402,192,77119,128,0,77346:0:0:0:0:
36,192,77119,1,0,0:0:0:0:
109,192,77346,128,0,77573:0:0:0:0:
256,192,77346,1,0,0:0:0:0:
329,192,77573,128,0,78937:0:0:0:0:
256,192,77573,1,0,0:0:0:0:
36,192,77573,1,0,0:0:0:0:
475,192,77573,1,0,0:0:0:0:
36,192,78028,1,0,0:0:0:0:
182,192,78255,1,0,0:0:0:0:
256,192,78482,1,0,0:0:0:0:
36,192,78482,1,0,0:0:0:0:
402,192,78482,1,0,0:0:0:0:
182,192,78710,1,0,0:0:0:0:
475,192,78937,128,0,80755:0:0:0:0:
256,192,78937,1,0,0:0:0:0:
109,192,78937,1,0,0:0:0:0:
36,192,78937,1,0,0:0:0:0:
182,192,79392,1,0,0:0:0:0:
256,192,79619,1,0,0:0:0:0:
256,192,79846,1,0,0:0:0:0:
109,192,79846,1,0,0:0:0:0:
329,192,80301,1,0,0:0:0:0:
36,192,80301,1,0,0:0:0:0:
182,192,80301,1,0,0:0:0:0:
402,192,80755,128,0,80982:0:0:0:0:
109,192,80755,1,0,0:0:0:0:
256,192,80982,128,0,81210:0:0:0:0:
182,192,80982,1,0,0:0:0:0:
109,192,81210,128,0,82346:0:0:0:0:
36,192,81210,1,0,0:0:0:0:
329,192,81210,1,0,0:0:0:0:
475,192,81210,128,0,81437:0:0:0:0:
402,192,81437,128,0,81664:0:0:0:0:
182,192,81664,1,0,0:0:0:0:
329,192,81664,128,0,81892:0:0:0:0:
256,192,81892,1,0,0:0:0:0:
402,192,81892,128,0,82119:0:0:0:0:
182,192,82119,1,0,0:0:0:0:
329,192,82119,1,0,0:0:0:0:
36,192,82119,1,0,0:0:0:0:
475,192,82119,128,0,82346:0:0:0:0:
256,192,82346,1,0,0:0:0:0:
402,192,82346,128,0,82573:0:0:0:0:
329,192,82573,128,0,83028:0:0:0:0:
256,192,82573,1,0,0:0:0:0:
36,192,82573,1,0,0:0:0:0:
475,192,82573,1,0,0:0:0:0:
109,192,82573,128,0,82801:0:0:0:0:
182,192,82801,128,0,83028:0:0:0:0:
109,192,83028,1,0,0:0:0:0:
256,192,83028,128,0,83255:0:0:0:0:
329,192,83255,1,0,0:0:0:0:
475,192,83255,1,0,0:0:0:0:
36,192,83255,128,0,83482:0:0:0:0:
329,192,83482,128,0,84619:0:0:0:0:
182,192,83482,1,0,0:0:0:0:
402,192,83482,1,0,0:0:0:0:
109,192,83482,128,0,83710:0:0:0:0:
182,192,83710,128,0,83937:0:0:0:0:
36,192,83937,1,0,0:0:0:0:
402,192,83937,1,0,0:0:0:0:
475,192,83937,1,0,0:0:0:0:
109,192,83937,128,0,84164:0:0:0:0:
182,192,84164,128,0,84392:0:0:0:0:
256,192,84392,1,0,0:0:0:0:
109,192,84392,128,0,84619:0:0:0:0:
256,192,84619,1,0,0:0:0:0:
402,192,84619,1,0,0:0:0:0:
36,192,84619,128,0,84846:0:0:0:0:
256,192,84846,128,0,85982:0:0:0:0:
475,192,84846,1,0,0:0:0:0:
329,192,84846,1,0,0:0:0:0:
109,192,84846,1,0,0:0:0:0:
109,192,85073,1,0,0:0:0:0:
402,192,85073,1,0,0:0:0:0:
329,192,85301,1,0,0:0:0:0:
182,192,85301,1,0,0:0:0:0:
182,192,85528,1,0,0:0:0:0:
329,192,85528,1,0,0:0:0:0:
109,192,85755,1,0,0:0:0:0:
402,192,85755,1,0,0:0:0:0:
329,192,85982,1,0,0:0:0:0:
182,192,85982,1,0,0:0:0:0:
36,192,86220,128,0,88412:0:0:0:0:
109,192,86220,128,0,88412:0:0:0:0:
182,192,86220,128,0,88412:0:0:0:0:
256,192,86220,128,0,88412:0:0:0:0:
329,192,86220,128,0,88412:0:0:0:0:
402,192,86220,128,0,88412:0:0:0:0:
475,192,86220,128,0,88412:0:0:0:0:
475,192,88527,128,0,88700:0:0:0:0:
402,192,88527,128,0,88930:0:0:0:0:
329,192,88527,128,0,89161:0:0:0:0:
256,192,88527,128,0,92392:0:0:0:0:
182,192,88527,128,0,90777:0:0:0:0:
109,192,88527,128,0,90546:0:0:0:0:
36,192,88527,128,0,90315:0:0:0:0:
475,192,88757,128,0,89623:0:0:0:0:
402,192,88988,128,0,89392:0:0:0:0:
329,192,89219,128,0,90084:0:0:0:0:
402,192,89450,128,0,89853:0:0:0:0:
475,192,89680,128,0,92623:0:0:0:0:
402,192,89911,128,0,94469:0:0:0:0:
329,192,90142,128,0,96084:0:0:0:0:
36,192,90373,128,0,91238:0:0:0:0:
109,192,90603,128,0,91007:0:0:0:0:
182,192,90834,128,0,91700:0:0:0:0:
109,192,91065,128,0,91469:0:0:0:0:
36,192,91296,128,0,92161:0:0:0:0:
109,192,91527,128,0,91930:0:0:0:0:
182,192,91757,128,0,96315:0:0:0:0:
109,192,91988,128,0,94007:0:0:0:0:
36,192,92219,128,0,93084:0:0:0:0:
256,192,92450,128,0,92853:0:0:0:0:
475,192,92680,128,0,93546:0:0:0:0:
256,192,92911,128,0,93315:0:0:0:0:
36,192,93142,128,0,96777:0:0:0:0:
256,192,93373,128,0,93777:0:0:0:0:
475,192,93603,128,0,97700:0:0:0:0:
256,192,93834,128,0,94238:0:0:0:0:
109,192,94065,128,0,94930:0:0:0:0:
256,192,94296,128,0,94700:0:0:0:0:
402,192,94527,128,0,95392:0:0:0:0:
256,192,94757,128,0,95161:0:0:0:0:
109,192,94988,128,0,95853:0:0:0:0:
256,192,95219,128,0,95623:0:0:0:0:
402,192,95450,128,0,99546:0:0:0:0:
256,192,95680,128,0,99546:0:0:0:0:
109,192,95911,128,0,99546:0:0:0:0:
329,192,96142,128,0,96546:0:0:0:0:
182,192,96373,128,0,97238:0:0:0:0:
329,192,96603,128,0,97007:0:0:0:0:
36,192,96834,128,0,99546:0:0:0:0:
329,192,97065,128,0,97469:0:0:0:0:
182,192,97296,128,0,98161:0:0:0:0:
329,192,97527,128,0,97930:0:0:0:0:
475,192,97757,128,0,98623:0:0:0:0:
329,192,97988,128,0,98392:0:0:0:0:
182,192,98219,128,0,99084:0:0:0:0:
329,192,98450,128,0,98853:0:0:0:0:
475,192,98680,128,0,99546:0:0:0:0:
329,192,98911,128,0,99315:0:0:0:0:
182,192,99142,128,0,99546:0:0:0:0:
329,192,99373,128,0,99546:0:0:0:0:
109,192,99603,128,0,99777:0:0:0:0:
256,192,99603,128,0,100007:0:0:0:0:
402,192,99603,128,0,100238:0:0:0:0:
182,192,99603,128,0,100180:0:0:0:0:
329,192,99603,128,0,100411:0:0:0:0:
36,192,99603,128,0,99950:0:0:0:0:
475,192,99603,128,0,100642:0:0:0:0:
109,192,99834,128,0,100065:0:0:0:0:
256,192,100065,128,0,100296:0:0:0:0:
402,192,100296,128,0,100527:0:0:0:0:
256,192,100527,128,0,100757:0:0:0:0:
109,192,100757,128,0,100988:0:0:0:0:
256,192,100988,128,0,101219:0:0:0:0:
402,192,101219,1,0,0:0:0:0:
329,192,101277,1,0,0:0:0:0:
256,192,101334,1,0,0:0:0:0:
182,192,101392,1,0,0:0:0:0:
109,192,101450,1,0,0:0:0:0:
475,192,101450,1,0,0:0:0:0:
36,192,101450,1,0,0:0:0:0:
402,192,101450,1,0,0:0:0:0:
109,192,101680,1,0,0:0:0:0:
36,192,101680,1,0,0:0:0:0:
475,192,101680,1,0,0:0:0:0:
402,192,101680,1,0,0:0:0:0:
256,192,101911,1,0,0:0:0:0:
182,192,102142,1,0,0:0:0:0:
329,192,102142,1,0,0:0:0:0:
109,192,102373,1,0,0:0:0:0:
36,192,102373,1,0,0:0:0:0:
475,192,102373,1,0,0:0:0:0:
402,192,102373,1,0,0:0:0:0:
109,192,102603,1,0,0:0:0:0:
36,192,102603,1,0,0:0:0:0:
402,192,102603,1,0,0:0:0:0:
475,192,102603,1,0,0:0:0:0:
256,192,102834,128,0,103296:0:0:0:0:
329,192,102834,1,0,0:0:0:0:
182,192,103065,128,0,103296:0:0:0:0:
109,192,103296,128,0,106527:0:0:0:0:
475,192,103296,1,0,0:0:0:0:
329,192,103296,128,0,103642:0:0:0:0:
256,192,103527,128,0,103873:0:0:0:0:
475,192,103527,1,0,0:0:0:0:
182,192,103757,128,0,104103:0:0:0:0:
256,192,103988,128,0,104334:0:0:0:0:
36,192,104219,1,0,0:0:0:0:
329,192,104219,128,0,104565:0:0:0:0:
402,192,104219,1,0,0:0:0:0:
256,192,104450,128,0,104796:0:0:0:0:
182,192,104680,128,0,105027:0:0:0:0:
256,192,104911,128,0,105257:0:0:0:0:
402,192,104911,1,0,0:0:0:0:
475,192,105142,128,0,105488:0:0:0:0:
402,192,105373,128,0,105719:0:0:0:0:
329,192,105603,128,0,105950:0:0:0:0:
182,192,105603,1,0,0:0:0:0:
402,192,105834,128,0,106180:0:0:0:0:
475,192,106065,128,0,106411:0:0:0:0:
256,192,106065,1,0,0:0:0:0:
36,192,106065,1,0,0:0:0:0:
329,192,106296,128,0,106642:0:0:0:0:
256,192,106527,128,0,106988:0:0:0:0:
475,192,106527,128,0,106873:0:0:0:0:
36,192,106757,128,0,107103:0:0:0:0:
402,192,106988,128,0,110680:0:0:0:0:
182,192,106988,128,0,107334:0:0:0:0:
475,192,106988,1,0,0:0:0:0:
109,192,107219,128,0,107565:0:0:0:0:
36,192,107450,128,0,107796:0:0:0:0:
109,192,107680,128,0,108027:0:0:0:0:
182,192,107911,128,0,108257:0:0:0:0:
256,192,107911,1,0,0:0:0:0:
475,192,107911,1,0,0:0:0:0:
109,192,108142,128,0,108488:0:0:0:0:
36,192,108373,128,0,108719:0:0:0:0:
109,192,108603,128,0,108950:0:0:0:0:
256,192,108603,1,0,0:0:0:0:
182,192,108834,128,0,109180:0:0:0:0:
109,192,109065,128,0,109411:0:0:0:0:
36,192,109296,128,0,109642:0:0:0:0:
256,192,109296,1,0,0:0:0:0:
109,192,109527,128,0,109873:0:0:0:0:
182,192,109757,128,0,110103:0:0:0:0:
256,192,109757,1,0,0:0:0:0:
475,192,109757,1,0,0:0:0:0:
109,192,109988,128,0,110334:0:0:0:0:
36,192,110219,128,0,110565:0:0:0:0:
109,192,110450,128,0,110796:0:0:0:0:
182,192,110680,128,0,114373:0:0:0:0:
256,192,110680,1,0,0:0:0:0:
475,192,110680,128,0,111027:0:0:0:0:
329,192,110911,128,0,111257:0:0:0:0:
36,192,111142,128,0,111488:0:0:0:0:
329,192,111373,128,0,111719:0:0:0:0:
475,192,111603,128,0,111950:0:0:0:0:
256,192,111603,1,0,0:0:0:0:
36,192,111603,1,0,0:0:0:0:
329,192,111834,128,0,112180:0:0:0:0:
36,192,112065,128,0,112411:0:0:0:0:
329,192,112296,128,0,112642:0:0:0:0:
256,192,112296,1,0,0:0:0:0:
402,192,112527,128,0,112873:0:0:0:0:
329,192,112757,128,0,113103:0:0:0:0:
109,192,112988,128,0,113334:0:0:0:0:
256,192,112988,1,0,0:0:0:0:
329,192,113219,128,0,113565:0:0:0:0:
402,192,113450,128,0,113796:0:0:0:0:
256,192,113450,1,0,0:0:0:0:
36,192,113450,1,0,0:0:0:0:
329,192,113680,128,0,114027:0:0:0:0:
109,192,113911,128,0,114257:0:0:0:0:
329,192,114142,128,0,114488:0:0:0:0:
36,192,114373,128,0,117142:0:0:0:0:
402,192,114373,128,0,114603:0:0:0:0:
256,192,114373,1,0,0:0:0:0:
256,192,114603,128,0,114834:0:0:0:0:
109,192,114834,128,0,115065:0:0:0:0:
256,192,115065,128,0,115296:0:0:0:0:
402,192,115296,128,0,115527:0:0:0:0:
182,192,115296,1,0,0:0:0:0:
475,192,115296,1,0,0:0:0:0:
256,192,115527,128,0,115757:0:0:0:0:
109,192,115757,128,0,115988:0:0:0:0:
256,192,115988,128,0,116219:0:0:0:0:
402,192,115988,1,0,0:0:0:0:
402,192,116219,128,0,116450:0:0:0:0:
256,192,116450,128,0,116680:0:0:0:0:
182,192,116450,1,0,0:0:0:0:
475,192,116450,1,0,0:0:0:0:
109,192,116680,128,0,116911:0:0:0:0:
256,192,116911,128,0,117142:0:0:0:0:
402,192,116911,1,0,0:0:0:0:
329,192,117027,1,0,0:0:0:0:
475,192,117142,1,0,0:0:0:0:
182,192,117142,1,0,0:0:0:0:
109,192,117142,1,0,0:0:0:0:
182,192,117373,128,0,117834:0:0:0:0:
109,192,117373,128,0,117834:0:0:0:0:
402,192,117373,1,0,0:0:0:0:
329,192,117373,1,0,0:0:0:0:
402,192,118065,128,0,118238:0:0:0:0:
475,192,118065,128,0,118238:0:0:0:0:
182,192,118065,128,0,119450:0:0:0:0:
36,192,118065,1,0,0:0:0:0:
402,192,118296,128,0,118469:0:0:0:0:
329,192,118296,128,0,118469:0:0:0:0:
36,192,118296,1,0,0:0:0:0:
329,192,118527,128,0,118700:0:0:0:0:
256,192,118527,128,0,118700:0:0:0:0:
329,192,118757,128,0,118930:0:0:0:0:
402,192,118757,128,0,118930:0:0:0:0:
475,192,118988,128,0,119161:0:0:0:0:
402,192,118988,128,0,119161:0:0:0:0:
36,192,118988,1,0,0:0:0:0:
109,192,118988,1,0,0:0:0:0:
402,192,119219,128,0,119392:0:0:0:0:
329,192,119219,128,0,119392:0:0:0:0:
256,192,119450,128,0,119623:0:0:0:0:
329,192,119450,128,0,119623:0:0:0:0:
182,192,119680,128,0,120257:0:0:0:0:
329,192,119680,128,0,119853:0:0:0:0:
402,192,119680,128,0,119853:0:0:0:0:
109,192,119680,1,0,0:0:0:0:
36,192,119911,128,0,120084:0:0:0:0:
109,192,119911,128,0,120084:0:0:0:0:
329,192,120142,128,0,120315:0:0:0:0:
256,192,120142,128,0,120315:0:0:0:0:
182,192,120373,128,0,120834:0:0:0:0:
402,192,120373,128,0,120546:0:0:0:0:
475,192,120373,128,0,120546:0:0:0:0:
109,192,120373,1,0,0:0:0:0:
256,192,120603,128,0,120777:0:0:0:0:
329,192,120603,128,0,120777:0:0:0:0:
36,192,120834,128,0,121065:0:0:0:0:
475,192,120834,128,0,121007:0:0:0:0:
402,192,120834,128,0,121007:0:0:0:0:
109,192,120834,1,0,0:0:0:0:
256,192,120834,1,0,0:0:0:0:
109,192,121065,128,0,121296:0:0:0:0:
329,192,121065,128,0,121238:0:0:0:0:
256,192,121065,128,0,121238:0:0:0:0:
182,192,121296,128,0,121757:0:0:0:0:
402,192,121296,128,0,121469:0:0:0:0:
475,192,121296,128,0,121469:0:0:0:0:
329,192,121527,128,0,121700:0:0:0:0:
256,192,121527,128,0,121700:0:0:0:0:
109,192,121757,128,0,123257:0:0:0:0:
402,192,121757,128,0,121930:0:0:0:0:
475,192,121757,128,0,121930:0:0:0:0:
36,192,121757,1,0,0:0:0:0:
402,192,121988,128,0,122161:0:0:0:0:
329,192,121988,128,0,122161:0:0:0:0:
329,192,122219,128,0,122392:0:0:0:0:
256,192,122219,128,0,122392:0:0:0:0:
402,192,122450,128,0,122623:0:0:0:0:
329,192,122450,128,0,122623:0:0:0:0:
256,192,122680,1,0,0:0:0:0:
475,192,122680,128,0,122853:0:0:0:0:
402,192,122680,128,0,122853:0:0:0:0:
182,192,122680,1,0,0:0:0:0:
402,192,122911,128,0,123084:0:0:0:0:
329,192,122911,128,0,123084:0:0:0:0:
329,192,123142,128,0,123315:0:0:0:0:
256,192,123142,128,0,123315:0:0:0:0:
109,192,123373,128,0,123950:0:0:0:0:
329,192,123373,128,0,123546:0:0:0:0:
402,192,123373,128,0,123546:0:0:0:0:
182,192,123373,1,0,0:0:0:0:
475,192,123603,128,0,123777:0:0:0:0:
402,192,123603,128,0,123777:0:0:0:0:
402,192,123834,128,0,124007:0:0:0:0:
329,192,123834,128,0,124007:0:0:0:0:
109,192,124065,128,0,124988:0:0:0:0:
329,192,124065,128,0,124238:0:0:0:0:
256,192,124065,128,0,124238:0:0:0:0:
36,192,124065,1,0,0:0:0:0:
329,192,124296,128,0,124469:0:0:0:0:
402,192,124296,128,0,124469:0:0:0:0:
475,192,124527,128,0,124700:0:0:0:0:
402,192,124527,128,0,124700:0:0:0:0:
256,192,124527,1,0,0:0:0:0:
182,192,124527,1,0,0:0:0:0:
329,192,124757,128,0,124930:0:0:0:0:
402,192,124757,128,0,124930:0:0:0:0:
182,192,124988,128,0,125219:0:0:0:0:
329,192,124988,128,0,125161:0:0:0:0:
256,192,124988,128,0,125161:0:0:0:0:
109,192,125219,128,0,125450:0:0:0:0:
329,192,125219,128,0,125392:0:0:0:0:
402,192,125219,128,0,125392:0:0:0:0:
36,192,125450,128,0,126950:0:0:0:0:
475,192,125450,1,0,0:0:0:0:
182,192,125450,128,0,125796:0:0:0:0:
329,192,125680,128,0,126027:0:0:0:0:
475,192,125680,1,0,0:0:0:0:
475,192,125911,128,0,126257:0:0:0:0:
329,192,126142,128,0,126488:0:0:0:0:
109,192,126373,128,0,126719:0:0:0:0:
256,192,126373,1,0,0:0:0:0:
475,192,126373,1,0,0:0:0:0:
256,192,126603,128,0,126950:0:0:0:0:
402,192,126834,128,0,127180:0:0:0:0:
36,192,127065,128,0,127642:0:0:0:0:
256,192,127065,128,0,127411:0:0:0:0:
109,192,127065,1,0,0:0:0:0:
182,192,127296,128,0,127642:0:0:0:0:
329,192,127527,128,0,127873:0:0:0:0:
36,192,127757,128,0,129142:0:0:0:0:
402,192,127757,128,0,128103:0:0:0:0:
109,192,127757,1,0,0:0:0:0:
329,192,127988,128,0,128334:0:0:0:0:
182,192,128219,128,0,128565:0:0:0:0:
475,192,128219,1,0,0:0:0:0:
109,192,128219,1,0,0:0:0:0:
402,192,128450,128,0,128796:0:0:0:0:
329,192,128680,128,0,129027:0:0:0:0:
402,192,128911,128,0,129257:0:0:0:0:
182,192,129142,128,0,129373:0:0:0:0:
475,192,129142,128,0,129373:0:0:0:0:
256,192,129142,1,0,0:0:0:0:
256,192,129373,128,0,130642:0:0:0:0:
402,192,129373,128,0,129603:0:0:0:0:
329,192,129603,128,0,129834:0:0:0:0:
109,192,129603,1,0,0:0:0:0:
402,192,129834,128,0,130065:0:0:0:0:
109,192,129834,128,0,130180:0:0:0:0:
475,192,130065,128,0,130296:0:0:0:0:
182,192,130065,1,0,0:0:0:0:
329,192,130065,1,0,0:0:0:0:
402,192,130296,128,0,130527:0:0:0:0:
182,192,130296,128,0,130527:0:0:0:0:
329,192,130527,128,0,130757:0:0:0:0:
256,192,130757,128,0,131334:0:0:0:0:
36,192,130757,128,0,130988:0:0:0:0:
475,192,130757,128,0,131103:0:0:0:0:
109,192,130988,128,0,131219:0:0:0:0:
182,192,131219,128,0,131450:0:0:0:0:
475,192,131219,1,0,0:0:0:0:
402,192,131219,128,0,131680:0:0:0:0:
329,192,131219,1,0,0:0:0:0:
256,192,131450,128,0,131680:0:0:0:0:
109,192,131450,128,0,131680:0:0:0:0:
182,192,131680,128,0,131911:0:0:0:0:
36,192,131680,128,0,131911:0:0:0:0:
329,192,131680,1,0,0:0:0:0:
256,192,131911,128,0,132027:0:0:0:0:
402,192,131911,128,0,132257:0:0:0:0:
475,192,131911,1,0,0:0:0:0:
109,192,131911,1,0,0:0:0:0:
256,192,132142,128,0,132257:0:0:0:0:
182,192,132142,1,0,0:0:0:0:
256,192,132373,128,0,132488:0:0:0:0:
109,192,132373,128,0,132603:0:0:0:0:
329,192,132373,1,0,0:0:0:0:
256,192,132603,1,0,0:0:0:0:
402,192,132603,1,0,0:0:0:0:
256,192,132844,1,0,0:0:0:0:
36,192,132844,128,0,133645:0:0:0:0:
475,192,132844,128,0,133531:0:0:0:0:
109,192,133073,128,0,133416:0:0:0:0:
182,192,133302,128,0,134103:0:0:0:0:
109,192,133531,128,0,133874:0:0:0:0:
329,192,133531,128,0,133989:0:0:0:0:
36,192,133760,128,0,134561:0:0:0:0:
402,192,133760,1,0,0:0:0:0:
475,192,133760,1,0,0:0:0:0:
109,192,133989,128,0,134332:0:0:0:0:
182,192,134218,128,0,134561:0:0:0:0:
402,192,134218,128,0,134676:0:0:0:0:
109,192,134447,128,0,134676:0:0:0:0:
475,192,134676,128,0,135477:0:0:0:0:
256,192,134676,1,0,0:0:0:0:
36,192,134676,128,0,134790:0:0:0:0:
402,192,134905,128,0,135248:0:0:0:0:
256,192,134905,1,0,0:0:0:0:
109,192,134905,128,0,135363:0:0:0:0:
329,192,135134,128,0,135935:0:0:0:0:
402,192,135363,128,0,135706:0:0:0:0:
475,192,135592,128,0,136393:0:0:0:0:
182,192,135592,128,0,136050:0:0:0:0:
256,192,135592,1,0,0:0:0:0:
109,192,135592,1,0,0:0:0:0:
402,192,135821,128,0,136164:0:0:0:0:
329,192,136050,128,0,136393:0:0:0:0:
36,192,136050,128,0,136508:0:0:0:0:
402,192,136279,128,0,136508:0:0:0:0:
256,192,136279,1,0,0:0:0:0:
475,192,136508,128,0,136622:0:0:0:0:
256,192,136508,1,0,0:0:0:0:
182,192,136508,128,0,137309:0:0:0:0:
329,192,136737,128,0,137080:0:0:0:0:
475,192,136966,128,0,137767:0:0:0:0:
329,192,137195,128,0,137538:0:0:0:0:
109,192,137195,128,0,137653:0:0:0:0:
182,192,137424,128,0,138225:0:0:0:0:
256,192,137424,1,0,0:0:0:0:
36,192,137424,1,0,0:0:0:0:
329,192,137653,128,0,137996:0:0:0:0:
475,192,137882,128,0,138225:0:0:0:0:
36,192,137882,128,0,138340:0:0:0:0:
329,192,138111,128,0,138340:0:0:0:0:
109,192,138111,1,0,0:0:0:0:
182,192,138340,128,0,138454:0:0:0:0:
402,192,138340,128,0,139141:0:0:0:0:
109,192,138340,1,0,0:0:0:0:
256,192,138569,128,0,138912:0:0:0:0:
36,192,138569,1,0,0:0:0:0:
109,192,138798,128,0,139599:0:0:0:0:
256,192,139027,128,0,139370:0:0:0:0:
402,192,139256,128,0,140057:0:0:0:0:
182,192,139256,1,0,0:0:0:0:
475,192,139256,1,0,0:0:0:0:
256,192,139485,128,0,139828:0:0:0:0:
109,192,139714,128,0,140057:0:0:0:0:
475,192,139714,128,0,139943:0:0:0:0:
256,192,139943,128,0,140172:0:0:0:0:
182,192,139943,1,0,0:0:0:0:
36,192,139943,128,0,140172:0:0:0:0:
402,192,140172,128,0,140286:0:0:0:0:
182,192,140172,128,0,140630:0:0:0:0:
475,192,140172,1,0,0:0:0:0:
109,192,140172,1,0,0:0:0:0:
256,192,140401,128,0,140859:0:0:0:0:
475,192,140630,128,0,141088:0:0:0:0:
109,192,140859,128,0,141317:0:0:0:0:
329,192,140859,128,0,141317:0:0:0:0:
256,192,141088,128,0,141431:0:0:0:0:
402,192,141088,1,0,0:0:0:0:
36,192,141088,1,0,0:0:0:0:
402,192,141317,128,0,141660:0:0:0:0:
256,192,141546,128,0,142004:0:0:0:0:
475,192,141546,128,0,142004:0:0:0:0:
109,192,141775,128,0,142233:0:0:0:0:
182,192,141775,1,0,0:0:0:0:
329,192,142004,128,0,142691:0:0:0:0:
182,192,142004,1,0,0:0:0:0:
36,192,142233,128,0,142920:0:0:0:0:
475,192,142462,128,0,143149:0:0:0:0:
182,192,142462,1,0,0:0:0:0:
402,192,142691,128,0,143378:0:0:0:0:
256,192,142920,1,0,0:0:0:0:
109,192,142920,128,0,143378:0:0:0:0:
329,192,142920,128,0,143149:0:0:0:0:
256,192,143149,128,0,143607:0:0:0:0:
182,192,143378,128,0,143836:0:0:0:0:
475,192,143378,128,0,143607:0:0:0:0:
256,192,143836,1,0,0:0:0:0:
329,192,143836,128,0,144290:0:0:0:0:
109,192,143836,128,0,143892:0:0:0:0:
36,192,143836,128,0,143892:0:0:0:0:
36,192,144063,1,0,0:0:0:0:
109,192,144063,1,0,0:0:0:0:
256,192,144063,1,0,0:0:0:0:
402,192,144063,128,0,144120:0:0:0:0:
475,192,144063,128,0,144120:0:0:0:0:
182,192,144290,128,0,144404:0:0:0:0:
402,192,144290,128,0,144347:0:0:0:0:
475,192,144290,128,0,144347:0:0:0:0:
256,192,144517,1,0,0:0:0:0:
182,192,144517,128,0,144631:0:0:0:0:
475,192,144517,128,0,144574:0:0:0:0:
402,192,144517,128,0,144574:0:0:0:0:
475,192,144745,1,0,0:0:0:0:
402,192,144745,1,0,0:0:0:0:
256,192,144745,1,0,0:0:0:0:
182,192,144745,128,0,146108:0:0:0:0:
109,192,144745,128,0,144801:0:0:0:0:
36,192,144745,128,0,144801:0:0:0:0:
402,192,144972,1,0,0:0:0:0:
36,192,144972,128,0,145029:0:0:0:0:
109,192,144972,128,0,145029:0:0:0:0:
329,192,145086,1,0,0:0:0:0:
402,192,145199,1,0,0:0:0:0:
256,192,145199,1,0,0:0:0:0:
36,192,145199,128,0,145256:0:0:0:0:
109,192,145199,128,0,145256:0:0:0:0:
329,192,145313,1,0,0:0:0:0:
475,192,145313,1,0,0:0:0:0:
256,192,145426,1,0,0:0:0:0:
402,192,145426,1,0,0:0:0:0:
109,192,145426,128,0,145483:0:0:0:0:
36,192,145426,128,0,145483:0:0:0:0:
402,192,145654,128,0,145711:0:0:0:0:
475,192,145654,128,0,145711:0:0:0:0:
256,192,145881,1,0,0:0:0:0:
402,192,145881,128,0,145938:0:0:0:0:
475,192,145881,128,0,145938:0:0:0:0:
475,192,146108,128,0,146165:0:0:0:0:
256,192,146108,1,0,0:0:0:0:
109,192,146108,1,0,0:0:0:0:
36,192,146108,1,0,0:0:0:0:
402,192,146108,128,0,146165:0:0:0:0:
402,192,146336,128,0,146392:0:0:0:0:
475,192,146336,128,0,146392:0:0:0:0:
256,192,146449,1,0,0:0:0:0:
329,192,146563,1,0,0:0:0:0:
36,192,146563,1,0,0:0:0:0:
109,192,146563,1,0,0:0:0:0:
182,192,146676,1,0,0:0:0:0:
256,192,146676,1,0,0:0:0:0:
109,192,146790,1,0,0:0:0:0:
475,192,146790,1,0,0:0:0:0:
402,192,146790,1,0,0:0:0:0:
256,192,146904,1,0,0:0:0:0:
329,192,146904,1,0,0:0:0:0:
109,192,147017,1,0,0:0:0:0:
475,192,147017,1,0,0:0:0:0:
182,192,147131,1,0,0:0:0:0:
402,192,147245,1,0,0:0:0:0:
109,192,147245,1,0,0:0:0:0:
329,192,147358,1,0,0:0:0:0:
256,192,147472,1,0,0:0:0:0:
182,192,147472,128,0,148154:0:0:0:0:
402,192,147472,1,0,0:0:0:0:
36,192,147472,128,0,148154:0:0:0:0:
329,192,147926,1,0,0:0:0:0:
256,192,148154,1,0,0:0:0:0:
475,192,148381,1,0,0:0:0:0:
256,192,148381,1,0,0:0:0:0:
36,192,148381,1,0,0:0:0:0:
329,192,148608,1,0,0:0:0:0:
256,192,148836,128,0,150199:0:0:0:0:
109,192,148836,1,0,0:0:0:0:
36,192,148836,1,0,0:0:0:0:
402,192,148836,128,0,150199:0:0:0:0:
182,192,149290,1,0,0:0:0:0:
329,192,149517,128,0,149745:0:0:0:0:
109,192,149517,1,0,0:0:0:0:
475,192,149745,1,0,0:0:0:0:
182,192,149745,128,0,149972:0:0:0:0:
109,192,149745,1,0,0:0:0:0:
36,192,149972,128,0,150199:0:0:0:0:
329,192,150199,128,0,150426:0:0:0:0:
475,192,150199,1,0,0:0:0:0:
182,192,150199,1,0,0:0:0:0:
475,192,150654,1,0,0:0:0:0:
402,192,150654,128,0,150881:0:0:0:0:
36,192,150654,1,0,0:0:0:0:
109,192,150881,128,0,151108:0:0:0:0:
256,192,150881,1,0,0:0:0:0:
329,192,151108,128,0,152017:0:0:0:0:
256,192,151108,1,0,0:0:0:0:
36,192,151108,1,0,0:0:0:0:
475,192,151108,128,0,152017:0:0:0:0:
36,192,151563,1,0,0:0:0:0:
182,192,151790,1,0,0:0:0:0:
256,192,152017,1,0,0:0:0:0:
36,192,152017,1,0,0:0:0:0:
402,192,152017,1,0,0:0:0:0:
182,192,152245,1,0,0:0:0:0:
109,192,152472,128,0,154290:0:0:0:0:
402,192,152472,1,0,0:0:0:0:
256,192,152472,128,0,152926:0:0:0:0:
475,192,152472,1,0,0:0:0:0:
329,192,152926,1,0,0:0:0:0:
256,192,153154,1,0,0:0:0:0:
256,192,153381,1,0,0:0:0:0:
402,192,153381,1,0,0:0:0:0:
329,192,153836,1,0,0:0:0:0:
475,192,153836,1,0,0:0:0:0:
182,192,153836,1,0,0:0:0:0:
402,192,154290,128,0,154517:0:0:0:0:
256,192,154290,1,0,0:0:0:0:
256,192,154517,128,0,154745:0:0:0:0:
182,192,154517,1,0,0:0:0:0:
109,192,154745,128,0,155881:0:0:0:0:
36,192,154745,1,0,0:0:0:0:
475,192,154745,1,0,0:0:0:0:
402,192,154745,128,0,155881:0:0:0:0:
256,192,155199,1,0,0:0:0:0:
329,192,155426,1,0,0:0:0:0:
256,192,155654,1,0,0:0:0:0:
475,192,155654,1,0,0:0:0:0:
36,192,155654,1,0,0:0:0:0:
329,192,155881,1,0,0:0:0:0:
329,192,156108,128,0,156563:0:0:0:0:
36,192,156108,1,0,0:0:0:0:
475,192,156108,1,0,0:0:0:0:
182,192,156108,128,0,156563:0:0:0:0:
109,192,156563,1,0,0:0:0:0:
329,192,156790,1,0,0:0:0:0:
182,192,156790,1,0,0:0:0:0:
182,192,157017,1,0,0:0:0:0:
109,192,157017,1,0,0:0:0:0:
402,192,157017,128,0,157472:0:0:0:0:
329,192,157017,128,0,157472:0:0:0:0:
256,192,157472,1,0,0:0:0:0:
36,192,157472,1,0,0:0:0:0:
475,192,157472,1,0,0:0:0:0:
109,192,157926,1,0,0:0:0:0:
256,192,158154,1,0,0:0:0:0:
402,192,158154,1,0,0:0:0:0:
256,192,158381,128,0,159517:0:0:0:0:
329,192,158381,1,0,0:0:0:0:
182,192,158381,1,0,0:0:0:0:
475,192,158381,128,0,159517:0:0:0:0:
36,192,158381,128,0,159517:0:0:0:0:
109,192,158608,1,0,0:0:0:0:
402,192,158608,1,0,0:0:0:0:
329,192,158836,1,0,0:0:0:0:
182,192,159063,1,0,0:0:0:0:
109,192,159290,1,0,0:0:0:0:
402,192,159290,1,0,0:0:0:0:
329,192,159517,1,0,0:0:0:0:
256,192,159745,128,0,161108:0:0:0:0:
402,192,159745,1,0,0:0:0:0:
109,192,159745,1,0,0:0:0:0:
475,192,159745,128,0,161108:0:0:0:0:
36,192,160199,128,0,160426:0:0:0:0:
329,192,160199,1,0,0:0:0:0:
109,192,160426,128,0,160654:0:0:0:0:
402,192,160426,1,0,0:0:0:0:
182,192,160654,128,0,160881:0:0:0:0:
402,192,160654,1,0,0:0:0:0:
36,192,160654,1,0,0:0:0:0:
329,192,160881,128,0,161108:0:0:0:0:
402,192,161108,128,0,161336:0:0:0:0:
36,192,161108,1,0,0:0:0:0:
109,192,161108,1,0,0:0:0:0:
475,192,161336,128,0,161563:0:0:0:0:
329,192,161336,1,0,0:0:0:0:
182,192,161563,128,0,161790:0:0:0:0:
402,192,161563,1,0,0:0:0:0:
36,192,161563,1,0,0:0:0:0:
402,192,161790,128,0,162017:0:0:0:0:
109,192,161790,1,0,0:0:0:0:
36,192,162017,1,0,0:0:0:0:
256,192,162017,1,0,0:0:0:0:
475,192,162017,1,0,0:0:0:0:
329,192,162017,128,0,162699:0:0:0:0:
182,192,162017,128,0,162699:0:0:0:0:
109,192,162472,1,0,0:0:0:0:
256,192,162699,1,0,0:0:0:0:
36,192,162926,1,0,0:0:0:0:
256,192,162926,1,0,0:0:0:0:
475,192,162926,1,0,0:0:0:0:
182,192,163154,1,0,0:0:0:0:
256,192,163381,128,0,164745:0:0:0:0:
402,192,163381,1,0,0:0:0:0:
475,192,163381,1,0,0:0:0:0:
109,192,163381,128,0,164745:0:0:0:0:
329,192,163836,1,0,0:0:0:0:
182,192,164063,128,0,164290:0:0:0:0:
36,192,164063,1,0,0:0:0:0:
36,192,164290,1,0,0:0:0:0:
329,192,164290,128,0,164517:0:0:0:0:
402,192,164290,1,0,0:0:0:0:
475,192,164517,128,0,164745:0:0:0:0:
182,192,164745,128,0,164972:0:0:0:0:
36,192,164745,1,0,0:0:0:0:
329,192,164745,1,0,0:0:0:0:
36,192,165199,1,0,0:0:0:0:
109,192,165199,128,0,165426:0:0:0:0:
475,192,165199,1,0,0:0:0:0:
402,192,165426,128,0,165654:0:0:0:0:
256,192,165426,1,0,0:0:0:0:
182,192,165654,128,0,166563:0:0:0:0:
256,192,165654,1,0,0:0:0:0:
475,192,165654,1,0,0:0:0:0:
36,192,165654,1,0,0:0:0:0:
109,192,165654,128,0,166563:0:0:0:0:
475,192,166108,1,0,0:0:0:0:
329,192,166336,1,0,0:0:0:0:
256,192,166563,1,0,0:0:0:0:
475,192,166563,1,0,0:0:0:0:
36,192,166563,1,0,0:0:0:0:
329,192,166790,1,0,0:0:0:0:
36,192,167017,128,0,168381:0:0:0:0:
256,192,167017,1,0,0:0:0:0:
402,192,167017,1,0,0:0:0:0:
475,192,167017,128,0,168381:0:0:0:0:
329,192,167472,1,0,0:0:0:0:
256,192,167699,1,0,0:0:0:0:
256,192,167926,1,0,0:0:0:0:
402,192,167926,1,0,0:0:0:0:
109,192,168381,1,0,0:0:0:0:
256,192,168381,1,0,0:0:0:0:
402,192,168381,1,0,0:0:0:0:
256,192,168608,1,0,0:0:0:0:
109,192,168836,128,0,169063:0:0:0:0:
402,192,168836,1,0,0:0:0:0:
256,192,169063,128,0,169290:0:0:0:0:
329,192,169063,1,0,0:0:0:0:
402,192,169290,128,0,170199:0:0:0:0:
182,192,169290,1,0,0:0:0:0:
36,192,169290,128,0,169517:0:0:0:0:
475,192,169290,128,0,170199:0:0:0:0:
109,192,169517,128,0,169745:0:0:0:0:
329,192,169745,1,0,0:0:0:0:
182,192,169745,128,0,169972:0:0:0:0:
256,192,169972,1,0,0:0:0:0:
109,192,169972,128,0,170199:0:0:0:0:
329,192,170199,1,0,0:0:0:0:
182,192,170199,1,0,0:0:0:0:
36,192,170199,128,0,170426:0:0:0:0:
256,192,170426,1,0,0:0:0:0:
109,192,170426,128,0,170654:0:0:0:0:
182,192,170654,128,0,171108:0:0:0:0:
475,192,170654,1,0,0:0:0:0:
402,192,170654,128,0,170881:0:0:0:0:
36,192,170654,128,0,171108:0:0:0:0:
329,192,170881,128,0,171108:0:0:0:0:
402,192,171108,1,0,0:0:0:0:
256,192,171108,128,0,171336:0:0:0:0:
182,192,171336,1,0,0:0:0:0:
36,192,171336,1,0,0:0:0:0:
475,192,171336,128,0,171563:0:0:0:0:
329,192,171563,1,0,0:0:0:0:
109,192,171563,1,0,0:0:0:0:
402,192,171563,128,0,171790:0:0:0:0:
182,192,171563,128,0,171790:0:0:0:0:
329,192,171790,128,0,172017:0:0:0:0:
109,192,171790,128,0,172017:0:0:0:0:
475,192,172017,1,0,0:0:0:0:
402,192,172017,128,0,172245:0:0:0:0:
36,192,172017,128,0,172245:0:0:0:0:
329,192,172245,128,0,172472:0:0:0:0:
109,192,172245,128,0,172472:0:0:0:0:
256,192,172472,1,0,0:0:0:0:
402,192,172472,128,0,172699:0:0:0:0:
182,192,172472,128,0,172699:0:0:0:0:
256,192,172699,1,0,0:0:0:0:
475,192,172699,128,0,172926:0:0:0:0:
109,192,172699,128,0,172926:0:0:0:0:
256,192,172926,128,0,174290:0:0:0:0:
36,192,172926,1,0,0:0:0:0:
182,192,172926,1,0,0:0:0:0:
402,192,172926,1,0,0:0:0:0:
402,192,173154,1,0,0:0:0:0:
109,192,173154,1,0,0:0:0:0:
182,192,173381,1,0,0:0:0:0:
329,192,173381,1,0,0:0:0:0:
329,192,173608,1,0,0:0:0:0:
182,192,173608,1,0,0:0:0:0:
36,192,173608,1,0,0:0:0:0:
475,192,173608,1,0,0:0:0:0:
402,192,173836,1,0,0:0:0:0:
109,192,173836,1,0,0:0:0:0:
182,192,174063,1,0,0:0:0:0:
329,192,174063,1,0,0:0:0:0:
109,192,174290,1,0,0:0:0:0:
402,192,174290,128,0,174517:0:0:0:0:
36,192,174290,1,0,0:0:0:0:
256,192,174404,128,0,174517:0:0:0:0:
329,192,174517,128,0,174631:0:0:0:0:
475,192,174517,1,0,0:0:0:0:
182,192,174631,128,0,174745:0:0:0:0:
256,192,174745,128,0,174972:0:0:0:0:
475,192,174745,1,0,0:0:0:0:
109,192,174858,128,0,174972:0:0:0:0:
182,192,174972,128,0,175086:0:0:0:0:
402,192,174972,1,0,0:0:0:0:
36,192,175086,128,0,175199:0:0:0:0:
109,192,175199,128,0,175426:0:0:0:0:
329,192,175199,1,0,0:0:0:0:
402,192,175199,1,0,0:0:0:0:
256,192,175313,128,0,175426:0:0:0:0:
182,192,175426,128,0,175540:0:0:0:0:
402,192,175426,1,0,0:0:0:0:
475,192,175426,1,0,0:0:0:0:
329,192,175540,128,0,175654:0:0:0:0:
475,192,175654,128,0,175767:0:0:0:0:
402,192,175654,128,0,175767:0:0:0:0:
36,192,175654,1,0,0:0:0:0:
256,192,175654,1,0,0:0:0:0:
109,192,175767,128,0,175881:0:0:0:0:
256,192,175881,1,0,0:0:0:0:
182,192,175881,128,0,175995:0:0:0:0:
329,192,175881,128,0,175995:0:0:0:0:
475,192,175881,1,0,0:0:0:0:
36,192,175995,128,0,176108:0:0:0:0:
329,192,176108,128,0,176222:0:0:0:0:
109,192,176108,128,0,176222:0:0:0:0:
475,192,176108,1,0,0:0:0:0:
402,192,176108,1,0,0:0:0:0:
256,192,176222,128,0,176336:0:0:0:0:
475,192,176336,128,0,176449:0:0:0:0:
182,192,176336,128,0,176449:0:0:0:0:
36,192,176336,1,0,0:0:0:0:
109,192,176336,1,0,0:0:0:0:
329,192,176449,128,0,176563:0:0:0:0:
256,192,176563,1,0,0:0:0:0:
475,192,176563,1,0,0:0:0:0:
402,192,176563,1,0,0:0:0:0:
182,192,176563,128,0,177017:0:0:0:0:
109,192,176563,1,0,0:0:0:0:
329,192,177017,128,0,177245:0:0:0:0:
36,192,177017,1,0,0:0:0:0:
475,192,177245,128,0,177415:0:0:0:0:
256,192,177245,1,0,0:0:0:0:
402,192,177415,128,0,177586:0:0:0:0:
36,192,177472,1,0,0:0:0:0:
109,192,177472,1,0,0:0:0:0:
182,192,177472,1,0,0:0:0:0:
329,192,177586,128,0,177699:0:0:0:0:
402,192,177699,128,0,177870:0:0:0:0:
329,192,177870,128,0,177926:0:0:0:0:
256,192,177926,128,0,179517:0:0:0:0:
36,192,177926,1,0,0:0:0:0:
475,192,177926,1,0,0:0:0:0:
109,192,178608,1,0,0:0:0:0:
109,192,178836,1,0,0:0:0:0:
475,192,179063,1,0,0:0:0:0:
36,192,179290,1,0,0:0:0:0:
109,192,179290,1,0,0:0:0:0:
402,192,179290,1,0,0:0:0:0:
182,192,179517,128,0,179631:0:0:0:0:
109,192,179631,128,0,179707:0:0:0:0:
182,192,179707,128,0,179782:0:0:0:0:
475,192,179745,1,0,0:0:0:0:
109,192,179782,128,0,179858:0:0:0:0:
182,192,179858,128,0,179934:0:0:0:0:
109,192,179934,128,0,180010:0:0:0:0:
402,192,179972,1,0,0:0:0:0:
329,192,179972,1,0,0:0:0:0:
182,192,180010,128,0,180086:0:0:0:0:
109,192,180086,128,0,180199:0:0:0:0:
36,192,180199,128,0,180426:0:0:0:0:
256,192,180199,1,0,0:0:0:0:
475,192,180199,1,0,0:0:0:0:
182,192,180426,128,0,180540:0:0:0:0:
329,192,180654,128,0,180881:0:0:0:0:
475,192,180881,128,0,181108:0:0:0:0:
109,192,180881,1,0,0:0:0:0:
256,192,181108,128,0,181222:0:0:0:0:
36,192,181108,1,0,0:0:0:0:
182,192,181108,1,0,0:0:0:0:
329,192,181222,128,0,181336:0:0:0:0:
402,192,181336,128,0,181563:0:0:0:0:
182,192,181563,128,0,181620:0:0:0:0:
475,192,181563,1,0,0:0:0:0:
256,192,181620,128,0,181676:0:0:0:0:
109,192,181676,128,0,181733:0:0:0:0:
182,192,181733,128,0,181790:0:0:0:0:
256,192,181790,128,0,181847:0:0:0:0:
36,192,181847,128,0,181904:0:0:0:0:
109,192,181904,128,0,181961:0:0:0:0:
182,192,181961,128,0,182017:0:0:0:0:
256,192,182017,128,0,182245:0:0:0:0:
182,192,182245,128,0,182358:0:0:0:0:
475,192,182245,1,0,0:0:0:0:
256,192,182358,128,0,182472:0:0:0:0:
329,192,182472,128,0,182699:0:0:0:0:
475,192,182472,1,0,0:0:0:0:
402,192,182699,128,0,182926:0:0:0:0:
109,192,182699,1,0,0:0:0:0:
329,192,182926,128,0,182983:0:0:0:0:
36,192,182926,1,0,0:0:0:0:
182,192,182926,1,0,0:0:0:0:
256,192,182983,128,0,183040:0:0:0:0:
402,192,183040,128,0,183097:0:0:0:0:
329,192,183097,128,0,183154:0:0:0:0:
256,192,183154,128,0,183211:0:0:0:0:
475,192,183211,128,0,183267:0:0:0:0:
402,192,183267,128,0,183324:0:0:0:0:
329,192,183324,128,0,183381:0:0:0:0:
256,192,183381,128,0,183608:0:0:0:0:
109,192,183381,1,0,0:0:0:0:
329,192,183608,128,0,183722:0:0:0:0:
182,192,183608,1,0,0:0:0:0:
256,192,183722,128,0,183836:0:0:0:0:
402,192,183836,1,0,0:0:0:0:
109,192,183836,128,0,183911:0:0:0:0:
182,192,183911,128,0,183987:0:0:0:0:
256,192,183987,128,0,184063:0:0:0:0:
329,192,184063,128,0,184139:0:0:0:0:
402,192,184139,128,0,184214:0:0:0:0:
475,192,184214,128,0,184290:0:0:0:0:
36,192,184290,128,0,184366:0:0:0:0:
109,192,184366,128,0,184442:0:0:0:0:
182,192,184442,128,0,184517:0:0:0:0:
256,192,184517,128,0,184574:0:0:0:0:
475,192,184517,1,0,0:0:0:0:
329,192,184574,128,0,184631:0:0:0:0:
182,192,184631,128,0,184688:0:0:0:0:
256,192,184688,128,0,184745:0:0:0:0:
329,192,184745,128,0,184820:0:0:0:0:
475,192,184745,1,0,0:0:0:0:
36,192,184745,1,0,0:0:0:0:
256,192,184820,128,0,184896:0:0:0:0:
182,192,184896,128,0,184972:0:0:0:0:
109,192,184972,128,0,185048:0:0:0:0:
329,192,185048,128,0,185123:0:0:0:0:
402,192,185123,128,0,185199:0:0:0:0:
475,192,185199,128,0,185275:0:0:0:0:
36,192,185199,1,0,0:0:0:0:
182,192,185275,128,0,185351:0:0:0:0:
256,192,185351,128,0,185426:0:0:0:0:
329,192,185426,128,0,185540:0:0:0:0:
475,192,185540,128,0,185597:0:0:0:0:
402,192,185597,128,0,185654:0:0:0:0:
329,192,185654,128,0,185711:0:0:0:0:
182,192,185711,128,0,185767:0:0:0:0:
36,192,185767,128,0,185824:0:0:0:0:
256,192,185824,128,0,185881:0:0:0:0:
109,192,185881,128,0,185995:0:0:0:0:
402,192,185881,1,0,0:0:0:0:
182,192,185995,128,0,186051:0:0:0:0:
256,192,186051,128,0,186165:0:0:0:0:
402,192,186108,1,0,0:0:0:0:
329,192,186165,128,0,186279:0:0:0:0:
402,192,186279,128,0,186392:0:0:0:0:
36,192,186336,1,0,0:0:0:0:
475,192,186392,128,0,186449:0:0:0:0:
329,192,186449,128,0,186506:0:0:0:0:
182,192,186506,128,0,186563:0:0:0:0:
36,192,186563,128,0,187017:0:0:0:0:
256,192,186563,1,0,0:0:0:0:
475,192,186563,1,0,0:0:0:0:
256,192,187017,128,0,187472:0:0:0:0:
402,192,187017,1,0,0:0:0:0:
109,192,187017,1,0,0:0:0:0:
182,192,187245,1,0,0:0:0:0:
329,192,187245,1,0,0:0:0:0:
36,192,187472,1,0,0:0:0:0:
475,192,187472,128,0,187699:0:0:0:0:
402,192,187472,1,0,0:0:0:0:
402,192,187699,128,0,187775:0:0:0:0:
329,192,187775,128,0,187851:0:0:0:0:
256,192,187851,128,0,188002:0:0:0:0:
109,192,188002,128,0,188078:0:0:0:0:
182,192,188078,128,0,188154:0:0:0:0:
256,192,188154,128,0,188229:0:0:0:0:
475,192,188154,1,0,0:0:0:0:
329,192,188229,128,0,188305:0:0:0:0:
402,192,188305,128,0,188381:0:0:0:0:
329,192,188381,128,0,188457:0:0:0:0:
36,192,188381,1,0,0:0:0:0:
109,192,188381,1,0,0:0:0:0:
256,192,188457,128,0,188532:0:0:0:0:
182,192,188532,128,0,188608:0:0:0:0:
109,192,188608,128,0,188684:0:0:0:0:
182,192,188684,128,0,188760:0:0:0:0:
256,192,188760,128,0,188836:0:0:0:0:
329,192,188836,128,0,188911:0:0:0:0:
36,192,188836,1,0,0:0:0:0:
475,192,188836,1,0,0:0:0:0:
402,192,188911,128,0,188987:0:0:0:0:
329,192,188987,128,0,189063:0:0:0:0:
256,192,189063,128,0,189139:0:0:0:0:
182,192,189139,128,0,189214:0:0:0:0:
109,192,189214,128,0,189290:0:0:0:0:
36,192,189290,128,0,189517:0:0:0:0:
109,192,189517,128,0,189593:0:0:0:0:
402,192,189517,1,0,0:0:0:0:
182,192,189593,128,0,189669:0:0:0:0:
256,192,189669,128,0,189745:0:0:0:0:
402,192,189745,1,0,0:0:0:0:
329,192,189745,128,0,189858:0:0:0:0:
256,192,189858,128,0,189972:0:0:0:0:
182,192,189972,128,0,190029:0:0:0:0:
109,192,190029,128,0,190086:0:0:0:0:
329,192,190086,128,0,190142:0:0:0:0:
402,192,190142,128,0,190199:0:0:0:0:
36,192,190199,128,0,190256:0:0:0:0:
109,192,190256,128,0,190313:0:0:0:0:
475,192,190313,128,0,190370:0:0:0:0:
402,192,190370,128,0,190426:0:0:0:0:
182,192,190426,128,0,190483:0:0:0:0:
256,192,190483,128,0,190540:0:0:0:0:
329,192,190540,128,0,190597:0:0:0:0:
109,192,190597,128,0,190654:0:0:0:0:
36,192,190654,128,0,191108:0:0:0:0:
475,192,190654,128,0,191108:0:0:0:0:
402,192,190654,1,0,0:0:0:0:
256,192,190881,1,0,0:0:0:0:
109,192,191108,128,0,191336:0:0:0:0:
402,192,191108,1,0,0:0:0:0:
329,192,191222,1,0,0:0:0:0:
182,192,191336,128,0,191449:0:0:0:0:
256,192,191336,1,0,0:0:0:0:
329,192,191449,1,0,0:0:0:0:
402,192,191563,1,0,0:0:0:0:
475,192,191563,1,0,0:0:0:0:
36,192,191563,128,0,191676:0:0:0:0:
109,192,191563,128,0,191676:0:0:0:0:
182,192,191676,1,0,0:0:0:0:
475,192,191790,128,0,191904:0:0:0:0:
402,192,191790,128,0,191904:0:0:0:0:
256,192,191790,1,0,0:0:0:0:
109,192,191904,1,0,0:0:0:0:
329,192,192017,128,0,192131:0:0:0:0:
402,192,192017,128,0,192131:0:0:0:0:
182,192,192017,1,0,0:0:0:0:
36,192,192017,1,0,0:0:0:0:
109,192,192245,128,0,192358:0:0:0:0:
182,192,192245,128,0,192358:0:0:0:0:
329,192,192472,128,0,192586:0:0:0:0:
402,192,192472,128,0,192586:0:0:0:0:
36,192,192472,1,0,0:0:0:0:
109,192,192472,1,0,0:0:0:0:
256,192,192586,128,0,192699:0:0:0:0:
329,192,192699,128,0,193836:0:0:0:0:
109,192,192926,1,0,0:0:0:0:
256,192,193154,1,0,0:0:0:0:
256,192,193381,1,0,0:0:0:0:
36,192,193836,1,0,0:0:0:0:
256,192,193836,1,0,0:0:0:0:
475,192,193836,1,0,0:0:0:0:
182,192,194063,128,0,194290:0:0:0:0:
329,192,194063,128,0,194290:0:0:0:0:
109,192,194290,128,0,194517:0:0:0:0:
402,192,194290,128,0,194517:0:0:0:0:
256,192,194290,1,0,0:0:0:0:
475,192,194517,128,0,194745:0:0:0:0:
36,192,194517,128,0,194745:0:0:0:0:
256,192,194517,1,0,0:0:0:0:
256,192,194745,1,0,0:0:0:0:
109,192,194745,128,0,194972:0:0:0:0:
402,192,194745,128,0,194972:0:0:0:0:
329,192,194972,128,0,195048:0:0:0:0:
182,192,194972,128,0,195048:0:0:0:0:
402,192,195048,128,0,195123:0:0:0:0:
109,192,195048,128,0,195123:0:0:0:0:
182,192,195123,128,0,195199:0:0:0:0:
329,192,195123,128,0,195199:0:0:0:0:
109,192,195199,128,0,195426:0:0:0:0:
402,192,195199,128,0,195426:0:0:0:0:
182,192,195426,128,0,195654:0:0:0:0:
329,192,195426,128,0,195654:0:0:0:0:
256,192,195426,1,0,0:0:0:0:
256,192,195654,1,0,0:0:0:0:
109,192,195654,128,0,195881:0:0:0:0:
402,192,195654,128,0,195881:0:0:0:0:
36,192,195881,128,0,195995:0:0:0:0:
475,192,195881,128,0,195995:0:0:0:0:
256,192,195881,1,0,0:0:0:0:
36,192,196108,128,0,196676:0:0:0:0:
475,192,196108,128,0,196676:0:0:0:0:
182,192,196108,1,0,0:0:0:0:
256,192,196108,1,0,0:0:0:0:
329,192,196108,1,0,0:0:0:0:
402,192,196563,1,0,0:0:0:0:
109,192,196563,1,0,0:0:0:0:
36,192,196790,128,0,196904:0:0:0:0:
475,192,196790,128,0,196904:0:0:0:0:
256,192,196790,1,0,0:0:0:0:
36,192,197017,128,0,197131:0:0:0:0:
475,192,197017,128,0,197131:0:0:0:0:
256,192,197017,1,0,0:0:0:0:
36,192,197245,128,0,197358:0:0:0:0:
475,192,197245,128,0,197358:0:0:0:0:
475,192,197472,128,0,197586:0:0:0:0:
36,192,197472,128,0,197586:0:0:0:0:
109,192,197472,1,0,0:0:0:0:
256,192,197472,1,0,0:0:0:0:
402,192,197472,1,0,0:0:0:0:
36,192,197699,128,0,197813:0:0:0:0:
475,192,197699,128,0,197813:0:0:0:0:
36,192,197926,128,0,198040:0:0:0:0:
475,192,197926,128,0,198040:0:0:0:0:
182,192,198040,128,0,198154:0:0:0:0:
329,192,198040,128,0,198154:0:0:0:0:
109,192,198154,128,0,198211:0:0:0:0:
402,192,198154,128,0,198211:0:0:0:0:
36,192,198381,1,0,0:0:0:0:
475,192,198381,1,0,0:0:0:0:
256,192,198381,128,0,198495:0:0:0:0:
182,192,198495,128,0,198608:0:0:0:0:
109,192,198608,128,0,198722:0:0:0:0:
182,192,198722,128,0,198836:0:0:0:0:
109,192,198836,128,0,198949:0:0:0:0:
182,192,198949,128,0,199063:0:0:0:0:
329,192,199063,128,0,199176:0:0:0:0:
36,192,199063,1,0,0:0:0:0:
402,192,199176,128,0,199290:0:0:0:0:
329,192,199290,128,0,199404:0:0:0:0:
36,192,199290,1,0,0:0:0:0:
475,192,199290,1,0,0:0:0:0:
256,192,199404,128,0,199517:0:0:0:0:
182,192,199517,128,0,199631:0:0:0:0:
402,192,199517,1,0,0:0:0:0:
109,192,199631,128,0,199745:0:0:0:0:
182,192,199745,128,0,199858:0:0:0:0:
329,192,199745,1,0,0:0:0:0:
475,192,199745,1,0,0:0:0:0:
256,192,199858,128,0,199972:0:0:0:0:
329,192,199972,128,0,200086:0:0:0:0:
402,192,200086,128,0,200199:0:0:0:0:
475,192,200199,128,0,200313:0:0:0:0:
329,192,200313,128,0,200426:0:0:0:0:
475,192,200426,128,0,200540:0:0:0:0:
36,192,200426,1,0,0:0:0:0:
256,192,200540,128,0,200654:0:0:0:0:
475,192,200654,128,0,200767:0:0:0:0:
36,192,200654,1,0,0:0:0:0:
182,192,200767,128,0,200881:0:0:0:0:
402,192,200881,128,0,200995:0:0:0:0:
109,192,200995,128,0,201108:0:0:0:0:
402,192,201108,128,0,201222:0:0:0:0:
256,192,201108,1,0,0:0:0:0:
475,192,201108,1,0,0:0:0:0:
109,192,201222,128,0,201336:0:0:0:0:
402,192,201336,128,0,201449:0:0:0:0:
329,192,201449,128,0,201563:0:0:0:0:
36,192,201563,128,0,201676:0:0:0:0:
475,192,201563,1,0,0:0:0:0:
256,192,201676,128,0,201790:0:0:0:0:
36,192,201790,128,0,201904:0:0:0:0:
402,192,201790,1,0,0:0:0:0:
182,192,201904,128,0,202017:0:0:0:0:
36,192,202017,128,0,202131:0:0:0:0:
475,192,202017,1,0,0:0:0:0:
329,192,202017,128,0,202131:0:0:0:0:
402,192,202017,1,0,0:0:0:0:
256,192,202131,128,0,202245:0:0:0:0:
109,192,202245,128,0,202358:0:0:0:0:
402,192,202245,128,0,202358:0:0:0:0:
182,192,202358,128,0,202472:0:0:0:0:
256,192,202472,128,0,202586:0:0:0:0:
475,192,202472,128,0,202586:0:0:0:0:
109,192,202586,128,0,202699:0:0:0:0:
402,192,202699,128,0,202813:0:0:0:0:
36,192,202699,128,0,202813:0:0:0:0:
182,192,202699,1,0,0:0:0:0:
256,192,202699,1,0,0:0:0:0:
329,192,202813,128,0,202926:0:0:0:0:
256,192,202926,128,0,203040:0:0:0:0:
475,192,202926,128,0,203040:0:0:0:0:
109,192,203040,128,0,203154:0:0:0:0:
182,192,203154,128,0,203267:0:0:0:0:
402,192,203154,128,0,203267:0:0:0:0:
329,192,203267,128,0,203381:0:0:0:0:
36,192,203381,128,0,203495:0:0:0:0:
256,192,203381,128,0,203495:0:0:0:0:
475,192,203381,1,0,0:0:0:0:
402,192,203381,1,0,0:0:0:0:
109,192,203495,128,0,203608:0:0:0:0:
182,192,203608,128,0,203722:0:0:0:0:
402,192,203608,128,0,203722:0:0:0:0:
475,192,203608,1,0,0:0:0:0:
329,192,203722,128,0,203836:0:0:0:0:
256,192,203836,128,0,203949:0:0:0:0:
475,192,203836,128,0,203949:0:0:0:0:
36,192,203836,1,0,0:0:0:0:
182,192,203949,128,0,204063:0:0:0:0:
402,192,203949,128,0,204063:0:0:0:0:
329,192,204063,128,0,204176:0:0:0:0:
109,192,204063,128,0,204176:0:0:0:0:
475,192,204063,1,0,0:0:0:0:
256,192,204176,128,0,204290:0:0:0:0:
36,192,204176,128,0,204290:0:0:0:0:
182,192,204290,128,0,204745:0:0:0:0:
329,192,204290,128,0,204517:0:0:0:0:
402,192,204290,1,0,0:0:0:0:
475,192,204517,1,0,0:0:0:0:
36,192,204745,1,0,0:0:0:0:
256,192,204745,128,0,205086:0:0:0:0:
402,192,204745,128,0,205086:0:0:0:0:
109,192,204745,1,0,0:0:0:0:
36,192,205086,128,0,205426:0:0:0:0:
475,192,205086,128,0,205426:0:0:0:0:
182,192,205199,1,0,0:0:0:0:
256,192,205313,1,0,0:0:0:0:
329,192,205426,1,0,0:0:0:0:
402,192,205426,128,0,205654:0:0:0:0:
109,192,205426,128,0,205654:0:0:0:0:
256,192,205540,1,0,0:0:0:0:
182,192,205654,1,0,0:0:0:0:
36,192,205654,128,0,206336:0:0:0:0:
475,192,205654,128,0,205881:0:0:0:0:
402,192,205881,128,0,206108:0:0:0:0:
256,192,205881,1,0,0:0:0:0:
329,192,206108,128,0,206336:0:0:0:0:
109,192,206108,1,0,0:0:0:0:
182,192,206336,128,0,206790:0:0:0:0:
402,192,206336,128,0,206563:0:0:0:0:
256,192,206336,1,0,0:0:0:0:
109,192,206563,1,0,0:0:0:0:
36,192,206563,1,0,0:0:0:0:
475,192,206563,128,0,206790:0:0:0:0:
402,192,206790,128,0,207017:0:0:0:0:
256,192,206790,1,0,0:0:0:0:
109,192,207017,128,0,207472:0:0:0:0:
329,192,207017,128,0,207245:0:0:0:0:
36,192,207017,1,0,0:0:0:0:
402,192,207245,128,0,207472:0:0:0:0:
182,192,207245,1,0,0:0:0:0:
256,192,207472,1,0,0:0:0:0:
36,192,207472,128,0,207699:0:0:0:0:
475,192,207472,1,0,0:0:0:0:
256,192,207699,1,0,0:0:0:0:
402,192,207699,128,0,208154:0:0:0:0:
109,192,207699,128,0,207926:0:0:0:0:
182,192,207926,128,0,208154:0:0:0:0:
329,192,207926,1,0,0:0:0:0:
109,192,208154,128,0,208381:0:0:0:0:
475,192,208154,1,0,0:0:0:0:
329,192,208381,128,0,208836:0:0:0:0:
256,192,208381,1,0,0:0:0:0:
402,192,208381,1,0,0:0:0:0:
36,192,208381,128,0,208608:0:0:0:0:
109,192,208608,128,0,208836:0:0:0:0:
402,192,208608,1,0,0:0:0:0:
182,192,208836,128,0,209063:0:0:0:0:
475,192,208836,128,0,209290:0:0:0:0:
256,192,208836,1,0,0:0:0:0:
109,192,209063,128,0,209290:0:0:0:0:
329,192,209063,1,0,0:0:0:0:
256,192,209290,1,0,0:0:0:0:
329,192,209290,128,0,209972:0:0:0:0:
36,192,209290,128,0,209517:0:0:0:0:
402,192,209517,1,0,0:0:0:0:
182,192,209517,128,0,209745:0:0:0:0:
36,192,209745,128,0,209972:0:0:0:0:
256,192,209745,1,0,0:0:0:0:
402,192,209972,128,0,210426:0:0:0:0:
182,192,209972,128,0,210199:0:0:0:0:
109,192,209972,1,0,0:0:0:0:
36,192,210199,1,0,0:0:0:0:
475,192,210199,1,0,0:0:0:0:
329,192,210199,128,0,210426:0:0:0:0:
182,192,210426,128,0,210654:0:0:0:0:
256,192,210426,1,0,0:0:0:0:
475,192,210654,128,0,211108:0:0:0:0:
36,192,210654,128,0,210881:0:0:0:0:
329,192,210654,1,0,0:0:0:0:
402,192,210881,1,0,0:0:0:0:
182,192,210881,128,0,211108:0:0:0:0:
402,192,211108,1,0,0:0:0:0:
329,192,211108,1,0,0:0:0:0:
109,192,211108,128,0,211336:0:0:0:0:
475,192,211336,1,0,0:0:0:0:
256,192,211336,128,0,211563:0:0:0:0:
402,192,211563,128,0,211790:0:0:0:0:
36,192,211563,1,0,0:0:0:0:
256,192,211790,128,0,212017:0:0:0:0:
475,192,211790,128,0,212017:0:0:0:0:
182,192,211790,1,0,0:0:0:0:
329,192,212017,1,0,0:0:0:0:
36,192,212017,1,0,0:0:0:0:
109,192,212017,128,0,212245:0:0:0:0:
402,192,212017,128,0,212245:0:0:0:0:
256,192,212245,128,0,212472:0:0:0:0:
36,192,212245,128,0,212472:0:0:0:0:
182,192,212245,1,0,0:0:0:0:
182,192,212472,128,0,212699:0:0:0:0:
109,192,212472,1,0,0:0:0:0:
402,192,212472,128,0,212699:0:0:0:0:
256,192,212699,128,0,212926:0:0:0:0:
475,192,212699,128,0,212926:0:0:0:0:
329,192,212699,1,0,0:0:0:0:
36,192,212699,128,0,212926:0:0:0:0:
109,192,212926,1,0,0:0:0:0:
182,192,212926,128,0,213381:0:0:0:0:
402,192,212926,128,0,213381:0:0:0:0:
329,192,213154,128,0,213608:0:0:0:0:
109,192,213154,128,0,213608:0:0:0:0:
36,192,213381,128,0,213836:0:0:0:0:
475,192,213381,128,0,213608:0:0:0:0:
256,192,213381,128,0,213608:0:0:0:0:
182,192,213608,128,0,213836:0:0:0:0:
402,192,213608,128,0,213836:0:0:0:0:
329,192,213836,128,0,214063:0:0:0:0:
109,192,213836,128,0,214063:0:0:0:0:
256,192,213836,128,0,213949:0:0:0:0:
475,192,213836,128,0,213949:0:0:0:0:
402,192,214063,128,0,214176:0:0:0:0:
182,192,214063,128,0,214176:0:0:0:0:
329,192,214290,128,0,214404:0:0:0:0:
109,192,214290,128,0,214404:0:0:0:0:
256,192,214517,128,0,214631:0:0:0:0:
36,192,214517,128,0,214631:0:0:0:0:
182,192,214745,1,0,0:0:0:0:
475,192,214745,1,0,0:0:0:0:
329,192,214745,1,0,0:0:0:0:
402,192,214745,128,0,214972:0:0:0:0:
256,192,214972,1,0,0:0:0:0:
182,192,215199,1,0,0:0:0:0:
329,192,215199,1,0,0:0:0:0:
109,192,215199,128,0,215426:0:0:0:0:
256,192,215426,1,0,0:0:0:0:
109,192,215654,1,0,0:0:0:0:
475,192,215654,1,0,0:0:0:0:
36,192,215654,1,0,0:0:0:0:
402,192,215654,1,0,0:0:0:0:
256,192,215881,1,0,0:0:0:0:
36,192,216108,1,0,0:0:0:0:
109,192,216108,1,0,0:0:0:0:
475,192,216108,1,0,0:0:0:0:
402,192,216108,1,0,0:0:0:0:
256,192,216336,1,0,0:0:0:0:
256,192,216563,128,0,218078:0:0:0:0:
109,192,218078,128,0,218229:0:0:0:0:
256,192,218229,128,0,218381:0:0:0:0:
402,192,218381,128,0,219745:0:0:0:0:
256,192,219745,1,0,0:0:0:0:
182,192,219972,1,0,0:0:0:0:
256,192,220199,5,0,0:0:0:0:
329,192,220199,128,0,220881:0:0:0:0:
109,192,220199,1,0,0:0:0:0:
475,192,220199,128,0,220881:0:0:0:0:
36,192,220199,128,0,220881:0:0:0:0:
182,192,220654,1,0,0:0:0:0:
182,192,220881,1,0,0:0:0:0:
402,192,220881,128,0,221563:0:0:0:0:
256,192,221108,1,0,0:0:0:0:
109,192,221108,1,0,0:0:0:0:
475,192,221108,1,0,0:0:0:0:
182,192,221336,1,0,0:0:0:0:
256,192,221563,128,0,222926:0:0:0:0:
36,192,221563,1,0,0:0:0:0:
109,192,221563,128,0,222926:0:0:0:0:
475,192,221563,128,0,223836:0:0:0:0:
329,192,222017,1,0,0:0:0:0:
182,192,222245,128,0,222472:0:0:0:0:
402,192,222245,1,0,0:0:0:0:
36,192,222472,1,0,0:0:0:0:
329,192,222472,128,0,222699:0:0:0:0:
402,192,222472,1,0,0:0:0:0:
402,192,222699,128,0,222926:0:0:0:0:
182,192,222926,128,0,223381:0:0:0:0:
36,192,222926,1,0,0:0:0:0:
329,192,222926,1,0,0:0:0:0:
36,192,223381,1,0,0:0:0:0:
109,192,223381,128,0,223608:0:0:0:0:
402,192,223608,128,0,223836:0:0:0:0:
256,192,223608,1,0,0:0:0:0:
182,192,223836,128,0,224745:0:0:0:0:
256,192,223836,1,0,0:0:0:0:
36,192,223836,128,0,224745:0:0:0:0:
329,192,223836,128,0,225199:0:0:0:0:
475,192,224290,1,0,0:0:0:0:
402,192,224517,1,0,0:0:0:0:
256,192,224745,1,0,0:0:0:0:
475,192,224745,1,0,0:0:0:0:
109,192,224745,1,0,0:0:0:0:
182,192,224972,1,0,0:0:0:0:
402,192,225199,128,0,227017:0:0:0:0:
256,192,225199,128,0,225654:0:0:0:0:
36,192,225199,1,0,0:0:0:0:
109,192,225199,128,0,227017:0:0:0:0:
182,192,225654,1,0,0:0:0:0:
256,192,225881,1,0,0:0:0:0:
475,192,225881,128,0,226563:0:0:0:0:
256,192,226108,1,0,0:0:0:0:
36,192,226108,1,0,0:0:0:0:
182,192,226563,1,0,0:0:0:0:
36,192,226563,1,0,0:0:0:0:
329,192,226563,1,0,0:0:0:0:
182,192,227017,128,0,227245:0:0:0:0:
256,192,227017,1,0,0:0:0:0:
256,192,227245,128,0,227472:0:0:0:0:
329,192,227245,1,0,0:0:0:0:
402,192,227472,128,0,228608:0:0:0:0:
475,192,227472,1,0,0:0:0:0:
36,192,227472,1,0,0:0:0:0:
109,192,227472,128,0,228608:0:0:0:0:
329,192,227472,128,0,228154:0:0:0:0:
256,192,227926,1,0,0:0:0:0:
182,192,228154,1,0,0:0:0:0:
256,192,228154,128,0,228836:0:0:0:0:
329,192,228381,1,0,0:0:0:0:
36,192,228381,1,0,0:0:0:0:
475,192,228381,1,0,0:0:0:0:
182,192,228608,1,0,0:0:0:0:
182,192,228836,128,0,229290:0:0:0:0:
475,192,228836,1,0,0:0:0:0:
329,192,228836,128,0,229290:0:0:0:0:
36,192,228836,128,0,229745:0:0:0:0:
475,192,229063,128,0,229517:0:0:0:0:
402,192,229290,1,0,0:0:0:0:
182,192,229517,1,0,0:0:0:0:
329,192,229517,1,0,0:0:0:0:
402,192,229745,1,0,0:0:0:0:
109,192,229745,128,0,230199:0:0:0:0:
182,192,229745,128,0,230199:0:0:0:0:
329,192,229745,128,0,230654:0:0:0:0:
402,192,229972,128,0,230426:0:0:0:0:
256,192,230199,1,0,0:0:0:0:
475,192,230199,1,0,0:0:0:0:
36,192,230199,1,0,0:0:0:0:
109,192,230654,128,0,231108:0:0:0:0:
475,192,230654,1,0,0:0:0:0:
182,192,230654,128,0,230881:0:0:0:0:
256,192,230881,1,0,0:0:0:0:
402,192,230881,1,0,0:0:0:0:
256,192,231108,128,0,232245:0:0:0:0:
182,192,231108,1,0,0:0:0:0:
329,192,231108,1,0,0:0:0:0:
36,192,231108,128,0,232245:0:0:0:0:
475,192,231108,128,0,232245:0:0:0:0:
402,192,231336,1,0,0:0:0:0:
109,192,231336,1,0,0:0:0:0:
182,192,231563,1,0,0:0:0:0:
402,192,231563,128,0,231790:0:0:0:0:
329,192,231790,1,0,0:0:0:0:
109,192,231790,128,0,232245:0:0:0:0:
402,192,232017,1,0,0:0:0:0:
182,192,232017,1,0,0:0:0:0:
182,192,232245,1,0,0:0:0:0:
402,192,232245,1,0,0:0:0:0:
256,192,232472,128,0,233836:0:0:0:0:
109,192,232472,1,0,0:0:0:0:
475,192,232472,1,0,0:0:0:0:
36,192,232472,128,0,233836:0:0:0:0:
402,192,232472,128,0,232926:0:0:0:0:
109,192,232926,128,0,233154:0:0:0:0:
182,192,232926,1,0,0:0:0:0:
402,192,233154,128,0,233381:0:0:0:0:
329,192,233154,1,0,0:0:0:0:
475,192,233154,128,0,234063:0:0:0:0:
329,192,233381,128,0,233608:0:0:0:0:
109,192,233381,1,0,0:0:0:0:
182,192,233381,1,0,0:0:0:0:
182,192,233608,128,0,233836:0:0:0:0:
109,192,233836,128,0,234063:0:0:0:0:
329,192,233836,1,0,0:0:0:0:
402,192,233836,1,0,0:0:0:0:
402,192,234063,128,0,234745:0:0:0:0:
36,192,234063,128,0,234290:0:0:0:0:
182,192,234063,1,0,0:0:0:0:
329,192,234290,128,0,234517:0:0:0:0:
109,192,234290,1,0,0:0:0:0:
475,192,234290,1,0,0:0:0:0:
109,192,234517,128,0,234745:0:0:0:0:
256,192,234517,1,0,0:0:0:0:
475,192,234745,1,0,0:0:0:0:
256,192,234745,1,0,0:0:0:0:
182,192,234745,128,0,235426:0:0:0:0:
329,192,234745,128,0,235426:0:0:0:0:
36,192,234745,128,0,235426:0:0:0:0:
402,192,235199,1,0,0:0:0:0:
256,192,235426,1,0,0:0:0:0:
402,192,235426,128,0,235654:0:0:0:0:
109,192,235426,128,0,235881:0:0:0:0:
475,192,235654,1,0,0:0:0:0:
256,192,235654,1,0,0:0:0:0:
182,192,235654,1,0,0:0:0:0:
329,192,235881,1,0,0:0:0:0:
256,192,236108,128,0,237472:0:0:0:0:
36,192,236108,1,0,0:0:0:0:
402,192,236108,128,0,237472:0:0:0:0:
109,192,236108,128,0,238381:0:0:0:0:
182,192,236563,1,0,0:0:0:0:
329,192,236790,128,0,237017:0:0:0:0:
475,192,236790,1,0,0:0:0:0:
475,192,237017,1,0,0:0:0:0:
182,192,237017,128,0,237245:0:0:0:0:
36,192,237017,1,0,0:0:0:0:
36,192,237245,128,0,237472:0:0:0:0:
329,192,237472,128,0,237699:0:0:0:0:
475,192,237472,1,0,0:0:0:0:
182,192,237472,1,0,0:0:0:0:
475,192,237926,1,0,0:0:0:0:
402,192,237926,128,0,238154:0:0:0:0:
36,192,237926,1,0,0:0:0:0:
182,192,238154,128,0,238381:0:0:0:0:
256,192,238154,1,0,0:0:0:0:
329,192,238381,128,0,239290:0:0:0:0:
36,192,238381,1,0,0:0:0:0:
475,192,238381,1,0,0:0:0:0:
402,192,238381,128,0,239290:0:0:0:0:
256,192,238381,128,0,239745:0:0:0:0:
36,192,238836,1,0,0:0:0:0:
182,192,239063,1,0,0:0:0:0:
109,192,239290,1,0,0:0:0:0:
36,192,239290,1,0,0:0:0:0:
475,192,239290,1,0,0:0:0:0:
182,192,239517,1,0,0:0:0:0:
475,192,239745,128,0,241108:0:0:0:0:
109,192,239745,1,0,0:0:0:0:
36,192,239745,128,0,241108:0:0:0:0:
329,192,239745,128,0,240654:0:0:0:0:
182,192,240199,1,0,0:0:0:0:
256,192,240426,1,0,0:0:0:0:
109,192,240654,1,0,0:0:0:0:
402,192,240654,1,0,0:0:0:0:
182,192,240654,128,0,242017:0:0:0:0:
402,192,241108,1,0,0:0:0:0:
256,192,241108,1,0,0:0:0:0:
109,192,241108,1,0,0:0:0:0:
256,192,241336,1,0,0:0:0:0:
402,192,241563,128,0,241790:0:0:0:0:
109,192,241563,1,0,0:0:0:0:
329,192,241790,128,0,242017:0:0:0:0:
36,192,241790,1,0,0:0:0:0:
109,192,242017,128,0,242926:0:0:0:0:
475,192,242017,128,0,242245:0:0:0:0:
36,192,242017,128,0,242926:0:0:0:0:
256,192,242017,128,0,243381:0:0:0:0:
402,192,242245,128,0,242472:0:0:0:0:
475,192,242472,1,0,0:0:0:0:
329,192,242472,128,0,242699:0:0:0:0:
182,192,242699,1,0,0:0:0:0:
402,192,242699,128,0,242926:0:0:0:0:
182,192,242926,1,0,0:0:0:0:
329,192,242926,1,0,0:0:0:0:
475,192,242926,128,0,243154:0:0:0:0:
109,192,243154,1,0,0:0:0:0:
402,192,243154,128,0,243381:0:0:0:0:
329,192,243381,128,0,243836:0:0:0:0:
36,192,243381,1,0,0:0:0:0:
109,192,243381,128,0,243608:0:0:0:0:
475,192,243381,128,0,243836:0:0:0:0:
182,192,243608,128,0,243836:0:0:0:0:
402,192,243608,128,0,245654:0:0:0:0:
109,192,243836,1,0,0:0:0:0:
256,192,243836,128,0,244063:0:0:0:0:
182,192,244063,1,0,0:0:0:0:
36,192,244063,128,0,244290:0:0:0:0:
256,192,244290,1,0,0:0:0:0:
475,192,244290,1,0,0:0:0:0:
109,192,244290,128,0,244517:0:0:0:0:
329,192,244290,128,0,244517:0:0:0:0:
182,192,244517,128,0,244745:0:0:0:0:
475,192,244517,128,0,244745:0:0:0:0:
36,192,244745,1,0,0:0:0:0:
109,192,244745,128,0,244972:0:0:0:0:
329,192,244745,128,0,244972:0:0:0:0:
256,192,244745,1,0,0:0:0:0:
182,192,244972,128,0,245199:0:0:0:0:
475,192,244972,128,0,245199:0:0:0:0:
256,192,245199,1,0,0:0:0:0:
109,192,245199,128,0,245426:0:0:0:0:
329,192,245199,128,0,245426:0:0:0:0:
256,192,245426,1,0,0:0:0:0:
36,192,245426,128,0,245654:0:0:0:0:
475,192,245426,128,0,245654:0:0:0:0:
329,192,245654,128,0,246336:0:0:0:0:
182,192,245654,128,0,246336:0:0:0:0:
256,192,245654,128,0,247017:0:0:0:0:
109,192,245654,128,0,245824:0:0:0:0:
36,192,245881,128,0,246051:0:0:0:0:
402,192,245881,128,0,246051:0:0:0:0:
402,192,246108,128,0,246279:0:0:0:0:
36,192,246108,128,0,246279:0:0:0:0:
109,192,246336,128,0,246506:0:0:0:0:
475,192,246336,128,0,246506:0:0:0:0:
475,192,246563,128,0,246733:0:0:0:0:
182,192,246563,128,0,246733:0:0:0:0:
329,192,246563,1,0,0:0:0:0:
36,192,246563,1,0,0:0:0:0:
402,192,246790,128,0,246961:0:0:0:0:
109,192,246790,128,0,246961:0:0:0:0:
109,192,247017,128,0,248381:0:0:0:0:
402,192,247017,128,0,248381:0:0:0:0:
182,192,247017,1,0,0:0:0:0:
329,192,247017,1,0,0:0:0:0:
36,192,247017,128,0,247131:0:0:0:0:
475,192,247017,128,0,247131:0:0:0:0:
182,192,247245,128,0,247358:0:0:0:0:
329,192,247245,128,0,247358:0:0:0:0:
256,192,247472,128,0,247586:0:0:0:0:
36,192,247472,128,0,247586:0:0:0:0:
475,192,247472,128,0,247586:0:0:0:0:
182,192,247699,128,0,247813:0:0:0:0:
329,192,247699,128,0,247813:0:0:0:0:
256,192,247926,128,0,248040:0:0:0:0:
36,192,247926,128,0,248040:0:0:0:0:
475,192,247926,128,0,248040:0:0:0:0:
182,192,248154,128,0,248267:0:0:0:0:
329,192,248154,128,0,248267:0:0:0:0:
256,192,248381,128,0,248495:0:0:0:0:
475,192,248381,128,0,248495:0:0:0:0:
36,192,248381,128,0,248495:0:0:0:0:
109,192,248608,128,0,248722:0:0:0:0:
402,192,248608,128,0,248722:0:0:0:0:
182,192,248836,128,0,248949:0:0:0:0:
329,192,248836,128,0,248949:0:0:0:0:
109,192,249063,128,0,249176:0:0:0:0:
256,192,249063,128,0,249176:0:0:0:0:
402,192,249063,128,0,249176:0:0:0:0:
182,192,249290,128,0,249461:0:0:0:0:
329,192,249290,128,0,249461:0:0:0:0:
36,192,249290,128,0,249461:0:0:0:0:
475,192,249290,1,0,0:0:0:0:
109,192,249517,128,0,249688:0:0:0:0:
256,192,249517,128,0,249688:0:0:0:0:
402,192,249517,128,0,249688:0:0:0:0:
182,192,249745,128,0,249915:0:0:0:0:
329,192,249745,128,0,249915:0:0:0:0:
475,192,249745,128,0,249915:0:0:0:0:
256,192,249972,128,0,250142:0:0:0:0:
109,192,249972,128,0,250142:0:0:0:0:
402,192,249972,128,0,250142:0:0:0:0:
475,192,250199,1,0,0:0:0:0:
329,192,250199,128,0,250426:0:0:0:0:
182,192,250199,128,0,250426:0:0:0:0:
36,192,250199,128,0,250426:0:0:0:0:
109,192,250426,128,0,250654:0:0:0:0:
256,192,250426,128,0,250654:0:0:0:0:
402,192,250426,128,0,250654:0:0:0:0:
182,192,250654,128,0,250881:0:0:0:0:
329,192,250654,128,0,250881:0:0:0:0:
475,192,250654,128,0,250881:0:0:0:0:
256,192,250881,128,0,251108:0:0:0:0:
402,192,250881,128,0,251108:0:0:0:0:
109,192,250881,128,0,251108:0:0:0:0:
36,192,251108,128,0,251222:0:0:0:0:
182,192,251108,128,0,251222:0:0:0:0:
329,192,251108,128,0,251222:0:0:0:0:
256,192,251336,128,0,251449:0:0:0:0:
109,192,251336,128,0,251449:0:0:0:0:
402,192,251336,128,0,251449:0:0:0:0:
109,192,251563,128,0,251676:0:0:0:0:
256,192,251563,128,0,251676:0:0:0:0:
402,192,251563,128,0,251676:0:0:0:0:
36,192,251790,128,0,251904:0:0:0:0:
182,192,251790,128,0,251904:0:0:0:0:
329,192,251790,128,0,251904:0:0:0:0:
475,192,252017,1,0,0:0:0:0:
109,192,252017,128,0,252131:0:0:0:0:
256,192,252017,128,0,252131:0:0:0:0:
402,192,252017,128,0,252131:0:0:0:0:
109,192,252245,128,0,252358:0:0:0:0:
256,192,252245,128,0,252358:0:0:0:0:
402,192,252245,128,0,252358:0:0:0:0:
182,192,252472,128,0,252586:0:0:0:0:
329,192,252472,128,0,252586:0:0:0:0:
475,192,252472,128,0,252586:0:0:0:0:
402,192,252699,128,0,252813:0:0:0:0:
256,192,252699,128,0,252813:0:0:0:0:
109,192,252699,128,0,252813:0:0:0:0:
36,192,252926,1,0,0:0:0:0:
182,192,252926,1,0,0:0:0:0:
329,192,252926,1,0,0:0:0:0:
475,192,252926,1,0,0:0:0:0:
109,192,253154,1,0,0:0:0:0:
256,192,253154,1,0,0:0:0:0:
402,192,253154,1,0,0:0:0:0:
182,192,253381,1,0,0:0:0:0:
329,192,253381,1,0,0:0:0:0:
36,192,253608,1,0,0:0:0:0:
109,192,253608,1,0,0:0:0:0:
475,192,253608,1,0,0:0:0:0:
402,192,253608,1,0,0:0:0:0:
182,192,253836,1,0,0:0:0:0:
329,192,253836,1,0,0:0:0:0:
182,192,254063,1,0,0:0:0:0:
329,192,254063,1,0,0:0:0:0:
36,192,254290,1,0,0:0:0:0:
182,192,254290,1,0,0:0:0:0:
329,192,254290,1,0,0:0:0:0:
475,192,254290,1,0,0:0:0:0:
256,192,254290,128,0,258443:0:0:0:0:
109,192,258443,1,0,0:0:0:0:
36,192,258443,1,0,0:0:0:0:
475,192,258443,1,0,0:0:0:0:
402,192,258673,1,0,0:0:0:0:
329,192,258904,1,0,0:0:0:0:
402,192,259135,1,0,0:0:0:0:
475,192,259366,1,0,0:0:0:0:
109,192,259366,1,0,0:0:0:0:
36,192,259366,1,0,0:0:0:0:
329,192,259596,1,0,0:0:0:0:
256,192,259827,1,0,0:0:0:0:
329,192,260058,1,0,0:0:0:0:
475,192,260289,1,0,0:0:0:0:
109,192,260289,1,0,0:0:0:0:
36,192,260289,1,0,0:0:0:0:
402,192,260519,1,0,0:0:0:0:
329,192,260750,1,0,0:0:0:0:
402,192,260981,1,0,0:0:0:0:
475,192,261212,1,0,0:0:0:0:
36,192,261212,1,0,0:0:0:0:
109,192,261212,128,0,261443:0:0:0:0:
182,192,261443,128,0,261673:0:0:0:0:
402,192,261443,1,0,0:0:0:0:
256,192,261673,128,0,261904:0:0:0:0:
475,192,261673,1,0,0:0:0:0:
329,192,261904,1,0,0:0:0:0:
109,192,261904,1,0,0:0:0:0:
329,192,262135,128,0,262366:0:0:0:0:
36,192,262135,1,0,0:0:0:0:
402,192,262366,128,0,264904:0:0:0:0:
109,192,262366,1,0,0:0:0:0:
182,192,262596,1,0,0:0:0:0:
109,192,262827,1,0,0:0:0:0:
36,192,263058,1,0,0:0:0:0:
182,192,263289,1,0,0:0:0:0:
256,192,263519,1,0,0:0:0:0:
182,192,263750,1,0,0:0:0:0:
36,192,263981,1,0,0:0:0:0:
109,192,264212,1,0,0:0:0:0:
182,192,264443,1,0,0:0:0:0:
109,192,264673,1,0,0:0:0:0:
256,192,264904,128,0,265135:0:0:0:0:
36,192,264904,1,0,0:0:0:0:
109,192,265135,128,0,265366:0:0:0:0:
475,192,265135,1,0,0:0:0:0:
329,192,265366,128,0,265596:0:0:0:0:
182,192,265366,1,0,0:0:0:0:
182,192,265596,128,0,265827:0:0:0:0:
402,192,265596,1,0,0:0:0:0:
329,192,265827,128,0,268596:0:0:0:0:
36,192,265827,1,0,0:0:0:0:
256,192,266058,1,0,0:0:0:0:
475,192,266289,1,0,0:0:0:0:
256,192,266519,1,0,0:0:0:0:
36,192,266750,1,0,0:0:0:0:
256,192,266981,1,0,0:0:0:0:
475,192,267212,1,0,0:0:0:0:
256,192,267443,1,0,0:0:0:0:
36,192,267673,1,0,0:0:0:0:
256,192,267904,1,0,0:0:0:0:
475,192,268135,1,0,0:0:0:0:
256,192,268366,1,0,0:0:0:0:
109,192,268596,128,0,268827:0:0:0:0:
36,192,268596,1,0,0:0:0:0:
256,192,268827,128,0,269058:0:0:0:0:
402,192,268827,1,0,0:0:0:0:
402,192,269058,128,0,269289:0:0:0:0:
109,192,269058,1,0,0:0:0:0:
182,192,269289,128,0,269519:0:0:0:0:
256,192,269289,1,0,0:0:0:0:
329,192,269519,128,0,269750:0:0:0:0:
402,192,269519,1,0,0:0:0:0:
182,192,269750,128,0,272289:0:0:0:0:
256,192,269750,1,0,0:0:0:0:
109,192,269981,1,0,0:0:0:0:
256,192,270212,1,0,0:0:0:0:
402,192,270443,1,0,0:0:0:0:
256,192,270673,1,0,0:0:0:0:
109,192,270904,1,0,0:0:0:0:
256,192,271135,1,0,0:0:0:0:
402,192,271366,1,0,0:0:0:0:
256,192,271596,1,0,0:0:0:0:
109,192,271827,1,0,0:0:0:0:
256,192,272058,1,0,0:0:0:0:
402,192,272289,128,0,272519:0:0:0:0:
36,192,272289,1,0,0:0:0:0:
256,192,272519,128,0,272750:0:0:0:0:
182,192,272519,1,0,0:0:0:0:
109,192,272750,128,0,272981:0:0:0:0:
329,192,272750,1,0,0:0:0:0:
329,192,272981,128,0,273212:0:0:0:0:
475,192,272981,1,0,0:0:0:0:
182,192,273212,128,0,275981:0:0:0:0:
36,192,273212,1,0,0:0:0:0:
475,192,273443,1,0,0:0:0:0:
402,192,273673,1,0,0:0:0:0:
329,192,273904,1,0,0:0:0:0:
36,192,274135,1,0,0:0:0:0:
329,192,274366,1,0,0:0:0:0:
402,192,274596,1,0,0:0:0:0:
475,192,274827,1,0,0:0:0:0:
36,192,275058,1,0,0:0:0:0:
329,192,275289,1,0,0:0:0:0:
256,192,275519,1,0,0:0:0:0:
109,192,275750,1,0,0:0:0:0:
402,192,275981,128,0,276212:0:0:0:0:
256,192,275981,1,0,0:0:0:0:
256,192,276212,128,0,276443:0:0:0:0:
109,192,276212,1,0,0:0:0:0:
109,192,276443,128,0,276673:0:0:0:0:
329,192,276443,1,0,0:0:0:0:
329,192,276673,128,0,276904:0:0:0:0:
182,192,276673,1,0,0:0:0:0:
182,192,276904,128,0,277135:0:0:0:0:
36,192,276904,1,0,0:0:0:0:
329,192,277135,128,0,279673:0:0:0:0:
109,192,277135,1,0,0:0:0:0:
256,192,277366,1,0,0:0:0:0:
109,192,277596,1,0,0:0:0:0:
36,192,277827,1,0,0:0:0:0:
182,192,278058,1,0,0:0:0:0:
256,192,278289,1,0,0:0:0:0:
182,192,278519,1,0,0:0:0:0:
36,192,278750,1,0,0:0:0:0:
256,192,278981,1,0,0:0:0:0:
402,192,279212,1,0,0:0:0:0:
256,192,279443,1,0,0:0:0:0:
109,192,279673,128,0,279904:0:0:0:0:
36,192,279673,1,0,0:0:0:0:
256,192,279904,128,0,280135:0:0:0:0:
402,192,279904,1,0,0:0:0:0:
402,192,280135,128,0,280366:0:0:0:0:
109,192,280135,1,0,0:0:0:0:
109,192,280366,128,0,280596:0:0:0:0:
256,192,280366,1,0,0:0:0:0:
256,192,280596,128,0,283366:0:0:0:0:
402,192,280596,1,0,0:0:0:0:
329,192,280827,1,0,0:0:0:0:
182,192,281058,1,0,0:0:0:0:
329,192,281289,1,0,0:0:0:0:
402,192,281519,1,0,0:0:0:0:
329,192,281750,1,0,0:0:0:0:
182,192,281981,1,0,0:0:0:0:
329,192,282212,1,0,0:0:0:0:
109,192,282443,1,0,0:0:0:0:
182,192,282673,1,0,0:0:0:0:
329,192,282904,1,0,0:0:0:0:
182,192,283135,1,0,0:0:0:0:
109,192,283366,1,0,0:0:0:0:
