osu file format v14

[General]
AudioFilename: Judgement Day.mp3
AudioLeadIn: 0
PreviewTime: 93825
Countdown: 0
SampleSet: Soft
StackLeniency: 0.7
Mode: 3
LetterboxInBreaks: 0
SpecialStyle: 0
WidescreenStoryboard: 0

[Editor]
DistanceSpacing: 1
BeatDivisor: 4
GridSize: 8
TimelineZoom: 3.299999

[Metadata]
Title:Reaching Into Infinity Album Pack
TitleUnicode:Reaching Into Infinity Album Pack
Artist:DragonForce
ArtistUnicode:DragonForce
Creator:KenZ
Version:Judgement Day
Source:
Tags:Reaching Into Infinity album rock
BeatmapID:0
BeatmapSetID:-1

[Difficulty]
HPDrainRate:7
CircleSize:7
OverallDifficulty:2
ApproachRate:5
SliderMultiplier:1.4
SliderTickRate:1

[Events]
//Background and Video events
0,0,"infinity.jpg",0,0
//Break Periods
2,39285,45940
2,284936,291536
//Storyboard Layer 0 (Background)
//Storyboard Layer 1 (Fail)
//Storyboard Layer 2 (Pass)
//Storyboard Layer 3 (Foreground)
//Storyboard Sound Samples

[TimingPoints]
685,600,4,2,1,10,1,0
685,-50,4,2,1,10,0,0
47140,300,4,2,1,10,1,0
177940,-200,4,2,1,10,0,0
182740,-100,4,2,1,10,0,0
284736,500,4,2,1,10,1,0
284736,-66.6666666666667,4,2,1,10,0,0

[HitObjects]
182,192,10285,5,0,0:0:0:0:
329,192,10585,1,0,0:0:0:0:
182,192,11185,1,0,0:0:0:0:
329,192,11485,1,0,0:0:0:0:
109,192,12685,1,0,0:0:0:0:
402,192,12985,1,0,0:0:0:0:
109,192,13585,1,0,0:0:0:0:
402,192,13885,1,0,0:0:0:0:
36,192,15085,1,0,0:0:0:0:
475,192,15385,1,0,0:0:0:0:
36,192,15985,1,0,0:0:0:0:
475,192,16285,1,0,0:0:0:0:
182,192,17485,1,0,0:0:0:0:
329,192,17785,1,0,0:0:0:0:
182,192,18385,1,0,0:0:0:0:
329,192,18685,128,0,18985:0:0:0:0:
182,192,19285,128,0,19585:0:0:0:0:
256,192,19885,128,0,22285:0:0:0:0:
475,192,19885,1,0,0:0:0:0:
329,192,20185,1,0,0:0:0:0:
182,192,20485,128,0,20785:0:0:0:0:
475,192,20785,1,0,0:0:0:0:
36,192,20785,128,0,21085:0:0:0:0:
329,192,21085,1,0,0:0:0:0:
182,192,21085,128,0,21385:0:0:0:0:
109,192,21685,128,0,21985:0:0:0:0:
182,192,21985,128,0,22285:0:0:0:0:
402,192,22285,128,0,24685:0:0:0:0:
36,192,22285,1,0,0:0:0:0:
182,192,22585,1,0,0:0:0:0:
329,192,22885,128,0,23185:0:0:0:0:
36,192,23185,1,0,0:0:0:0:
475,192,23185,128,0,23485:0:0:0:0:
182,192,23485,1,0,0:0:0:0:
329,192,23485,128,0,24085:0:0:0:0:
256,192,24085,128,0,24235:0:0:0:0:
256,192,24385,128,0,24535:0:0:0:0:
109,192,24685,128,0,27085:0:0:0:0:
182,192,24685,1,0,0:0:0:0:
256,192,24985,1,0,0:0:0:0:
182,192,25585,1,0,0:0:0:0:
256,192,25885,1,0,0:0:0:0:
402,192,27085,128,0,29485:0:0:0:0:
36,192,27085,1,0,0:0:0:0:
182,192,27385,1,0,0:0:0:0:
256,192,27985,1,0,0:0:0:0:
36,192,28285,1,0,0:0:0:0:
256,192,28885,1,0,0:0:0:0:
109,192,29485,128,0,31885:0:0:0:0:
475,192,29485,1,0,0:0:0:0:
329,192,29785,1,0,0:0:0:0:
182,192,30085,128,0,30385:0:0:0:0:
475,192,30385,1,0,0:0:0:0:
36,192,30385,128,0,30685:0:0:0:0:
329,192,30685,1,0,0:0:0:0:
182,192,30685,128,0,31285:0:0:0:0:
256,192,31285,128,0,31585:0:0:0:0:
329,192,31585,128,0,32485:0:0:0:0:
475,192,31885,128,0,34285:0:0:0:0:
36,192,31885,1,0,0:0:0:0:
182,192,32185,1,0,0:0:0:0:
109,192,32485,128,0,32785:0:0:0:0:
402,192,32785,1,0,0:0:0:0:
256,192,32785,128,0,33085:0:0:0:0:
109,192,33085,128,0,33685:0:0:0:0:
329,192,33085,1,0,0:0:0:0:
182,192,33685,128,0,33835:0:0:0:0:
256,192,33985,128,0,34135:0:0:0:0:
36,192,34285,128,0,36685:0:0:0:0:
329,192,34285,128,0,36685:0:0:0:0:
109,192,34285,1,0,0:0:0:0:
256,192,34585,1,0,0:0:0:0:
109,192,35185,1,0,0:0:0:0:
256,192,35485,1,0,0:0:0:0:
256,192,36685,128,0,39085:0:0:0:0:
475,192,36685,1,0,0:0:0:0:
329,192,36985,1,0,0:0:0:0:
329,192,37585,1,0,0:0:0:0:
36,192,37885,1,0,0:0:0:0:
182,192,38485,1,0,0:0:0:0:
109,192,39085,1,0,0:0:0:0:
36,192,39085,1,0,0:0:0:0:
475,192,39085,1,0,0:0:0:0:
402,192,39085,1,0,0:0:0:0:
109,192,47140,5,0,0:0:0:0:
329,192,47140,1,0,0:0:0:0:
475,192,47140,1,0,0:0:0:0:
36,192,47140,1,0,0:0:0:0:
402,192,47215,1,0,0:0:0:0:
182,192,47215,1,0,0:0:0:0:
109,192,47290,1,0,0:0:0:0:
329,192,47290,1,0,0:0:0:0:
475,192,47365,1,0,0:0:0:0:
256,192,47365,1,0,0:0:0:0:
402,192,47440,1,0,0:0:0:0:
36,192,47440,1,0,0:0:0:0:
182,192,47440,1,0,0:0:0:0:
109,192,47515,1,0,0:0:0:0:
256,192,47515,1,0,0:0:0:0:
182,192,47590,1,0,0:0:0:0:
329,192,47590,1,0,0:0:0:0:
402,192,47665,1,0,0:0:0:0:
36,192,47665,1,0,0:0:0:0:
475,192,47740,1,0,0:0:0:0:
109,192,47740,1,0,0:0:0:0:
256,192,47740,1,0,0:0:0:0:
402,192,47815,1,0,0:0:0:0:
182,192,47815,1,0,0:0:0:0:
256,192,47890,1,0,0:0:0:0:
36,192,47890,1,0,0:0:0:0:
329,192,47965,1,0,0:0:0:0:
109,192,47965,1,0,0:0:0:0:
36,192,48040,1,0,0:0:0:0:
402,192,48040,1,0,0:0:0:0:
182,192,48040,1,0,0:0:0:0:
256,192,48115,1,0,0:0:0:0:
475,192,48115,1,0,0:0:0:0:
109,192,48190,1,0,0:0:0:0:
402,192,48190,1,0,0:0:0:0:
182,192,48265,1,0,0:0:0:0:
329,192,48265,1,0,0:0:0:0:
36,192,48340,1,0,0:0:0:0:
475,192,48340,1,0,0:0:0:0:
256,192,48340,1,0,0:0:0:0:
182,192,48415,1,0,0:0:0:0:
329,192,48415,1,0,0:0:0:0:
109,192,48490,1,0,0:0:0:0:
402,192,48490,1,0,0:0:0:0:
329,192,48565,1,0,0:0:0:0:
36,192,48565,1,0,0:0:0:0:
256,192,48640,1,0,0:0:0:0:
475,192,48640,1,0,0:0:0:0:
109,192,48640,1,0,0:0:0:0:
182,192,48715,1,0,0:0:0:0:
402,192,48715,1,0,0:0:0:0:
329,192,48790,1,0,0:0:0:0:
109,192,48790,1,0,0:0:0:0:
256,192,48865,1,0,0:0:0:0:
36,192,48865,1,0,0:0:0:0:
182,192,48940,1,0,0:0:0:0:
475,192,48940,1,0,0:0:0:0:
329,192,48940,1,0,0:0:0:0:
109,192,49015,1,0,0:0:0:0:
402,192,49015,1,0,0:0:0:0:
36,192,49090,1,0,0:0:0:0:
329,192,49090,1,0,0:0:0:0:
475,192,49165,1,0,0:0:0:0:
256,192,49165,1,0,0:0:0:0:
36,192,49240,1,0,0:0:0:0:
402,192,49240,1,0,0:0:0:0:
182,192,49240,1,0,0:0:0:0:
109,192,49315,1,0,0:0:0:0:
256,192,49315,1,0,0:0:0:0:
329,192,49390,1,0,0:0:0:0:
182,192,49390,1,0,0:0:0:0:
256,192,49465,1,0,0:0:0:0:
402,192,49465,1,0,0:0:0:0:
475,192,49540,1,0,0:0:0:0:
329,192,49540,1,0,0:0:0:0:
36,192,49540,1,0,0:0:0:0:
109,192,49615,1,0,0:0:0:0:
256,192,49615,1,0,0:0:0:0:
329,192,49690,1,0,0:0:0:0:
182,192,49690,1,0,0:0:0:0:
109,192,49765,1,0,0:0:0:0:
402,192,49765,1,0,0:0:0:0:
256,192,49840,1,0,0:0:0:0:
475,192,49840,1,0,0:0:0:0:
36,192,49840,1,0,0:0:0:0:
109,192,49915,1,0,0:0:0:0:
402,192,49915,1,0,0:0:0:0:
182,192,49990,1,0,0:0:0:0:
329,192,49990,1,0,0:0:0:0:
402,192,50065,1,0,0:0:0:0:
109,192,50065,1,0,0:0:0:0:
475,192,50140,1,0,0:0:0:0:
36,192,50140,1,0,0:0:0:0:
256,192,50140,1,0,0:0:0:0:
402,192,50215,1,0,0:0:0:0:
109,192,50215,1,0,0:0:0:0:
329,192,50290,1,0,0:0:0:0:
182,192,50290,1,0,0:0:0:0:
256,192,50365,1,0,0:0:0:0:
402,192,50365,1,0,0:0:0:0:
182,192,50440,1,0,0:0:0:0:
36,192,50440,1,0,0:0:0:0:
475,192,50440,1,0,0:0:0:0:
109,192,50515,1,0,0:0:0:0:
329,192,50515,1,0,0:0:0:0:
475,192,50590,1,0,0:0:0:0:
182,192,50590,1,0,0:0:0:0:
109,192,50665,1,0,0:0:0:0:
256,192,50665,1,0,0:0:0:0:
36,192,50740,1,0,0:0:0:0:
329,192,50740,1,0,0:0:0:0:
182,192,50740,1,0,0:0:0:0:
256,192,50815,1,0,0:0:0:0:
402,192,50815,1,0,0:0:0:0:
475,192,50890,1,0,0:0:0:0:
109,192,50890,1,0,0:0:0:0:
182,192,50965,1,0,0:0:0:0:
329,192,50965,1,0,0:0:0:0:
36,192,51040,1,0,0:0:0:0:
256,192,51040,1,0,0:0:0:0:
402,192,51040,1,0,0:0:0:0:
475,192,51115,1,0,0:0:0:0:
182,192,51115,1,0,0:0:0:0:
109,192,51190,1,0,0:0:0:0:
329,192,51190,1,0,0:0:0:0:
36,192,51265,1,0,0:0:0:0:
256,192,51265,1,0,0:0:0:0:
109,192,51340,1,0,0:0:0:0:
475,192,51340,1,0,0:0:0:0:
329,192,51340,1,0,0:0:0:0:
182,192,51415,1,0,0:0:0:0:
402,192,51415,1,0,0:0:0:0:
109,192,51490,1,0,0:0:0:0:
329,192,51490,1,0,0:0:0:0:
182,192,51565,1,0,0:0:0:0:
402,192,51565,1,0,0:0:0:0:
36,192,51640,1,0,0:0:0:0:
475,192,51640,1,0,0:0:0:0:
256,192,51640,1,0,0:0:0:0:
109,192,51715,1,0,0:0:0:0:
402,192,51715,1,0,0:0:0:0:
256,192,51790,1,0,0:0:0:0:
475,192,51790,1,0,0:0:0:0:
182,192,51865,1,0,0:0:0:0:
402,192,51865,1,0,0:0:0:0:
36,192,51940,1,0,0:0:0:0:
109,192,51940,1,0,0:0:0:0:
475,192,51940,1,0,0:0:0:0:
256,192,52015,1,0,0:0:0:0:
329,192,52015,1,0,0:0:0:0:
36,192,52090,1,0,0:0:0:0:
475,192,52090,1,0,0:0:0:0:
182,192,52165,1,0,0:0:0:0:
256,192,52165,1,0,0:0:0:0:
329,192,52240,1,0,0:0:0:0:
475,192,52240,1,0,0:0:0:0:
109,192,52240,1,0,0:0:0:0:
256,192,52315,1,0,0:0:0:0:
182,192,52315,1,0,0:0:0:0:
402,192,52390,1,0,0:0:0:0:
109,192,52390,1,0,0:0:0:0:
329,192,52465,1,0,0:0:0:0:
256,192,52465,1,0,0:0:0:0:
475,192,52540,1,0,0:0:0:0:
36,192,52540,1,0,0:0:0:0:
182,192,52540,1,0,0:0:0:0:
402,192,52615,1,0,0:0:0:0:
109,192,52615,1,0,0:0:0:0:
329,192,52690,1,0,0:0:0:0:
182,192,52690,1,0,0:0:0:0:
402,192,52765,1,0,0:0:0:0:
109,192,52765,1,0,0:0:0:0:
475,192,52840,1,0,0:0:0:0:
36,192,52840,1,0,0:0:0:0:
256,192,52840,1,0,0:0:0:0:
109,192,52915,1,0,0:0:0:0:
402,192,52915,1,0,0:0:0:0:
329,192,52990,1,0,0:0:0:0:
182,192,52990,1,0,0:0:0:0:
109,192,53065,1,0,0:0:0:0:
402,192,53065,1,0,0:0:0:0:
329,192,53140,1,0,0:0:0:0:
475,192,53140,1,0,0:0:0:0:
36,192,53140,1,0,0:0:0:0:
256,192,53215,1,0,0:0:0:0:
182,192,53215,1,0,0:0:0:0:
475,192,53290,1,0,0:0:0:0:
36,192,53290,1,0,0:0:0:0:
402,192,53365,1,0,0:0:0:0:
256,192,53365,1,0,0:0:0:0:
182,192,53440,1,0,0:0:0:0:
36,192,53440,1,0,0:0:0:0:
329,192,53440,1,0,0:0:0:0:
256,192,53515,1,0,0:0:0:0:
475,192,53515,1,0,0:0:0:0:
109,192,53590,1,0,0:0:0:0:
402,192,53590,1,0,0:0:0:0:
182,192,53665,1,0,0:0:0:0:
256,192,53665,1,0,0:0:0:0:
36,192,53740,1,0,0:0:0:0:
475,192,53740,1,0,0:0:0:0:
329,192,53740,1,0,0:0:0:0:
109,192,53815,1,0,0:0:0:0:
402,192,53815,1,0,0:0:0:0:
182,192,53890,1,0,0:0:0:0:
329,192,53890,1,0,0:0:0:0:
109,192,53965,1,0,0:0:0:0:
402,192,53965,1,0,0:0:0:0:
36,192,54040,1,0,0:0:0:0:
475,192,54040,1,0,0:0:0:0:
256,192,54040,1,0,0:0:0:0:
402,192,54115,1,0,0:0:0:0:
109,192,54115,1,0,0:0:0:0:
182,192,54190,1,0,0:0:0:0:
329,192,54190,1,0,0:0:0:0:
402,192,54265,1,0,0:0:0:0:
109,192,54265,1,0,0:0:0:0:
475,192,54340,1,0,0:0:0:0:
256,192,54340,1,0,0:0:0:0:
36,192,54340,1,0,0:0:0:0:
402,192,54415,1,0,0:0:0:0:
109,192,54415,1,0,0:0:0:0:
329,192,54490,1,0,0:0:0:0:
182,192,54490,1,0,0:0:0:0:
402,192,54565,1,0,0:0:0:0:
256,192,54565,1,0,0:0:0:0:
36,192,54640,1,0,0:0:0:0:
475,192,54640,1,0,0:0:0:0:
182,192,54640,1,0,0:0:0:0:
109,192,54715,1,0,0:0:0:0:
402,192,54715,1,0,0:0:0:0:
182,192,54790,1,0,0:0:0:0:
329,192,54790,1,0,0:0:0:0:
109,192,54865,1,0,0:0:0:0:
256,192,54865,1,0,0:0:0:0:
475,192,54940,1,0,0:0:0:0:
36,192,54940,1,0,0:0:0:0:
329,192,54940,1,0,0:0:0:0:
402,192,55015,1,0,0:0:0:0:
109,192,55015,1,0,0:0:0:0:
329,192,55090,1,0,0:0:0:0:
182,192,55090,1,0,0:0:0:0:
256,192,55165,1,0,0:0:0:0:
475,192,55165,1,0,0:0:0:0:
36,192,55240,1,0,0:0:0:0:
402,192,55240,1,0,0:0:0:0:
109,192,55240,1,0,0:0:0:0:
182,192,55315,1,0,0:0:0:0:
329,192,55315,1,0,0:0:0:0:
402,192,55390,1,0,0:0:0:0:
256,192,55390,1,0,0:0:0:0:
475,192,55465,1,0,0:0:0:0:
109,192,55465,1,0,0:0:0:0:
402,192,55540,1,0,0:0:0:0:
36,192,55540,1,0,0:0:0:0:
182,192,55540,1,0,0:0:0:0:
475,192,55615,1,0,0:0:0:0:
256,192,55615,1,0,0:0:0:0:
182,192,55690,1,0,0:0:0:0:
329,192,55690,1,0,0:0:0:0:
109,192,55765,1,0,0:0:0:0:
402,192,55765,1,0,0:0:0:0:
36,192,55840,1,0,0:0:0:0:
475,192,55840,1,0,0:0:0:0:
256,192,55840,1,0,0:0:0:0:
402,192,55915,1,0,0:0:0:0:
109,192,55915,1,0,0:0:0:0:
329,192,55990,1,0,0:0:0:0:
182,192,55990,1,0,0:0:0:0:
402,192,56065,1,0,0:0:0:0:
256,192,56065,1,0,0:0:0:0:
182,192,56140,1,0,0:0:0:0:
475,192,56140,1,0,0:0:0:0:
36,192,56140,1,0,0:0:0:0:
109,192,56215,1,0,0:0:0:0:
402,192,56215,1,0,0:0:0:0:
182,192,56290,1,0,0:0:0:0:
329,192,56290,1,0,0:0:0:0:
256,192,56365,1,0,0:0:0:0:
36,192,56365,1,0,0:0:0:0:
475,192,56440,1,0,0:0:0:0:
109,192,56440,1,0,0:0:0:0:
329,192,56440,1,0,0:0:0:0:
402,192,56515,1,0,0:0:0:0:
182,192,56515,1,0,0:0:0:0:
475,192,56590,1,0,0:0:0:0:
256,192,56590,1,0,0:0:0:0:
36,192,56665,1,0,0:0:0:0:
329,192,56665,1,0,0:0:0:0:
109,192,56740,1,0,0:0:0:0:
182,192,56740,1,0,0:0:0:0:
402,192,56740,1,0,0:0:0:0:
475,192,56740,128,0,56815:0:0:0:0:
256,192,56815,1,0,0:0:0:0:
475,192,56890,128,0,56965:0:0:0:0:
36,192,56890,1,0,0:0:0:0:
329,192,56890,1,0,0:0:0:0:
109,192,56965,1,0,0:0:0:0:
475,192,57040,128,0,57115:0:0:0:0:
182,192,57040,1,0,0:0:0:0:
256,192,57040,1,0,0:0:0:0:
109,192,57115,1,0,0:0:0:0:
475,192,57190,128,0,57265:0:0:0:0:
36,192,57190,1,0,0:0:0:0:
329,192,57190,1,0,0:0:0:0:
256,192,57265,1,0,0:0:0:0:
475,192,57340,128,0,57415:0:0:0:0:
182,192,57340,1,0,0:0:0:0:
402,192,57340,1,0,0:0:0:0:
256,192,57415,1,0,0:0:0:0:
475,192,57490,128,0,57565:0:0:0:0:
329,192,57490,1,0,0:0:0:0:
36,192,57490,1,0,0:0:0:0:
182,192,57565,1,0,0:0:0:0:
475,192,57640,128,0,57715:0:0:0:0:
256,192,57640,1,0,0:0:0:0:
109,192,57640,1,0,0:0:0:0:
329,192,57715,1,0,0:0:0:0:
475,192,57790,128,0,57865:0:0:0:0:
402,192,57790,1,0,0:0:0:0:
182,192,57790,1,0,0:0:0:0:
109,192,57865,1,0,0:0:0:0:
36,192,57940,1,0,0:0:0:0:
475,192,57940,128,0,58015:0:0:0:0:
256,192,57940,1,0,0:0:0:0:
402,192,58015,128,0,58090:0:0:0:0:
182,192,58015,1,0,0:0:0:0:
329,192,58090,128,0,58165:0:0:0:0:
109,192,58090,1,0,0:0:0:0:
256,192,58165,128,0,58240:0:0:0:0:
475,192,58165,1,0,0:0:0:0:
36,192,58240,128,0,58315:0:0:0:0:
402,192,58240,1,0,0:0:0:0:
182,192,58240,1,0,0:0:0:0:
109,192,58315,128,0,58390:0:0:0:0:
329,192,58315,1,0,0:0:0:0:
182,192,58390,128,0,58465:0:0:0:0:
402,192,58390,1,0,0:0:0:0:
256,192,58465,128,0,58540:0:0:0:0:
475,192,58465,1,0,0:0:0:0:
402,192,58540,128,0,58590:0:0:0:0:
36,192,58540,1,0,0:0:0:0:
182,192,58540,1,0,0:0:0:0:
329,192,58590,128,0,58640:0:0:0:0:
109,192,58615,1,0,0:0:0:0:
256,192,58640,128,0,58690:0:0:0:0:
182,192,58690,128,0,58740:0:0:0:0:
475,192,58690,1,0,0:0:0:0:
109,192,58740,128,0,58790:0:0:0:0:
402,192,58765,1,0,0:0:0:0:
182,192,58790,128,0,58840:0:0:0:0:
256,192,58840,128,0,58890:0:0:0:0:
36,192,58840,1,0,0:0:0:0:
475,192,58840,1,0,0:0:0:0:
329,192,58890,128,0,58940:0:0:0:0:
109,192,58915,1,0,0:0:0:0:
402,192,58940,128,0,58990:0:0:0:0:
329,192,58990,128,0,59040:0:0:0:0:
182,192,58990,1,0,0:0:0:0:
256,192,59040,128,0,59090:0:0:0:0:
109,192,59065,1,0,0:0:0:0:
182,192,59090,128,0,59140:0:0:0:0:
402,192,59140,1,0,0:0:0:0:
36,192,59140,1,0,0:0:0:0:
329,192,59140,1,0,0:0:0:0:
256,192,59215,1,0,0:0:0:0:
36,192,59290,1,0,0:0:0:0:
182,192,59290,1,0,0:0:0:0:
475,192,59290,1,0,0:0:0:0:
329,192,59365,1,0,0:0:0:0:
402,192,59440,1,0,0:0:0:0:
109,192,59440,1,0,0:0:0:0:
182,192,59515,1,0,0:0:0:0:
329,192,59590,1,0,0:0:0:0:
36,192,59590,1,0,0:0:0:0:
475,192,59590,1,0,0:0:0:0:
256,192,59665,1,0,0:0:0:0:
182,192,59740,1,0,0:0:0:0:
402,192,59740,1,0,0:0:0:0:
329,192,59815,1,0,0:0:0:0:
256,192,59890,1,0,0:0:0:0:
109,192,59890,1,0,0:0:0:0:
475,192,59890,1,0,0:0:0:0:
329,192,59965,1,0,0:0:0:0:
402,192,60040,1,0,0:0:0:0:
182,192,60040,1,0,0:0:0:0:
109,192,60115,1,0,0:0:0:0:
36,192,60190,1,0,0:0:0:0:
329,192,60190,1,0,0:0:0:0:
475,192,60190,1,0,0:0:0:0:
256,192,60265,1,0,0:0:0:0:
182,192,60340,1,0,0:0:0:0:
402,192,60340,1,0,0:0:0:0:
329,192,60415,1,0,0:0:0:0:
256,192,60490,1,0,0:0:0:0:
475,192,60490,1,0,0:0:0:0:
109,192,60490,1,0,0:0:0:0:
402,192,60565,1,0,0:0:0:0:
182,192,60640,1,0,0:0:0:0:
36,192,60640,1,0,0:0:0:0:
256,192,60715,1,0,0:0:0:0:
475,192,60790,1,0,0:0:0:0:
329,192,60790,1,0,0:0:0:0:
109,192,60790,1,0,0:0:0:0:
182,192,60865,1,0,0:0:0:0:
256,192,60940,1,0,0:0:0:0:
475,192,60940,1,0,0:0:0:0:
36,192,61015,1,0,0:0:0:0:
109,192,61090,1,0,0:0:0:0:
475,192,61090,1,0,0:0:0:0:
329,192,61090,1,0,0:0:0:0:
256,192,61165,1,0,0:0:0:0:
182,192,61240,1,0,0:0:0:0:
36,192,61240,1,0,0:0:0:0:
256,192,61315,1,0,0:0:0:0:
329,192,61390,1,0,0:0:0:0:
475,192,61390,1,0,0:0:0:0:
109,192,61390,1,0,0:0:0:0:
182,192,61465,1,0,0:0:0:0:
36,192,61540,1,0,0:0:0:0:
402,192,61540,1,0,0:0:0:0:
475,192,61540,128,0,61690:0:0:0:0:
256,192,61540,1,0,0:0:0:0:
109,192,61690,128,0,61840:0:0:0:0:
182,192,61690,1,0,0:0:0:0:
402,192,61690,1,0,0:0:0:0:
329,192,61690,1,0,0:0:0:0:
256,192,61840,1,0,0:0:0:0:
402,192,61840,128,0,61990:0:0:0:0:
36,192,61840,1,0,0:0:0:0:
475,192,61840,1,0,0:0:0:0:
329,192,61990,128,0,62140:0:0:0:0:
109,192,61990,1,0,0:0:0:0:
256,192,61990,1,0,0:0:0:0:
36,192,61990,1,0,0:0:0:0:
182,192,62140,128,0,62290:0:0:0:0:
109,192,62140,1,0,0:0:0:0:
475,192,62140,1,0,0:0:0:0:
402,192,62140,1,0,0:0:0:0:
256,192,62290,128,0,62440:0:0:0:0:
36,192,62290,1,0,0:0:0:0:
402,192,62290,1,0,0:0:0:0:
329,192,62290,1,0,0:0:0:0:
109,192,62440,128,0,62590:0:0:0:0:
182,192,62440,1,0,0:0:0:0:
475,192,62440,1,0,0:0:0:0:
402,192,62440,1,0,0:0:0:0:
402,192,62590,128,0,62740:0:0:0:0:
36,192,62590,1,0,0:0:0:0:
256,192,62590,1,0,0:0:0:0:
329,192,62590,1,0,0:0:0:0:
109,192,62740,1,0,0:0:0:0:
475,192,62740,1,0,0:0:0:0:
329,192,62740,1,0,0:0:0:0:
182,192,62740,1,0,0:0:0:0:
329,192,62890,128,0,63040:0:0:0:0:
36,192,62890,1,0,0:0:0:0:
402,192,62890,1,0,0:0:0:0:
256,192,62890,128,0,63040:0:0:0:0:
109,192,63040,128,0,63190:0:0:0:0:
475,192,63040,1,0,0:0:0:0:
402,192,63040,1,0,0:0:0:0:
182,192,63040,128,0,63190:0:0:0:0:
475,192,63190,128,0,63340:0:0:0:0:
256,192,63190,1,0,0:0:0:0:
36,192,63190,1,0,0:0:0:0:
329,192,63190,128,0,63340:0:0:0:0:
182,192,63340,128,0,63490:0:0:0:0:
402,192,63340,1,0,0:0:0:0:
256,192,63340,1,0,0:0:0:0:
109,192,63340,128,0,63490:0:0:0:0:
402,192,63490,128,0,63640:0:0:0:0:
36,192,63490,1,0,0:0:0:0:
329,192,63490,1,0,0:0:0:0:
475,192,63490,128,0,63640:0:0:0:0:
36,192,63640,128,0,63790:0:0:0:0:
256,192,63640,1,0,0:0:0:0:
329,192,63640,1,0,0:0:0:0:
109,192,63640,128,0,63790:0:0:0:0:
256,192,63790,128,0,63940:0:0:0:0:
182,192,63790,1,0,0:0:0:0:
475,192,63790,1,0,0:0:0:0:
329,192,63790,128,0,63940:0:0:0:0:
36,192,63940,1,0,0:0:0:0:
475,192,63940,1,0,0:0:0:0:
109,192,63940,1,0,0:0:0:0:
182,192,64015,1,0,0:0:0:0:
402,192,64090,1,0,0:0:0:0:
256,192,64090,1,0,0:0:0:0:
109,192,64090,1,0,0:0:0:0:
475,192,64165,1,0,0:0:0:0:
329,192,64240,1,0,0:0:0:0:
182,192,64240,1,0,0:0:0:0:
109,192,64315,1,0,0:0:0:0:
36,192,64390,1,0,0:0:0:0:
256,192,64390,1,0,0:0:0:0:
402,192,64390,1,0,0:0:0:0:
182,192,64465,1,0,0:0:0:0:
109,192,64540,1,0,0:0:0:0:
329,192,64540,1,0,0:0:0:0:
402,192,64615,1,0,0:0:0:0:
475,192,64690,1,0,0:0:0:0:
256,192,64690,1,0,0:0:0:0:
36,192,64690,1,0,0:0:0:0:
329,192,64765,1,0,0:0:0:0:
402,192,64840,1,0,0:0:0:0:
182,192,64840,1,0,0:0:0:0:
329,192,64915,1,0,0:0:0:0:
256,192,64990,1,0,0:0:0:0:
36,192,64990,1,0,0:0:0:0:
402,192,64990,1,0,0:0:0:0:
109,192,65065,1,0,0:0:0:0:
182,192,65140,1,0,0:0:0:0:
329,192,65140,1,0,0:0:0:0:
402,192,65215,1,0,0:0:0:0:
475,192,65290,1,0,0:0:0:0:
256,192,65290,1,0,0:0:0:0:
36,192,65290,1,0,0:0:0:0:
109,192,65365,1,0,0:0:0:0:
182,192,65440,1,0,0:0:0:0:
329,192,65440,1,0,0:0:0:0:
109,192,65515,1,0,0:0:0:0:
36,192,65590,1,0,0:0:0:0:
256,192,65590,1,0,0:0:0:0:
402,192,65590,1,0,0:0:0:0:
329,192,65665,1,0,0:0:0:0:
109,192,65740,1,0,0:0:0:0:
402,192,65740,1,0,0:0:0:0:
182,192,65815,1,0,0:0:0:0:
256,192,65890,1,0,0:0:0:0:
475,192,65890,1,0,0:0:0:0:
36,192,65890,1,0,0:0:0:0:
402,192,65965,1,0,0:0:0:0:
475,192,66040,1,0,0:0:0:0:
182,192,66040,1,0,0:0:0:0:
109,192,66115,1,0,0:0:0:0:
256,192,66190,1,0,0:0:0:0:
475,192,66190,1,0,0:0:0:0:
36,192,66190,1,0,0:0:0:0:
329,192,66265,1,0,0:0:0:0:
402,192,66340,1,0,0:0:0:0:
182,192,66340,128,0,66490:0:0:0:0:
109,192,66340,1,0,0:0:0:0:
36,192,66340,1,0,0:0:0:0:
329,192,66490,128,0,66640:0:0:0:0:
256,192,66490,1,0,0:0:0:0:
36,192,66490,1,0,0:0:0:0:
475,192,66490,1,0,0:0:0:0:
109,192,66640,128,0,66790:0:0:0:0:
182,192,66640,1,0,0:0:0:0:
402,192,66640,1,0,0:0:0:0:
475,192,66640,1,0,0:0:0:0:
256,192,66790,128,0,66940:0:0:0:0:
36,192,66790,1,0,0:0:0:0:
329,192,66790,1,0,0:0:0:0:
402,192,66790,1,0,0:0:0:0:
475,192,66940,128,0,67090:0:0:0:0:
109,192,66940,1,0,0:0:0:0:
182,192,66940,1,0,0:0:0:0:
329,192,66940,1,0,0:0:0:0:
329,192,67090,128,0,67240:0:0:0:0:
36,192,67090,1,0,0:0:0:0:
182,192,67090,1,0,0:0:0:0:
256,192,67090,1,0,0:0:0:0:
36,192,67240,128,0,67390:0:0:0:0:
182,192,67240,1,0,0:0:0:0:
475,192,67240,1,0,0:0:0:0:
402,192,67240,1,0,0:0:0:0:
256,192,67390,128,0,67540:0:0:0:0:
109,192,67390,1,0,0:0:0:0:
329,192,67390,1,0,0:0:0:0:
402,192,67390,1,0,0:0:0:0:
182,192,67540,1,0,0:0:0:0:
475,192,67540,128,0,67690:0:0:0:0:
36,192,67540,1,0,0:0:0:0:
329,192,67540,1,0,0:0:0:0:
256,192,67615,1,0,0:0:0:0:
36,192,67690,1,0,0:0:0:0:
402,192,67690,128,0,67840:0:0:0:0:
109,192,67690,1,0,0:0:0:0:
329,192,67690,1,0,0:0:0:0:
182,192,67765,1,0,0:0:0:0:
256,192,67840,128,0,67990:0:0:0:0:
36,192,67840,1,0,0:0:0:0:
475,192,67840,1,0,0:0:0:0:
109,192,67840,1,0,0:0:0:0:
402,192,67915,1,0,0:0:0:0:
109,192,67990,128,0,68140:0:0:0:0:
329,192,67990,1,0,0:0:0:0:
36,192,67990,1,0,0:0:0:0:
182,192,67990,1,0,0:0:0:0:
402,192,68065,1,0,0:0:0:0:
329,192,68140,128,0,68290:0:0:0:0:
182,192,68140,1,0,0:0:0:0:
475,192,68140,1,0,0:0:0:0:
36,192,68140,1,0,0:0:0:0:
109,192,68215,1,0,0:0:0:0:
256,192,68290,128,0,68440:0:0:0:0:
475,192,68290,1,0,0:0:0:0:
402,192,68290,1,0,0:0:0:0:
182,192,68290,1,0,0:0:0:0:
109,192,68365,1,0,0:0:0:0:
402,192,68440,128,0,68590:0:0:0:0:
182,192,68440,1,0,0:0:0:0:
475,192,68440,1,0,0:0:0:0:
36,192,68440,1,0,0:0:0:0:
256,192,68590,128,0,68740:0:0:0:0:
182,192,68590,1,0,0:0:0:0:
109,192,68590,1,0,0:0:0:0:
329,192,68590,1,0,0:0:0:0:
36,192,68740,128,0,69940:0:0:0:0:
475,192,68740,128,0,69940:0:0:0:0:
402,192,68740,1,0,0:0:0:0:
329,192,68740,1,0,0:0:0:0:
109,192,68740,1,0,0:0:0:0:
182,192,68815,1,0,0:0:0:0:
109,192,68890,1,0,0:0:0:0:
256,192,68890,1,0,0:0:0:0:
329,192,68965,1,0,0:0:0:0:
182,192,69040,1,0,0:0:0:0:
402,192,69040,1,0,0:0:0:0:
329,192,69115,1,0,0:0:0:0:
402,192,69190,1,0,0:0:0:0:
256,192,69190,1,0,0:0:0:0:
182,192,69265,1,0,0:0:0:0:
329,192,69340,1,0,0:0:0:0:
109,192,69340,1,0,0:0:0:0:
182,192,69415,1,0,0:0:0:0:
402,192,69490,1,0,0:0:0:0:
256,192,69490,1,0,0:0:0:0:
329,192,69565,1,0,0:0:0:0:
182,192,69640,1,0,0:0:0:0:
402,192,69640,1,0,0:0:0:0:
329,192,69715,1,0,0:0:0:0:
109,192,69790,1,0,0:0:0:0:
256,192,69790,1,0,0:0:0:0:
182,192,69865,1,0,0:0:0:0:
256,192,69940,128,0,70240:0:0:0:0:
109,192,69940,1,0,0:0:0:0:
402,192,69940,1,0,0:0:0:0:
329,192,70015,1,0,0:0:0:0:
182,192,70090,1,0,0:0:0:0:
475,192,70090,1,0,0:0:0:0:
109,192,70165,1,0,0:0:0:0:
182,192,70240,128,0,70540:0:0:0:0:
329,192,70240,128,0,70540:0:0:0:0:
36,192,70240,1,0,0:0:0:0:
402,192,70240,1,0,0:0:0:0:
109,192,70315,1,0,0:0:0:0:
256,192,70390,1,0,0:0:0:0:
475,192,70390,1,0,0:0:0:0:
36,192,70465,1,0,0:0:0:0:
109,192,70540,128,0,70840:0:0:0:0:
402,192,70540,128,0,70840:0:0:0:0:
256,192,70540,1,0,0:0:0:0:
475,192,70540,1,0,0:0:0:0:
329,192,70615,1,0,0:0:0:0:
182,192,70690,1,0,0:0:0:0:
475,192,70690,1,0,0:0:0:0:
256,192,70765,1,0,0:0:0:0:
36,192,70840,128,0,71140:0:0:0:0:
475,192,70840,128,0,71140:0:0:0:0:
182,192,70840,1,0,0:0:0:0:
329,192,70840,1,0,0:0:0:0:
256,192,70915,1,0,0:0:0:0:
109,192,70990,1,0,0:0:0:0:
402,192,70990,1,0,0:0:0:0:
182,192,71065,1,0,0:0:0:0:
109,192,71140,128,0,72340:0:0:0:0:
402,192,71140,128,0,72340:0:0:0:0:
256,192,71140,1,0,0:0:0:0:
329,192,71140,1,0,0:0:0:0:
475,192,71215,1,0,0:0:0:0:
182,192,71290,1,0,0:0:0:0:
329,192,71290,1,0,0:0:0:0:
256,192,71365,1,0,0:0:0:0:
475,192,71440,1,0,0:0:0:0:
182,192,71440,1,0,0:0:0:0:
36,192,71515,1,0,0:0:0:0:
329,192,71590,1,0,0:0:0:0:
182,192,71590,1,0,0:0:0:0:
256,192,71665,1,0,0:0:0:0:
36,192,71740,1,0,0:0:0:0:
329,192,71740,1,0,0:0:0:0:
475,192,71815,1,0,0:0:0:0:
182,192,71890,1,0,0:0:0:0:
329,192,71890,1,0,0:0:0:0:
256,192,71965,1,0,0:0:0:0:
475,192,72040,1,0,0:0:0:0:
182,192,72040,1,0,0:0:0:0:
36,192,72115,1,0,0:0:0:0:
329,192,72190,1,0,0:0:0:0:
182,192,72190,1,0,0:0:0:0:
256,192,72265,1,0,0:0:0:0:
182,192,72340,128,0,72640:0:0:0:0:
329,192,72340,128,0,72640:0:0:0:0:
36,192,72340,1,0,0:0:0:0:
475,192,72340,1,0,0:0:0:0:
109,192,72415,1,0,0:0:0:0:
36,192,72490,1,0,0:0:0:0:
402,192,72490,1,0,0:0:0:0:
256,192,72565,1,0,0:0:0:0:
402,192,72640,128,0,72940:0:0:0:0:
109,192,72640,128,0,72940:0:0:0:0:
36,192,72640,1,0,0:0:0:0:
475,192,72640,1,0,0:0:0:0:
182,192,72715,1,0,0:0:0:0:
329,192,72790,1,0,0:0:0:0:
475,192,72790,1,0,0:0:0:0:
256,192,72865,1,0,0:0:0:0:
36,192,72940,128,0,73240:0:0:0:0:
475,192,72940,128,0,73240:0:0:0:0:
182,192,72940,1,0,0:0:0:0:
329,192,72940,1,0,0:0:0:0:
109,192,73015,1,0,0:0:0:0:
256,192,73090,1,0,0:0:0:0:
402,192,73090,1,0,0:0:0:0:
329,192,73165,1,0,0:0:0:0:
256,192,73240,128,0,73540:0:0:0:0:
182,192,73240,1,0,0:0:0:0:
109,192,73240,1,0,0:0:0:0:
329,192,73315,1,0,0:0:0:0:
402,192,73390,1,0,0:0:0:0:
109,192,73390,1,0,0:0:0:0:
182,192,73465,1,0,0:0:0:0:
329,192,73540,1,0,0:0:0:0:
36,192,73540,1,0,0:0:0:0:
475,192,73540,1,0,0:0:0:0:
109,192,73615,1,0,0:0:0:0:
182,192,73690,1,0,0:0:0:0:
402,192,73690,1,0,0:0:0:0:
329,192,73690,1,0,0:0:0:0:
256,192,73765,1,0,0:0:0:0:
182,192,73840,1,0,0:0:0:0:
36,192,73840,1,0,0:0:0:0:
475,192,73840,1,0,0:0:0:0:
402,192,73915,1,0,0:0:0:0:
329,192,73990,1,0,0:0:0:0:
109,192,73990,1,0,0:0:0:0:
182,192,73990,1,0,0:0:0:0:
256,192,74065,1,0,0:0:0:0:
36,192,74140,1,0,0:0:0:0:
475,192,74140,1,0,0:0:0:0:
329,192,74140,1,0,0:0:0:0:
109,192,74215,1,0,0:0:0:0:
182,192,74290,1,0,0:0:0:0:
329,192,74290,1,0,0:0:0:0:
402,192,74290,1,0,0:0:0:0:
256,192,74365,1,0,0:0:0:0:
475,192,74440,1,0,0:0:0:0:
182,192,74440,1,0,0:0:0:0:
36,192,74440,1,0,0:0:0:0:
402,192,74515,1,0,0:0:0:0:
329,192,74590,1,0,0:0:0:0:
182,192,74590,1,0,0:0:0:0:
109,192,74590,1,0,0:0:0:0:
256,192,74665,1,0,0:0:0:0:
36,192,74740,1,0,0:0:0:0:
475,192,74740,1,0,0:0:0:0:
402,192,74740,1,0,0:0:0:0:
182,192,74815,1,0,0:0:0:0:
329,192,74890,1,0,0:0:0:0:
475,192,74890,1,0,0:0:0:0:
109,192,74890,1,0,0:0:0:0:
256,192,74965,1,0,0:0:0:0:
36,192,75040,1,0,0:0:0:0:
182,192,75040,1,0,0:0:0:0:
402,192,75040,1,0,0:0:0:0:
329,192,75115,1,0,0:0:0:0:
256,192,75190,1,0,0:0:0:0:
109,192,75190,1,0,0:0:0:0:
475,192,75190,1,0,0:0:0:0:
402,192,75265,1,0,0:0:0:0:
182,192,75340,1,0,0:0:0:0:
329,192,75340,1,0,0:0:0:0:
36,192,75340,1,0,0:0:0:0:
402,192,75415,1,0,0:0:0:0:
475,192,75490,1,0,0:0:0:0:
256,192,75490,1,0,0:0:0:0:
109,192,75490,1,0,0:0:0:0:
329,192,75565,1,0,0:0:0:0:
402,192,75640,1,0,0:0:0:0:
182,192,75640,1,0,0:0:0:0:
36,192,75640,1,0,0:0:0:0:
256,192,75715,1,0,0:0:0:0:
329,192,75790,1,0,0:0:0:0:
109,192,75790,1,0,0:0:0:0:
475,192,75790,1,0,0:0:0:0:
182,192,75865,1,0,0:0:0:0:
36,192,75940,1,0,0:0:0:0:
475,192,75940,1,0,0:0:0:0:
402,192,75940,1,0,0:0:0:0:
256,192,75940,128,0,76390:0:0:0:0:
109,192,76015,1,0,0:0:0:0:
329,192,76015,1,0,0:0:0:0:
182,192,76090,1,0,0:0:0:0:
402,192,76090,1,0,0:0:0:0:
475,192,76165,1,0,0:0:0:0:
36,192,76165,1,0,0:0:0:0:
329,192,76240,1,0,0:0:0:0:
109,192,76240,1,0,0:0:0:0:
182,192,76315,1,0,0:0:0:0:
402,192,76315,1,0,0:0:0:0:
36,192,76390,128,0,77140:0:0:0:0:
475,192,76390,128,0,77140:0:0:0:0:
109,192,76390,1,0,0:0:0:0:
329,192,76390,1,0,0:0:0:0:
182,192,76465,1,0,0:0:0:0:
256,192,76465,1,0,0:0:0:0:
402,192,76540,1,0,0:0:0:0:
329,192,76540,1,0,0:0:0:0:
109,192,76615,1,0,0:0:0:0:
256,192,76615,1,0,0:0:0:0:
182,192,76690,1,0,0:0:0:0:
402,192,76690,1,0,0:0:0:0:
329,192,76765,1,0,0:0:0:0:
109,192,76765,1,0,0:0:0:0:
256,192,76840,1,0,0:0:0:0:
182,192,76840,1,0,0:0:0:0:
402,192,76915,1,0,0:0:0:0:
329,192,76915,1,0,0:0:0:0:
256,192,76990,1,0,0:0:0:0:
109,192,76990,1,0,0:0:0:0:
182,192,77065,1,0,0:0:0:0:
402,192,77065,1,0,0:0:0:0:
329,192,77140,1,0,0:0:0:0:
256,192,77140,1,0,0:0:0:0:
109,192,77140,1,0,0:0:0:0:
109,192,77290,1,0,0:0:0:0:
256,192,77290,1,0,0:0:0:0:
329,192,77290,1,0,0:0:0:0:
182,192,77440,1,0,0:0:0:0:
36,192,77440,1,0,0:0:0:0:
256,192,77440,1,0,0:0:0:0:
475,192,77440,1,0,0:0:0:0:
402,192,77440,1,0,0:0:0:0:
256,192,77740,1,0,0:0:0:0:
402,192,77740,1,0,0:0:0:0:
182,192,77740,1,0,0:0:0:0:
256,192,77890,1,0,0:0:0:0:
402,192,77890,1,0,0:0:0:0:
182,192,77890,1,0,0:0:0:0:
475,192,78040,1,0,0:0:0:0:
36,192,78040,1,0,0:0:0:0:
109,192,78040,1,0,0:0:0:0:
256,192,78040,1,0,0:0:0:0:
329,192,78040,1,0,0:0:0:0:
36,192,78340,1,0,0:0:0:0:
182,192,78340,1,0,0:0:0:0:
475,192,78340,1,0,0:0:0:0:
402,192,78340,1,0,0:0:0:0:
109,192,78340,1,0,0:0:0:0:
256,192,78415,1,0,0:0:0:0:
36,192,78490,1,0,0:0:0:0:
329,192,78490,1,0,0:0:0:0:
475,192,78490,1,0,0:0:0:0:
182,192,78565,1,0,0:0:0:0:
402,192,78640,1,0,0:0:0:0:
109,192,78640,1,0,0:0:0:0:
329,192,78715,1,0,0:0:0:0:
36,192,78790,1,0,0:0:0:0:
475,192,78790,1,0,0:0:0:0:
182,192,78790,1,0,0:0:0:0:
256,192,78865,1,0,0:0:0:0:
109,192,78940,1,0,0:0:0:0:
329,192,78940,1,0,0:0:0:0:
182,192,79015,1,0,0:0:0:0:
36,192,79090,1,0,0:0:0:0:
402,192,79090,1,0,0:0:0:0:
256,192,79090,1,0,0:0:0:0:
182,192,79165,1,0,0:0:0:0:
329,192,79240,1,0,0:0:0:0:
109,192,79240,1,0,0:0:0:0:
402,192,79315,1,0,0:0:0:0:
36,192,79390,1,0,0:0:0:0:
182,192,79390,1,0,0:0:0:0:
475,192,79390,1,0,0:0:0:0:
256,192,79465,1,0,0:0:0:0:
109,192,79540,1,0,0:0:0:0:
329,192,79540,1,0,0:0:0:0:
182,192,79615,1,0,0:0:0:0:
402,192,79690,1,0,0:0:0:0:
36,192,79690,1,0,0:0:0:0:
256,192,79690,1,0,0:0:0:0:
109,192,79765,1,0,0:0:0:0:
475,192,79840,1,0,0:0:0:0:
329,192,79840,1,0,0:0:0:0:
256,192,79915,1,0,0:0:0:0:
402,192,79990,1,0,0:0:0:0:
182,192,79990,1,0,0:0:0:0:
36,192,79990,1,0,0:0:0:0:
329,192,80065,1,0,0:0:0:0:
36,192,80140,1,0,0:0:0:0:
256,192,80140,1,0,0:0:0:0:
475,192,80215,1,0,0:0:0:0:
182,192,80290,1,0,0:0:0:0:
36,192,80290,1,0,0:0:0:0:
402,192,80290,1,0,0:0:0:0:
256,192,80365,1,0,0:0:0:0:
475,192,80440,1,0,0:0:0:0:
329,192,80440,1,0,0:0:0:0:
256,192,80515,1,0,0:0:0:0:
402,192,80590,1,0,0:0:0:0:
36,192,80590,1,0,0:0:0:0:
182,192,80590,1,0,0:0:0:0:
329,192,80665,1,0,0:0:0:0:
36,192,80740,128,0,80890:0:0:0:0:
256,192,80740,1,0,0:0:0:0:
475,192,80740,1,0,0:0:0:0:
109,192,80740,1,0,0:0:0:0:
109,192,80890,1,0,0:0:0:0:
182,192,80890,1,0,0:0:0:0:
402,192,80890,128,0,81040:0:0:0:0:
329,192,80890,1,0,0:0:0:0:
475,192,81040,1,0,0:0:0:0:
36,192,81040,1,0,0:0:0:0:
256,192,81040,1,0,0:0:0:0:
109,192,81040,128,0,81190:0:0:0:0:
256,192,81190,1,0,0:0:0:0:
475,192,81190,1,0,0:0:0:0:
182,192,81190,128,0,81340:0:0:0:0:
402,192,81190,1,0,0:0:0:0:
36,192,81340,1,0,0:0:0:0:
109,192,81340,1,0,0:0:0:0:
329,192,81340,128,0,81490:0:0:0:0:
402,192,81340,1,0,0:0:0:0:
109,192,81490,1,0,0:0:0:0:
182,192,81490,1,0,0:0:0:0:
256,192,81490,128,0,81640:0:0:0:0:
475,192,81490,1,0,0:0:0:0:
36,192,81640,1,0,0:0:0:0:
109,192,81640,1,0,0:0:0:0:
402,192,81640,128,0,81790:0:0:0:0:
329,192,81640,1,0,0:0:0:0:
256,192,81790,1,0,0:0:0:0:
182,192,81790,1,0,0:0:0:0:
109,192,81790,128,0,81940:0:0:0:0:
475,192,81790,1,0,0:0:0:0:
36,192,81940,1,0,0:0:0:0:
182,192,81940,1,0,0:0:0:0:
329,192,81940,128,0,82090:0:0:0:0:
402,192,81940,1,0,0:0:0:0:
256,192,82090,1,0,0:0:0:0:
109,192,82090,1,0,0:0:0:0:
182,192,82090,128,0,82240:0:0:0:0:
475,192,82090,1,0,0:0:0:0:
36,192,82240,1,0,0:0:0:0:
109,192,82240,1,0,0:0:0:0:
402,192,82240,128,0,82390:0:0:0:0:
329,192,82240,1,0,0:0:0:0:
475,192,82390,1,0,0:0:0:0:
182,192,82390,1,0,0:0:0:0:
36,192,82390,128,0,82540:0:0:0:0:
256,192,82390,1,0,0:0:0:0:
109,192,82540,1,0,0:0:0:0:
256,192,82540,1,0,0:0:0:0:
329,192,82540,128,0,82690:0:0:0:0:
402,192,82540,1,0,0:0:0:0:
182,192,82690,1,0,0:0:0:0:
36,192,82690,1,0,0:0:0:0:
109,192,82690,128,0,82840:0:0:0:0:
475,192,82690,1,0,0:0:0:0:
256,192,82840,1,0,0:0:0:0:
182,192,82840,1,0,0:0:0:0:
475,192,82840,128,0,82990:0:0:0:0:
402,192,82840,1,0,0:0:0:0:
36,192,82990,1,0,0:0:0:0:
182,192,82990,1,0,0:0:0:0:
256,192,82990,128,0,83140:0:0:0:0:
329,192,82990,1,0,0:0:0:0:
402,192,83140,1,0,0:0:0:0:
36,192,83140,1,0,0:0:0:0:
475,192,83140,1,0,0:0:0:0:
109,192,83140,1,0,0:0:0:0:
329,192,83215,1,0,0:0:0:0:
402,192,83290,1,0,0:0:0:0:
256,192,83290,1,0,0:0:0:0:
109,192,83290,1,0,0:0:0:0:
36,192,83365,1,0,0:0:0:0:
329,192,83440,1,0,0:0:0:0:
182,192,83440,1,0,0:0:0:0:
402,192,83515,1,0,0:0:0:0:
109,192,83590,1,0,0:0:0:0:
256,192,83590,1,0,0:0:0:0:
475,192,83590,1,0,0:0:0:0:
329,192,83665,1,0,0:0:0:0:
182,192,83740,1,0,0:0:0:0:
402,192,83740,1,0,0:0:0:0:
109,192,83815,1,0,0:0:0:0:
475,192,83890,1,0,0:0:0:0:
256,192,83890,1,0,0:0:0:0:
36,192,83890,1,0,0:0:0:0:
182,192,83965,1,0,0:0:0:0:
329,192,84040,1,0,0:0:0:0:
109,192,84040,1,0,0:0:0:0:
182,192,84115,1,0,0:0:0:0:
109,192,84190,1,0,0:0:0:0:
475,192,84190,1,0,0:0:0:0:
256,192,84190,1,0,0:0:0:0:
402,192,84265,1,0,0:0:0:0:
182,192,84340,1,0,0:0:0:0:
329,192,84340,1,0,0:0:0:0:
109,192,84415,1,0,0:0:0:0:
475,192,84490,1,0,0:0:0:0:
256,192,84490,1,0,0:0:0:0:
36,192,84490,1,0,0:0:0:0:
402,192,84565,1,0,0:0:0:0:
182,192,84640,1,0,0:0:0:0:
329,192,84640,1,0,0:0:0:0:
402,192,84715,1,0,0:0:0:0:
109,192,84790,1,0,0:0:0:0:
256,192,84790,1,0,0:0:0:0:
475,192,84790,1,0,0:0:0:0:
182,192,84865,1,0,0:0:0:0:
109,192,84940,1,0,0:0:0:0:
402,192,84940,1,0,0:0:0:0:
329,192,85015,1,0,0:0:0:0:
475,192,85090,1,0,0:0:0:0:
36,192,85090,1,0,0:0:0:0:
256,192,85090,1,0,0:0:0:0:
109,192,85165,1,0,0:0:0:0:
329,192,85240,1,0,0:0:0:0:
36,192,85240,1,0,0:0:0:0:
402,192,85315,1,0,0:0:0:0:
475,192,85390,1,0,0:0:0:0:
36,192,85390,1,0,0:0:0:0:
256,192,85390,1,0,0:0:0:0:
182,192,85465,1,0,0:0:0:0:
402,192,85540,1,0,0:0:0:0:
475,192,85540,1,0,0:0:0:0:
109,192,85540,1,0,0:0:0:0:
329,192,85540,128,0,85690:0:0:0:0:
475,192,85690,1,0,0:0:0:0:
36,192,85690,1,0,0:0:0:0:
182,192,85690,128,0,85840:0:0:0:0:
256,192,85690,1,0,0:0:0:0:
109,192,85840,1,0,0:0:0:0:
36,192,85840,1,0,0:0:0:0:
402,192,85840,128,0,85990:0:0:0:0:
329,192,85840,1,0,0:0:0:0:
182,192,85990,1,0,0:0:0:0:
109,192,85990,1,0,0:0:0:0:
256,192,85990,128,0,86140:0:0:0:0:
475,192,85990,1,0,0:0:0:0:
329,192,86140,1,0,0:0:0:0:
182,192,86140,1,0,0:0:0:0:
36,192,86140,128,0,86290:0:0:0:0:
402,192,86140,1,0,0:0:0:0:
329,192,86290,1,0,0:0:0:0:
256,192,86290,1,0,0:0:0:0:
182,192,86290,128,0,86440:0:0:0:0:
475,192,86290,1,0,0:0:0:0:
36,192,86440,1,0,0:0:0:0:
109,192,86440,1,0,0:0:0:0:
475,192,86440,128,0,86590:0:0:0:0:
329,192,86440,1,0,0:0:0:0:
182,192,86590,1,0,0:0:0:0:
109,192,86590,1,0,0:0:0:0:
256,192,86590,128,0,86740:0:0:0:0:
402,192,86590,1,0,0:0:0:0:
475,192,86740,1,0,0:0:0:0:
182,192,86740,1,0,0:0:0:0:
329,192,86740,1,0,0:0:0:0:
36,192,86740,128,0,86890:0:0:0:0:
256,192,86815,1,0,0:0:0:0:
402,192,86890,1,0,0:0:0:0:
182,192,86890,1,0,0:0:0:0:
475,192,86890,1,0,0:0:0:0:
109,192,86890,128,0,87040:0:0:0:0:
329,192,86965,1,0,0:0:0:0:
36,192,87040,1,0,0:0:0:0:
402,192,87040,1,0,0:0:0:0:
256,192,87040,128,0,87190:0:0:0:0:
475,192,87040,1,0,0:0:0:0:
109,192,87115,1,0,0:0:0:0:
475,192,87190,1,0,0:0:0:0:
329,192,87190,1,0,0:0:0:0:
402,192,87190,128,0,87340:0:0:0:0:
182,192,87190,1,0,0:0:0:0:
109,192,87265,1,0,0:0:0:0:
36,192,87340,1,0,0:0:0:0:
475,192,87340,1,0,0:0:0:0:
182,192,87340,128,0,87490:0:0:0:0:
329,192,87340,1,0,0:0:0:0:
402,192,87415,1,0,0:0:0:0:
109,192,87490,1,0,0:0:0:0:
329,192,87490,1,0,0:0:0:0:
256,192,87490,128,0,87640:0:0:0:0:
36,192,87490,1,0,0:0:0:0:
402,192,87565,1,0,0:0:0:0:
36,192,87640,1,0,0:0:0:0:
475,192,87640,1,0,0:0:0:0:
109,192,87640,128,0,87790:0:0:0:0:
329,192,87640,1,0,0:0:0:0:
402,192,87790,1,0,0:0:0:0:
182,192,87790,1,0,0:0:0:0:
256,192,87790,128,0,87940:0:0:0:0:
329,192,87790,1,0,0:0:0:0:
182,192,87940,1,0,0:0:0:0:
402,192,87940,1,0,0:0:0:0:
109,192,87940,1,0,0:0:0:0:
475,192,87940,128,0,89140:0:0:0:0:
36,192,87940,128,0,89140:0:0:0:0:
329,192,88015,1,0,0:0:0:0:
256,192,88090,1,0,0:0:0:0:
402,192,88090,1,0,0:0:0:0:
182,192,88165,1,0,0:0:0:0:
109,192,88240,1,0,0:0:0:0:
329,192,88240,1,0,0:0:0:0:
182,192,88315,1,0,0:0:0:0:
256,192,88390,1,0,0:0:0:0:
109,192,88390,1,0,0:0:0:0:
329,192,88465,1,0,0:0:0:0:
402,192,88540,1,0,0:0:0:0:
182,192,88540,1,0,0:0:0:0:
329,192,88615,1,0,0:0:0:0:
256,192,88690,1,0,0:0:0:0:
109,192,88690,1,0,0:0:0:0:
182,192,88765,1,0,0:0:0:0:
109,192,88840,1,0,0:0:0:0:
329,192,88840,1,0,0:0:0:0:
182,192,88915,1,0,0:0:0:0:
256,192,88990,1,0,0:0:0:0:
402,192,88990,1,0,0:0:0:0:
329,192,89065,1,0,0:0:0:0:
109,192,89140,1,0,0:0:0:0:
402,192,89140,1,0,0:0:0:0:
256,192,89140,128,0,89440:0:0:0:0:
182,192,89215,1,0,0:0:0:0:
36,192,89290,1,0,0:0:0:0:
329,192,89290,1,0,0:0:0:0:
402,192,89365,1,0,0:0:0:0:
475,192,89440,1,0,0:0:0:0:
109,192,89440,1,0,0:0:0:0:
329,192,89440,128,0,89740:0:0:0:0:
182,192,89440,128,0,89740:0:0:0:0:
402,192,89515,1,0,0:0:0:0:
36,192,89590,1,0,0:0:0:0:
256,192,89590,1,0,0:0:0:0:
475,192,89665,1,0,0:0:0:0:
256,192,89740,1,0,0:0:0:0:
36,192,89740,1,0,0:0:0:0:
402,192,89740,128,0,90040:0:0:0:0:
109,192,89740,128,0,90040:0:0:0:0:
182,192,89815,1,0,0:0:0:0:
475,192,89890,1,0,0:0:0:0:
329,192,89890,1,0,0:0:0:0:
256,192,89965,1,0,0:0:0:0:
329,192,90040,1,0,0:0:0:0:
182,192,90040,1,0,0:0:0:0:
475,192,90040,128,0,90340:0:0:0:0:
36,192,90040,128,0,90340:0:0:0:0:
256,192,90115,1,0,0:0:0:0:
109,192,90190,1,0,0:0:0:0:
402,192,90190,1,0,0:0:0:0:
329,192,90265,1,0,0:0:0:0:
256,192,90340,1,0,0:0:0:0:
182,192,90340,1,0,0:0:0:0:
402,192,90340,128,0,91540:0:0:0:0:
109,192,90340,128,0,91540:0:0:0:0:
36,192,90415,1,0,0:0:0:0:
182,192,90490,1,0,0:0:0:0:
329,192,90490,1,0,0:0:0:0:
256,192,90565,1,0,0:0:0:0:
329,192,90640,1,0,0:0:0:0:
36,192,90640,1,0,0:0:0:0:
475,192,90715,1,0,0:0:0:0:
329,192,90790,1,0,0:0:0:0:
182,192,90790,1,0,0:0:0:0:
256,192,90865,1,0,0:0:0:0:
182,192,90940,1,0,0:0:0:0:
475,192,90940,1,0,0:0:0:0:
36,192,91015,1,0,0:0:0:0:
182,192,91090,1,0,0:0:0:0:
329,192,91090,1,0,0:0:0:0:
256,192,91165,1,0,0:0:0:0:
329,192,91240,1,0,0:0:0:0:
36,192,91240,1,0,0:0:0:0:
475,192,91315,1,0,0:0:0:0:
329,192,91390,1,0,0:0:0:0:
182,192,91390,1,0,0:0:0:0:
256,192,91465,1,0,0:0:0:0:
475,192,91540,1,0,0:0:0:0:
36,192,91540,1,0,0:0:0:0:
329,192,91540,128,0,91840:0:0:0:0:
182,192,91540,128,0,91840:0:0:0:0:
402,192,91615,1,0,0:0:0:0:
109,192,91690,1,0,0:0:0:0:
475,192,91690,1,0,0:0:0:0:
256,192,91765,1,0,0:0:0:0:
475,192,91840,1,0,0:0:0:0:
36,192,91840,1,0,0:0:0:0:
109,192,91840,128,0,92140:0:0:0:0:
402,192,91840,128,0,92140:0:0:0:0:
329,192,91915,1,0,0:0:0:0:
36,192,91990,1,0,0:0:0:0:
182,192,91990,1,0,0:0:0:0:
256,192,92065,1,0,0:0:0:0:
329,192,92140,1,0,0:0:0:0:
182,192,92140,1,0,0:0:0:0:
475,192,92140,128,0,92440:0:0:0:0:
36,192,92140,128,0,92440:0:0:0:0:
402,192,92215,1,0,0:0:0:0:
109,192,92290,1,0,0:0:0:0:
256,192,92290,1,0,0:0:0:0:
182,192,92365,1,0,0:0:0:0:
402,192,92440,1,0,0:0:0:0:
329,192,92440,1,0,0:0:0:0:
256,192,92440,128,0,92740:0:0:0:0:
182,192,92515,1,0,0:0:0:0:
402,192,92590,1,0,0:0:0:0:
109,192,92590,1,0,0:0:0:0:
329,192,92665,1,0,0:0:0:0:
36,192,92740,1,0,0:0:0:0:
475,192,92740,1,0,0:0:0:0:
182,192,92740,1,0,0:0:0:0:
402,192,92815,1,0,0:0:0:0:
182,192,92890,1,0,0:0:0:0:
109,192,92890,1,0,0:0:0:0:
329,192,92890,1,0,0:0:0:0:
256,192,92965,1,0,0:0:0:0:
36,192,93040,1,0,0:0:0:0:
475,192,93040,1,0,0:0:0:0:
329,192,93040,1,0,0:0:0:0:
109,192,93115,1,0,0:0:0:0:
329,192,93190,1,0,0:0:0:0:
402,192,93190,1,0,0:0:0:0:
182,192,93190,1,0,0:0:0:0:
256,192,93265,1,0,0:0:0:0:
182,192,93340,1,0,0:0:0:0:
36,192,93340,1,0,0:0:0:0:
475,192,93340,1,0,0:0:0:0:
402,192,93415,1,0,0:0:0:0:
109,192,93490,1,0,0:0:0:0:
182,192,93490,1,0,0:0:0:0:
329,192,93490,1,0,0:0:0:0:
256,192,93565,1,0,0:0:0:0:
475,192,93640,1,0,0:0:0:0:
329,192,93640,1,0,0:0:0:0:
36,192,93640,1,0,0:0:0:0:
109,192,93715,1,0,0:0:0:0:
402,192,93790,1,0,0:0:0:0:
329,192,93790,1,0,0:0:0:0:
182,192,93790,1,0,0:0:0:0:
256,192,93865,1,0,0:0:0:0:
109,192,93940,1,0,0:0:0:0:
36,192,93940,1,0,0:0:0:0:
475,192,93940,1,0,0:0:0:0:
329,192,94015,1,0,0:0:0:0:
402,192,94090,1,0,0:0:0:0:
36,192,94090,1,0,0:0:0:0:
182,192,94090,1,0,0:0:0:0:
256,192,94165,1,0,0:0:0:0:
109,192,94240,1,0,0:0:0:0:
329,192,94240,1,0,0:0:0:0:
475,192,94240,1,0,0:0:0:0:
182,192,94315,1,0,0:0:0:0:
36,192,94390,1,0,0:0:0:0:
402,192,94390,1,0,0:0:0:0:
256,192,94390,1,0,0:0:0:0:
109,192,94465,1,0,0:0:0:0:
475,192,94540,1,0,0:0:0:0:
182,192,94540,1,0,0:0:0:0:
329,192,94540,1,0,0:0:0:0:
109,192,94615,1,0,0:0:0:0:
402,192,94690,1,0,0:0:0:0:
256,192,94690,1,0,0:0:0:0:
36,192,94690,1,0,0:0:0:0:
182,192,94765,1,0,0:0:0:0:
475,192,94840,1,0,0:0:0:0:
329,192,94840,1,0,0:0:0:0:
109,192,94840,1,0,0:0:0:0:
256,192,94915,1,0,0:0:0:0:
36,192,94990,1,0,0:0:0:0:
402,192,94990,1,0,0:0:0:0:
182,192,94990,1,0,0:0:0:0:
329,192,95065,1,0,0:0:0:0:
109,192,95140,1,0,0:0:0:0:
256,192,95140,128,0,96340:0:0:0:0:
475,192,95140,1,0,0:0:0:0:
36,192,95140,1,0,0:0:0:0:
182,192,95215,1,0,0:0:0:0:
402,192,95215,1,0,0:0:0:0:
109,192,95290,1,0,0:0:0:0:
329,192,95290,1,0,0:0:0:0:
475,192,95365,1,0,0:0:0:0:
36,192,95365,1,0,0:0:0:0:
402,192,95440,1,0,0:0:0:0:
182,192,95440,1,0,0:0:0:0:
109,192,95515,1,0,0:0:0:0:
329,192,95515,1,0,0:0:0:0:
402,192,95590,1,0,0:0:0:0:
36,192,95590,1,0,0:0:0:0:
475,192,95665,1,0,0:0:0:0:
109,192,95665,1,0,0:0:0:0:
182,192,95740,1,0,0:0:0:0:
402,192,95740,1,0,0:0:0:0:
36,192,95815,1,0,0:0:0:0:
475,192,95815,1,0,0:0:0:0:
109,192,95890,1,0,0:0:0:0:
329,192,95890,1,0,0:0:0:0:
402,192,95965,1,0,0:0:0:0:
182,192,95965,1,0,0:0:0:0:
109,192,96040,1,0,0:0:0:0:
475,192,96040,1,0,0:0:0:0:
329,192,96115,1,0,0:0:0:0:
182,192,96115,1,0,0:0:0:0:
402,192,96190,1,0,0:0:0:0:
36,192,96190,1,0,0:0:0:0:
109,192,96265,1,0,0:0:0:0:
329,192,96265,1,0,0:0:0:0:
402,192,96340,1,0,0:0:0:0:
475,192,96340,1,0,0:0:0:0:
182,192,96340,1,0,0:0:0:0:
36,192,96340,1,0,0:0:0:0:
182,192,96490,1,0,0:0:0:0:
402,192,96490,1,0,0:0:0:0:
475,192,96490,1,0,0:0:0:0:
36,192,96490,1,0,0:0:0:0:
36,192,96640,1,0,0:0:0:0:
109,192,96640,1,0,0:0:0:0:
256,192,96640,1,0,0:0:0:0:
329,192,96640,1,0,0:0:0:0:
475,192,96640,1,0,0:0:0:0:
329,192,96940,1,0,0:0:0:0:
109,192,96940,1,0,0:0:0:0:
182,192,96940,1,0,0:0:0:0:
256,192,96940,1,0,0:0:0:0:
329,192,97090,1,0,0:0:0:0:
109,192,97090,1,0,0:0:0:0:
182,192,97090,1,0,0:0:0:0:
256,192,97090,1,0,0:0:0:0:
256,192,97240,1,0,0:0:0:0:
182,192,97240,1,0,0:0:0:0:
402,192,97240,1,0,0:0:0:0:
36,192,97240,1,0,0:0:0:0:
475,192,97240,1,0,0:0:0:0:
36,192,97540,128,0,98440:0:0:0:0:
109,192,97540,128,0,98440:0:0:0:0:
182,192,97540,1,0,0:0:0:0:
475,192,97540,1,0,0:0:0:0:
256,192,97540,1,0,0:0:0:0:
329,192,97540,1,0,0:0:0:0:
402,192,97615,1,0,0:0:0:0:
329,192,97690,1,0,0:0:0:0:
256,192,97765,1,0,0:0:0:0:
182,192,97840,1,0,0:0:0:0:
402,192,97840,1,0,0:0:0:0:
329,192,97840,1,0,0:0:0:0:
475,192,97840,1,0,0:0:0:0:
256,192,97915,1,0,0:0:0:0:
329,192,97990,1,0,0:0:0:0:
402,192,98065,1,0,0:0:0:0:
475,192,98140,1,0,0:0:0:0:
182,192,98140,1,0,0:0:0:0:
256,192,98140,1,0,0:0:0:0:
329,192,98140,1,0,0:0:0:0:
402,192,98215,1,0,0:0:0:0:
329,192,98290,1,0,0:0:0:0:
256,192,98365,1,0,0:0:0:0:
182,192,98440,1,0,0:0:0:0:
475,192,98440,1,0,0:0:0:0:
402,192,98440,1,0,0:0:0:0:
329,192,98440,1,0,0:0:0:0:
109,192,98515,1,0,0:0:0:0:
182,192,98590,1,0,0:0:0:0:
256,192,98665,1,0,0:0:0:0:
402,192,98740,128,0,99640:0:0:0:0:
36,192,98740,1,0,0:0:0:0:
182,192,98740,1,0,0:0:0:0:
109,192,98740,1,0,0:0:0:0:
329,192,98740,1,0,0:0:0:0:
475,192,98740,128,0,99640:0:0:0:0:
256,192,98815,1,0,0:0:0:0:
182,192,98890,1,0,0:0:0:0:
109,192,98965,1,0,0:0:0:0:
36,192,99040,1,0,0:0:0:0:
329,192,99040,1,0,0:0:0:0:
256,192,99040,1,0,0:0:0:0:
182,192,99040,1,0,0:0:0:0:
109,192,99115,1,0,0:0:0:0:
182,192,99190,1,0,0:0:0:0:
256,192,99265,1,0,0:0:0:0:
329,192,99340,1,0,0:0:0:0:
182,192,99340,1,0,0:0:0:0:
109,192,99340,1,0,0:0:0:0:
36,192,99340,1,0,0:0:0:0:
256,192,99415,1,0,0:0:0:0:
182,192,99490,1,0,0:0:0:0:
109,192,99565,1,0,0:0:0:0:
36,192,99640,1,0,0:0:0:0:
182,192,99640,1,0,0:0:0:0:
329,192,99640,1,0,0:0:0:0:
256,192,99640,1,0,0:0:0:0:
109,192,99715,1,0,0:0:0:0:
182,192,99790,1,0,0:0:0:0:
256,192,99865,1,0,0:0:0:0:
329,192,99940,1,0,0:0:0:0:
36,192,99940,128,0,100840:0:0:0:0:
475,192,99940,128,0,100840:0:0:0:0:
109,192,99940,1,0,0:0:0:0:
182,192,99940,1,0,0:0:0:0:
402,192,99940,1,0,0:0:0:0:
256,192,100015,1,0,0:0:0:0:
182,192,100090,1,0,0:0:0:0:
109,192,100165,1,0,0:0:0:0:
182,192,100240,1,0,0:0:0:0:
256,192,100240,1,0,0:0:0:0:
329,192,100240,1,0,0:0:0:0:
402,192,100240,1,0,0:0:0:0:
109,192,100315,1,0,0:0:0:0:
182,192,100390,1,0,0:0:0:0:
256,192,100465,1,0,0:0:0:0:
182,192,100540,1,0,0:0:0:0:
109,192,100540,1,0,0:0:0:0:
329,192,100540,1,0,0:0:0:0:
402,192,100540,1,0,0:0:0:0:
256,192,100615,1,0,0:0:0:0:
329,192,100690,1,0,0:0:0:0:
402,192,100765,1,0,0:0:0:0:
329,192,100840,1,0,0:0:0:0:
256,192,100840,1,0,0:0:0:0:
109,192,100840,1,0,0:0:0:0:
182,192,100840,1,0,0:0:0:0:
402,192,100915,1,0,0:0:0:0:
329,192,100990,1,0,0:0:0:0:
256,192,101065,1,0,0:0:0:0:
182,192,101140,128,0,102340:0:0:0:0:
329,192,101140,128,0,102340:0:0:0:0:
475,192,101140,1,0,0:0:0:0:
402,192,101140,1,0,0:0:0:0:
109,192,101140,1,0,0:0:0:0:
36,192,101140,1,0,0:0:0:0:
256,192,101215,1,0,0:0:0:0:
402,192,101290,1,0,0:0:0:0:
475,192,101365,1,0,0:0:0:0:
256,192,101440,1,0,0:0:0:0:
109,192,101440,1,0,0:0:0:0:
36,192,101440,1,0,0:0:0:0:
402,192,101440,1,0,0:0:0:0:
475,192,101515,1,0,0:0:0:0:
402,192,101590,1,0,0:0:0:0:
256,192,101665,1,0,0:0:0:0:
109,192,101740,1,0,0:0:0:0:
36,192,101740,1,0,0:0:0:0:
402,192,101740,1,0,0:0:0:0:
475,192,101740,1,0,0:0:0:0:
256,192,101815,1,0,0:0:0:0:
109,192,101890,1,0,0:0:0:0:
36,192,101965,1,0,0:0:0:0:
109,192,102040,1,0,0:0:0:0:
256,192,102040,1,0,0:0:0:0:
475,192,102040,1,0,0:0:0:0:
402,192,102040,1,0,0:0:0:0:
36,192,102115,1,0,0:0:0:0:
109,192,102190,1,0,0:0:0:0:
256,192,102265,1,0,0:0:0:0:
475,192,102340,1,0,0:0:0:0:
402,192,102340,1,0,0:0:0:0:
109,192,102340,1,0,0:0:0:0:
36,192,102340,1,0,0:0:0:0:
182,192,102415,1,0,0:0:0:0:
256,192,102490,1,0,0:0:0:0:
329,192,102565,1,0,0:0:0:0:
402,192,102640,1,0,0:0:0:0:
36,192,102640,128,0,102940:0:0:0:0:
109,192,102640,128,0,102940:0:0:0:0:
182,192,102640,1,0,0:0:0:0:
256,192,102640,1,0,0:0:0:0:
475,192,102640,1,0,0:0:0:0:
329,192,102715,1,0,0:0:0:0:
256,192,102790,1,0,0:0:0:0:
182,192,102865,1,0,0:0:0:0:
402,192,102940,128,0,103240:0:0:0:0:
475,192,102940,128,0,103240:0:0:0:0:
256,192,102940,1,0,0:0:0:0:
329,192,102940,1,0,0:0:0:0:
182,192,103015,1,0,0:0:0:0:
109,192,103090,1,0,0:0:0:0:
36,192,103165,1,0,0:0:0:0:
182,192,103240,128,0,103540:0:0:0:0:
109,192,103240,128,0,103540:0:0:0:0:
329,192,103240,1,0,0:0:0:0:
256,192,103240,1,0,0:0:0:0:
402,192,103315,1,0,0:0:0:0:
475,192,103390,1,0,0:0:0:0:
36,192,103465,1,0,0:0:0:0:
475,192,103540,128,0,103840:0:0:0:0:
402,192,103540,128,0,103840:0:0:0:0:
256,192,103540,1,0,0:0:0:0:
329,192,103540,1,0,0:0:0:0:
36,192,103615,1,0,0:0:0:0:
109,192,103690,1,0,0:0:0:0:
182,192,103765,1,0,0:0:0:0:
36,192,103840,128,0,104140:0:0:0:0:
109,192,103840,128,0,104140:0:0:0:0:
256,192,103840,1,0,0:0:0:0:
329,192,103840,1,0,0:0:0:0:
402,192,103915,1,0,0:0:0:0:
475,192,103990,1,0,0:0:0:0:
402,192,104065,1,0,0:0:0:0:
329,192,104140,128,0,104440:0:0:0:0:
182,192,104140,128,0,104440:0:0:0:0:
256,192,104140,1,0,0:0:0:0:
475,192,104140,1,0,0:0:0:0:
402,192,104215,1,0,0:0:0:0:
256,192,104290,1,0,0:0:0:0:
36,192,104365,1,0,0:0:0:0:
109,192,104440,128,0,104740:0:0:0:0:
402,192,104440,128,0,104740:0:0:0:0:
256,192,104440,1,0,0:0:0:0:
475,192,104440,1,0,0:0:0:0:
182,192,104515,1,0,0:0:0:0:
256,192,104590,1,0,0:0:0:0:
329,192,104665,1,0,0:0:0:0:
182,192,104740,1,0,0:0:0:0:
256,192,104740,1,0,0:0:0:0:
36,192,104740,128,0,105040:0:0:0:0:
475,192,104740,128,0,105040:0:0:0:0:
329,192,104815,1,0,0:0:0:0:
402,192,104890,1,0,0:0:0:0:
329,192,104965,1,0,0:0:0:0:
109,192,105040,128,0,105190:0:0:0:0:
402,192,105040,128,0,105190:0:0:0:0:
256,192,105040,1,0,0:0:0:0:
182,192,105040,1,0,0:0:0:0:
475,192,105115,1,0,0:0:0:0:
182,192,105190,128,0,105940:0:0:0:0:
329,192,105190,128,0,105940:0:0:0:0:
256,192,105190,1,0,0:0:0:0:
36,192,105265,1,0,0:0:0:0:
109,192,105340,1,0,0:0:0:0:
256,192,105340,1,0,0:0:0:0:
402,192,105340,1,0,0:0:0:0:
475,192,105340,1,0,0:0:0:0:
36,192,105415,1,0,0:0:0:0:
109,192,105490,1,0,0:0:0:0:
256,192,105565,1,0,0:0:0:0:
402,192,105640,1,0,0:0:0:0:
475,192,105640,1,0,0:0:0:0:
109,192,105640,1,0,0:0:0:0:
36,192,105640,1,0,0:0:0:0:
256,192,105715,1,0,0:0:0:0:
402,192,105790,1,0,0:0:0:0:
475,192,105865,1,0,0:0:0:0:
402,192,105940,1,0,0:0:0:0:
256,192,105940,1,0,0:0:0:0:
109,192,105940,1,0,0:0:0:0:
36,192,105940,1,0,0:0:0:0:
182,192,106015,1,0,0:0:0:0:
256,192,106090,1,0,0:0:0:0:
329,192,106165,1,0,0:0:0:0:
402,192,106240,1,0,0:0:0:0:
475,192,106240,1,0,0:0:0:0:
256,192,106240,1,0,0:0:0:0:
182,192,106240,1,0,0:0:0:0:
109,192,106240,1,0,0:0:0:0:
36,192,106240,1,0,0:0:0:0:
329,192,106315,1,0,0:0:0:0:
256,192,106390,1,0,0:0:0:0:
182,192,106465,1,0,0:0:0:0:
109,192,106540,1,0,0:0:0:0:
329,192,106540,1,0,0:0:0:0:
402,192,106540,1,0,0:0:0:0:
36,192,106540,1,0,0:0:0:0:
475,192,106540,128,0,106840:0:0:0:0:
256,192,106540,1,0,0:0:0:0:
182,192,106615,1,0,0:0:0:0:
256,192,106690,1,0,0:0:0:0:
329,192,106765,1,0,0:0:0:0:
402,192,106840,1,0,0:0:0:0:
256,192,106840,1,0,0:0:0:0:
182,192,106840,1,0,0:0:0:0:
109,192,106840,1,0,0:0:0:0:
36,192,106840,128,0,107140:0:0:0:0:
329,192,106915,1,0,0:0:0:0:
256,192,106990,1,0,0:0:0:0:
182,192,107065,1,0,0:0:0:0:
109,192,107140,1,0,0:0:0:0:
402,192,107140,1,0,0:0:0:0:
329,192,107140,1,0,0:0:0:0:
475,192,107140,1,0,0:0:0:0:
256,192,107215,1,0,0:0:0:0:
329,192,107290,1,0,0:0:0:0:
402,192,107365,1,0,0:0:0:0:
475,192,107440,1,0,0:0:0:0:
182,192,107440,1,0,0:0:0:0:
36,192,107440,128,0,107515:0:0:0:0:
109,192,107440,128,0,107515:0:0:0:0:
256,192,107440,1,0,0:0:0:0:
402,192,107515,1,0,0:0:0:0:
36,192,107590,128,0,107665:0:0:0:0:
109,192,107590,128,0,107665:0:0:0:0:
329,192,107590,1,0,0:0:0:0:
256,192,107665,1,0,0:0:0:0:
36,192,107740,128,0,107815:0:0:0:0:
109,192,107740,128,0,107815:0:0:0:0:
182,192,107740,1,0,0:0:0:0:
475,192,107740,1,0,0:0:0:0:
402,192,107740,1,0,0:0:0:0:
329,192,107740,1,0,0:0:0:0:
256,192,107815,1,0,0:0:0:0:
36,192,107890,128,0,107965:0:0:0:0:
109,192,107890,128,0,107965:0:0:0:0:
329,192,107890,1,0,0:0:0:0:
402,192,107965,1,0,0:0:0:0:
109,192,108040,128,0,108115:0:0:0:0:
36,192,108040,128,0,108115:0:0:0:0:
475,192,108040,1,0,0:0:0:0:
329,192,108040,1,0,0:0:0:0:
256,192,108040,1,0,0:0:0:0:
182,192,108040,1,0,0:0:0:0:
402,192,108115,1,0,0:0:0:0:
36,192,108190,128,0,108265:0:0:0:0:
109,192,108190,128,0,108265:0:0:0:0:
329,192,108190,1,0,0:0:0:0:
256,192,108265,1,0,0:0:0:0:
36,192,108340,128,0,108640:0:0:0:0:
109,192,108340,128,0,108640:0:0:0:0:
182,192,108340,1,0,0:0:0:0:
402,192,108340,1,0,0:0:0:0:
475,192,108340,1,0,0:0:0:0:
329,192,108340,1,0,0:0:0:0:
256,192,108415,1,0,0:0:0:0:
329,192,108490,1,0,0:0:0:0:
256,192,108565,1,0,0:0:0:0:
402,192,108640,128,0,108715:0:0:0:0:
475,192,108640,128,0,108715:0:0:0:0:
182,192,108640,1,0,0:0:0:0:
256,192,108715,1,0,0:0:0:0:
402,192,108790,128,0,108865:0:0:0:0:
475,192,108790,128,0,108865:0:0:0:0:
109,192,108790,1,0,0:0:0:0:
182,192,108865,1,0,0:0:0:0:
402,192,108940,128,0,109015:0:0:0:0:
475,192,108940,128,0,109015:0:0:0:0:
109,192,108940,1,0,0:0:0:0:
329,192,108940,1,0,0:0:0:0:
256,192,108940,1,0,0:0:0:0:
36,192,108940,1,0,0:0:0:0:
182,192,109015,1,0,0:0:0:0:
402,192,109090,128,0,109165:0:0:0:0:
475,192,109090,128,0,109165:0:0:0:0:
109,192,109090,1,0,0:0:0:0:
256,192,109165,1,0,0:0:0:0:
402,192,109240,128,0,109315:0:0:0:0:
475,192,109240,128,0,109315:0:0:0:0:
182,192,109240,1,0,0:0:0:0:
109,192,109240,1,0,0:0:0:0:
36,192,109240,1,0,0:0:0:0:
329,192,109240,1,0,0:0:0:0:
256,192,109315,1,0,0:0:0:0:
475,192,109390,128,0,109465:0:0:0:0:
402,192,109390,128,0,109465:0:0:0:0:
109,192,109390,1,0,0:0:0:0:
182,192,109465,1,0,0:0:0:0:
402,192,109540,128,0,109840:0:0:0:0:
475,192,109540,128,0,109840:0:0:0:0:
36,192,109540,1,0,0:0:0:0:
109,192,109540,1,0,0:0:0:0:
329,192,109540,1,0,0:0:0:0:
256,192,109540,1,0,0:0:0:0:
182,192,109615,1,0,0:0:0:0:
329,192,109690,1,0,0:0:0:0:
256,192,109765,1,0,0:0:0:0:
109,192,109840,128,0,109915:0:0:0:0:
36,192,109840,128,0,109915:0:0:0:0:
329,192,109840,1,0,0:0:0:0:
182,192,109840,1,0,0:0:0:0:
256,192,109915,1,0,0:0:0:0:
36,192,109990,128,0,110065:0:0:0:0:
109,192,109990,128,0,110065:0:0:0:0:
329,192,109990,1,0,0:0:0:0:
402,192,110065,1,0,0:0:0:0:
475,192,110140,1,0,0:0:0:0:
109,192,110140,128,0,110215:0:0:0:0:
36,192,110140,128,0,110215:0:0:0:0:
329,192,110140,1,0,0:0:0:0:
256,192,110140,1,0,0:0:0:0:
182,192,110140,1,0,0:0:0:0:
402,192,110215,1,0,0:0:0:0:
109,192,110290,128,0,110365:0:0:0:0:
36,192,110290,128,0,110365:0:0:0:0:
329,192,110290,1,0,0:0:0:0:
256,192,110365,1,0,0:0:0:0:
109,192,110440,128,0,110515:0:0:0:0:
36,192,110440,128,0,110515:0:0:0:0:
182,192,110440,1,0,0:0:0:0:
329,192,110440,1,0,0:0:0:0:
402,192,110440,1,0,0:0:0:0:
475,192,110440,1,0,0:0:0:0:
256,192,110515,1,0,0:0:0:0:
109,192,110590,128,0,110665:0:0:0:0:
36,192,110590,128,0,110665:0:0:0:0:
329,192,110590,1,0,0:0:0:0:
402,192,110665,1,0,0:0:0:0:
36,192,110740,128,0,111040:0:0:0:0:
109,192,110740,128,0,111040:0:0:0:0:
475,192,110740,1,0,0:0:0:0:
329,192,110740,1,0,0:0:0:0:
256,192,110740,1,0,0:0:0:0:
182,192,110740,1,0,0:0:0:0:
402,192,110815,1,0,0:0:0:0:
329,192,110890,1,0,0:0:0:0:
256,192,110965,1,0,0:0:0:0:
182,192,111040,1,0,0:0:0:0:
329,192,111040,1,0,0:0:0:0:
475,192,111040,128,0,111115:0:0:0:0:
402,192,111040,128,0,111115:0:0:0:0:
256,192,111115,1,0,0:0:0:0:
402,192,111190,128,0,111265:0:0:0:0:
475,192,111190,128,0,111265:0:0:0:0:
182,192,111190,1,0,0:0:0:0:
109,192,111265,1,0,0:0:0:0:
402,192,111340,128,0,111415:0:0:0:0:
475,192,111340,128,0,111415:0:0:0:0:
36,192,111340,1,0,0:0:0:0:
256,192,111340,1,0,0:0:0:0:
182,192,111340,1,0,0:0:0:0:
329,192,111340,1,0,0:0:0:0:
109,192,111415,1,0,0:0:0:0:
475,192,111490,128,0,111565:0:0:0:0:
402,192,111490,128,0,111565:0:0:0:0:
182,192,111490,1,0,0:0:0:0:
256,192,111565,1,0,0:0:0:0:
402,192,111640,128,0,111940:0:0:0:0:
475,192,111640,128,0,111940:0:0:0:0:
329,192,111640,1,0,0:0:0:0:
182,192,111640,1,0,0:0:0:0:
109,192,111640,1,0,0:0:0:0:
36,192,111640,1,0,0:0:0:0:
256,192,111715,1,0,0:0:0:0:
182,192,111790,1,0,0:0:0:0:
109,192,111865,1,0,0:0:0:0:
36,192,111940,1,0,0:0:0:0:
182,192,111940,1,0,0:0:0:0:
329,192,111940,1,0,0:0:0:0:
256,192,111940,1,0,0:0:0:0:
109,192,112015,1,0,0:0:0:0:
182,192,112090,1,0,0:0:0:0:
256,192,112165,1,0,0:0:0:0:
329,192,112240,1,0,0:0:0:0:
475,192,112240,1,0,0:0:0:0:
36,192,112240,1,0,0:0:0:0:
109,192,112240,1,0,0:0:0:0:
182,192,112240,128,0,112540:0:0:0:0:
402,192,112240,1,0,0:0:0:0:
256,192,112315,1,0,0:0:0:0:
329,192,112390,1,0,0:0:0:0:
402,192,112465,1,0,0:0:0:0:
256,192,112540,128,0,112840:0:0:0:0:
109,192,112540,1,0,0:0:0:0:
475,192,112540,1,0,0:0:0:0:
36,192,112540,1,0,0:0:0:0:
329,192,112540,1,0,0:0:0:0:
402,192,112615,1,0,0:0:0:0:
329,192,112690,1,0,0:0:0:0:
182,192,112765,1,0,0:0:0:0:
329,192,112840,128,0,113140:0:0:0:0:
109,192,112840,1,0,0:0:0:0:
36,192,112840,1,0,0:0:0:0:
475,192,112840,1,0,0:0:0:0:
402,192,112840,1,0,0:0:0:0:
182,192,112915,1,0,0:0:0:0:
256,192,112990,1,0,0:0:0:0:
402,192,113065,1,0,0:0:0:0:
109,192,113140,128,0,113440:0:0:0:0:
475,192,113140,1,0,0:0:0:0:
256,192,113140,1,0,0:0:0:0:
182,192,113140,1,0,0:0:0:0:
36,192,113140,1,0,0:0:0:0:
402,192,113215,1,0,0:0:0:0:
329,192,113290,1,0,0:0:0:0:
256,192,113365,1,0,0:0:0:0:
402,192,113440,128,0,113590:0:0:0:0:
182,192,113440,1,0,0:0:0:0:
36,192,113440,1,0,0:0:0:0:
329,192,113440,1,0,0:0:0:0:
475,192,113440,1,0,0:0:0:0:
256,192,113515,1,0,0:0:0:0:
329,192,113590,128,0,114040:0:0:0:0:
182,192,113590,1,0,0:0:0:0:
109,192,113665,1,0,0:0:0:0:
36,192,113740,1,0,0:0:0:0:
182,192,113740,1,0,0:0:0:0:
256,192,113740,1,0,0:0:0:0:
475,192,113740,1,0,0:0:0:0:
402,192,113740,1,0,0:0:0:0:
109,192,113815,1,0,0:0:0:0:
182,192,113890,1,0,0:0:0:0:
256,192,113965,1,0,0:0:0:0:
182,192,114040,128,0,114340:0:0:0:0:
109,192,114040,1,0,0:0:0:0:
36,192,114040,1,0,0:0:0:0:
475,192,114040,1,0,0:0:0:0:
402,192,114040,1,0,0:0:0:0:
256,192,114115,1,0,0:0:0:0:
329,192,114190,1,0,0:0:0:0:
402,192,114265,1,0,0:0:0:0:
256,192,114340,128,0,115090:0:0:0:0:
475,192,114340,1,0,0:0:0:0:
329,192,114340,1,0,0:0:0:0:
36,192,114340,1,0,0:0:0:0:
109,192,114415,1,0,0:0:0:0:
402,192,114415,1,0,0:0:0:0:
182,192,114490,1,0,0:0:0:0:
329,192,114490,1,0,0:0:0:0:
109,192,114565,1,0,0:0:0:0:
402,192,114565,1,0,0:0:0:0:
36,192,114640,1,0,0:0:0:0:
475,192,114640,1,0,0:0:0:0:
109,192,114715,1,0,0:0:0:0:
402,192,114715,1,0,0:0:0:0:
182,192,114790,1,0,0:0:0:0:
329,192,114790,1,0,0:0:0:0:
402,192,114865,1,0,0:0:0:0:
36,192,114865,1,0,0:0:0:0:
109,192,114940,1,0,0:0:0:0:
475,192,114940,1,0,0:0:0:0:
329,192,115015,1,0,0:0:0:0:
182,192,115015,1,0,0:0:0:0:
36,192,115090,128,0,115165:0:0:0:0:
475,192,115090,128,0,115165:0:0:0:0:
109,192,115090,128,0,115165:0:0:0:0:
402,192,115090,128,0,115165:0:0:0:0:
109,192,115240,128,0,115315:0:0:0:0:
402,192,115240,128,0,115315:0:0:0:0:
256,192,115240,128,0,115315:0:0:0:0:
182,192,115390,128,0,115465:0:0:0:0:
329,192,115390,128,0,115465:0:0:0:0:
36,192,115390,128,0,115465:0:0:0:0:
475,192,115390,128,0,115465:0:0:0:0:
109,192,115540,1,0,0:0:0:0:
256,192,115540,1,0,0:0:0:0:
402,192,115540,1,0,0:0:0:0:
36,192,115540,128,0,115840:0:0:0:0:
475,192,115540,128,0,115840:0:0:0:0:
329,192,115840,128,0,116140:0:0:0:0:
182,192,115840,128,0,116140:0:0:0:0:
402,192,115840,1,0,0:0:0:0:
256,192,115840,1,0,0:0:0:0:
109,192,115840,1,0,0:0:0:0:
109,192,116140,128,0,116440:0:0:0:0:
256,192,116140,128,0,116440:0:0:0:0:
402,192,116140,128,0,116440:0:0:0:0:
475,192,116140,1,0,0:0:0:0:
36,192,116140,1,0,0:0:0:0:
182,192,116440,128,0,116740:0:0:0:0:
329,192,116440,128,0,116740:0:0:0:0:
475,192,116440,1,0,0:0:0:0:
36,192,116440,1,0,0:0:0:0:
256,192,116740,1,0,0:0:0:0:
36,192,116740,1,0,0:0:0:0:
109,192,116740,128,0,116815:0:0:0:0:
475,192,116740,1,0,0:0:0:0:
402,192,116740,128,0,116815:0:0:0:0:
182,192,116815,128,0,116890:0:0:0:0:
329,192,116815,128,0,116890:0:0:0:0:
256,192,116890,128,0,116965:0:0:0:0:
475,192,116890,128,0,116965:0:0:0:0:
182,192,116965,128,0,117040:0:0:0:0:
402,192,116965,128,0,117040:0:0:0:0:
109,192,117040,128,0,117115:0:0:0:0:
329,192,117040,128,0,117115:0:0:0:0:
36,192,117115,128,0,117190:0:0:0:0:
256,192,117115,128,0,117190:0:0:0:0:
182,192,117190,128,0,117265:0:0:0:0:
329,192,117190,128,0,117265:0:0:0:0:
402,192,117265,128,0,117340:0:0:0:0:
109,192,117265,128,0,117340:0:0:0:0:
475,192,117340,128,0,117415:0:0:0:0:
36,192,117340,128,0,117415:0:0:0:0:
109,192,117415,128,0,117490:0:0:0:0:
402,192,117415,128,0,117490:0:0:0:0:
182,192,117490,128,0,117565:0:0:0:0:
329,192,117490,128,0,117565:0:0:0:0:
256,192,117565,128,0,117640:0:0:0:0:
36,192,117565,128,0,117640:0:0:0:0:
329,192,117640,128,0,117715:0:0:0:0:
109,192,117640,128,0,117715:0:0:0:0:
182,192,117715,128,0,117790:0:0:0:0:
402,192,117715,128,0,117790:0:0:0:0:
256,192,117790,128,0,117865:0:0:0:0:
475,192,117790,128,0,117865:0:0:0:0:
182,192,117865,128,0,117940:0:0:0:0:
402,192,117865,128,0,117940:0:0:0:0:
36,192,117940,1,0,0:0:0:0:
329,192,117940,1,0,0:0:0:0:
109,192,117940,1,0,0:0:0:0:
256,192,118015,1,0,0:0:0:0:
36,192,118090,128,0,118165:0:0:0:0:
182,192,118090,1,0,0:0:0:0:
402,192,118090,1,0,0:0:0:0:
475,192,118090,128,0,118165:0:0:0:0:
329,192,118165,1,0,0:0:0:0:
36,192,118240,128,0,118315:0:0:0:0:
256,192,118240,1,0,0:0:0:0:
109,192,118240,1,0,0:0:0:0:
475,192,118240,128,0,118315:0:0:0:0:
329,192,118315,1,0,0:0:0:0:
36,192,118390,128,0,118465:0:0:0:0:
402,192,118390,1,0,0:0:0:0:
182,192,118390,1,0,0:0:0:0:
475,192,118390,128,0,118465:0:0:0:0:
256,192,118465,1,0,0:0:0:0:
36,192,118540,128,0,119140:0:0:0:0:
329,192,118540,1,0,0:0:0:0:
109,192,118540,1,0,0:0:0:0:
475,192,118540,1,0,0:0:0:0:
182,192,118615,1,0,0:0:0:0:
402,192,118690,1,0,0:0:0:0:
256,192,118690,1,0,0:0:0:0:
475,192,118690,1,0,0:0:0:0:
329,192,118765,1,0,0:0:0:0:
256,192,118840,1,0,0:0:0:0:
109,192,118840,1,0,0:0:0:0:
402,192,118840,1,0,0:0:0:0:
182,192,118915,1,0,0:0:0:0:
475,192,118990,1,0,0:0:0:0:
109,192,118990,1,0,0:0:0:0:
402,192,118990,1,0,0:0:0:0:
329,192,119065,1,0,0:0:0:0:
256,192,119140,128,0,119215:0:0:0:0:
475,192,119140,128,0,119290:0:0:0:0:
402,192,119140,1,0,0:0:0:0:
182,192,119140,1,0,0:0:0:0:
329,192,119215,128,0,119290:0:0:0:0:
109,192,119215,1,0,0:0:0:0:
402,192,119290,128,0,119365:0:0:0:0:
36,192,119290,1,0,0:0:0:0:
475,192,119365,128,0,119440:0:0:0:0:
182,192,119365,1,0,0:0:0:0:
256,192,119440,128,0,119515:0:0:0:0:
36,192,119440,128,0,119590:0:0:0:0:
329,192,119440,1,0,0:0:0:0:
182,192,119515,128,0,119590:0:0:0:0:
402,192,119515,1,0,0:0:0:0:
109,192,119590,128,0,119665:0:0:0:0:
329,192,119590,1,0,0:0:0:0:
36,192,119665,128,0,119740:0:0:0:0:
256,192,119665,1,0,0:0:0:0:
402,192,119740,128,0,119890:0:0:0:0:
182,192,119740,128,0,119815:0:0:0:0:
475,192,119740,1,0,0:0:0:0:
256,192,119815,128,0,119890:0:0:0:0:
36,192,119815,1,0,0:0:0:0:
329,192,119890,128,0,119965:0:0:0:0:
109,192,119890,1,0,0:0:0:0:
402,192,119965,128,0,120040:0:0:0:0:
182,192,119965,1,0,0:0:0:0:
109,192,120040,128,0,120190:0:0:0:0:
329,192,120040,128,0,120115:0:0:0:0:
36,192,120040,1,0,0:0:0:0:
256,192,120115,128,0,120190:0:0:0:0:
475,192,120115,1,0,0:0:0:0:
182,192,120190,128,0,120265:0:0:0:0:
402,192,120190,1,0,0:0:0:0:
109,192,120265,128,0,120340:0:0:0:0:
329,192,120265,1,0,0:0:0:0:
36,192,120340,128,0,120790:0:0:0:0:
256,192,120340,1,0,0:0:0:0:
475,192,120340,128,0,120390:0:0:0:0:
402,192,120390,128,0,120440:0:0:0:0:
182,192,120415,1,0,0:0:0:0:
329,192,120440,128,0,120490:0:0:0:0:
256,192,120490,128,0,120540:0:0:0:0:
109,192,120490,1,0,0:0:0:0:
182,192,120540,128,0,120590:0:0:0:0:
475,192,120565,1,0,0:0:0:0:
256,192,120590,128,0,120640:0:0:0:0:
329,192,120640,128,0,120690:0:0:0:0:
109,192,120640,1,0,0:0:0:0:
402,192,120690,128,0,120740:0:0:0:0:
182,192,120715,1,0,0:0:0:0:
329,192,120740,128,0,120790:0:0:0:0:
256,192,120790,128,0,120840:0:0:0:0:
475,192,120790,1,0,0:0:0:0:
182,192,120840,128,0,120890:0:0:0:0:
402,192,120865,1,0,0:0:0:0:
109,192,120890,128,0,120940:0:0:0:0:
475,192,120940,128,0,121540:0:0:0:0:
329,192,120940,1,0,0:0:0:0:
36,192,120940,128,0,120990:0:0:0:0:
109,192,120990,128,0,121040:0:0:0:0:
402,192,121015,1,0,0:0:0:0:
182,192,121040,128,0,121090:0:0:0:0:
256,192,121090,128,0,121140:0:0:0:0:
36,192,121090,1,0,0:0:0:0:
329,192,121140,128,0,121190:0:0:0:0:
109,192,121165,1,0,0:0:0:0:
402,192,121190,128,0,121240:0:0:0:0:
36,192,121240,128,0,121290:0:0:0:0:
256,192,121240,1,0,0:0:0:0:
109,192,121290,128,0,121340:0:0:0:0:
329,192,121315,1,0,0:0:0:0:
182,192,121340,128,0,121390:0:0:0:0:
256,192,121390,128,0,121440:0:0:0:0:
36,192,121390,1,0,0:0:0:0:
329,192,121440,128,0,121490:0:0:0:0:
109,192,121465,1,0,0:0:0:0:
402,192,121490,128,0,121540:0:0:0:0:
182,192,121540,128,0,121615:0:0:0:0:
256,192,121540,1,0,0:0:0:0:
36,192,121540,1,0,0:0:0:0:
329,192,121615,1,0,0:0:0:0:
182,192,121690,128,0,121765:0:0:0:0:
402,192,121690,1,0,0:0:0:0:
475,192,121690,1,0,0:0:0:0:
109,192,121690,1,0,0:0:0:0:
329,192,121765,1,0,0:0:0:0:
182,192,121840,128,0,121915:0:0:0:0:
256,192,121840,1,0,0:0:0:0:
36,192,121840,1,0,0:0:0:0:
475,192,121840,1,0,0:0:0:0:
402,192,121915,1,0,0:0:0:0:
182,192,121990,128,0,122065:0:0:0:0:
329,192,121990,1,0,0:0:0:0:
109,192,121990,1,0,0:0:0:0:
402,192,122065,1,0,0:0:0:0:
475,192,122140,1,0,0:0:0:0:
36,192,122140,1,0,0:0:0:0:
182,192,122140,128,0,122215:0:0:0:0:
109,192,122215,128,0,122290:0:0:0:0:
329,192,122215,1,0,0:0:0:0:
256,192,122290,128,0,122365:0:0:0:0:
402,192,122290,1,0,0:0:0:0:
475,192,122290,1,0,0:0:0:0:
182,192,122365,128,0,122440:0:0:0:0:
36,192,122365,1,0,0:0:0:0:
329,192,122440,128,0,122515:0:0:0:0:
109,192,122440,1,0,0:0:0:0:
475,192,122440,1,0,0:0:0:0:
256,192,122515,128,0,122590:0:0:0:0:
182,192,122515,1,0,0:0:0:0:
402,192,122590,128,0,122665:0:0:0:0:
109,192,122590,1,0,0:0:0:0:
36,192,122590,1,0,0:0:0:0:
329,192,122665,128,0,122740:0:0:0:0:
182,192,122665,1,0,0:0:0:0:
475,192,122740,128,0,123040:0:0:0:0:
256,192,122740,1,0,0:0:0:0:
36,192,122740,1,0,0:0:0:0:
109,192,122815,1,0,0:0:0:0:
329,192,122815,1,0,0:0:0:0:
182,192,122890,1,0,0:0:0:0:
402,192,122890,1,0,0:0:0:0:
109,192,122965,1,0,0:0:0:0:
329,192,122965,1,0,0:0:0:0:
256,192,123040,128,0,123340:0:0:0:0:
36,192,123040,1,0,0:0:0:0:
402,192,123040,1,0,0:0:0:0:
329,192,123115,1,0,0:0:0:0:
182,192,123115,1,0,0:0:0:0:
402,192,123190,1,0,0:0:0:0:
109,192,123190,1,0,0:0:0:0:
329,192,123265,1,0,0:0:0:0:
182,192,123265,1,0,0:0:0:0:
36,192,123340,128,0,123640:0:0:0:0:
109,192,123340,1,0,0:0:0:0:
475,192,123340,1,0,0:0:0:0:
402,192,123415,1,0,0:0:0:0:
182,192,123415,1,0,0:0:0:0:
256,192,123490,1,0,0:0:0:0:
329,192,123490,1,0,0:0:0:0:
182,192,123565,1,0,0:0:0:0:
402,192,123565,1,0,0:0:0:0:
256,192,123640,128,0,123940:0:0:0:0:
109,192,123640,1,0,0:0:0:0:
475,192,123640,1,0,0:0:0:0:
402,192,123715,1,0,0:0:0:0:
182,192,123715,1,0,0:0:0:0:
329,192,123790,1,0,0:0:0:0:
36,192,123790,1,0,0:0:0:0:
109,192,123865,1,0,0:0:0:0:
402,192,123865,1,0,0:0:0:0:
182,192,123940,128,0,124015:0:0:0:0:
475,192,123940,128,0,124015:0:0:0:0:
36,192,123940,1,0,0:0:0:0:
329,192,123940,1,0,0:0:0:0:
109,192,124015,1,0,0:0:0:0:
182,192,124090,128,0,124165:0:0:0:0:
475,192,124090,128,0,124165:0:0:0:0:
402,192,124090,1,0,0:0:0:0:
36,192,124090,1,0,0:0:0:0:
329,192,124165,1,0,0:0:0:0:
182,192,124240,128,0,124315:0:0:0:0:
475,192,124240,128,0,124315:0:0:0:0:
256,192,124240,1,0,0:0:0:0:
36,192,124240,1,0,0:0:0:0:
109,192,124315,128,0,124390:0:0:0:0:
402,192,124315,128,0,124390:0:0:0:0:
256,192,124390,1,0,0:0:0:0:
36,192,124390,128,0,124465:0:0:0:0:
329,192,124390,128,0,124465:0:0:0:0:
109,192,124465,128,0,124540:0:0:0:0:
402,192,124465,128,0,124540:0:0:0:0:
182,192,124540,128,0,124690:0:0:0:0:
475,192,124540,128,0,124690:0:0:0:0:
329,192,124540,1,0,0:0:0:0:
402,192,124690,128,0,124840:0:0:0:0:
109,192,124690,128,0,124840:0:0:0:0:
36,192,124690,1,0,0:0:0:0:
36,192,124840,128,0,124990:0:0:0:0:
329,192,124840,128,0,124990:0:0:0:0:
256,192,124840,1,0,0:0:0:0:
109,192,124990,128,0,125140:0:0:0:0:
402,192,124990,128,0,125140:0:0:0:0:
182,192,124990,1,0,0:0:0:0:
182,192,125140,128,0,125215:0:0:0:0:
475,192,125140,128,0,125215:0:0:0:0:
329,192,125140,1,0,0:0:0:0:
36,192,125140,1,0,0:0:0:0:
256,192,125215,1,0,0:0:0:0:
182,192,125290,128,0,125365:0:0:0:0:
475,192,125290,128,0,125365:0:0:0:0:
36,192,125290,1,0,0:0:0:0:
402,192,125290,1,0,0:0:0:0:
109,192,125365,1,0,0:0:0:0:
182,192,125440,128,0,125515:0:0:0:0:
475,192,125440,128,0,125515:0:0:0:0:
36,192,125440,1,0,0:0:0:0:
256,192,125440,1,0,0:0:0:0:
109,192,125515,128,0,125590:0:0:0:0:
402,192,125515,128,0,125590:0:0:0:0:
329,192,125590,128,0,125665:0:0:0:0:
36,192,125590,128,0,125665:0:0:0:0:
109,192,125665,128,0,125740:0:0:0:0:
256,192,125665,128,0,125740:0:0:0:0:
329,192,125740,128,0,125815:0:0:0:0:
182,192,125740,128,0,125815:0:0:0:0:
256,192,125815,128,0,125890:0:0:0:0:
402,192,125815,128,0,125890:0:0:0:0:
182,192,125890,128,0,125965:0:0:0:0:
475,192,125890,128,0,125965:0:0:0:0:
109,192,125965,128,0,126040:0:0:0:0:
402,192,125965,128,0,126040:0:0:0:0:
329,192,126040,128,0,126115:0:0:0:0:
36,192,126040,128,0,126115:0:0:0:0:
256,192,126115,128,0,126190:0:0:0:0:
475,192,126115,128,0,126190:0:0:0:0:
402,192,126190,128,0,126265:0:0:0:0:
182,192,126190,128,0,126265:0:0:0:0:
329,192,126265,128,0,126340:0:0:0:0:
109,192,126265,128,0,126340:0:0:0:0:
36,192,126340,1,0,0:0:0:0:
256,192,126340,1,0,0:0:0:0:
475,192,126340,1,0,0:0:0:0:
402,192,126340,1,0,0:0:0:0:
36,192,126490,1,0,0:0:0:0:
182,192,126490,1,0,0:0:0:0:
475,192,126490,1,0,0:0:0:0:
402,192,126490,1,0,0:0:0:0:
109,192,126640,1,0,0:0:0:0:
36,192,126640,1,0,0:0:0:0:
256,192,126640,1,0,0:0:0:0:
329,192,126640,1,0,0:0:0:0:
475,192,126640,1,0,0:0:0:0:
36,192,126940,1,0,0:0:0:0:
109,192,126940,1,0,0:0:0:0:
256,192,126940,1,0,0:0:0:0:
402,192,126940,1,0,0:0:0:0:
36,192,127090,1,0,0:0:0:0:
109,192,127090,1,0,0:0:0:0:
256,192,127090,1,0,0:0:0:0:
402,192,127090,1,0,0:0:0:0:
109,192,127240,1,0,0:0:0:0:
182,192,127240,1,0,0:0:0:0:
329,192,127240,1,0,0:0:0:0:
475,192,127240,1,0,0:0:0:0:
36,192,127540,1,0,0:0:0:0:
256,192,127540,1,0,0:0:0:0:
182,192,127540,1,0,0:0:0:0:
475,192,127540,1,0,0:0:0:0:
329,192,127540,1,0,0:0:0:0:
109,192,127690,1,0,0:0:0:0:
256,192,127690,1,0,0:0:0:0:
402,192,127690,1,0,0:0:0:0:
36,192,127840,1,0,0:0:0:0:
256,192,127840,1,0,0:0:0:0:
475,192,127840,1,0,0:0:0:0:
182,192,127915,1,0,0:0:0:0:
402,192,127915,1,0,0:0:0:0:
109,192,127990,1,0,0:0:0:0:
475,192,127990,1,0,0:0:0:0:
329,192,127990,1,0,0:0:0:0:
36,192,128140,1,0,0:0:0:0:
256,192,128140,1,0,0:0:0:0:
402,192,128140,1,0,0:0:0:0:
475,192,128290,1,0,0:0:0:0:
182,192,128290,1,0,0:0:0:0:
329,192,128290,1,0,0:0:0:0:
36,192,128440,1,0,0:0:0:0:
109,192,128440,1,0,0:0:0:0:
402,192,128440,1,0,0:0:0:0:
182,192,128515,1,0,0:0:0:0:
329,192,128515,1,0,0:0:0:0:
256,192,128590,1,0,0:0:0:0:
475,192,128590,1,0,0:0:0:0:
36,192,128590,1,0,0:0:0:0:
109,192,128740,1,0,0:0:0:0:
329,192,128740,1,0,0:0:0:0:
402,192,128740,1,0,0:0:0:0:
36,192,128890,1,0,0:0:0:0:
256,192,128890,1,0,0:0:0:0:
475,192,128890,1,0,0:0:0:0:
109,192,129040,1,0,0:0:0:0:
329,192,129040,1,0,0:0:0:0:
182,192,129040,1,0,0:0:0:0:
402,192,129115,1,0,0:0:0:0:
36,192,129115,1,0,0:0:0:0:
475,192,129190,1,0,0:0:0:0:
256,192,129190,1,0,0:0:0:0:
109,192,129190,1,0,0:0:0:0:
36,192,129340,1,0,0:0:0:0:
182,192,129340,1,0,0:0:0:0:
402,192,129340,1,0,0:0:0:0:
109,192,129490,1,0,0:0:0:0:
256,192,129490,1,0,0:0:0:0:
402,192,129490,1,0,0:0:0:0:
182,192,129640,1,0,0:0:0:0:
329,192,129640,1,0,0:0:0:0:
475,192,129640,1,0,0:0:0:0:
109,192,129715,1,0,0:0:0:0:
402,192,129715,1,0,0:0:0:0:
36,192,129790,1,0,0:0:0:0:
256,192,129790,1,0,0:0:0:0:
329,192,129790,1,0,0:0:0:0:
36,192,129940,128,0,130090:0:0:0:0:
402,192,129940,1,0,0:0:0:0:
182,192,129940,1,0,0:0:0:0:
475,192,129940,1,0,0:0:0:0:
329,192,130015,1,0,0:0:0:0:
402,192,130090,1,0,0:0:0:0:
256,192,130090,128,0,130240:0:0:0:0:
109,192,130090,1,0,0:0:0:0:
329,192,130165,1,0,0:0:0:0:
402,192,130240,1,0,0:0:0:0:
109,192,130240,128,0,130390:0:0:0:0:
36,192,130240,1,0,0:0:0:0:
329,192,130315,1,0,0:0:0:0:
402,192,130390,1,0,0:0:0:0:
182,192,130390,128,0,130540:0:0:0:0:
475,192,130390,1,0,0:0:0:0:
329,192,130465,1,0,0:0:0:0:
402,192,130540,1,0,0:0:0:0:
475,192,130540,128,0,130690:0:0:0:0:
256,192,130540,1,0,0:0:0:0:
329,192,130615,1,0,0:0:0:0:
402,192,130690,1,0,0:0:0:0:
109,192,130690,128,0,130840:0:0:0:0:
36,192,130690,1,0,0:0:0:0:
329,192,130765,1,0,0:0:0:0:
402,192,130840,1,0,0:0:0:0:
256,192,130840,128,0,130990:0:0:0:0:
182,192,130840,1,0,0:0:0:0:
329,192,130915,1,0,0:0:0:0:
402,192,130990,1,0,0:0:0:0:
182,192,130990,128,0,131140:0:0:0:0:
36,192,130990,1,0,0:0:0:0:
329,192,131065,1,0,0:0:0:0:
402,192,131140,1,0,0:0:0:0:
36,192,131140,128,0,131290:0:0:0:0:
256,192,131140,128,0,131290:0:0:0:0:
475,192,131140,1,0,0:0:0:0:
182,192,131290,128,0,131440:0:0:0:0:
475,192,131290,128,0,131440:0:0:0:0:
329,192,131290,1,0,0:0:0:0:
109,192,131440,128,0,131590:0:0:0:0:
329,192,131440,128,0,131590:0:0:0:0:
36,192,131440,1,0,0:0:0:0:
256,192,131590,128,0,131740:0:0:0:0:
475,192,131590,128,0,131740:0:0:0:0:
402,192,131590,1,0,0:0:0:0:
36,192,131740,128,0,131890:0:0:0:0:
329,192,131740,128,0,131890:0:0:0:0:
182,192,131740,1,0,0:0:0:0:
182,192,131890,128,0,132040:0:0:0:0:
402,192,131890,128,0,132040:0:0:0:0:
109,192,131890,1,0,0:0:0:0:
36,192,132040,128,0,132340:0:0:0:0:
475,192,132040,128,0,132340:0:0:0:0:
256,192,132040,128,0,132090:0:0:0:0:
329,192,132090,128,0,132140:0:0:0:0:
402,192,132140,128,0,132190:0:0:0:0:
109,192,132190,128,0,132240:0:0:0:0:
182,192,132240,128,0,132290:0:0:0:0:
256,192,132290,128,0,132340:0:0:0:0:
109,192,132340,1,0,0:0:0:0:
329,192,132340,1,0,0:0:0:0:
402,192,132340,1,0,0:0:0:0:
182,192,132490,1,0,0:0:0:0:
475,192,132490,1,0,0:0:0:0:
36,192,132490,1,0,0:0:0:0:
109,192,132640,1,0,0:0:0:0:
329,192,132640,1,0,0:0:0:0:
402,192,132640,1,0,0:0:0:0:
182,192,132715,1,0,0:0:0:0:
475,192,132715,1,0,0:0:0:0:
256,192,132790,1,0,0:0:0:0:
36,192,132790,1,0,0:0:0:0:
329,192,132790,1,0,0:0:0:0:
402,192,132940,1,0,0:0:0:0:
475,192,132940,1,0,0:0:0:0:
109,192,132940,1,0,0:0:0:0:
36,192,133090,1,0,0:0:0:0:
256,192,133090,1,0,0:0:0:0:
329,192,133090,1,0,0:0:0:0:
109,192,133240,1,0,0:0:0:0:
475,192,133240,1,0,0:0:0:0:
182,192,133315,1,0,0:0:0:0:
402,192,133315,1,0,0:0:0:0:
256,192,133390,1,0,0:0:0:0:
329,192,133390,1,0,0:0:0:0:
36,192,133390,1,0,0:0:0:0:
109,192,133540,1,0,0:0:0:0:
475,192,133540,1,0,0:0:0:0:
402,192,133540,1,0,0:0:0:0:
36,192,133690,1,0,0:0:0:0:
256,192,133690,1,0,0:0:0:0:
402,192,133690,1,0,0:0:0:0:
109,192,133840,1,0,0:0:0:0:
329,192,133840,1,0,0:0:0:0:
475,192,133840,1,0,0:0:0:0:
182,192,133915,1,0,0:0:0:0:
402,192,133915,1,0,0:0:0:0:
256,192,133990,1,0,0:0:0:0:
36,192,133990,1,0,0:0:0:0:
475,192,133990,1,0,0:0:0:0:
256,192,134140,1,0,0:0:0:0:
402,192,134140,1,0,0:0:0:0:
109,192,134140,1,0,0:0:0:0:
182,192,134290,1,0,0:0:0:0:
329,192,134290,1,0,0:0:0:0:
475,192,134290,1,0,0:0:0:0:
402,192,134440,1,0,0:0:0:0:
36,192,134440,1,0,0:0:0:0:
109,192,134440,1,0,0:0:0:0:
182,192,134515,1,0,0:0:0:0:
256,192,134590,1,0,0:0:0:0:
36,192,134590,1,0,0:0:0:0:
475,192,134590,1,0,0:0:0:0:
475,192,134740,128,0,134890:0:0:0:0:
109,192,134740,1,0,0:0:0:0:
329,192,134740,1,0,0:0:0:0:
36,192,134740,1,0,0:0:0:0:
182,192,134815,1,0,0:0:0:0:
109,192,134890,1,0,0:0:0:0:
256,192,134890,128,0,135040:0:0:0:0:
402,192,134890,1,0,0:0:0:0:
182,192,134965,1,0,0:0:0:0:
109,192,135040,1,0,0:0:0:0:
402,192,135040,128,0,135190:0:0:0:0:
475,192,135040,1,0,0:0:0:0:
182,192,135115,1,0,0:0:0:0:
109,192,135190,1,0,0:0:0:0:
329,192,135190,128,0,135340:0:0:0:0:
36,192,135190,1,0,0:0:0:0:
182,192,135265,1,0,0:0:0:0:
109,192,135340,1,0,0:0:0:0:
36,192,135340,128,0,135490:0:0:0:0:
256,192,135340,1,0,0:0:0:0:
182,192,135415,1,0,0:0:0:0:
109,192,135490,1,0,0:0:0:0:
402,192,135490,128,0,135640:0:0:0:0:
475,192,135490,1,0,0:0:0:0:
182,192,135565,1,0,0:0:0:0:
109,192,135640,1,0,0:0:0:0:
256,192,135640,128,0,135790:0:0:0:0:
329,192,135640,1,0,0:0:0:0:
182,192,135715,1,0,0:0:0:0:
109,192,135790,1,0,0:0:0:0:
329,192,135790,128,0,135940:0:0:0:0:
475,192,135790,1,0,0:0:0:0:
182,192,135865,1,0,0:0:0:0:
109,192,135940,1,0,0:0:0:0:
256,192,135940,128,0,136090:0:0:0:0:
36,192,135940,1,0,0:0:0:0:
402,192,135940,1,0,0:0:0:0:
329,192,136090,128,0,136240:0:0:0:0:
36,192,136090,128,0,136240:0:0:0:0:
182,192,136090,1,0,0:0:0:0:
109,192,136165,1,0,0:0:0:0:
402,192,136240,128,0,136390:0:0:0:0:
182,192,136240,128,0,136390:0:0:0:0:
475,192,136240,1,0,0:0:0:0:
329,192,136315,1,0,0:0:0:0:
256,192,136390,128,0,136540:0:0:0:0:
36,192,136390,128,0,136540:0:0:0:0:
109,192,136390,1,0,0:0:0:0:
329,192,136465,1,0,0:0:0:0:
475,192,136540,128,0,136690:0:0:0:0:
182,192,136540,128,0,136690:0:0:0:0:
402,192,136540,1,0,0:0:0:0:
109,192,136540,1,0,0:0:0:0:
256,192,136615,1,0,0:0:0:0:
329,192,136690,128,0,136840:0:0:0:0:
109,192,136690,128,0,136840:0:0:0:0:
402,192,136690,1,0,0:0:0:0:
182,192,136765,1,0,0:0:0:0:
475,192,136840,128,0,137140:0:0:0:0:
36,192,136840,128,0,137140:0:0:0:0:
256,192,136840,128,0,136890:0:0:0:0:
402,192,136840,1,0,0:0:0:0:
182,192,136890,128,0,136940:0:0:0:0:
109,192,136940,128,0,136990:0:0:0:0:
402,192,136990,128,0,137040:0:0:0:0:
329,192,137040,128,0,137090:0:0:0:0:
256,192,137090,128,0,137140:0:0:0:0:
402,192,137140,128,0,137215:0:0:0:0:
182,192,137140,1,0,0:0:0:0:
109,192,137140,1,0,0:0:0:0:
329,192,137215,128,0,137290:0:0:0:0:
256,192,137290,128,0,137365:0:0:0:0:
109,192,137290,1,0,0:0:0:0:
36,192,137290,1,0,0:0:0:0:
475,192,137290,1,0,0:0:0:0:
182,192,137365,128,0,137440:0:0:0:0:
256,192,137440,128,0,137515:0:0:0:0:
475,192,137440,1,0,0:0:0:0:
402,192,137440,1,0,0:0:0:0:
329,192,137515,128,0,137590:0:0:0:0:
402,192,137590,128,0,137665:0:0:0:0:
36,192,137590,1,0,0:0:0:0:
256,192,137590,1,0,0:0:0:0:
109,192,137590,1,0,0:0:0:0:
475,192,137665,128,0,137740:0:0:0:0:
36,192,137740,128,0,137815:0:0:0:0:
182,192,137740,1,0,0:0:0:0:
329,192,137740,1,0,0:0:0:0:
109,192,137815,128,0,137890:0:0:0:0:
182,192,137890,128,0,137965:0:0:0:0:
475,192,137890,1,0,0:0:0:0:
402,192,137890,1,0,0:0:0:0:
256,192,137965,128,0,138040:0:0:0:0:
329,192,138040,128,0,138115:0:0:0:0:
109,192,138040,1,0,0:0:0:0:
475,192,138040,1,0,0:0:0:0:
256,192,138115,128,0,138190:0:0:0:0:
182,192,138190,128,0,138265:0:0:0:0:
402,192,138190,1,0,0:0:0:0:
475,192,138190,1,0,0:0:0:0:
36,192,138190,1,0,0:0:0:0:
109,192,138265,128,0,138340:0:0:0:0:
36,192,138340,1,0,0:0:0:0:
256,192,138340,1,0,0:0:0:0:
475,192,138340,128,0,138390:0:0:0:0:
402,192,138390,128,0,138440:0:0:0:0:
182,192,138415,1,0,0:0:0:0:
329,192,138440,128,0,138490:0:0:0:0:
256,192,138490,128,0,138540:0:0:0:0:
109,192,138490,1,0,0:0:0:0:
182,192,138540,128,0,138590:0:0:0:0:
402,192,138565,1,0,0:0:0:0:
109,192,138590,128,0,138640:0:0:0:0:
329,192,138640,1,0,0:0:0:0:
36,192,138640,128,0,138690:0:0:0:0:
109,192,138690,128,0,138740:0:0:0:0:
402,192,138715,1,0,0:0:0:0:
182,192,138740,128,0,138790:0:0:0:0:
475,192,138790,1,0,0:0:0:0:
256,192,138790,128,0,138840:0:0:0:0:
329,192,138840,128,0,138890:0:0:0:0:
36,192,138865,1,0,0:0:0:0:
402,192,138890,128,0,138940:0:0:0:0:
182,192,138940,1,0,0:0:0:0:
475,192,138940,128,0,138990:0:0:0:0:
402,192,138990,128,0,139040:0:0:0:0:
109,192,139015,1,0,0:0:0:0:
329,192,139040,128,0,139090:0:0:0:0:
36,192,139090,1,0,0:0:0:0:
256,192,139090,128,0,139140:0:0:0:0:
182,192,139140,128,0,139190:0:0:0:0:
402,192,139165,1,0,0:0:0:0:
109,192,139190,128,0,139240:0:0:0:0:
329,192,139240,1,0,0:0:0:0:
36,192,139240,128,0,139290:0:0:0:0:
109,192,139290,128,0,139340:0:0:0:0:
402,192,139315,1,0,0:0:0:0:
182,192,139340,128,0,139390:0:0:0:0:
475,192,139390,1,0,0:0:0:0:
256,192,139390,128,0,139440:0:0:0:0:
329,192,139440,128,0,139490:0:0:0:0:
36,192,139465,1,0,0:0:0:0:
402,192,139490,128,0,139540:0:0:0:0:
109,192,139540,1,0,0:0:0:0:
475,192,139540,1,0,0:0:0:0:
182,192,139540,1,0,0:0:0:0:
256,192,139615,1,0,0:0:0:0:
402,192,139615,1,0,0:0:0:0:
36,192,139690,128,0,139765:0:0:0:0:
329,192,139690,128,0,139765:0:0:0:0:
182,192,139765,1,0,0:0:0:0:
475,192,139765,1,0,0:0:0:0:
109,192,139840,128,0,139915:0:0:0:0:
256,192,139840,128,0,139915:0:0:0:0:
402,192,139915,1,0,0:0:0:0:
475,192,139915,1,0,0:0:0:0:
182,192,139990,128,0,140065:0:0:0:0:
329,192,139990,128,0,140065:0:0:0:0:
36,192,140065,1,0,0:0:0:0:
109,192,140065,1,0,0:0:0:0:
256,192,140140,128,0,140215:0:0:0:0:
475,192,140140,128,0,140215:0:0:0:0:
329,192,140215,1,0,0:0:0:0:
109,192,140215,1,0,0:0:0:0:
182,192,140290,128,0,140365:0:0:0:0:
402,192,140290,128,0,140365:0:0:0:0:
36,192,140365,1,0,0:0:0:0:
329,192,140365,1,0,0:0:0:0:
109,192,140440,128,0,140515:0:0:0:0:
256,192,140440,128,0,140515:0:0:0:0:
475,192,140515,1,0,0:0:0:0:
402,192,140515,1,0,0:0:0:0:
182,192,140590,128,0,140665:0:0:0:0:
329,192,140590,128,0,140665:0:0:0:0:
256,192,140665,1,0,0:0:0:0:
402,192,140665,1,0,0:0:0:0:
475,192,140740,128,0,140840:0:0:0:0:
36,192,140740,1,0,0:0:0:0:
109,192,140740,1,0,0:0:0:0:
402,192,140790,128,0,140890:0:0:0:0:
329,192,140840,128,0,140940:0:0:0:0:
256,192,140890,128,0,140990:0:0:0:0:
182,192,140940,128,0,141040:0:0:0:0:
109,192,140990,128,0,141090:0:0:0:0:
36,192,141040,128,0,141140:0:0:0:0:
329,192,141040,128,0,141140:0:0:0:0:
402,192,141090,128,0,141190:0:0:0:0:
475,192,141140,128,0,141240:0:0:0:0:
182,192,141190,128,0,141290:0:0:0:0:
256,192,141240,128,0,141340:0:0:0:0:
329,192,141290,128,0,141390:0:0:0:0:
402,192,141340,128,0,141440:0:0:0:0:
36,192,141340,128,0,141440:0:0:0:0:
109,192,141390,128,0,141490:0:0:0:0:
182,192,141440,128,0,141540:0:0:0:0:
256,192,141490,128,0,141590:0:0:0:0:
329,192,141540,128,0,141640:0:0:0:0:
402,192,141590,128,0,141690:0:0:0:0:
475,192,141640,128,0,141740:0:0:0:0:
36,192,141640,128,0,141690:0:0:0:0:
109,192,141690,128,0,141740:0:0:0:0:
182,192,141740,128,0,141790:0:0:0:0:
256,192,141790,128,0,141840:0:0:0:0:
329,192,141840,128,0,141890:0:0:0:0:
402,192,141890,128,0,141940:0:0:0:0:
256,192,141940,128,0,142540:0:0:0:0:
475,192,141940,128,0,142540:0:0:0:0:
36,192,141940,1,0,0:0:0:0:
182,192,141940,1,0,0:0:0:0:
109,192,142015,1,0,0:0:0:0:
182,192,142090,1,0,0:0:0:0:
329,192,142090,1,0,0:0:0:0:
402,192,142090,1,0,0:0:0:0:
109,192,142165,1,0,0:0:0:0:
36,192,142240,1,0,0:0:0:0:
182,192,142240,1,0,0:0:0:0:
402,192,142240,1,0,0:0:0:0:
329,192,142315,1,0,0:0:0:0:
402,192,142390,1,0,0:0:0:0:
109,192,142390,1,0,0:0:0:0:
36,192,142390,1,0,0:0:0:0:
182,192,142465,1,0,0:0:0:0:
329,192,142540,128,0,143140:0:0:0:0:
36,192,142540,128,0,143140:0:0:0:0:
109,192,142540,1,0,0:0:0:0:
402,192,142540,1,0,0:0:0:0:
182,192,142615,1,0,0:0:0:0:
256,192,142690,1,0,0:0:0:0:
475,192,142690,1,0,0:0:0:0:
109,192,142690,1,0,0:0:0:0:
402,192,142765,1,0,0:0:0:0:
182,192,142840,1,0,0:0:0:0:
109,192,142840,1,0,0:0:0:0:
475,192,142840,1,0,0:0:0:0:
256,192,142915,1,0,0:0:0:0:
402,192,142990,1,0,0:0:0:0:
475,192,142990,1,0,0:0:0:0:
109,192,142990,1,0,0:0:0:0:
182,192,143065,1,0,0:0:0:0:
109,192,143140,128,0,143740:0:0:0:0:
402,192,143140,128,0,143740:0:0:0:0:
256,192,143140,1,0,0:0:0:0:
475,192,143140,1,0,0:0:0:0:
182,192,143215,1,0,0:0:0:0:
36,192,143290,1,0,0:0:0:0:
256,192,143290,1,0,0:0:0:0:
475,192,143290,1,0,0:0:0:0:
329,192,143365,1,0,0:0:0:0:
182,192,143440,1,0,0:0:0:0:
475,192,143440,1,0,0:0:0:0:
36,192,143440,1,0,0:0:0:0:
256,192,143515,1,0,0:0:0:0:
329,192,143590,1,0,0:0:0:0:
475,192,143590,1,0,0:0:0:0:
182,192,143590,1,0,0:0:0:0:
256,192,143665,1,0,0:0:0:0:
182,192,143740,128,0,144340:0:0:0:0:
329,192,143740,128,0,144340:0:0:0:0:
36,192,143740,1,0,0:0:0:0:
475,192,143740,1,0,0:0:0:0:
109,192,143815,1,0,0:0:0:0:
256,192,143890,1,0,0:0:0:0:
402,192,143890,1,0,0:0:0:0:
109,192,143965,1,0,0:0:0:0:
36,192,144040,1,0,0:0:0:0:
475,192,144040,1,0,0:0:0:0:
402,192,144115,1,0,0:0:0:0:
256,192,144190,1,0,0:0:0:0:
109,192,144190,1,0,0:0:0:0:
402,192,144265,1,0,0:0:0:0:
36,192,144340,128,0,145540:0:0:0:0:
475,192,144340,128,0,145540:0:0:0:0:
109,192,144340,1,0,0:0:0:0:
256,192,144340,1,0,0:0:0:0:
402,192,144415,1,0,0:0:0:0:
329,192,144415,1,0,0:0:0:0:
256,192,144490,1,0,0:0:0:0:
182,192,144490,1,0,0:0:0:0:
109,192,144565,1,0,0:0:0:0:
402,192,144565,1,0,0:0:0:0:
182,192,144640,1,0,0:0:0:0:
329,192,144640,1,0,0:0:0:0:
256,192,144715,1,0,0:0:0:0:
256,192,145240,1,0,0:0:0:0:
256,192,145390,1,0,0:0:0:0:
256,192,145540,1,0,0:0:0:0:
256,192,146740,1,0,0:0:0:0:
402,192,146740,1,0,0:0:0:0:
36,192,146740,128,0,147040:0:0:0:0:
475,192,146740,128,0,147040:0:0:0:0:
329,192,146740,1,0,0:0:0:0:
182,192,146815,1,0,0:0:0:0:
109,192,146890,1,0,0:0:0:0:
329,192,146890,1,0,0:0:0:0:
182,192,146965,1,0,0:0:0:0:
402,192,147040,1,0,0:0:0:0:
109,192,147040,128,0,147115:0:0:0:0:
256,192,147040,128,0,147115:0:0:0:0:
329,192,147115,1,0,0:0:0:0:
182,192,147190,128,0,147265:0:0:0:0:
36,192,147190,1,0,0:0:0:0:
402,192,147190,128,0,147265:0:0:0:0:
475,192,147265,1,0,0:0:0:0:
256,192,147340,128,0,147415:0:0:0:0:
109,192,147340,1,0,0:0:0:0:
329,192,147340,128,0,147415:0:0:0:0:
182,192,147415,1,0,0:0:0:0:
402,192,147490,128,0,147565:0:0:0:0:
36,192,147490,1,0,0:0:0:0:
256,192,147490,1,0,0:0:0:0:
182,192,147565,1,0,0:0:0:0:
329,192,147640,128,0,147715:0:0:0:0:
475,192,147640,1,0,0:0:0:0:
109,192,147640,128,0,147715:0:0:0:0:
402,192,147715,1,0,0:0:0:0:
256,192,147790,128,0,147865:0:0:0:0:
329,192,147790,1,0,0:0:0:0:
36,192,147790,128,0,147865:0:0:0:0:
182,192,147865,1,0,0:0:0:0:
402,192,147940,128,0,148240:0:0:0:0:
109,192,147940,128,0,148240:0:0:0:0:
256,192,147940,1,0,0:0:0:0:
475,192,147940,1,0,0:0:0:0:
329,192,148015,1,0,0:0:0:0:
182,192,148090,1,0,0:0:0:0:
36,192,148090,1,0,0:0:0:0:
256,192,148165,1,0,0:0:0:0:
329,192,148240,128,0,148315:0:0:0:0:
36,192,148240,1,0,0:0:0:0:
475,192,148240,128,0,148315:0:0:0:0:
109,192,148315,1,0,0:0:0:0:
36,192,148390,128,0,148465:0:0:0:0:
256,192,148390,128,0,148465:0:0:0:0:
182,192,148390,1,0,0:0:0:0:
402,192,148465,1,0,0:0:0:0:
182,192,148540,128,0,148615:0:0:0:0:
475,192,148540,128,0,148615:0:0:0:0:
329,192,148540,1,0,0:0:0:0:
256,192,148615,1,0,0:0:0:0:
36,192,148690,128,0,148765:0:0:0:0:
329,192,148690,128,0,148765:0:0:0:0:
182,192,148690,1,0,0:0:0:0:
109,192,148765,1,0,0:0:0:0:
475,192,148840,128,0,148915:0:0:0:0:
182,192,148840,128,0,148915:0:0:0:0:
256,192,148840,1,0,0:0:0:0:
329,192,148915,1,0,0:0:0:0:
109,192,148990,128,0,149065:0:0:0:0:
402,192,148990,1,0,0:0:0:0:
256,192,148990,128,0,149065:0:0:0:0:
475,192,149065,1,0,0:0:0:0:
182,192,149140,1,0,0:0:0:0:
36,192,149140,128,0,149440:0:0:0:0:
329,192,149140,128,0,149440:0:0:0:0:
402,192,149140,1,0,0:0:0:0:
256,192,149215,1,0,0:0:0:0:
109,192,149290,1,0,0:0:0:0:
475,192,149290,1,0,0:0:0:0:
182,192,149365,1,0,0:0:0:0:
256,192,149440,128,0,149515:0:0:0:0:
475,192,149440,128,0,149515:0:0:0:0:
402,192,149440,1,0,0:0:0:0:
182,192,149515,1,0,0:0:0:0:
109,192,149590,128,0,149665:0:0:0:0:
329,192,149590,128,0,149665:0:0:0:0:
256,192,149590,1,0,0:0:0:0:
36,192,149665,1,0,0:0:0:0:
182,192,149740,128,0,149815:0:0:0:0:
402,192,149740,128,0,149815:0:0:0:0:
109,192,149740,1,0,0:0:0:0:
329,192,149815,1,0,0:0:0:0:
256,192,149890,128,0,149965:0:0:0:0:
36,192,149890,128,0,149965:0:0:0:0:
402,192,149890,1,0,0:0:0:0:
329,192,149965,1,0,0:0:0:0:
109,192,150040,128,0,150115:0:0:0:0:
475,192,150040,128,0,150115:0:0:0:0:
182,192,150040,1,0,0:0:0:0:
256,192,150115,1,0,0:0:0:0:
182,192,150190,128,0,150265:0:0:0:0:
36,192,150190,128,0,150265:0:0:0:0:
402,192,150190,1,0,0:0:0:0:
329,192,150265,1,0,0:0:0:0:
256,192,150340,128,0,150640:0:0:0:0:
475,192,150340,128,0,150640:0:0:0:0:
109,192,150340,1,0,0:0:0:0:
402,192,150340,1,0,0:0:0:0:
182,192,150415,1,0,0:0:0:0:
329,192,150490,1,0,0:0:0:0:
36,192,150490,1,0,0:0:0:0:
109,192,150565,1,0,0:0:0:0:
182,192,150640,128,0,150715:0:0:0:0:
402,192,150640,128,0,150715:0:0:0:0:
36,192,150640,1,0,0:0:0:0:
256,192,150715,1,0,0:0:0:0:
109,192,150790,128,0,150865:0:0:0:0:
329,192,150790,128,0,150865:0:0:0:0:
475,192,150790,1,0,0:0:0:0:
256,192,150865,1,0,0:0:0:0:
182,192,150940,128,0,151015:0:0:0:0:
402,192,150940,128,0,151015:0:0:0:0:
36,192,150940,1,0,0:0:0:0:
109,192,151015,1,0,0:0:0:0:
256,192,151090,128,0,151165:0:0:0:0:
475,192,151090,128,0,151165:0:0:0:0:
329,192,151090,1,0,0:0:0:0:
182,192,151165,1,0,0:0:0:0:
402,192,151240,128,0,151540:0:0:0:0:
36,192,151240,128,0,151540:0:0:0:0:
109,192,151240,1,0,0:0:0:0:
329,192,151240,1,0,0:0:0:0:
256,192,151315,1,0,0:0:0:0:
182,192,151390,1,0,0:0:0:0:
475,192,151390,1,0,0:0:0:0:
329,192,151465,1,0,0:0:0:0:
109,192,151540,1,0,0:0:0:0:
256,192,151540,1,0,0:0:0:0:
475,192,151540,1,0,0:0:0:0:
182,192,151615,1,0,0:0:0:0:
256,192,151690,1,0,0:0:0:0:
402,192,151690,1,0,0:0:0:0:
329,192,151765,1,0,0:0:0:0:
109,192,151840,128,0,152140:0:0:0:0:
36,192,151840,1,0,0:0:0:0:
256,192,151840,1,0,0:0:0:0:
182,192,151840,1,0,0:0:0:0:
475,192,151840,1,0,0:0:0:0:
402,192,151840,1,0,0:0:0:0:
329,192,151915,1,0,0:0:0:0:
256,192,151990,1,0,0:0:0:0:
475,192,151990,1,0,0:0:0:0:
182,192,152065,1,0,0:0:0:0:
402,192,152140,128,0,152440:0:0:0:0:
329,192,152140,1,0,0:0:0:0:
256,192,152140,1,0,0:0:0:0:
36,192,152140,1,0,0:0:0:0:
475,192,152140,1,0,0:0:0:0:
109,192,152215,1,0,0:0:0:0:
182,192,152290,1,0,0:0:0:0:
329,192,152290,1,0,0:0:0:0:
256,192,152365,1,0,0:0:0:0:
182,192,152440,128,0,152740:0:0:0:0:
36,192,152440,1,0,0:0:0:0:
109,192,152440,1,0,0:0:0:0:
329,192,152440,1,0,0:0:0:0:
475,192,152440,1,0,0:0:0:0:
256,192,152515,1,0,0:0:0:0:
402,192,152590,1,0,0:0:0:0:
36,192,152590,1,0,0:0:0:0:
329,192,152665,1,0,0:0:0:0:
475,192,152740,128,0,153040:0:0:0:0:
256,192,152740,1,0,0:0:0:0:
402,192,152740,1,0,0:0:0:0:
109,192,152740,1,0,0:0:0:0:
36,192,152740,1,0,0:0:0:0:
182,192,152815,1,0,0:0:0:0:
256,192,152890,1,0,0:0:0:0:
109,192,152890,1,0,0:0:0:0:
329,192,152965,1,0,0:0:0:0:
256,192,153040,128,0,153340:0:0:0:0:
402,192,153040,1,0,0:0:0:0:
36,192,153040,1,0,0:0:0:0:
182,192,153040,1,0,0:0:0:0:
109,192,153040,1,0,0:0:0:0:
329,192,153115,1,0,0:0:0:0:
402,192,153190,1,0,0:0:0:0:
109,192,153190,1,0,0:0:0:0:
182,192,153265,1,0,0:0:0:0:
329,192,153340,1,0,0:0:0:0:
36,192,153340,128,0,153640:0:0:0:0:
475,192,153340,1,0,0:0:0:0:
402,192,153340,1,0,0:0:0:0:
109,192,153340,1,0,0:0:0:0:
256,192,153415,1,0,0:0:0:0:
182,192,153490,1,0,0:0:0:0:
402,192,153490,1,0,0:0:0:0:
329,192,153565,1,0,0:0:0:0:
402,192,153640,128,0,153940:0:0:0:0:
256,192,153640,1,0,0:0:0:0:
109,192,153640,1,0,0:0:0:0:
475,192,153640,1,0,0:0:0:0:
182,192,153640,1,0,0:0:0:0:
329,192,153715,1,0,0:0:0:0:
36,192,153790,1,0,0:0:0:0:
182,192,153790,1,0,0:0:0:0:
256,192,153865,1,0,0:0:0:0:
109,192,153940,128,0,154240:0:0:0:0:
329,192,153940,1,0,0:0:0:0:
182,192,153940,1,0,0:0:0:0:
475,192,153940,1,0,0:0:0:0:
36,192,153940,1,0,0:0:0:0:
402,192,154015,1,0,0:0:0:0:
329,192,154090,1,0,0:0:0:0:
256,192,154090,1,0,0:0:0:0:
182,192,154165,1,0,0:0:0:0:
329,192,154240,128,0,154390:0:0:0:0:
36,192,154240,1,0,0:0:0:0:
256,192,154240,1,0,0:0:0:0:
475,192,154240,1,0,0:0:0:0:
402,192,154240,1,0,0:0:0:0:
109,192,154315,1,0,0:0:0:0:
256,192,154390,128,0,155140:0:0:0:0:
182,192,154390,1,0,0:0:0:0:
475,192,154390,1,0,0:0:0:0:
109,192,154465,1,0,0:0:0:0:
36,192,154540,1,0,0:0:0:0:
329,192,154540,1,0,0:0:0:0:
475,192,154540,1,0,0:0:0:0:
402,192,154540,1,0,0:0:0:0:
182,192,154540,1,0,0:0:0:0:
109,192,154615,1,0,0:0:0:0:
182,192,154690,1,0,0:0:0:0:
402,192,154690,1,0,0:0:0:0:
329,192,154765,1,0,0:0:0:0:
402,192,154840,1,0,0:0:0:0:
182,192,154840,1,0,0:0:0:0:
109,192,154840,1,0,0:0:0:0:
36,192,154840,1,0,0:0:0:0:
475,192,154840,1,0,0:0:0:0:
329,192,154915,1,0,0:0:0:0:
182,192,154990,1,0,0:0:0:0:
402,192,154990,1,0,0:0:0:0:
109,192,155065,1,0,0:0:0:0:
36,192,155140,1,0,0:0:0:0:
182,192,155140,1,0,0:0:0:0:
475,192,155140,1,0,0:0:0:0:
402,192,155140,1,0,0:0:0:0:
329,192,155140,1,0,0:0:0:0:
256,192,155215,1,0,0:0:0:0:
329,192,155290,1,0,0:0:0:0:
109,192,155290,1,0,0:0:0:0:
182,192,155365,1,0,0:0:0:0:
256,192,155440,1,0,0:0:0:0:
475,192,155440,1,0,0:0:0:0:
402,192,155440,1,0,0:0:0:0:
36,192,155440,1,0,0:0:0:0:
109,192,155440,1,0,0:0:0:0:
329,192,155440,1,0,0:0:0:0:
182,192,155515,1,0,0:0:0:0:
109,192,155590,1,0,0:0:0:0:
329,192,155590,1,0,0:0:0:0:
402,192,155665,1,0,0:0:0:0:
329,192,155740,128,0,156040:0:0:0:0:
475,192,155740,1,0,0:0:0:0:
36,192,155740,1,0,0:0:0:0:
256,192,155740,1,0,0:0:0:0:
182,192,155740,1,0,0:0:0:0:
109,192,155740,1,0,0:0:0:0:
402,192,155815,1,0,0:0:0:0:
256,192,155890,1,0,0:0:0:0:
36,192,155890,1,0,0:0:0:0:
109,192,155965,1,0,0:0:0:0:
36,192,156040,1,0,0:0:0:0:
475,192,156040,1,0,0:0:0:0:
256,192,156040,1,0,0:0:0:0:
402,192,156040,1,0,0:0:0:0:
182,192,156040,128,0,156340:0:0:0:0:
329,192,156115,1,0,0:0:0:0:
256,192,156190,1,0,0:0:0:0:
402,192,156190,1,0,0:0:0:0:
109,192,156265,1,0,0:0:0:0:
475,192,156340,128,0,157240:0:0:0:0:
402,192,156340,128,0,157240:0:0:0:0:
36,192,156340,1,0,0:0:0:0:
256,192,156340,1,0,0:0:0:0:
329,192,156340,1,0,0:0:0:0:
109,192,156415,1,0,0:0:0:0:
182,192,156490,1,0,0:0:0:0:
36,192,156490,1,0,0:0:0:0:
256,192,156565,1,0,0:0:0:0:
329,192,156640,1,0,0:0:0:0:
109,192,156640,1,0,0:0:0:0:
182,192,156640,1,0,0:0:0:0:
36,192,156640,1,0,0:0:0:0:
256,192,156715,1,0,0:0:0:0:
182,192,156790,1,0,0:0:0:0:
329,192,156790,1,0,0:0:0:0:
109,192,156865,1,0,0:0:0:0:
36,192,156940,1,0,0:0:0:0:
329,192,156940,1,0,0:0:0:0:
256,192,156940,1,0,0:0:0:0:
182,192,156940,1,0,0:0:0:0:
109,192,157015,1,0,0:0:0:0:
182,192,157090,1,0,0:0:0:0:
36,192,157090,1,0,0:0:0:0:
256,192,157165,1,0,0:0:0:0:
329,192,157240,1,0,0:0:0:0:
36,192,157240,1,0,0:0:0:0:
109,192,157240,1,0,0:0:0:0:
182,192,157240,1,0,0:0:0:0:
402,192,157315,1,0,0:0:0:0:
329,192,157390,1,0,0:0:0:0:
109,192,157390,1,0,0:0:0:0:
256,192,157465,1,0,0:0:0:0:
109,192,157540,128,0,158440:0:0:0:0:
475,192,157540,1,0,0:0:0:0:
329,192,157540,1,0,0:0:0:0:
402,192,157540,1,0,0:0:0:0:
182,192,157540,1,0,0:0:0:0:
36,192,157540,128,0,158440:0:0:0:0:
256,192,157615,1,0,0:0:0:0:
329,192,157690,1,0,0:0:0:0:
182,192,157690,1,0,0:0:0:0:
402,192,157765,1,0,0:0:0:0:
475,192,157840,1,0,0:0:0:0:
182,192,157840,1,0,0:0:0:0:
256,192,157840,1,0,0:0:0:0:
329,192,157840,1,0,0:0:0:0:
402,192,157915,1,0,0:0:0:0:
329,192,157990,1,0,0:0:0:0:
475,192,157990,1,0,0:0:0:0:
256,192,158065,1,0,0:0:0:0:
182,192,158140,1,0,0:0:0:0:
329,192,158140,1,0,0:0:0:0:
402,192,158140,1,0,0:0:0:0:
475,192,158140,1,0,0:0:0:0:
256,192,158215,1,0,0:0:0:0:
329,192,158290,1,0,0:0:0:0:
182,192,158290,1,0,0:0:0:0:
402,192,158365,1,0,0:0:0:0:
475,192,158440,1,0,0:0:0:0:
329,192,158440,1,0,0:0:0:0:
182,192,158440,1,0,0:0:0:0:
256,192,158440,1,0,0:0:0:0:
402,192,158515,1,0,0:0:0:0:
329,192,158590,1,0,0:0:0:0:
109,192,158590,1,0,0:0:0:0:
256,192,158665,1,0,0:0:0:0:
182,192,158740,1,0,0:0:0:0:
475,192,158740,128,0,159640:0:0:0:0:
36,192,158740,128,0,159640:0:0:0:0:
402,192,158740,1,0,0:0:0:0:
329,192,158740,1,0,0:0:0:0:
109,192,158740,1,0,0:0:0:0:
256,192,158815,1,0,0:0:0:0:
329,192,158890,1,0,0:0:0:0:
182,192,158890,1,0,0:0:0:0:
402,192,158965,1,0,0:0:0:0:
329,192,159040,1,0,0:0:0:0:
256,192,159040,1,0,0:0:0:0:
182,192,159040,1,0,0:0:0:0:
109,192,159040,1,0,0:0:0:0:
402,192,159115,1,0,0:0:0:0:
329,192,159190,1,0,0:0:0:0:
109,192,159190,1,0,0:0:0:0:
256,192,159265,1,0,0:0:0:0:
329,192,159340,1,0,0:0:0:0:
402,192,159340,1,0,0:0:0:0:
182,192,159340,1,0,0:0:0:0:
109,192,159340,1,0,0:0:0:0:
256,192,159415,1,0,0:0:0:0:
182,192,159490,1,0,0:0:0:0:
402,192,159490,1,0,0:0:0:0:
109,192,159565,1,0,0:0:0:0:
182,192,159640,1,0,0:0:0:0:
256,192,159640,1,0,0:0:0:0:
402,192,159640,1,0,0:0:0:0:
329,192,159640,1,0,0:0:0:0:
109,192,159715,1,0,0:0:0:0:
182,192,159790,1,0,0:0:0:0:
475,192,159790,1,0,0:0:0:0:
256,192,159865,1,0,0:0:0:0:
329,192,159940,128,0,161140:0:0:0:0:
182,192,159940,128,0,161140:0:0:0:0:
36,192,159940,1,0,0:0:0:0:
109,192,159940,1,0,0:0:0:0:
402,192,159940,1,0,0:0:0:0:
475,192,159940,1,0,0:0:0:0:
256,192,160015,1,0,0:0:0:0:
109,192,160090,1,0,0:0:0:0:
402,192,160090,1,0,0:0:0:0:
36,192,160165,1,0,0:0:0:0:
256,192,160240,1,0,0:0:0:0:
402,192,160240,1,0,0:0:0:0:
475,192,160240,1,0,0:0:0:0:
109,192,160240,1,0,0:0:0:0:
36,192,160315,1,0,0:0:0:0:
109,192,160390,1,0,0:0:0:0:
475,192,160390,1,0,0:0:0:0:
256,192,160465,1,0,0:0:0:0:
402,192,160540,1,0,0:0:0:0:
475,192,160540,1,0,0:0:0:0:
109,192,160540,1,0,0:0:0:0:
36,192,160540,1,0,0:0:0:0:
256,192,160615,1,0,0:0:0:0:
402,192,160690,1,0,0:0:0:0:
109,192,160690,1,0,0:0:0:0:
475,192,160765,1,0,0:0:0:0:
402,192,160840,1,0,0:0:0:0:
256,192,160840,1,0,0:0:0:0:
36,192,160840,1,0,0:0:0:0:
109,192,160840,1,0,0:0:0:0:
475,192,160915,1,0,0:0:0:0:
402,192,160990,1,0,0:0:0:0:
36,192,160990,1,0,0:0:0:0:
256,192,161065,1,0,0:0:0:0:
36,192,161140,1,0,0:0:0:0:
109,192,161140,1,0,0:0:0:0:
402,192,161140,1,0,0:0:0:0:
475,192,161140,1,0,0:0:0:0:
329,192,161215,1,0,0:0:0:0:
256,192,161290,1,0,0:0:0:0:
475,192,161290,1,0,0:0:0:0:
182,192,161365,1,0,0:0:0:0:
109,192,161440,1,0,0:0:0:0:
475,192,161440,128,0,161740:0:0:0:0:
402,192,161440,128,0,161740:0:0:0:0:
329,192,161440,1,0,0:0:0:0:
256,192,161440,1,0,0:0:0:0:
36,192,161440,1,0,0:0:0:0:
182,192,161515,1,0,0:0:0:0:
256,192,161590,1,0,0:0:0:0:
36,192,161590,1,0,0:0:0:0:
329,192,161665,1,0,0:0:0:0:
109,192,161740,128,0,162040:0:0:0:0:
36,192,161740,128,0,162040:0:0:0:0:
256,192,161740,1,0,0:0:0:0:
182,192,161740,1,0,0:0:0:0:
329,192,161815,1,0,0:0:0:0:
402,192,161890,1,0,0:0:0:0:
256,192,161890,1,0,0:0:0:0:
475,192,161965,1,0,0:0:0:0:
329,192,162040,128,0,162340:0:0:0:0:
402,192,162040,128,0,162340:0:0:0:0:
182,192,162040,1,0,0:0:0:0:
256,192,162040,1,0,0:0:0:0:
109,192,162115,1,0,0:0:0:0:
36,192,162190,1,0,0:0:0:0:
256,192,162190,1,0,0:0:0:0:
475,192,162265,1,0,0:0:0:0:
36,192,162340,128,0,162640:0:0:0:0:
109,192,162340,128,0,162640:0:0:0:0:
256,192,162340,1,0,0:0:0:0:
182,192,162340,1,0,0:0:0:0:
475,192,162415,1,0,0:0:0:0:
402,192,162490,1,0,0:0:0:0:
182,192,162490,1,0,0:0:0:0:
329,192,162565,1,0,0:0:0:0:
256,192,162640,1,0,0:0:0:0:
182,192,162640,1,0,0:0:0:0:
475,192,162640,128,0,162715:0:0:0:0:
402,192,162640,128,0,162715:0:0:0:0:
329,192,162715,1,0,0:0:0:0:
182,192,162790,128,0,163240:0:0:0:0:
109,192,162790,128,0,163240:0:0:0:0:
256,192,162790,1,0,0:0:0:0:
475,192,162790,1,0,0:0:0:0:
402,192,162865,1,0,0:0:0:0:
329,192,162940,1,0,0:0:0:0:
475,192,162940,1,0,0:0:0:0:
256,192,162940,1,0,0:0:0:0:
36,192,162940,1,0,0:0:0:0:
402,192,163015,1,0,0:0:0:0:
329,192,163090,1,0,0:0:0:0:
36,192,163090,1,0,0:0:0:0:
256,192,163165,1,0,0:0:0:0:
329,192,163240,128,0,163315:0:0:0:0:
402,192,163240,128,0,163315:0:0:0:0:
36,192,163240,1,0,0:0:0:0:
475,192,163240,1,0,0:0:0:0:
109,192,163315,1,0,0:0:0:0:
182,192,163390,1,0,0:0:0:0:
402,192,163390,1,0,0:0:0:0:
256,192,163465,1,0,0:0:0:0:
109,192,163540,1,0,0:0:0:0:
475,192,163540,1,0,0:0:0:0:
36,192,163540,1,0,0:0:0:0:
329,192,163540,128,0,164290:0:0:0:0:
182,192,163615,1,0,0:0:0:0:
256,192,163990,1,0,0:0:0:0:
475,192,163990,1,0,0:0:0:0:
36,192,163990,1,0,0:0:0:0:
256,192,164290,128,0,164365:0:0:0:0:
475,192,164290,128,0,164365:0:0:0:0:
36,192,164290,128,0,164365:0:0:0:0:
402,192,164440,128,0,164515:0:0:0:0:
182,192,164440,128,0,164515:0:0:0:0:
329,192,164590,128,0,164665:0:0:0:0:
109,192,164590,128,0,164665:0:0:0:0:
36,192,164740,128,0,165040:0:0:0:0:
256,192,164740,128,0,165040:0:0:0:0:
475,192,164740,128,0,165040:0:0:0:0:
402,192,164740,1,0,0:0:0:0:
182,192,164740,1,0,0:0:0:0:
109,192,165040,128,0,165340:0:0:0:0:
182,192,165040,1,0,0:0:0:0:
329,192,165040,1,0,0:0:0:0:
402,192,165040,128,0,165340:0:0:0:0:
182,192,165340,128,0,165640:0:0:0:0:
329,192,165340,128,0,165640:0:0:0:0:
36,192,165340,1,0,0:0:0:0:
256,192,165340,1,0,0:0:0:0:
475,192,165340,1,0,0:0:0:0:
256,192,165640,128,0,165940:0:0:0:0:
36,192,165640,1,0,0:0:0:0:
475,192,165640,1,0,0:0:0:0:
109,192,165640,1,0,0:0:0:0:
402,192,165640,1,0,0:0:0:0:
109,192,165940,128,0,165990:0:0:0:0:
36,192,165940,1,0,0:0:0:0:
402,192,165940,1,0,0:0:0:0:
329,192,165940,1,0,0:0:0:0:
182,192,165990,128,0,166040:0:0:0:0:
475,192,166015,1,0,0:0:0:0:
256,192,166040,128,0,166090:0:0:0:0:
329,192,166090,128,0,166140:0:0:0:0:
109,192,166090,1,0,0:0:0:0:
402,192,166140,128,0,166190:0:0:0:0:
182,192,166165,1,0,0:0:0:0:
475,192,166190,128,0,166240:0:0:0:0:
36,192,166240,128,0,166290:0:0:0:0:
256,192,166240,1,0,0:0:0:0:
109,192,166290,128,0,166340:0:0:0:0:
329,192,166315,1,0,0:0:0:0:
182,192,166340,128,0,166390:0:0:0:0:
256,192,166390,128,0,166440:0:0:0:0:
36,192,166390,1,0,0:0:0:0:
329,192,166440,128,0,166490:0:0:0:0:
109,192,166465,1,0,0:0:0:0:
402,192,166490,128,0,166540:0:0:0:0:
475,192,166540,128,0,166590:0:0:0:0:
182,192,166540,1,0,0:0:0:0:
402,192,166590,128,0,166640:0:0:0:0:
109,192,166615,1,0,0:0:0:0:
329,192,166640,128,0,166690:0:0:0:0:
256,192,166690,128,0,166740:0:0:0:0:
36,192,166690,1,0,0:0:0:0:
182,192,166740,128,0,166790:0:0:0:0:
329,192,166765,1,0,0:0:0:0:
109,192,166790,128,0,166840:0:0:0:0:
36,192,166840,128,0,166890:0:0:0:0:
402,192,166840,1,0,0:0:0:0:
109,192,166890,128,0,166940:0:0:0:0:
475,192,166915,1,0,0:0:0:0:
182,192,166940,128,0,166990:0:0:0:0:
256,192,166990,128,0,167040:0:0:0:0:
402,192,166990,1,0,0:0:0:0:
329,192,167040,128,0,167090:0:0:0:0:
182,192,167065,1,0,0:0:0:0:
402,192,167090,128,0,167140:0:0:0:0:
109,192,167140,128,0,167190:0:0:0:0:
475,192,167140,128,0,167215:0:0:0:0:
182,192,167190,128,0,167240:0:0:0:0:
402,192,167215,128,0,167290:0:0:0:0:
256,192,167240,128,0,167290:0:0:0:0:
329,192,167290,128,0,167365:0:0:0:0:
36,192,167290,128,0,167340:0:0:0:0:
109,192,167340,128,0,167390:0:0:0:0:
402,192,167365,128,0,167440:0:0:0:0:
182,192,167390,128,0,167440:0:0:0:0:
475,192,167440,128,0,167515:0:0:0:0:
256,192,167440,128,0,167490:0:0:0:0:
182,192,167490,128,0,167540:0:0:0:0:
402,192,167515,128,0,167590:0:0:0:0:
109,192,167540,128,0,167590:0:0:0:0:
36,192,167590,128,0,167640:0:0:0:0:
329,192,167590,128,0,167665:0:0:0:0:
256,192,167640,128,0,167690:0:0:0:0:
402,192,167665,128,0,167740:0:0:0:0:
182,192,167690,128,0,167740:0:0:0:0:
109,192,167740,128,0,167790:0:0:0:0:
329,192,167740,128,0,167815:0:0:0:0:
475,192,167790,128,0,167840:0:0:0:0:
182,192,167815,128,0,167890:0:0:0:0:
402,192,167840,128,0,167890:0:0:0:0:
329,192,167890,128,0,167940:0:0:0:0:
36,192,167890,128,0,167965:0:0:0:0:
256,192,167940,128,0,167990:0:0:0:0:
109,192,167965,128,0,168040:0:0:0:0:
329,192,167990,128,0,168040:0:0:0:0:
402,192,168040,128,0,168090:0:0:0:0:
182,192,168040,128,0,168115:0:0:0:0:
475,192,168090,128,0,168140:0:0:0:0:
256,192,168115,128,0,168190:0:0:0:0:
36,192,168140,128,0,168190:0:0:0:0:
109,192,168190,128,0,168240:0:0:0:0:
329,192,168190,128,0,168265:0:0:0:0:
182,192,168240,128,0,168290:0:0:0:0:
402,192,168265,128,0,168340:0:0:0:0:
256,192,168290,128,0,168340:0:0:0:0:
475,192,168340,128,0,168390:0:0:0:0:
36,192,168340,128,0,168415:0:0:0:0:
402,192,168390,128,0,168440:0:0:0:0:
109,192,168415,128,0,168490:0:0:0:0:
329,192,168440,128,0,168490:0:0:0:0:
256,192,168490,128,0,168540:0:0:0:0:
182,192,168490,128,0,168565:0:0:0:0:
402,192,168540,128,0,168590:0:0:0:0:
109,192,168565,128,0,168640:0:0:0:0:
329,192,168590,128,0,168640:0:0:0:0:
256,192,168640,128,0,168690:0:0:0:0:
36,192,168640,128,0,168715:0:0:0:0:
182,192,168690,128,0,168740:0:0:0:0:
109,192,168715,128,0,168790:0:0:0:0:
329,192,168740,128,0,168790:0:0:0:0:
475,192,168790,128,0,168865:0:0:0:0:
256,192,168790,128,0,168840:0:0:0:0:
182,192,168840,128,0,168890:0:0:0:0:
402,192,168865,128,0,168940:0:0:0:0:
109,192,168890,128,0,168940:0:0:0:0:
36,192,168940,128,0,168990:0:0:0:0:
329,192,168940,128,0,169015:0:0:0:0:
182,192,168990,128,0,169040:0:0:0:0:
402,192,169015,128,0,169090:0:0:0:0:
109,192,169040,128,0,169090:0:0:0:0:
256,192,169090,128,0,169140:0:0:0:0:
475,192,169090,128,0,169165:0:0:0:0:
182,192,169140,128,0,169190:0:0:0:0:
36,192,169165,128,0,169240:0:0:0:0:
329,192,169190,128,0,169240:0:0:0:0:
256,192,169240,128,0,169290:0:0:0:0:
109,192,169240,128,0,169315:0:0:0:0:
329,192,169290,128,0,169340:0:0:0:0:
475,192,169315,128,0,169390:0:0:0:0:
182,192,169340,128,0,169390:0:0:0:0:
256,192,169390,128,0,169440:0:0:0:0:
402,192,169390,128,0,169465:0:0:0:0:
109,192,169440,128,0,169490:0:0:0:0:
329,192,169465,128,0,169540:0:0:0:0:
182,192,169490,128,0,169540:0:0:0:0:
36,192,169540,128,0,169840:0:0:0:0:
402,192,169540,1,0,0:0:0:0:
475,192,169540,1,0,0:0:0:0:
256,192,169540,1,0,0:0:0:0:
182,192,169615,1,0,0:0:0:0:
109,192,169690,1,0,0:0:0:0:
475,192,169690,1,0,0:0:0:0:
402,192,169690,1,0,0:0:0:0:
256,192,169765,1,0,0:0:0:0:
475,192,169840,128,0,170140:0:0:0:0:
109,192,169840,1,0,0:0:0:0:
402,192,169840,1,0,0:0:0:0:
329,192,169840,1,0,0:0:0:0:
182,192,169915,1,0,0:0:0:0:
256,192,169990,1,0,0:0:0:0:
36,192,169990,1,0,0:0:0:0:
329,192,169990,1,0,0:0:0:0:
109,192,170065,1,0,0:0:0:0:
36,192,170140,128,0,170440:0:0:0:0:
182,192,170140,1,0,0:0:0:0:
402,192,170140,1,0,0:0:0:0:
256,192,170140,1,0,0:0:0:0:
329,192,170215,1,0,0:0:0:0:
109,192,170290,1,0,0:0:0:0:
475,192,170290,1,0,0:0:0:0:
182,192,170290,1,0,0:0:0:0:
256,192,170365,1,0,0:0:0:0:
475,192,170440,128,0,170740:0:0:0:0:
329,192,170440,1,0,0:0:0:0:
402,192,170440,1,0,0:0:0:0:
109,192,170440,1,0,0:0:0:0:
182,192,170515,1,0,0:0:0:0:
256,192,170590,1,0,0:0:0:0:
36,192,170590,1,0,0:0:0:0:
109,192,170590,1,0,0:0:0:0:
329,192,170665,1,0,0:0:0:0:
36,192,170740,1,0,0:0:0:0:
182,192,170740,1,0,0:0:0:0:
402,192,170740,128,0,170815:0:0:0:0:
329,192,170815,128,0,170890:0:0:0:0:
256,192,170890,128,0,170965:0:0:0:0:
109,192,170890,1,0,0:0:0:0:
475,192,170890,1,0,0:0:0:0:
402,192,170890,1,0,0:0:0:0:
182,192,170965,128,0,171040:0:0:0:0:
329,192,171040,1,0,0:0:0:0:
36,192,171040,128,0,171115:0:0:0:0:
256,192,171040,1,0,0:0:0:0:
475,192,171040,1,0,0:0:0:0:
109,192,171115,128,0,171190:0:0:0:0:
182,192,171190,128,0,171265:0:0:0:0:
36,192,171190,1,0,0:0:0:0:
402,192,171190,1,0,0:0:0:0:
329,192,171190,1,0,0:0:0:0:
256,192,171265,128,0,171340:0:0:0:0:
475,192,171340,128,0,171415:0:0:0:0:
109,192,171340,1,0,0:0:0:0:
182,192,171340,1,0,0:0:0:0:
329,192,171340,1,0,0:0:0:0:
402,192,171415,128,0,171490:0:0:0:0:
329,192,171490,128,0,171565:0:0:0:0:
36,192,171490,1,0,0:0:0:0:
182,192,171490,1,0,0:0:0:0:
475,192,171490,1,0,0:0:0:0:
256,192,171565,128,0,171640:0:0:0:0:
109,192,171640,128,0,171715:0:0:0:0:
475,192,171640,1,0,0:0:0:0:
329,192,171640,1,0,0:0:0:0:
36,192,171640,1,0,0:0:0:0:
182,192,171715,128,0,171790:0:0:0:0:
256,192,171790,128,0,171865:0:0:0:0:
402,192,171790,1,0,0:0:0:0:
109,192,171790,1,0,0:0:0:0:
475,192,171790,1,0,0:0:0:0:
329,192,171865,128,0,171940:0:0:0:0:
36,192,171940,128,0,172015:0:0:0:0:
256,192,171940,1,0,0:0:0:0:
475,192,171940,1,0,0:0:0:0:
109,192,172015,128,0,172090:0:0:0:0:
329,192,172015,1,0,0:0:0:0:
182,192,172090,128,0,172165:0:0:0:0:
402,192,172090,1,0,0:0:0:0:
256,192,172165,128,0,172240:0:0:0:0:
475,192,172165,1,0,0:0:0:0:
36,192,172240,128,0,172315:0:0:0:0:
402,192,172240,1,0,0:0:0:0:
182,192,172240,1,0,0:0:0:0:
109,192,172315,128,0,172390:0:0:0:0:
256,192,172315,1,0,0:0:0:0:
182,192,172390,128,0,172465:0:0:0:0:
329,192,172390,1,0,0:0:0:0:
256,192,172465,128,0,172540:0:0:0:0:
402,192,172465,1,0,0:0:0:0:
475,192,172540,128,0,172615:0:0:0:0:
182,192,172540,1,0,0:0:0:0:
36,192,172540,1,0,0:0:0:0:
402,192,172615,128,0,172690:0:0:0:0:
109,192,172615,1,0,0:0:0:0:
329,192,172690,128,0,172765:0:0:0:0:
182,192,172690,1,0,0:0:0:0:
256,192,172765,128,0,172840:0:0:0:0:
36,192,172765,1,0,0:0:0:0:
475,192,172840,128,0,172915:0:0:0:0:
109,192,172840,1,0,0:0:0:0:
329,192,172840,1,0,0:0:0:0:
402,192,172915,128,0,172990:0:0:0:0:
182,192,172915,1,0,0:0:0:0:
329,192,172990,128,0,173065:0:0:0:0:
109,192,172990,1,0,0:0:0:0:
256,192,173065,128,0,173140:0:0:0:0:
36,192,173065,1,0,0:0:0:0:
182,192,173140,128,0,173290:0:0:0:0:
475,192,173140,1,0,0:0:0:0:
402,192,173140,1,0,0:0:0:0:
329,192,173215,128,0,173290:0:0:0:0:
109,192,173290,128,0,173440:0:0:0:0:
36,192,173290,1,0,0:0:0:0:
402,192,173290,1,0,0:0:0:0:
256,192,173365,128,0,173440:0:0:0:0:
36,192,173440,128,0,173590:0:0:0:0:
475,192,173440,1,0,0:0:0:0:
329,192,173440,1,0,0:0:0:0:
182,192,173515,128,0,173590:0:0:0:0:
256,192,173590,128,0,173740:0:0:0:0:
402,192,173590,1,0,0:0:0:0:
475,192,173590,1,0,0:0:0:0:
109,192,173665,128,0,173740:0:0:0:0:
329,192,173740,128,0,173890:0:0:0:0:
36,192,173740,1,0,0:0:0:0:
475,192,173740,1,0,0:0:0:0:
182,192,173815,128,0,173890:0:0:0:0:
402,192,173890,128,0,174040:0:0:0:0:
109,192,173890,1,0,0:0:0:0:
36,192,173890,1,0,0:0:0:0:
256,192,173965,128,0,174040:0:0:0:0:
475,192,174040,128,0,174190:0:0:0:0:
182,192,174040,1,0,0:0:0:0:
36,192,174040,1,0,0:0:0:0:
329,192,174115,128,0,174190:0:0:0:0:
109,192,174190,128,0,174340:0:0:0:0:
182,192,174190,1,0,0:0:0:0:
402,192,174190,1,0,0:0:0:0:
256,192,174265,128,0,174340:0:0:0:0:
36,192,174340,1,0,0:0:0:0:
329,192,174340,128,0,174415:0:0:0:0:
402,192,174377,128,0,174490:0:0:0:0:
475,192,174415,128,0,174565:0:0:0:0:
182,192,174415,1,0,0:0:0:0:
109,192,174490,1,0,0:0:0:0:
256,192,174490,1,0,0:0:0:0:
329,192,174565,1,0,0:0:0:0:
36,192,174565,1,0,0:0:0:0:
182,192,174640,128,0,174715:0:0:0:0:
475,192,174640,1,0,0:0:0:0:
256,192,174640,1,0,0:0:0:0:
109,192,174677,128,0,174790:0:0:0:0:
36,192,174715,128,0,174865:0:0:0:0:
402,192,174715,1,0,0:0:0:0:
329,192,174790,1,0,0:0:0:0:
256,192,174865,1,0,0:0:0:0:
402,192,174865,1,0,0:0:0:0:
182,192,174940,128,0,175015:0:0:0:0:
475,192,174940,1,0,0:0:0:0:
36,192,174940,1,0,0:0:0:0:
256,192,174977,128,0,175090:0:0:0:0:
329,192,175015,128,0,175165:0:0:0:0:
109,192,175015,1,0,0:0:0:0:
402,192,175090,1,0,0:0:0:0:
36,192,175090,1,0,0:0:0:0:
182,192,175165,1,0,0:0:0:0:
109,192,175240,128,0,175315:0:0:0:0:
329,192,175240,1,0,0:0:0:0:
475,192,175240,1,0,0:0:0:0:
182,192,175277,128,0,175390:0:0:0:0:
256,192,175315,128,0,175465:0:0:0:0:
402,192,175315,1,0,0:0:0:0:
329,192,175390,1,0,0:0:0:0:
36,192,175390,1,0,0:0:0:0:
109,192,175465,1,0,0:0:0:0:
475,192,175465,1,0,0:0:0:0:
182,192,175540,128,0,175615:0:0:0:0:
402,192,175540,128,0,175615:0:0:0:0:
329,192,175540,128,0,175615:0:0:0:0:
256,192,175615,128,0,175690:0:0:0:0:
109,192,175615,128,0,175690:0:0:0:0:
329,192,175690,128,0,175765:0:0:0:0:
36,192,175690,128,0,175765:0:0:0:0:
475,192,175765,128,0,175840:0:0:0:0:
182,192,175765,128,0,175840:0:0:0:0:
256,192,175840,128,0,175915:0:0:0:0:
402,192,175840,128,0,175915:0:0:0:0:
36,192,175915,128,0,175990:0:0:0:0:
329,192,175915,128,0,175990:0:0:0:0:
109,192,175990,128,0,176065:0:0:0:0:
402,192,175990,128,0,176065:0:0:0:0:
182,192,176065,128,0,176140:0:0:0:0:
475,192,176065,128,0,176140:0:0:0:0:
256,192,176140,128,0,176215:0:0:0:0:
36,192,176140,128,0,176215:0:0:0:0:
329,192,176215,128,0,176290:0:0:0:0:
109,192,176215,128,0,176290:0:0:0:0:
402,192,176290,128,0,176365:0:0:0:0:
182,192,176290,128,0,176365:0:0:0:0:
109,192,176365,128,0,176440:0:0:0:0:
475,192,176365,128,0,176440:0:0:0:0:
36,192,176440,128,0,176515:0:0:0:0:
256,192,176440,128,0,176515:0:0:0:0:
329,192,176515,128,0,176590:0:0:0:0:
109,192,176515,128,0,176590:0:0:0:0:
402,192,176590,128,0,176665:0:0:0:0:
182,192,176590,128,0,176665:0:0:0:0:
475,192,176665,128,0,176740:0:0:0:0:
256,192,176665,128,0,176740:0:0:0:0:
36,192,176740,128,0,176815:0:0:0:0:
329,192,176740,128,0,176815:0:0:0:0:
402,192,176815,128,0,176890:0:0:0:0:
182,192,176815,128,0,176890:0:0:0:0:
475,192,176890,128,0,176965:0:0:0:0:
109,192,176890,128,0,176965:0:0:0:0:
36,192,176965,128,0,177040:0:0:0:0:
256,192,176965,128,0,177040:0:0:0:0:
329,192,177040,128,0,177115:0:0:0:0:
182,192,177040,128,0,177115:0:0:0:0:
402,192,177115,128,0,177190:0:0:0:0:
109,192,177115,128,0,177190:0:0:0:0:
475,192,177190,128,0,177265:0:0:0:0:
182,192,177190,128,0,177265:0:0:0:0:
256,192,177265,128,0,177340:0:0:0:0:
36,192,177265,128,0,177340:0:0:0:0:
329,192,177340,128,0,177415:0:0:0:0:
109,192,177340,128,0,177415:0:0:0:0:
402,192,177415,128,0,177490:0:0:0:0:
182,192,177415,128,0,177490:0:0:0:0:
475,192,177490,128,0,177565:0:0:0:0:
256,192,177490,128,0,177565:0:0:0:0:
402,192,177565,128,0,177640:0:0:0:0:
36,192,177565,128,0,177640:0:0:0:0:
109,192,177640,128,0,177715:0:0:0:0:
329,192,177640,128,0,177715:0:0:0:0:
182,192,177715,128,0,177790:0:0:0:0:
402,192,177715,128,0,177790:0:0:0:0:
475,192,177790,128,0,177865:0:0:0:0:
256,192,177790,128,0,177865:0:0:0:0:
182,192,177865,128,0,177940:0:0:0:0:
329,192,177865,128,0,177940:0:0:0:0:
475,192,177940,1,0,0:0:0:0:
402,192,177940,1,0,0:0:0:0:
109,192,177940,1,0,0:0:0:0:
36,192,177940,1,0,0:0:0:0:
256,192,177940,1,0,0:0:0:0:
475,192,182740,128,0,183040:0:0:0:0:
36,192,183040,1,0,0:0:0:0:
36,192,183190,1,0,0:0:0:0:
36,192,183340,128,0,183415:0:0:0:0:
36,192,183490,128,0,183640:0:0:0:0:
475,192,183790,1,0,0:0:0:0:
475,192,184090,128,0,184390:0:0:0:0:
36,192,184390,1,0,0:0:0:0:
36,192,184540,128,0,184615:0:0:0:0:
475,192,184690,128,0,184765:0:0:0:0:
36,192,184840,128,0,184915:0:0:0:0:
36,192,184990,128,0,185065:0:0:0:0:
402,192,185140,1,0,0:0:0:0:
402,192,185290,1,0,0:0:0:0:
402,192,185440,128,0,185515:0:0:0:0:
109,192,185590,128,0,185665:0:0:0:0:
402,192,185740,128,0,185815:0:0:0:0:
402,192,185890,128,0,185965:0:0:0:0:
109,192,186190,128,0,186265:0:0:0:0:
109,192,186490,128,0,186640:0:0:0:0:
256,192,186640,128,0,186790:0:0:0:0:
402,192,186790,128,0,186940:0:0:0:0:
256,192,186940,128,0,187090:0:0:0:0:
109,192,187090,128,0,187240:0:0:0:0:
256,192,187240,128,0,187390:0:0:0:0:
402,192,187390,128,0,187540:0:0:0:0:
36,192,187540,1,0,0:0:0:0:
182,192,187540,1,0,0:0:0:0:
475,192,187540,1,0,0:0:0:0:
329,192,187540,1,0,0:0:0:0:
109,192,187540,1,0,0:0:0:0:
256,192,187540,128,0,191140:0:0:0:0:
329,192,187690,1,0,0:0:0:0:
109,192,187840,1,0,0:0:0:0:
36,192,187840,128,0,187915:0:0:0:0:
402,192,187990,1,0,0:0:0:0:
475,192,187990,128,0,188065:0:0:0:0:
182,192,188140,1,0,0:0:0:0:
36,192,188140,128,0,188215:0:0:0:0:
329,192,188290,1,0,0:0:0:0:
402,192,188290,128,0,188365:0:0:0:0:
36,192,188440,1,0,0:0:0:0:
402,192,188440,128,0,188515:0:0:0:0:
475,192,188590,1,0,0:0:0:0:
182,192,188590,128,0,188665:0:0:0:0:
109,192,188740,1,0,0:0:0:0:
329,192,188890,1,0,0:0:0:0:
475,192,188890,128,0,188965:0:0:0:0:
182,192,189040,1,0,0:0:0:0:
402,192,189190,1,0,0:0:0:0:
36,192,189190,128,0,189265:0:0:0:0:
109,192,189340,1,0,0:0:0:0:
475,192,189340,128,0,189415:0:0:0:0:
329,192,189490,1,0,0:0:0:0:
475,192,189490,128,0,189565:0:0:0:0:
182,192,189640,1,0,0:0:0:0:
36,192,189640,128,0,189715:0:0:0:0:
475,192,189790,1,0,0:0:0:0:
36,192,189790,128,0,189865:0:0:0:0:
109,192,189940,1,0,0:0:0:0:
329,192,189940,128,0,190015:0:0:0:0:
402,192,190090,1,0,0:0:0:0:
329,192,190090,128,0,190165:0:0:0:0:
36,192,190240,1,0,0:0:0:0:
182,192,190240,128,0,190315:0:0:0:0:
329,192,190390,1,0,0:0:0:0:
182,192,190390,128,0,190465:0:0:0:0:
475,192,190540,1,0,0:0:0:0:
402,192,190540,128,0,190615:0:0:0:0:
36,192,190690,1,0,0:0:0:0:
402,192,190690,128,0,190765:0:0:0:0:
329,192,190840,1,0,0:0:0:0:
109,192,190990,1,0,0:0:0:0:
36,192,191140,1,0,0:0:0:0:
402,192,191140,1,0,0:0:0:0:
182,192,191140,1,0,0:0:0:0:
475,192,191140,1,0,0:0:0:0:
329,192,191177,1,0,0:0:0:0:
109,192,191290,128,0,191590:0:0:0:0:
256,192,191290,128,0,191590:0:0:0:0:
36,192,191590,1,0,0:0:0:0:
475,192,191590,1,0,0:0:0:0:
402,192,191590,1,0,0:0:0:0:
329,192,191627,1,0,0:0:0:0:
182,192,191740,128,0,192040:0:0:0:0:
475,192,191740,128,0,192040:0:0:0:0:
256,192,192040,1,0,0:0:0:0:
402,192,192040,128,0,192190:0:0:0:0:
36,192,192040,128,0,192340:0:0:0:0:
109,192,192040,1,0,0:0:0:0:
329,192,192190,128,0,192340:0:0:0:0:
256,192,192340,128,0,192790:0:0:0:0:
182,192,192340,1,0,0:0:0:0:
402,192,192340,1,0,0:0:0:0:
475,192,192340,1,0,0:0:0:0:
109,192,192790,128,0,193240:0:0:0:0:
475,192,192940,1,0,0:0:0:0:
256,192,192940,1,0,0:0:0:0:
36,192,192940,1,0,0:0:0:0:
329,192,193240,128,0,193690:0:0:0:0:
256,192,193540,1,0,0:0:0:0:
36,192,193540,1,0,0:0:0:0:
475,192,193540,1,0,0:0:0:0:
182,192,193690,128,0,194140:0:0:0:0:
256,192,193840,1,0,0:0:0:0:
256,192,193990,1,0,0:0:0:0:
402,192,194140,128,0,194590:0:0:0:0:
36,192,194140,1,0,0:0:0:0:
329,192,194140,1,0,0:0:0:0:
475,192,194140,1,0,0:0:0:0:
109,192,194440,1,0,0:0:0:0:
256,192,194590,128,0,195040:0:0:0:0:
109,192,194740,1,0,0:0:0:0:
36,192,195040,128,0,195640:0:0:0:0:
402,192,195040,1,0,0:0:0:0:
109,192,195340,1,0,0:0:0:0:
256,192,195340,1,0,0:0:0:0:
475,192,195340,1,0,0:0:0:0:
475,192,195640,128,0,195940:0:0:0:0:
329,192,195640,1,0,0:0:0:0:
329,192,195940,128,0,196090:0:0:0:0:
182,192,195940,1,0,0:0:0:0:
36,192,195940,1,0,0:0:0:0:
402,192,195940,1,0,0:0:0:0:
256,192,196090,128,0,196240:0:0:0:0:
182,192,196240,128,0,196390:0:0:0:0:
475,192,196240,1,0,0:0:0:0:
36,192,196240,1,0,0:0:0:0:
256,192,196390,128,0,196540:0:0:0:0:
402,192,196390,1,0,0:0:0:0:
109,192,196390,1,0,0:0:0:0:
329,192,196540,1,0,0:0:0:0:
182,192,196540,1,0,0:0:0:0:
36,192,196540,1,0,0:0:0:0:
109,192,196690,128,0,196840:0:0:0:0:
402,192,196690,1,0,0:0:0:0:
256,192,196690,1,0,0:0:0:0:
182,192,196840,128,0,196990:0:0:0:0:
475,192,196840,1,0,0:0:0:0:
329,192,196840,1,0,0:0:0:0:
256,192,196990,128,0,197140:0:0:0:0:
475,192,196990,1,0,0:0:0:0:
36,192,196990,1,0,0:0:0:0:
402,192,197140,1,0,0:0:0:0:
109,192,197140,1,0,0:0:0:0:
402,192,197290,128,0,197440:0:0:0:0:
329,192,197440,128,0,197590:0:0:0:0:
182,192,197440,1,0,0:0:0:0:
475,192,197590,128,0,197740:0:0:0:0:
402,192,197740,128,0,197890:0:0:0:0:
109,192,197740,1,0,0:0:0:0:
36,192,197740,1,0,0:0:0:0:
256,192,197740,1,0,0:0:0:0:
329,192,198040,128,0,198190:0:0:0:0:
182,192,198040,1,0,0:0:0:0:
256,192,198190,128,0,198340:0:0:0:0:
109,192,198340,1,0,0:0:0:0:
36,192,198340,1,0,0:0:0:0:
475,192,198340,1,0,0:0:0:0:
402,192,198340,1,0,0:0:0:0:
256,192,198490,128,0,198640:0:0:0:0:
182,192,198640,128,0,198790:0:0:0:0:
402,192,198640,1,0,0:0:0:0:
402,192,198790,1,0,0:0:0:0:
182,192,198940,128,0,199090:0:0:0:0:
475,192,198940,1,0,0:0:0:0:
36,192,198940,1,0,0:0:0:0:
256,192,198940,1,0,0:0:0:0:
109,192,199090,128,0,199240:0:0:0:0:
329,192,199090,1,0,0:0:0:0:
256,192,199240,128,0,199390:0:0:0:0:
402,192,199240,1,0,0:0:0:0:
36,192,199390,128,0,199465:0:0:0:0:
329,192,199390,1,0,0:0:0:0:
109,192,199465,128,0,199540:0:0:0:0:
182,192,199540,128,0,199615:0:0:0:0:
475,192,199540,1,0,0:0:0:0:
402,192,199540,1,0,0:0:0:0:
256,192,199615,128,0,199690:0:0:0:0:
329,192,199690,128,0,199765:0:0:0:0:
402,192,199765,128,0,199840:0:0:0:0:
329,192,199840,128,0,199915:0:0:0:0:
109,192,199840,1,0,0:0:0:0:
256,192,199915,128,0,199990:0:0:0:0:
182,192,199990,128,0,200065:0:0:0:0:
109,192,200065,128,0,200140:0:0:0:0:
182,192,200140,128,0,200215:0:0:0:0:
475,192,200140,1,0,0:0:0:0:
402,192,200140,1,0,0:0:0:0:
36,192,200140,1,0,0:0:0:0:
256,192,200215,128,0,200290:0:0:0:0:
329,192,200290,128,0,200365:0:0:0:0:
402,192,200365,128,0,200440:0:0:0:0:
475,192,200440,128,0,200490:0:0:0:0:
109,192,200440,1,0,0:0:0:0:
402,192,200490,128,0,200540:0:0:0:0:
329,192,200540,128,0,200590:0:0:0:0:
256,192,200590,128,0,200640:0:0:0:0:
182,192,200640,128,0,200690:0:0:0:0:
109,192,200690,128,0,200740:0:0:0:0:
36,192,200740,128,0,200790:0:0:0:0:
475,192,200740,1,0,0:0:0:0:
256,192,200740,1,0,0:0:0:0:
402,192,200740,1,0,0:0:0:0:
109,192,200790,128,0,200840:0:0:0:0:
182,192,200840,128,0,200890:0:0:0:0:
256,192,200890,128,0,200940:0:0:0:0:
475,192,200890,1,0,0:0:0:0:
329,192,200940,128,0,200990:0:0:0:0:
402,192,200990,128,0,201040:0:0:0:0:
329,192,201040,128,0,201090:0:0:0:0:
256,192,201090,128,0,201140:0:0:0:0:
182,192,201140,128,0,201190:0:0:0:0:
109,192,201190,128,0,201240:0:0:0:0:
402,192,201190,1,0,0:0:0:0:
182,192,201240,128,0,201290:0:0:0:0:
256,192,201290,128,0,201340:0:0:0:0:
329,192,201340,128,0,201390:0:0:0:0:
109,192,201340,1,0,0:0:0:0:
36,192,201340,1,0,0:0:0:0:
475,192,201340,1,0,0:0:0:0:
256,192,201390,128,0,201440:0:0:0:0:
182,192,201440,128,0,201490:0:0:0:0:
256,192,201490,128,0,201540:0:0:0:0:
329,192,201540,128,0,201590:0:0:0:0:
402,192,201590,128,0,201640:0:0:0:0:
475,192,201640,128,0,201940:0:0:0:0:
256,192,201640,1,0,0:0:0:0:
256,192,201790,1,0,0:0:0:0:
109,192,201940,1,0,0:0:0:0:
36,192,201940,1,0,0:0:0:0:
256,192,201940,1,0,0:0:0:0:
402,192,201940,1,0,0:0:0:0:
109,192,202090,1,0,0:0:0:0:
36,192,202090,1,0,0:0:0:0:
329,192,202090,1,0,0:0:0:0:
36,192,202240,128,0,202390:0:0:0:0:
109,192,202240,128,0,202390:0:0:0:0:
256,192,202240,1,0,0:0:0:0:
475,192,202240,1,0,0:0:0:0:
402,192,202390,1,0,0:0:0:0:
329,192,202390,1,0,0:0:0:0:
256,192,202540,128,0,202690:0:0:0:0:
182,192,202540,128,0,202690:0:0:0:0:
36,192,202540,1,0,0:0:0:0:
475,192,202540,1,0,0:0:0:0:
402,192,202690,1,0,0:0:0:0:
109,192,202690,1,0,0:0:0:0:
256,192,202840,1,0,0:0:0:0:
475,192,202840,1,0,0:0:0:0:
36,192,202840,1,0,0:0:0:0:
329,192,202840,1,0,0:0:0:0:
256,192,202990,1,0,0:0:0:0:
329,192,202990,1,0,0:0:0:0:
109,192,202990,1,0,0:0:0:0:
402,192,203140,128,0,203290:0:0:0:0:
329,192,203140,128,0,203290:0:0:0:0:
182,192,203140,1,0,0:0:0:0:
36,192,203140,1,0,0:0:0:0:
109,192,203290,1,0,0:0:0:0:
256,192,203290,1,0,0:0:0:0:
475,192,203440,1,0,0:0:0:0:
402,192,203440,1,0,0:0:0:0:
182,192,203440,1,0,0:0:0:0:
36,192,203440,1,0,0:0:0:0:
402,192,203590,128,0,203740:0:0:0:0:
475,192,203590,128,0,203740:0:0:0:0:
256,192,203590,1,0,0:0:0:0:
109,192,203590,1,0,0:0:0:0:
109,192,203740,128,0,203890:0:0:0:0:
256,192,203740,128,0,203890:0:0:0:0:
36,192,203740,1,0,0:0:0:0:
329,192,203740,1,0,0:0:0:0:
182,192,203890,1,0,0:0:0:0:
402,192,203890,1,0,0:0:0:0:
182,192,204040,128,0,204190:0:0:0:0:
329,192,204040,128,0,204190:0:0:0:0:
36,192,204040,1,0,0:0:0:0:
475,192,204040,1,0,0:0:0:0:
256,192,204190,1,0,0:0:0:0:
402,192,204190,1,0,0:0:0:0:
475,192,204340,1,0,0:0:0:0:
402,192,204340,1,0,0:0:0:0:
36,192,204340,1,0,0:0:0:0:
182,192,204340,1,0,0:0:0:0:
475,192,204490,1,0,0:0:0:0:
402,192,204490,1,0,0:0:0:0:
256,192,204490,1,0,0:0:0:0:
402,192,204640,128,0,204790:0:0:0:0:
475,192,204640,128,0,204790:0:0:0:0:
182,192,204640,1,0,0:0:0:0:
109,192,204640,1,0,0:0:0:0:
256,192,204790,1,0,0:0:0:0:
36,192,204790,1,0,0:0:0:0:
402,192,204940,128,0,205090:0:0:0:0:
329,192,204940,128,0,205090:0:0:0:0:
182,192,204940,1,0,0:0:0:0:
109,192,204940,1,0,0:0:0:0:
256,192,205090,1,0,0:0:0:0:
475,192,205090,1,0,0:0:0:0:
36,192,205240,1,0,0:0:0:0:
402,192,205240,1,0,0:0:0:0:
109,192,205240,1,0,0:0:0:0:
182,192,205390,1,0,0:0:0:0:
256,192,205390,1,0,0:0:0:0:
475,192,205390,1,0,0:0:0:0:
329,192,205540,128,0,205690:0:0:0:0:
109,192,205540,1,0,0:0:0:0:
36,192,205540,1,0,0:0:0:0:
402,192,205540,1,0,0:0:0:0:
256,192,205690,128,0,205840:0:0:0:0:
36,192,205690,1,0,0:0:0:0:
475,192,205690,1,0,0:0:0:0:
182,192,205840,128,0,205990:0:0:0:0:
109,192,205840,1,0,0:0:0:0:
402,192,205840,1,0,0:0:0:0:
109,192,205990,128,0,206140:0:0:0:0:
329,192,205990,1,0,0:0:0:0:
475,192,205990,1,0,0:0:0:0:
36,192,206140,128,0,206740:0:0:0:0:
475,192,206140,1,0,0:0:0:0:
256,192,206140,1,0,0:0:0:0:
402,192,206140,1,0,0:0:0:0:
329,192,206290,1,0,0:0:0:0:
475,192,206440,1,0,0:0:0:0:
402,192,206440,1,0,0:0:0:0:
109,192,206440,1,0,0:0:0:0:
256,192,206590,1,0,0:0:0:0:
402,192,206590,1,0,0:0:0:0:
182,192,206590,1,0,0:0:0:0:
475,192,206740,1,0,0:0:0:0:
402,192,206740,1,0,0:0:0:0:
256,192,206740,1,0,0:0:0:0:
109,192,206740,1,0,0:0:0:0:
182,192,206890,1,0,0:0:0:0:
109,192,206890,1,0,0:0:0:0:
329,192,206890,1,0,0:0:0:0:
182,192,207040,128,0,207190:0:0:0:0:
109,192,207040,128,0,207190:0:0:0:0:
475,192,207040,1,0,0:0:0:0:
256,192,207040,1,0,0:0:0:0:
36,192,207190,1,0,0:0:0:0:
402,192,207190,1,0,0:0:0:0:
329,192,207340,128,0,207490:0:0:0:0:
402,192,207340,128,0,207490:0:0:0:0:
109,192,207340,1,0,0:0:0:0:
256,192,207340,1,0,0:0:0:0:
182,192,207490,1,0,0:0:0:0:
475,192,207490,1,0,0:0:0:0:
36,192,207640,1,0,0:0:0:0:
402,192,207640,1,0,0:0:0:0:
256,192,207640,1,0,0:0:0:0:
256,192,207790,128,0,207940:0:0:0:0:
182,192,207790,128,0,207940:0:0:0:0:
109,192,207790,1,0,0:0:0:0:
36,192,207940,1,0,0:0:0:0:
329,192,207940,1,0,0:0:0:0:
475,192,207940,1,0,0:0:0:0:
109,192,208090,128,0,208240:0:0:0:0:
182,192,208090,128,0,208240:0:0:0:0:
256,192,208090,1,0,0:0:0:0:
402,192,208090,1,0,0:0:0:0:
475,192,208240,1,0,0:0:0:0:
329,192,208240,1,0,0:0:0:0:
475,192,208390,1,0,0:0:0:0:
36,192,208390,1,0,0:0:0:0:
256,192,208390,1,0,0:0:0:0:
402,192,208540,128,0,208690:0:0:0:0:
475,192,208540,128,0,208690:0:0:0:0:
109,192,208540,1,0,0:0:0:0:
256,192,208540,1,0,0:0:0:0:
182,192,208690,1,0,0:0:0:0:
36,192,208690,1,0,0:0:0:0:
329,192,208840,128,0,208990:0:0:0:0:
256,192,208840,128,0,208990:0:0:0:0:
109,192,208840,1,0,0:0:0:0:
402,192,208840,1,0,0:0:0:0:
182,192,208990,1,0,0:0:0:0:
475,192,208990,1,0,0:0:0:0:
109,192,209140,128,0,209215:0:0:0:0:
36,192,209140,1,0,0:0:0:0:
402,192,209140,1,0,0:0:0:0:
182,192,209215,128,0,209290:0:0:0:0:
256,192,209290,128,0,209365:0:0:0:0:
475,192,209290,1,0,0:0:0:0:
329,192,209365,128,0,209440:0:0:0:0:
402,192,209440,128,0,209515:0:0:0:0:
182,192,209440,1,0,0:0:0:0:
329,192,209515,128,0,209590:0:0:0:0:
256,192,209590,128,0,209665:0:0:0:0:
36,192,209590,1,0,0:0:0:0:
182,192,209665,128,0,209740:0:0:0:0:
109,192,209740,128,0,209815:0:0:0:0:
402,192,209740,1,0,0:0:0:0:
182,192,209815,128,0,209890:0:0:0:0:
256,192,209890,128,0,209965:0:0:0:0:
475,192,209890,1,0,0:0:0:0:
329,192,209965,128,0,210040:0:0:0:0:
402,192,210040,128,0,210115:0:0:0:0:
36,192,210040,1,0,0:0:0:0:
329,192,210115,128,0,210190:0:0:0:0:
256,192,210190,128,0,210265:0:0:0:0:
109,192,210190,1,0,0:0:0:0:
182,192,210265,128,0,210340:0:0:0:0:
109,192,210340,128,0,210415:0:0:0:0:
475,192,210340,1,0,0:0:0:0:
402,192,210340,1,0,0:0:0:0:
256,192,210415,128,0,210490:0:0:0:0:
402,192,210490,128,0,210565:0:0:0:0:
36,192,210490,1,0,0:0:0:0:
182,192,210565,128,0,210640:0:0:0:0:
329,192,210640,128,0,210715:0:0:0:0:
109,192,210640,1,0,0:0:0:0:
475,192,210715,128,0,210790:0:0:0:0:
256,192,210790,128,0,210865:0:0:0:0:
182,192,210790,1,0,0:0:0:0:
402,192,210790,1,0,0:0:0:0:
36,192,210865,128,0,210940:0:0:0:0:
402,192,210940,128,0,211015:0:0:0:0:
109,192,210940,1,0,0:0:0:0:
475,192,210940,1,0,0:0:0:0:
329,192,211015,128,0,211090:0:0:0:0:
182,192,211090,128,0,211165:0:0:0:0:
36,192,211090,1,0,0:0:0:0:
109,192,211165,128,0,211240:0:0:0:0:
256,192,211240,128,0,211540:0:0:0:0:
475,192,211240,1,0,0:0:0:0:
475,192,211390,1,0,0:0:0:0:
402,192,211390,1,0,0:0:0:0:
182,192,211390,1,0,0:0:0:0:
475,192,211540,1,0,0:0:0:0:
402,192,211540,1,0,0:0:0:0:
36,192,211540,1,0,0:0:0:0:
109,192,211540,1,0,0:0:0:0:
329,192,211540,128,0,211690:0:0:0:0:
182,192,211690,128,0,211840:0:0:0:0:
329,192,211840,128,0,211990:0:0:0:0:
256,192,211840,1,0,0:0:0:0:
182,192,211990,128,0,212140:0:0:0:0:
402,192,212140,128,0,212290:0:0:0:0:
36,192,212140,1,0,0:0:0:0:
256,192,212140,1,0,0:0:0:0:
475,192,212140,1,0,0:0:0:0:
109,192,212290,128,0,212440:0:0:0:0:
329,192,212290,1,0,0:0:0:0:
402,192,212440,128,0,212890:0:0:0:0:
256,192,212440,1,0,0:0:0:0:
182,192,212590,1,0,0:0:0:0:
329,192,212740,1,0,0:0:0:0:
109,192,212740,1,0,0:0:0:0:
36,192,212740,1,0,0:0:0:0:
256,192,212890,128,0,213340:0:0:0:0:
182,192,212890,1,0,0:0:0:0:
475,192,212890,1,0,0:0:0:0:
182,192,213040,1,0,0:0:0:0:
329,192,213190,1,0,0:0:0:0:
109,192,213340,128,0,213490:0:0:0:0:
329,192,213340,1,0,0:0:0:0:
475,192,213340,1,0,0:0:0:0:
36,192,213340,1,0,0:0:0:0:
256,192,213490,128,0,213640:0:0:0:0:
402,192,213490,1,0,0:0:0:0:
402,192,213640,128,0,213790:0:0:0:0:
109,192,213640,1,0,0:0:0:0:
256,192,213790,128,0,213940:0:0:0:0:
182,192,213790,1,0,0:0:0:0:
109,192,213940,1,0,0:0:0:0:
402,192,213940,1,0,0:0:0:0:
475,192,213940,1,0,0:0:0:0:
329,192,214090,1,0,0:0:0:0:
182,192,214090,128,0,214240:0:0:0:0:
402,192,214240,128,0,214390:0:0:0:0:
36,192,214240,1,0,0:0:0:0:
329,192,214390,128,0,214690:0:0:0:0:
182,192,214390,1,0,0:0:0:0:
109,192,214540,1,0,0:0:0:0:
256,192,214540,1,0,0:0:0:0:
475,192,214540,1,0,0:0:0:0:
36,192,214690,128,0,214840:0:0:0:0:
402,192,214690,1,0,0:0:0:0:
182,192,214690,1,0,0:0:0:0:
256,192,214840,128,0,214990:0:0:0:0:
329,192,214840,1,0,0:0:0:0:
475,192,214840,1,0,0:0:0:0:
109,192,214990,128,0,215140:0:0:0:0:
402,192,214990,1,0,0:0:0:0:
36,192,215140,1,0,0:0:0:0:
329,192,215140,128,0,215215:0:0:0:0:
256,192,215140,1,0,0:0:0:0:
402,192,215215,128,0,215290:0:0:0:0:
475,192,215290,128,0,215365:0:0:0:0:
182,192,215290,1,0,0:0:0:0:
402,192,215365,128,0,215440:0:0:0:0:
329,192,215440,128,0,215515:0:0:0:0:
109,192,215440,1,0,0:0:0:0:
36,192,215440,1,0,0:0:0:0:
256,192,215515,128,0,215590:0:0:0:0:
182,192,215590,128,0,215665:0:0:0:0:
475,192,215590,1,0,0:0:0:0:
256,192,215665,128,0,215740:0:0:0:0:
329,192,215740,128,0,215815:0:0:0:0:
36,192,215740,1,0,0:0:0:0:
402,192,215740,1,0,0:0:0:0:
256,192,215815,128,0,215890:0:0:0:0:
182,192,215890,128,0,215965:0:0:0:0:
475,192,215890,1,0,0:0:0:0:
109,192,215965,128,0,216040:0:0:0:0:
36,192,216040,128,0,216115:0:0:0:0:
329,192,216040,1,0,0:0:0:0:
402,192,216040,1,0,0:0:0:0:
109,192,216115,128,0,216190:0:0:0:0:
182,192,216190,128,0,216265:0:0:0:0:
402,192,216190,1,0,0:0:0:0:
256,192,216265,128,0,216340:0:0:0:0:
475,192,216340,128,0,216415:0:0:0:0:
36,192,216340,1,0,0:0:0:0:
109,192,216340,1,0,0:0:0:0:
329,192,216340,1,0,0:0:0:0:
402,192,216415,128,0,216490:0:0:0:0:
329,192,216490,128,0,216565:0:0:0:0:
182,192,216490,1,0,0:0:0:0:
256,192,216565,128,0,216640:0:0:0:0:
182,192,216640,128,0,216715:0:0:0:0:
36,192,216640,1,0,0:0:0:0:
475,192,216640,1,0,0:0:0:0:
256,192,216715,128,0,216790:0:0:0:0:
329,192,216790,128,0,216865:0:0:0:0:
109,192,216790,1,0,0:0:0:0:
402,192,216865,128,0,216940:0:0:0:0:
329,192,216940,128,0,217015:0:0:0:0:
182,192,216940,1,0,0:0:0:0:
475,192,216940,1,0,0:0:0:0:
36,192,216940,1,0,0:0:0:0:
256,192,217015,128,0,217090:0:0:0:0:
182,192,217090,128,0,217165:0:0:0:0:
402,192,217090,1,0,0:0:0:0:
109,192,217165,128,0,217240:0:0:0:0:
182,192,217240,128,0,217540:0:0:0:0:
256,192,217240,1,0,0:0:0:0:
475,192,217240,1,0,0:0:0:0:
329,192,217390,1,0,0:0:0:0:
256,192,217540,128,0,217615:0:0:0:0:
36,192,217540,1,0,0:0:0:0:
475,192,217540,1,0,0:0:0:0:
329,192,217615,128,0,217690:0:0:0:0:
475,192,217690,128,0,217765:0:0:0:0:
109,192,217690,1,0,0:0:0:0:
402,192,217765,128,0,217840:0:0:0:0:
182,192,217840,128,0,217915:0:0:0:0:
36,192,217840,1,0,0:0:0:0:
329,192,217840,1,0,0:0:0:0:
256,192,217915,128,0,217990:0:0:0:0:
329,192,217990,128,0,218140:0:0:0:0:
109,192,217990,1,0,0:0:0:0:
256,192,218140,128,0,218290:0:0:0:0:
36,192,218140,1,0,0:0:0:0:
475,192,218140,1,0,0:0:0:0:
402,192,218140,1,0,0:0:0:0:
182,192,218290,128,0,218440:0:0:0:0:
329,192,218290,1,0,0:0:0:0:
109,192,218440,128,0,218740:0:0:0:0:
475,192,218440,1,0,0:0:0:0:
256,192,218440,1,0,0:0:0:0:
329,192,218590,1,0,0:0:0:0:
256,192,218740,1,0,0:0:0:0:
36,192,218740,128,0,218890:0:0:0:0:
475,192,218740,128,0,218890:0:0:0:0:
182,192,218740,1,0,0:0:0:0:
109,192,218890,128,0,218965:0:0:0:0:
329,192,218890,1,0,0:0:0:0:
402,192,218890,128,0,218965:0:0:0:0:
256,192,219040,1,0,0:0:0:0:
475,192,219040,1,0,0:0:0:0:
36,192,219040,1,0,0:0:0:0:
182,192,219190,128,0,219340:0:0:0:0:
329,192,219190,128,0,219340:0:0:0:0:
475,192,219190,1,0,0:0:0:0:
36,192,219190,1,0,0:0:0:0:
256,192,219340,1,0,0:0:0:0:
109,192,219340,128,0,219415:0:0:0:0:
402,192,219340,128,0,219415:0:0:0:0:
36,192,219490,1,0,0:0:0:0:
329,192,219490,1,0,0:0:0:0:
475,192,219490,1,0,0:0:0:0:
109,192,219640,128,0,219790:0:0:0:0:
402,192,219640,128,0,219790:0:0:0:0:
36,192,219640,1,0,0:0:0:0:
256,192,219640,1,0,0:0:0:0:
475,192,219640,1,0,0:0:0:0:
182,192,219790,128,0,219865:0:0:0:0:
329,192,219790,128,0,219865:0:0:0:0:
256,192,219790,1,0,0:0:0:0:
36,192,219940,1,0,0:0:0:0:
256,192,219940,1,0,0:0:0:0:
475,192,219940,1,0,0:0:0:0:
36,192,220090,128,0,220240:0:0:0:0:
109,192,220090,128,0,220240:0:0:0:0:
402,192,220090,1,0,0:0:0:0:
329,192,220090,1,0,0:0:0:0:
182,192,220240,128,0,220315:0:0:0:0:
256,192,220240,128,0,220315:0:0:0:0:
475,192,220240,1,0,0:0:0:0:
402,192,220240,1,0,0:0:0:0:
329,192,220390,1,0,0:0:0:0:
36,192,220390,1,0,0:0:0:0:
109,192,220390,1,0,0:0:0:0:
402,192,220540,128,0,220690:0:0:0:0:
475,192,220540,128,0,220690:0:0:0:0:
256,192,220540,1,0,0:0:0:0:
36,192,220540,1,0,0:0:0:0:
329,192,220690,128,0,221140:0:0:0:0:
256,192,220690,128,0,221140:0:0:0:0:
182,192,220690,1,0,0:0:0:0:
36,192,220690,1,0,0:0:0:0:
109,192,220840,1,0,0:0:0:0:
475,192,220840,1,0,0:0:0:0:
182,192,220990,1,0,0:0:0:0:
402,192,220990,1,0,0:0:0:0:
36,192,220990,1,0,0:0:0:0:
182,192,221140,1,0,0:0:0:0:
109,192,221140,1,0,0:0:0:0:
402,192,221140,1,0,0:0:0:0:
36,192,221140,128,0,221440:0:0:0:0:
475,192,221140,128,0,221440:0:0:0:0:
182,192,221440,128,0,221740:0:0:0:0:
329,192,221440,128,0,221740:0:0:0:0:
109,192,221440,1,0,0:0:0:0:
256,192,221440,1,0,0:0:0:0:
402,192,221440,1,0,0:0:0:0:
36,192,221740,128,0,222040:0:0:0:0:
475,192,221740,128,0,222040:0:0:0:0:
402,192,221740,1,0,0:0:0:0:
256,192,221740,1,0,0:0:0:0:
109,192,221740,1,0,0:0:0:0:
182,192,221815,1,0,0:0:0:0:
256,192,221890,1,0,0:0:0:0:
402,192,221890,1,0,0:0:0:0:
329,192,221965,1,0,0:0:0:0:
109,192,222040,1,0,0:0:0:0:
402,192,222040,128,0,222340:0:0:0:0:
256,192,222040,128,0,222340:0:0:0:0:
182,192,222115,1,0,0:0:0:0:
329,192,222190,1,0,0:0:0:0:
36,192,222190,1,0,0:0:0:0:
109,192,222265,1,0,0:0:0:0:
36,192,222340,1,0,0:0:0:0:
329,192,222340,1,0,0:0:0:0:
475,192,222340,1,0,0:0:0:0:
182,192,222340,128,0,222440:0:0:0:0:
256,192,222440,128,0,222540:0:0:0:0:
109,192,222490,1,0,0:0:0:0:
402,192,222490,1,0,0:0:0:0:
329,192,222540,128,0,222640:0:0:0:0:
402,192,222640,128,0,222740:0:0:0:0:
36,192,222640,1,0,0:0:0:0:
256,192,222640,1,0,0:0:0:0:
182,192,222715,1,0,0:0:0:0:
475,192,222740,128,0,222840:0:0:0:0:
256,192,222790,1,0,0:0:0:0:
109,192,222790,1,0,0:0:0:0:
402,192,222840,128,0,222940:0:0:0:0:
256,192,222940,128,0,223040:0:0:0:0:
36,192,222940,1,0,0:0:0:0:
475,192,222940,1,0,0:0:0:0:
182,192,223040,128,0,223140:0:0:0:0:
402,192,223090,1,0,0:0:0:0:
475,192,223090,1,0,0:0:0:0:
256,192,223140,128,0,223240:0:0:0:0:
36,192,223240,1,0,0:0:0:0:
329,192,223240,1,0,0:0:0:0:
182,192,223315,1,0,0:0:0:0:
402,192,223315,1,0,0:0:0:0:
256,192,223390,1,0,0:0:0:0:
475,192,223390,1,0,0:0:0:0:
109,192,223390,1,0,0:0:0:0:
329,192,223540,128,0,223615:0:0:0:0:
36,192,223540,1,0,0:0:0:0:
402,192,223540,1,0,0:0:0:0:
256,192,223615,128,0,223690:0:0:0:0:
475,192,223690,1,0,0:0:0:0:
329,192,223690,128,0,223765:0:0:0:0:
109,192,223690,1,0,0:0:0:0:
256,192,223765,128,0,223840:0:0:0:0:
182,192,223840,128,0,223915:0:0:0:0:
402,192,223840,1,0,0:0:0:0:
36,192,223840,1,0,0:0:0:0:
109,192,223915,128,0,223990:0:0:0:0:
329,192,223915,1,0,0:0:0:0:
182,192,223990,128,0,224065:0:0:0:0:
402,192,223990,1,0,0:0:0:0:
475,192,223990,1,0,0:0:0:0:
256,192,224065,128,0,224140:0:0:0:0:
329,192,224140,128,0,224215:0:0:0:0:
36,192,224140,1,0,0:0:0:0:
475,192,224140,1,0,0:0:0:0:
402,192,224215,128,0,224290:0:0:0:0:
329,192,224290,128,0,224365:0:0:0:0:
109,192,224290,1,0,0:0:0:0:
182,192,224290,1,0,0:0:0:0:
256,192,224365,128,0,224440:0:0:0:0:
182,192,224440,128,0,224490:0:0:0:0:
475,192,224440,1,0,0:0:0:0:
329,192,224440,1,0,0:0:0:0:
109,192,224490,128,0,224540:0:0:0:0:
402,192,224515,1,0,0:0:0:0:
36,192,224540,128,0,224590:0:0:0:0:
329,192,224590,128,0,224640:0:0:0:0:
182,192,224590,1,0,0:0:0:0:
256,192,224590,1,0,0:0:0:0:
402,192,224640,128,0,224690:0:0:0:0:
475,192,224690,128,0,224740:0:0:0:0:
329,192,224740,128,0,224777:0:0:0:0:
36,192,224740,1,0,0:0:0:0:
109,192,224740,1,0,0:0:0:0:
256,192,224777,128,0,224815:0:0:0:0:
182,192,224815,128,0,224965:0:0:0:0:
475,192,224890,1,0,0:0:0:0:
329,192,224890,1,0,0:0:0:0:
109,192,224965,128,0,225040:0:0:0:0:
36,192,225040,128,0,225115:0:0:0:0:
475,192,225040,1,0,0:0:0:0:
329,192,225040,1,0,0:0:0:0:
256,192,225115,128,0,225190:0:0:0:0:
402,192,225115,1,0,0:0:0:0:
182,192,225190,128,0,225265:0:0:0:0:
109,192,225190,1,0,0:0:0:0:
475,192,225190,1,0,0:0:0:0:
329,192,225265,128,0,225340:0:0:0:0:
402,192,225340,128,0,225390:0:0:0:0:
36,192,225340,1,0,0:0:0:0:
182,192,225340,1,0,0:0:0:0:
475,192,225390,128,0,225440:0:0:0:0:
256,192,225440,128,0,225490:0:0:0:0:
182,192,225490,128,0,225565:0:0:0:0:
402,192,225490,1,0,0:0:0:0:
329,192,225490,1,0,0:0:0:0:
109,192,225565,128,0,225640:0:0:0:0:
36,192,225640,128,0,225715:0:0:0:0:
475,192,225640,1,0,0:0:0:0:
256,192,225640,1,0,0:0:0:0:
402,192,225715,1,0,0:0:0:0:
109,192,225715,128,0,225865:0:0:0:0:
329,192,225790,1,0,0:0:0:0:
475,192,225790,1,0,0:0:0:0:
182,192,225865,128,0,225940:0:0:0:0:
256,192,225940,128,0,226090:0:0:0:0:
402,192,225940,128,0,226015:0:0:0:0:
36,192,225940,1,0,0:0:0:0:
329,192,225940,1,0,0:0:0:0:
329,192,226090,128,0,226240:0:0:0:0:
475,192,226090,128,0,226165:0:0:0:0:
182,192,226090,1,0,0:0:0:0:
402,192,226240,128,0,226390:0:0:0:0:
36,192,226240,1,0,0:0:0:0:
256,192,226240,1,0,0:0:0:0:
109,192,226315,1,0,0:0:0:0:
256,192,226390,128,0,226540:0:0:0:0:
182,192,226390,1,0,0:0:0:0:
475,192,226390,1,0,0:0:0:0:
329,192,226540,128,0,227140:0:0:0:0:
402,192,226540,1,0,0:0:0:0:
109,192,226540,128,0,226640:0:0:0:0:
36,192,226540,1,0,0:0:0:0:
182,192,226640,128,0,226740:0:0:0:0:
475,192,226690,1,0,0:0:0:0:
256,192,226690,1,0,0:0:0:0:
109,192,226740,128,0,226840:0:0:0:0:
182,192,226840,128,0,226940:0:0:0:0:
475,192,226840,1,0,0:0:0:0:
402,192,226915,1,0,0:0:0:0:
109,192,226940,128,0,227040:0:0:0:0:
256,192,226990,1,0,0:0:0:0:
475,192,226990,1,0,0:0:0:0:
182,192,227040,128,0,227140:0:0:0:0:
36,192,227140,1,0,0:0:0:0:
256,192,227140,1,0,0:0:0:0:
402,192,227140,128,0,227215:0:0:0:0:
109,192,227140,1,0,0:0:0:0:
475,192,227215,128,0,227290:0:0:0:0:
329,192,227290,128,0,227365:0:0:0:0:
182,192,227290,1,0,0:0:0:0:
109,192,227290,1,0,0:0:0:0:
402,192,227365,128,0,227440:0:0:0:0:
256,192,227440,128,0,227515:0:0:0:0:
182,192,227440,1,0,0:0:0:0:
36,192,227440,1,0,0:0:0:0:
329,192,227515,128,0,227590:0:0:0:0:
109,192,227515,1,0,0:0:0:0:
182,192,227590,128,0,227665:0:0:0:0:
475,192,227590,1,0,0:0:0:0:
36,192,227590,1,0,0:0:0:0:
256,192,227665,128,0,227740:0:0:0:0:
475,192,227740,128,0,227815:0:0:0:0:
109,192,227740,1,0,0:0:0:0:
329,192,227740,1,0,0:0:0:0:
402,192,227815,128,0,227890:0:0:0:0:
329,192,227890,128,0,227965:0:0:0:0:
182,192,227890,1,0,0:0:0:0:
36,192,227890,1,0,0:0:0:0:
256,192,227965,128,0,228040:0:0:0:0:
36,192,228040,128,0,228115:0:0:0:0:
475,192,228040,1,0,0:0:0:0:
402,192,228040,1,0,0:0:0:0:
109,192,228115,128,0,228190:0:0:0:0:
329,192,228115,1,0,0:0:0:0:
182,192,228190,128,0,228265:0:0:0:0:
475,192,228190,1,0,0:0:0:0:
402,192,228190,1,0,0:0:0:0:
256,192,228265,128,0,228340:0:0:0:0:
109,192,228340,128,0,228415:0:0:0:0:
475,192,228340,1,0,0:0:0:0:
329,192,228340,1,0,0:0:0:0:
36,192,228415,128,0,228490:0:0:0:0:
182,192,228490,128,0,228565:0:0:0:0:
402,192,228490,1,0,0:0:0:0:
256,192,228490,1,0,0:0:0:0:
109,192,228565,128,0,228640:0:0:0:0:
256,192,228640,128,0,228715:0:0:0:0:
475,192,228640,1,0,0:0:0:0:
329,192,228640,1,0,0:0:0:0:
182,192,228715,128,0,228790:0:0:0:0:
402,192,228715,1,0,0:0:0:0:
329,192,228790,128,0,228865:0:0:0:0:
109,192,228790,1,0,0:0:0:0:
475,192,228790,1,0,0:0:0:0:
256,192,228865,128,0,228940:0:0:0:0:
36,192,228940,128,0,229015:0:0:0:0:
402,192,228940,1,0,0:0:0:0:
182,192,228940,1,0,0:0:0:0:
109,192,229015,128,0,229090:0:0:0:0:
182,192,229090,128,0,229165:0:0:0:0:
475,192,229090,1,0,0:0:0:0:
329,192,229090,1,0,0:0:0:0:
256,192,229165,128,0,229240:0:0:0:0:
475,192,229240,128,0,229315:0:0:0:0:
36,192,229240,1,0,0:0:0:0:
182,192,229240,1,0,0:0:0:0:
402,192,229315,128,0,229390:0:0:0:0:
256,192,229315,1,0,0:0:0:0:
329,192,229390,128,0,229465:0:0:0:0:
109,192,229390,1,0,0:0:0:0:
182,192,229390,1,0,0:0:0:0:
256,192,229465,128,0,229540:0:0:0:0:
475,192,229465,1,0,0:0:0:0:
402,192,229540,1,0,0:0:0:0:
36,192,229540,128,0,229615:0:0:0:0:
109,192,229615,128,0,229690:0:0:0:0:
329,192,229615,1,0,0:0:0:0:
256,192,229690,128,0,229765:0:0:0:0:
402,192,229690,1,0,0:0:0:0:
182,192,229765,128,0,229840:0:0:0:0:
475,192,229765,1,0,0:0:0:0:
329,192,229840,128,0,229990:0:0:0:0:
36,192,229840,1,0,0:0:0:0:
109,192,229915,1,0,0:0:0:0:
475,192,229990,128,0,230040:0:0:0:0:
182,192,229990,1,0,0:0:0:0:
402,192,230040,128,0,230090:0:0:0:0:
109,192,230065,1,0,0:0:0:0:
329,192,230090,128,0,230140:0:0:0:0:
36,192,230140,1,0,0:0:0:0:
256,192,230140,128,0,230240:0:0:0:0:
475,192,230215,1,0,0:0:0:0:
182,192,230240,128,0,230340:0:0:0:0:
402,192,230290,1,0,0:0:0:0:
109,192,230340,128,0,230440:0:0:0:0:
329,192,230365,1,0,0:0:0:0:
182,192,230440,128,0,230540:0:0:0:0:
402,192,230440,1,0,0:0:0:0:
475,192,230515,1,0,0:0:0:0:
256,192,230540,128,0,230640:0:0:0:0:
36,192,230590,1,0,0:0:0:0:
329,192,230640,128,0,230740:0:0:0:0:
109,192,230665,1,0,0:0:0:0:
402,192,230740,128,0,230815:0:0:0:0:
182,192,230740,1,0,0:0:0:0:
475,192,230815,128,0,230890:0:0:0:0:
109,192,230815,1,0,0:0:0:0:
329,192,230890,128,0,230965:0:0:0:0:
36,192,230890,1,0,0:0:0:0:
256,192,230965,128,0,231040:0:0:0:0:
109,192,230965,1,0,0:0:0:0:
182,192,231040,128,0,231190:0:0:0:0:
475,192,231040,1,0,0:0:0:0:
402,192,231115,1,0,0:0:0:0:
256,192,231190,128,0,231265:0:0:0:0:
36,192,231190,1,0,0:0:0:0:
329,192,231265,128,0,231340:0:0:0:0:
109,192,231265,1,0,0:0:0:0:
182,192,231340,1,0,0:0:0:0:
402,192,231340,128,0,231490:0:0:0:0:
475,192,231340,1,0,0:0:0:0:
256,192,231415,1,0,0:0:0:0:
329,192,231490,128,0,231640:0:0:0:0:
182,192,231490,1,0,0:0:0:0:
36,192,231490,1,0,0:0:0:0:
109,192,231565,1,0,0:0:0:0:
256,192,231640,128,0,231790:0:0:0:0:
36,192,231640,1,0,0:0:0:0:
402,192,231640,1,0,0:0:0:0:
109,192,231715,1,0,0:0:0:0:
329,192,231790,128,0,231940:0:0:0:0:
182,192,231790,1,0,0:0:0:0:
475,192,231790,1,0,0:0:0:0:
109,192,231865,1,0,0:0:0:0:
402,192,231940,1,0,0:0:0:0:
256,192,231940,128,0,231990:0:0:0:0:
36,192,231940,128,0,232390:0:0:0:0:
475,192,231940,128,0,232390:0:0:0:0:
182,192,231990,128,0,232040:0:0:0:0:
109,192,232040,128,0,232090:0:0:0:0:
256,192,232090,128,0,232140:0:0:0:0:
329,192,232140,128,0,232190:0:0:0:0:
402,192,232190,128,0,232240:0:0:0:0:
256,192,232240,128,0,232290:0:0:0:0:
182,192,232290,128,0,232340:0:0:0:0:
109,192,232340,128,0,232390:0:0:0:0:
256,192,232390,1,0,0:0:0:0:
402,192,232390,1,0,0:0:0:0:
256,192,232540,128,0,232690:0:0:0:0:
329,192,232540,1,0,0:0:0:0:
36,192,232540,1,0,0:0:0:0:
109,192,232690,128,0,232840:0:0:0:0:
182,192,232690,1,0,0:0:0:0:
402,192,232690,1,0,0:0:0:0:
475,192,232840,128,0,232990:0:0:0:0:
256,192,232840,1,0,0:0:0:0:
36,192,232840,1,0,0:0:0:0:
329,192,232990,128,0,233140:0:0:0:0:
182,192,232990,1,0,0:0:0:0:
109,192,232990,1,0,0:0:0:0:
36,192,233140,128,0,233190:0:0:0:0:
256,192,233140,128,0,233440:0:0:0:0:
475,192,233140,1,0,0:0:0:0:
402,192,233140,1,0,0:0:0:0:
109,192,233190,128,0,233240:0:0:0:0:
182,192,233240,128,0,233290:0:0:0:0:
36,192,233290,128,0,233340:0:0:0:0:
329,192,233290,1,0,0:0:0:0:
402,192,233290,1,0,0:0:0:0:
109,192,233340,128,0,233390:0:0:0:0:
182,192,233390,128,0,233440:0:0:0:0:
475,192,233440,128,0,233590:0:0:0:0:
402,192,233440,1,0,0:0:0:0:
36,192,233440,1,0,0:0:0:0:
329,192,233515,1,0,0:0:0:0:
402,192,233590,128,0,233665:0:0:0:0:
256,192,233590,1,0,0:0:0:0:
109,192,233590,1,0,0:0:0:0:
329,192,233665,128,0,233740:0:0:0:0:
402,192,233740,128,0,234040:0:0:0:0:
182,192,233740,128,0,233790:0:0:0:0:
36,192,233740,1,0,0:0:0:0:
256,192,233790,128,0,233840:0:0:0:0:
329,192,233840,128,0,233890:0:0:0:0:
182,192,233890,128,0,233940:0:0:0:0:
475,192,233890,1,0,0:0:0:0:
109,192,233890,1,0,0:0:0:0:
256,192,233940,128,0,233990:0:0:0:0:
329,192,233990,128,0,234040:0:0:0:0:
36,192,234040,128,0,234140:0:0:0:0:
475,192,234040,128,0,234140:0:0:0:0:
109,192,234040,1,0,0:0:0:0:
182,192,234140,128,0,234240:0:0:0:0:
329,192,234140,128,0,234240:0:0:0:0:
109,192,234240,128,0,234340:0:0:0:0:
402,192,234240,128,0,234340:0:0:0:0:
475,192,234340,1,0,0:0:0:0:
256,192,234340,128,0,234940:0:0:0:0:
182,192,234340,128,0,234390:0:0:0:0:
109,192,234390,128,0,234440:0:0:0:0:
36,192,234440,128,0,234490:0:0:0:0:
329,192,234490,128,0,234540:0:0:0:0:
402,192,234540,128,0,234590:0:0:0:0:
475,192,234590,128,0,234640:0:0:0:0:
36,192,234640,128,0,234690:0:0:0:0:
109,192,234690,128,0,234740:0:0:0:0:
182,192,234740,128,0,234790:0:0:0:0:
475,192,234790,128,0,234840:0:0:0:0:
402,192,234840,128,0,234890:0:0:0:0:
329,192,234890,128,0,234940:0:0:0:0:
182,192,234940,128,0,235090:0:0:0:0:
36,192,234940,128,0,235090:0:0:0:0:
475,192,234940,1,0,0:0:0:0:
109,192,235090,128,0,235240:0:0:0:0:
475,192,235090,128,0,235240:0:0:0:0:
329,192,235090,1,0,0:0:0:0:
182,192,235240,128,0,235390:0:0:0:0:
402,192,235240,128,0,235390:0:0:0:0:
256,192,235240,1,0,0:0:0:0:
329,192,235390,128,0,235540:0:0:0:0:
109,192,235390,128,0,235540:0:0:0:0:
36,192,235390,1,0,0:0:0:0:
256,192,235540,128,0,235690:0:0:0:0:
36,192,235540,128,0,235690:0:0:0:0:
475,192,235540,1,0,0:0:0:0:
182,192,235690,128,0,235840:0:0:0:0:
402,192,235690,128,0,235840:0:0:0:0:
109,192,235690,1,0,0:0:0:0:
109,192,235840,128,0,235990:0:0:0:0:
329,192,235840,128,0,235990:0:0:0:0:
256,192,235840,1,0,0:0:0:0:
182,192,235990,128,0,236140:0:0:0:0:
402,192,235990,128,0,236140:0:0:0:0:
36,192,235990,1,0,0:0:0:0:
256,192,236140,128,0,236290:0:0:0:0:
36,192,236140,128,0,236290:0:0:0:0:
475,192,236140,1,0,0:0:0:0:
109,192,236290,128,0,236440:0:0:0:0:
475,192,236290,128,0,236440:0:0:0:0:
329,192,236290,1,0,0:0:0:0:
182,192,236440,128,0,236590:0:0:0:0:
402,192,236440,128,0,236590:0:0:0:0:
36,192,236440,1,0,0:0:0:0:
36,192,236590,128,0,236740:0:0:0:0:
256,192,236590,128,0,236740:0:0:0:0:
329,192,236590,1,0,0:0:0:0:
182,192,236740,1,0,0:0:0:0:
109,192,236740,128,0,237340:0:0:0:0:
402,192,236740,128,0,237340:0:0:0:0:
329,192,236740,128,0,236790:0:0:0:0:
475,192,236790,128,0,236840:0:0:0:0:
256,192,236840,128,0,236890:0:0:0:0:
329,192,236890,128,0,236940:0:0:0:0:
182,192,236940,128,0,236990:0:0:0:0:
256,192,236990,128,0,237040:0:0:0:0:
36,192,237040,128,0,237090:0:0:0:0:
182,192,237090,128,0,237140:0:0:0:0:
256,192,237140,128,0,237190:0:0:0:0:
329,192,237190,128,0,237240:0:0:0:0:
256,192,237240,128,0,237290:0:0:0:0:
182,192,237290,128,0,237340:0:0:0:0:
36,192,237340,128,0,237490:0:0:0:0:
475,192,237340,128,0,237490:0:0:0:0:
329,192,237340,1,0,0:0:0:0:
182,192,237490,1,0,0:0:0:0:
329,192,237490,1,0,0:0:0:0:
329,192,237565,128,0,237715:0:0:0:0:
182,192,237565,128,0,237715:0:0:0:0:
109,192,237715,1,0,0:0:0:0:
402,192,237715,1,0,0:0:0:0:
109,192,237790,128,0,237865:0:0:0:0:
402,192,237790,128,0,237865:0:0:0:0:
256,192,237790,1,0,0:0:0:0:
36,192,237865,1,0,0:0:0:0:
475,192,237865,1,0,0:0:0:0:
36,192,237940,128,0,238240:0:0:0:0:
475,192,237940,128,0,238240:0:0:0:0:
182,192,237940,128,0,237990:0:0:0:0:
256,192,237990,128,0,238040:0:0:0:0:
329,192,238040,128,0,238090:0:0:0:0:
182,192,238090,128,0,238140:0:0:0:0:
256,192,238140,128,0,238190:0:0:0:0:
329,192,238190,128,0,238240:0:0:0:0:
402,192,238240,128,0,238390:0:0:0:0:
109,192,238240,128,0,238390:0:0:0:0:
182,192,238390,128,0,238540:0:0:0:0:
329,192,238390,128,0,238540:0:0:0:0:
256,192,238540,128,0,239140:0:0:0:0:
36,192,238540,128,0,238590:0:0:0:0:
475,192,238540,128,0,238615:0:0:0:0:
109,192,238590,128,0,238640:0:0:0:0:
402,192,238615,128,0,238690:0:0:0:0:
182,192,238640,128,0,238690:0:0:0:0:
329,192,238690,128,0,238740:0:0:0:0:
109,192,238690,128,0,238765:0:0:0:0:
402,192,238740,128,0,238790:0:0:0:0:
36,192,238765,128,0,238840:0:0:0:0:
475,192,238790,128,0,238840:0:0:0:0:
182,192,238840,128,0,238890:0:0:0:0:
329,192,238840,128,0,238915:0:0:0:0:
109,192,238890,128,0,238940:0:0:0:0:
402,192,238915,128,0,238990:0:0:0:0:
36,192,238940,128,0,238990:0:0:0:0:
329,192,238990,128,0,239040:0:0:0:0:
182,192,238990,128,0,239065:0:0:0:0:
402,192,239040,128,0,239090:0:0:0:0:
109,192,239065,128,0,239140:0:0:0:0:
475,192,239090,128,0,239140:0:0:0:0:
36,192,239140,128,0,239215:0:0:0:0:
329,192,239140,128,0,239215:0:0:0:0:
182,192,239215,128,0,239290:0:0:0:0:
402,192,239215,128,0,239290:0:0:0:0:
109,192,239290,128,0,239365:0:0:0:0:
475,192,239290,128,0,239365:0:0:0:0:
256,192,239365,128,0,239440:0:0:0:0:
36,192,239365,128,0,239440:0:0:0:0:
109,192,239440,128,0,239515:0:0:0:0:
329,192,239440,128,0,239515:0:0:0:0:
182,192,239515,128,0,239590:0:0:0:0:
402,192,239515,128,0,239590:0:0:0:0:
256,192,239590,128,0,239665:0:0:0:0:
475,192,239590,128,0,239665:0:0:0:0:
36,192,239665,128,0,239702:0:0:0:0:
329,192,239665,128,0,239702:0:0:0:0:
109,192,239702,128,0,239740:0:0:0:0:
402,192,239702,128,0,239740:0:0:0:0:
182,192,239740,128,0,239890:0:0:0:0:
475,192,239740,128,0,239890:0:0:0:0:
402,192,239890,128,0,239965:0:0:0:0:
109,192,239890,128,0,239965:0:0:0:0:
329,192,239965,128,0,240040:0:0:0:0:
36,192,239965,128,0,240040:0:0:0:0:
182,192,240040,128,0,240115:0:0:0:0:
475,192,240040,128,0,240115:0:0:0:0:
109,192,240115,128,0,240190:0:0:0:0:
402,192,240115,128,0,240190:0:0:0:0:
182,192,240190,128,0,240265:0:0:0:0:
329,192,240190,128,0,240265:0:0:0:0:
256,192,240265,128,0,240340:0:0:0:0:
402,192,240265,128,0,240340:0:0:0:0:
182,192,240340,128,0,240415:0:0:0:0:
475,192,240340,128,0,240415:0:0:0:0:
402,192,240415,128,0,240490:0:0:0:0:
109,192,240415,128,0,240490:0:0:0:0:
36,192,240490,128,0,240527:0:0:0:0:
329,192,240490,128,0,240527:0:0:0:0:
256,192,240527,128,0,240565:0:0:0:0:
475,192,240527,128,0,240565:0:0:0:0:
402,192,240565,128,0,240640:0:0:0:0:
109,192,240565,128,0,240640:0:0:0:0:
329,192,240640,128,0,240715:0:0:0:0:
182,192,240640,128,0,240715:0:0:0:0:
402,192,240715,128,0,240790:0:0:0:0:
109,192,240715,128,0,240790:0:0:0:0:
475,192,240790,128,0,240865:0:0:0:0:
182,192,240790,128,0,240865:0:0:0:0:
402,192,240865,128,0,240940:0:0:0:0:
256,192,240865,128,0,240940:0:0:0:0:
182,192,240940,128,0,241015:0:0:0:0:
329,192,240940,128,0,241015:0:0:0:0:
109,192,241015,128,0,241090:0:0:0:0:
256,192,241015,128,0,241090:0:0:0:0:
36,192,241090,128,0,241165:0:0:0:0:
329,192,241090,128,0,241165:0:0:0:0:
402,192,241165,128,0,241240:0:0:0:0:
109,192,241165,128,0,241240:0:0:0:0:
475,192,241240,128,0,241315:0:0:0:0:
182,192,241240,128,0,241315:0:0:0:0:
256,192,241315,128,0,241390:0:0:0:0:
36,192,241315,128,0,241390:0:0:0:0:
109,192,241390,128,0,241465:0:0:0:0:
329,192,241390,128,0,241465:0:0:0:0:
182,192,241465,128,0,241540:0:0:0:0:
402,192,241465,128,0,241540:0:0:0:0:
36,192,241540,1,0,0:0:0:0:
256,192,241540,1,0,0:0:0:0:
475,192,241540,128,0,241577:0:0:0:0:
329,192,241615,128,0,241652:0:0:0:0:
109,192,241615,1,0,0:0:0:0:
475,192,241690,128,0,241727:0:0:0:0:
182,192,241690,1,0,0:0:0:0:
329,192,241765,128,0,241802:0:0:0:0:
109,192,241765,1,0,0:0:0:0:
475,192,241840,1,0,0:0:0:0:
256,192,241840,128,0,241915:0:0:0:0:
36,192,241915,128,0,241952:0:0:0:0:
402,192,241915,1,0,0:0:0:0:
182,192,241990,128,0,242027:0:0:0:0:
329,192,241990,1,0,0:0:0:0:
36,192,242065,128,0,242102:0:0:0:0:
475,192,242065,1,0,0:0:0:0:
182,192,242140,128,0,242177:0:0:0:0:
402,192,242140,1,0,0:0:0:0:
256,192,242215,1,0,0:0:0:0:
36,192,242215,128,0,242252:0:0:0:0:
329,192,242290,1,0,0:0:0:0:
109,192,242290,128,0,242365:0:0:0:0:
402,192,242365,128,0,242402:0:0:0:0:
36,192,242365,1,0,0:0:0:0:
256,192,242440,128,0,242477:0:0:0:0:
109,192,242440,1,0,0:0:0:0:
402,192,242515,128,0,242552:0:0:0:0:
182,192,242515,1,0,0:0:0:0:
256,192,242590,128,0,242627:0:0:0:0:
109,192,242590,1,0,0:0:0:0:
402,192,242665,128,0,242702:0:0:0:0:
36,192,242665,1,0,0:0:0:0:
182,192,242740,128,0,242815:0:0:0:0:
329,192,242740,1,0,0:0:0:0:
402,192,242815,1,0,0:0:0:0:
109,192,242815,128,0,242852:0:0:0:0:
475,192,242890,1,0,0:0:0:0:
256,192,242890,128,0,242927:0:0:0:0:
109,192,242965,128,0,243002:0:0:0:0:
402,192,242965,1,0,0:0:0:0:
256,192,243040,128,0,243077:0:0:0:0:
329,192,243040,1,0,0:0:0:0:
109,192,243115,128,0,243152:0:0:0:0:
402,192,243115,1,0,0:0:0:0:
475,192,243190,128,0,243265:0:0:0:0:
256,192,243190,1,0,0:0:0:0:
182,192,243265,128,0,243302:0:0:0:0:
36,192,243265,1,0,0:0:0:0:
329,192,243340,128,0,243377:0:0:0:0:
109,192,243340,1,0,0:0:0:0:
182,192,243415,128,0,243452:0:0:0:0:
256,192,243415,1,0,0:0:0:0:
329,192,243490,128,0,243527:0:0:0:0:
109,192,243490,1,0,0:0:0:0:
182,192,243565,128,0,243602:0:0:0:0:
402,192,243565,1,0,0:0:0:0:
475,192,243640,128,0,243715:0:0:0:0:
36,192,243640,1,0,0:0:0:0:
256,192,243715,128,0,243752:0:0:0:0:
109,192,243715,1,0,0:0:0:0:
402,192,243790,128,0,243827:0:0:0:0:
182,192,243790,1,0,0:0:0:0:
256,192,243865,128,0,243902:0:0:0:0:
109,192,243865,1,0,0:0:0:0:
475,192,243940,1,0,0:0:0:0:
402,192,243940,1,0,0:0:0:0:
329,192,243940,128,0,244015:0:0:0:0:
36,192,243940,128,0,244015:0:0:0:0:
109,192,244015,128,0,244090:0:0:0:0:
256,192,244015,128,0,244090:0:0:0:0:
475,192,244090,128,0,244165:0:0:0:0:
182,192,244090,128,0,244165:0:0:0:0:
256,192,244165,128,0,244240:0:0:0:0:
402,192,244165,128,0,244240:0:0:0:0:
36,192,244240,128,0,244290:0:0:0:0:
329,192,244240,128,0,244315:0:0:0:0:
109,192,244290,128,0,244340:0:0:0:0:
182,192,244340,128,0,244390:0:0:0:0:
256,192,244390,128,0,244440:0:0:0:0:
329,192,244440,128,0,244490:0:0:0:0:
402,192,244490,128,0,244540:0:0:0:0:
475,192,244540,128,0,244590:0:0:0:0:
36,192,244540,128,0,244615:0:0:0:0:
256,192,244540,128,0,244615:0:0:0:0:
329,192,244615,128,0,244690:0:0:0:0:
109,192,244615,128,0,244690:0:0:0:0:
182,192,244690,128,0,244765:0:0:0:0:
402,192,244690,128,0,244765:0:0:0:0:
36,192,244765,128,0,244840:0:0:0:0:
256,192,244765,128,0,244840:0:0:0:0:
475,192,244840,128,0,244890:0:0:0:0:
109,192,244840,128,0,244915:0:0:0:0:
402,192,244890,128,0,244940:0:0:0:0:
329,192,244940,128,0,244990:0:0:0:0:
256,192,244990,128,0,245040:0:0:0:0:
182,192,245040,128,0,245090:0:0:0:0:
109,192,245090,128,0,245140:0:0:0:0:
36,192,245140,128,0,245190:0:0:0:0:
475,192,245140,128,0,245290:0:0:0:0:
329,192,245140,1,0,0:0:0:0:
256,192,245215,128,0,245290:0:0:0:0:
329,192,245252,128,0,245290:0:0:0:0:
402,192,245290,128,0,245440:0:0:0:0:
109,192,245290,1,0,0:0:0:0:
182,192,245365,128,0,245440:0:0:0:0:
256,192,245402,128,0,245440:0:0:0:0:
329,192,245440,128,0,245590:0:0:0:0:
36,192,245440,1,0,0:0:0:0:
109,192,245515,128,0,245590:0:0:0:0:
182,192,245552,128,0,245590:0:0:0:0:
256,192,245590,128,0,245740:0:0:0:0:
402,192,245590,1,0,0:0:0:0:
36,192,245740,128,0,245890:0:0:0:0:
329,192,245740,1,0,0:0:0:0:
256,192,245815,128,0,245890:0:0:0:0:
182,192,245852,128,0,245890:0:0:0:0:
402,192,245890,1,0,0:0:0:0:
109,192,245890,128,0,246040:0:0:0:0:
329,192,245965,128,0,246040:0:0:0:0:
256,192,246002,128,0,246040:0:0:0:0:
182,192,246040,128,0,246190:0:0:0:0:
475,192,246040,1,0,0:0:0:0:
402,192,246115,128,0,246190:0:0:0:0:
329,192,246152,128,0,246190:0:0:0:0:
256,192,246190,128,0,246340:0:0:0:0:
109,192,246190,1,0,0:0:0:0:
475,192,246265,128,0,246340:0:0:0:0:
402,192,246302,128,0,246340:0:0:0:0:
36,192,246340,1,0,0:0:0:0:
182,192,246340,1,0,0:0:0:0:
329,192,246340,128,0,246790:0:0:0:0:
109,192,246490,1,0,0:0:0:0:
256,192,246490,1,0,0:0:0:0:
475,192,246490,1,0,0:0:0:0:
182,192,246640,1,0,0:0:0:0:
475,192,246640,1,0,0:0:0:0:
256,192,246715,1,0,0:0:0:0:
402,192,246715,1,0,0:0:0:0:
109,192,246790,128,0,246940:0:0:0:0:
36,192,246790,1,0,0:0:0:0:
475,192,246790,1,0,0:0:0:0:
256,192,246940,128,0,247090:0:0:0:0:
182,192,246940,1,0,0:0:0:0:
402,192,246940,1,0,0:0:0:0:
402,192,247090,128,0,247240:0:0:0:0:
36,192,247090,1,0,0:0:0:0:
329,192,247090,1,0,0:0:0:0:
182,192,247240,128,0,247390:0:0:0:0:
109,192,247240,1,0,0:0:0:0:
475,192,247240,1,0,0:0:0:0:
256,192,247315,1,0,0:0:0:0:
402,192,247315,1,0,0:0:0:0:
329,192,247390,128,0,247540:0:0:0:0:
475,192,247390,128,0,247540:0:0:0:0:
36,192,247390,1,0,0:0:0:0:
109,192,247540,1,0,0:0:0:0:
402,192,247540,1,0,0:0:0:0:
256,192,247690,128,0,247840:0:0:0:0:
402,192,247690,128,0,247840:0:0:0:0:
182,192,247690,1,0,0:0:0:0:
36,192,247690,1,0,0:0:0:0:
109,192,247840,1,0,0:0:0:0:
475,192,247840,1,0,0:0:0:0:
329,192,247840,1,0,0:0:0:0:
402,192,247915,1,0,0:0:0:0:
36,192,247915,1,0,0:0:0:0:
329,192,247990,128,0,248290:0:0:0:0:
182,192,247990,128,0,248290:0:0:0:0:
109,192,247990,1,0,0:0:0:0:
256,192,247990,1,0,0:0:0:0:
36,192,248140,1,0,0:0:0:0:
475,192,248140,1,0,0:0:0:0:
109,192,248290,128,0,248440:0:0:0:0:
256,192,248290,1,0,0:0:0:0:
402,192,248290,1,0,0:0:0:0:
256,192,248440,128,0,248590:0:0:0:0:
36,192,248440,1,0,0:0:0:0:
475,192,248440,1,0,0:0:0:0:
182,192,248515,1,0,0:0:0:0:
329,192,248515,1,0,0:0:0:0:
402,192,248590,128,0,248740:0:0:0:0:
109,192,248590,1,0,0:0:0:0:
475,192,248590,1,0,0:0:0:0:
256,192,248740,128,0,248815:0:0:0:0:
36,192,248740,128,0,248815:0:0:0:0:
475,192,248740,1,0,0:0:0:0:
182,192,248740,1,0,0:0:0:0:
329,192,248815,128,0,248890:0:0:0:0:
109,192,248815,128,0,248890:0:0:0:0:
402,192,248890,128,0,248965:0:0:0:0:
182,192,248890,128,0,248965:0:0:0:0:
256,192,248965,128,0,249040:0:0:0:0:
475,192,248965,128,0,249040:0:0:0:0:
402,192,249040,128,0,249115:0:0:0:0:
182,192,249040,128,0,249115:0:0:0:0:
475,192,249115,128,0,249190:0:0:0:0:
109,192,249115,128,0,249190:0:0:0:0:
256,192,249190,128,0,249265:0:0:0:0:
36,192,249190,128,0,249265:0:0:0:0:
109,192,249265,128,0,249340:0:0:0:0:
329,192,249265,128,0,249340:0:0:0:0:
402,192,249340,128,0,249415:0:0:0:0:
182,192,249340,128,0,249415:0:0:0:0:
256,192,249415,128,0,249490:0:0:0:0:
475,192,249415,128,0,249490:0:0:0:0:
329,192,249490,128,0,249565:0:0:0:0:
36,192,249490,128,0,249565:0:0:0:0:
109,192,249565,128,0,249640:0:0:0:0:
402,192,249565,128,0,249640:0:0:0:0:
475,192,249640,128,0,249715:0:0:0:0:
256,192,249640,128,0,249715:0:0:0:0:
182,192,249715,128,0,249790:0:0:0:0:
402,192,249715,128,0,249790:0:0:0:0:
109,192,249790,128,0,249865:0:0:0:0:
329,192,249790,128,0,249865:0:0:0:0:
256,192,249865,128,0,249940:0:0:0:0:
36,192,249865,128,0,249940:0:0:0:0:
475,192,249940,128,0,250015:0:0:0:0:
402,192,249940,128,0,250015:0:0:0:0:
182,192,249940,1,0,0:0:0:0:
256,192,250015,128,0,250090:0:0:0:0:
329,192,250015,128,0,250090:0:0:0:0:
402,192,250090,128,0,250240:0:0:0:0:
475,192,250090,128,0,250240:0:0:0:0:
109,192,250090,128,0,250140:0:0:0:0:
182,192,250140,128,0,250190:0:0:0:0:
256,192,250190,128,0,250240:0:0:0:0:
36,192,250240,128,0,250315:0:0:0:0:
109,192,250240,128,0,250315:0:0:0:0:
182,192,250315,128,0,250390:0:0:0:0:
256,192,250315,128,0,250390:0:0:0:0:
109,192,250390,128,0,250540:0:0:0:0:
36,192,250390,128,0,250540:0:0:0:0:
402,192,250390,128,0,250440:0:0:0:0:
329,192,250440,128,0,250490:0:0:0:0:
256,192,250490,128,0,250540:0:0:0:0:
475,192,250540,128,0,251140:0:0:0:0:
402,192,250540,128,0,250590:0:0:0:0:
182,192,250540,1,0,0:0:0:0:
329,192,250590,128,0,250640:0:0:0:0:
182,192,250640,128,0,250690:0:0:0:0:
256,192,250690,128,0,250740:0:0:0:0:
109,192,250740,128,0,250790:0:0:0:0:
182,192,250790,128,0,250840:0:0:0:0:
36,192,250840,128,0,250890:0:0:0:0:
329,192,250840,1,0,0:0:0:0:
109,192,250890,128,0,250940:0:0:0:0:
182,192,250940,128,0,250990:0:0:0:0:
256,192,250990,128,0,251040:0:0:0:0:
329,192,251040,128,0,251090:0:0:0:0:
402,192,251090,128,0,251140:0:0:0:0:
256,192,251140,128,0,251215:0:0:0:0:
36,192,251140,128,0,251215:0:0:0:0:
109,192,251140,1,0,0:0:0:0:
182,192,251215,128,0,251290:0:0:0:0:
329,192,251215,128,0,251290:0:0:0:0:
402,192,251290,128,0,251340:0:0:0:0:
109,192,251290,128,0,251340:0:0:0:0:
182,192,251340,128,0,251390:0:0:0:0:
475,192,251340,128,0,251390:0:0:0:0:
256,192,251390,128,0,251440:0:0:0:0:
36,192,251390,128,0,251440:0:0:0:0:
329,192,251440,128,0,251515:0:0:0:0:
109,192,251440,128,0,251515:0:0:0:0:
182,192,251515,128,0,251590:0:0:0:0:
402,192,251515,128,0,251590:0:0:0:0:
256,192,251590,128,0,251640:0:0:0:0:
475,192,251590,128,0,251640:0:0:0:0:
182,192,251640,128,0,251740:0:0:0:0:
402,192,251640,128,0,251740:0:0:0:0:
36,192,251740,128,0,251790:0:0:0:0:
329,192,251740,128,0,251790:0:0:0:0:
109,192,251790,128,0,251840:0:0:0:0:
256,192,251790,128,0,251840:0:0:0:0:
182,192,251840,128,0,251890:0:0:0:0:
402,192,251840,128,0,251890:0:0:0:0:
256,192,251890,128,0,251990:0:0:0:0:
475,192,251890,128,0,251990:0:0:0:0:
402,192,251990,128,0,252040:0:0:0:0:
182,192,251990,128,0,252040:0:0:0:0:
36,192,252040,128,0,252090:0:0:0:0:
329,192,252040,128,0,252090:0:0:0:0:
256,192,252090,128,0,252165:0:0:0:0:
109,192,252090,128,0,252165:0:0:0:0:
475,192,252165,128,0,252215:0:0:0:0:
182,192,252165,128,0,252215:0:0:0:0:
402,192,252190,128,0,252290:0:0:0:0:
36,192,252190,128,0,252290:0:0:0:0:
329,192,252290,128,0,252340:0:0:0:0:
109,192,252290,128,0,252340:0:0:0:0:
182,192,252340,128,0,252415:0:0:0:0:
475,192,252340,128,0,252415:0:0:0:0:
256,192,252415,128,0,252490:0:0:0:0:
402,192,252415,128,0,252490:0:0:0:0:
329,192,252490,128,0,252565:0:0:0:0:
109,192,252490,128,0,252565:0:0:0:0:
256,192,252565,128,0,252640:0:0:0:0:
36,192,252565,128,0,252640:0:0:0:0:
182,192,252640,128,0,252715:0:0:0:0:
475,192,252640,128,0,252715:0:0:0:0:
109,192,252715,128,0,252790:0:0:0:0:
402,192,252715,128,0,252790:0:0:0:0:
475,192,252790,128,0,252865:0:0:0:0:
256,192,252790,128,0,252865:0:0:0:0:
402,192,252865,128,0,252940:0:0:0:0:
182,192,252865,128,0,252940:0:0:0:0:
109,192,252940,128,0,253015:0:0:0:0:
329,192,252940,128,0,253015:0:0:0:0:
36,192,253015,128,0,253090:0:0:0:0:
402,192,253015,128,0,253090:0:0:0:0:
329,192,253090,128,0,253165:0:0:0:0:
109,192,253090,128,0,253165:0:0:0:0:
402,192,253165,128,0,253240:0:0:0:0:
182,192,253165,128,0,253240:0:0:0:0:
256,192,253240,128,0,253315:0:0:0:0:
36,192,253240,128,0,253315:0:0:0:0:
182,192,253315,128,0,253390:0:0:0:0:
475,192,253315,128,0,253390:0:0:0:0:
256,192,253390,128,0,253465:0:0:0:0:
402,192,253390,128,0,253465:0:0:0:0:
182,192,253465,128,0,253540:0:0:0:0:
329,192,253465,128,0,253540:0:0:0:0:
36,192,253540,128,0,253690:0:0:0:0:
475,192,253540,128,0,253577:0:0:0:0:
182,192,253615,128,0,253652:0:0:0:0:
402,192,253615,128,0,253652:0:0:0:0:
256,192,253690,128,0,253840:0:0:0:0:
109,192,253690,128,0,253727:0:0:0:0:
182,192,253765,128,0,253802:0:0:0:0:
329,192,253765,128,0,253802:0:0:0:0:
475,192,253840,128,0,253990:0:0:0:0:
36,192,253840,128,0,253877:0:0:0:0:
256,192,253915,128,0,253952:0:0:0:0:
402,192,253915,128,0,253952:0:0:0:0:
109,192,253990,128,0,254140:0:0:0:0:
182,192,253990,128,0,254027:0:0:0:0:
256,192,254065,128,0,254102:0:0:0:0:
329,192,254065,128,0,254102:0:0:0:0:
402,192,254140,128,0,254290:0:0:0:0:
36,192,254140,128,0,254177:0:0:0:0:
475,192,254140,128,0,254177:0:0:0:0:
109,192,254215,128,0,254252:0:0:0:0:
256,192,254215,128,0,254252:0:0:0:0:
182,192,254290,128,0,254440:0:0:0:0:
329,192,254290,128,0,254327:0:0:0:0:
36,192,254365,128,0,254402:0:0:0:0:
475,192,254365,128,0,254402:0:0:0:0:
329,192,254440,128,0,254590:0:0:0:0:
109,192,254440,128,0,254477:0:0:0:0:
182,192,254515,128,0,254552:0:0:0:0:
475,192,254515,128,0,254552:0:0:0:0:
256,192,254590,128,0,254740:0:0:0:0:
402,192,254590,128,0,254627:0:0:0:0:
109,192,254665,128,0,254702:0:0:0:0:
329,192,254665,128,0,254702:0:0:0:0:
182,192,254740,128,0,254890:0:0:0:0:
402,192,254740,128,0,254777:0:0:0:0:
329,192,254815,128,0,254890:0:0:0:0:
36,192,254815,128,0,254852:0:0:0:0:
475,192,254890,128,0,255040:0:0:0:0:
109,192,254890,128,0,254965:0:0:0:0:
256,192,254965,128,0,255040:0:0:0:0:
402,192,254965,128,0,255002:0:0:0:0:
36,192,255040,128,0,255190:0:0:0:0:
329,192,255040,128,0,255115:0:0:0:0:
109,192,255115,128,0,255190:0:0:0:0:
475,192,255115,128,0,255152:0:0:0:0:
402,192,255190,128,0,255340:0:0:0:0:
256,192,255190,128,0,255265:0:0:0:0:
182,192,255265,128,0,255340:0:0:0:0:
36,192,255265,128,0,255302:0:0:0:0:
109,192,255340,128,0,255490:0:0:0:0:
329,192,255340,128,0,255415:0:0:0:0:
256,192,255415,128,0,255490:0:0:0:0:
402,192,255415,128,0,255452:0:0:0:0:
475,192,255490,128,0,255640:0:0:0:0:
329,192,255490,128,0,255565:0:0:0:0:
182,192,255490,128,0,255527:0:0:0:0:
402,192,255565,128,0,255640:0:0:0:0:
109,192,255565,128,0,255602:0:0:0:0:
36,192,255640,128,0,255715:0:0:0:0:
256,192,255640,128,0,255715:0:0:0:0:
109,192,255715,128,0,255790:0:0:0:0:
329,192,255715,128,0,255790:0:0:0:0:
182,192,255790,128,0,255865:0:0:0:0:
402,192,255790,128,0,255865:0:0:0:0:
256,192,255865,128,0,255940:0:0:0:0:
475,192,255865,128,0,255940:0:0:0:0:
329,192,255940,128,0,256015:0:0:0:0:
36,192,255940,128,0,256015:0:0:0:0:
402,192,256015,128,0,256090:0:0:0:0:
182,192,256015,128,0,256090:0:0:0:0:
109,192,256090,128,0,256190:0:0:0:0:
329,192,256090,128,0,256190:0:0:0:0:
182,192,256190,128,0,256290:0:0:0:0:
402,192,256190,128,0,256290:0:0:0:0:
256,192,256290,128,0,256390:0:0:0:0:
475,192,256290,128,0,256390:0:0:0:0:
329,192,256390,128,0,256490:0:0:0:0:
36,192,256390,128,0,256490:0:0:0:0:
109,192,256490,128,0,256590:0:0:0:0:
402,192,256490,128,0,256590:0:0:0:0:
182,192,256590,128,0,256690:0:0:0:0:
329,192,256590,128,0,256690:0:0:0:0:
256,192,256690,128,0,256840:0:0:0:0:
475,192,256690,128,0,256840:0:0:0:0:
402,192,256840,128,0,256915:0:0:0:0:
182,192,256840,128,0,256915:0:0:0:0:
329,192,256915,128,0,256990:0:0:0:0:
109,192,256915,128,0,256990:0:0:0:0:
256,192,256990,128,0,257140:0:0:0:0:
36,192,256990,128,0,257140:0:0:0:0:
475,192,257140,128,0,257240:0:0:0:0:
182,192,257140,128,0,257240:0:0:0:0:
402,192,257240,128,0,257340:0:0:0:0:
109,192,257240,128,0,257340:0:0:0:0:
182,192,257340,128,0,257440:0:0:0:0:
329,192,257340,128,0,257440:0:0:0:0:
256,192,257440,128,0,257540:0:0:0:0:
36,192,257440,128,0,257540:0:0:0:0:
109,192,257540,128,0,257640:0:0:0:0:
329,192,257540,128,0,257640:0:0:0:0:
475,192,257640,128,0,257740:0:0:0:0:
256,192,257640,128,0,257740:0:0:0:0:
182,192,257740,128,0,257840:0:0:0:0:
402,192,257740,128,0,257840:0:0:0:0:
36,192,257840,128,0,258040:0:0:0:0:
329,192,257840,128,0,258040:0:0:0:0:
109,192,258040,128,0,258140:0:0:0:0:
256,192,258040,128,0,258140:0:0:0:0:
182,192,258140,128,0,258240:0:0:0:0:
329,192,258140,128,0,258240:0:0:0:0:
256,192,258240,128,0,258340:0:0:0:0:
402,192,258240,128,0,258340:0:0:0:0:
475,192,258340,128,0,258415:0:0:0:0:
36,192,258340,1,0,0:0:0:0:
402,192,258415,128,0,258490:0:0:0:0:
109,192,258415,1,0,0:0:0:0:
256,192,258490,128,0,258565:0:0:0:0:
182,192,258490,1,0,0:0:0:0:
329,192,258565,128,0,258640:0:0:0:0:
109,192,258565,1,0,0:0:0:0:
475,192,258640,128,0,258715:0:0:0:0:
36,192,258640,1,0,0:0:0:0:
402,192,258715,128,0,258790:0:0:0:0:
109,192,258715,1,0,0:0:0:0:
256,192,258790,128,0,258865:0:0:0:0:
182,192,258790,1,0,0:0:0:0:
329,192,258865,128,0,258940:0:0:0:0:
109,192,258865,1,0,0:0:0:0:
36,192,258940,1,0,0:0:0:0:
182,192,258940,128,0,259015:0:0:0:0:
256,192,259015,128,0,259090:0:0:0:0:
475,192,259015,1,0,0:0:0:0:
109,192,259090,128,0,259165:0:0:0:0:
402,192,259090,1,0,0:0:0:0:
36,192,259165,128,0,259240:0:0:0:0:
329,192,259165,1,0,0:0:0:0:
182,192,259240,1,0,0:0:0:0:
256,192,259240,128,0,259290:0:0:0:0:
329,192,259290,128,0,259340:0:0:0:0:
109,192,259315,1,0,0:0:0:0:
475,192,259340,128,0,259390:0:0:0:0:
36,192,259390,1,0,0:0:0:0:
402,192,259390,128,0,259440:0:0:0:0:
256,192,259440,128,0,259490:0:0:0:0:
109,192,259465,1,0,0:0:0:0:
329,192,259490,128,0,259540:0:0:0:0:
182,192,259540,1,0,0:0:0:0:
402,192,259540,128,0,259615:0:0:0:0:
475,192,259540,128,0,259615:0:0:0:0:
36,192,259615,128,0,259690:0:0:0:0:
329,192,259615,128,0,259690:0:0:0:0:
256,192,259690,128,0,259765:0:0:0:0:
109,192,259690,128,0,259765:0:0:0:0:
182,192,259765,128,0,259840:0:0:0:0:
402,192,259765,128,0,259840:0:0:0:0:
329,192,259840,128,0,259915:0:0:0:0:
36,192,259840,128,0,259915:0:0:0:0:
109,192,259915,128,0,259990:0:0:0:0:
256,192,259915,128,0,259990:0:0:0:0:
475,192,259990,128,0,260065:0:0:0:0:
182,192,259990,128,0,260065:0:0:0:0:
256,192,260065,128,0,260140:0:0:0:0:
402,192,260065,128,0,260140:0:0:0:0:
329,192,260140,128,0,260215:0:0:0:0:
36,192,260140,128,0,260215:0:0:0:0:
109,192,260215,128,0,260290:0:0:0:0:
402,192,260215,128,0,260290:0:0:0:0:
182,192,260290,128,0,260365:0:0:0:0:
475,192,260290,128,0,260365:0:0:0:0:
256,192,260365,128,0,260440:0:0:0:0:
402,192,260365,128,0,260440:0:0:0:0:
182,192,260440,128,0,260515:0:0:0:0:
329,192,260440,128,0,260515:0:0:0:0:
109,192,260515,128,0,260590:0:0:0:0:
475,192,260515,128,0,260590:0:0:0:0:
36,192,260590,128,0,260665:0:0:0:0:
402,192,260590,128,0,260665:0:0:0:0:
109,192,260665,128,0,260740:0:0:0:0:
329,192,260665,128,0,260740:0:0:0:0:
475,192,260740,128,0,261040:0:0:0:0:
256,192,260740,128,0,261040:0:0:0:0:
182,192,260740,128,0,261040:0:0:0:0:
36,192,260740,1,0,0:0:0:0:
109,192,260890,1,0,0:0:0:0:
329,192,260890,1,0,0:0:0:0:
36,192,261040,1,0,0:0:0:0:
402,192,261040,1,0,0:0:0:0:
109,192,261115,1,0,0:0:0:0:
329,192,261115,1,0,0:0:0:0:
402,192,261190,128,0,261265:0:0:0:0:
475,192,261190,128,0,261265:0:0:0:0:
256,192,261190,1,0,0:0:0:0:
182,192,261190,1,0,0:0:0:0:
402,192,261340,128,0,261490:0:0:0:0:
475,192,261340,128,0,261490:0:0:0:0:
36,192,261340,1,0,0:0:0:0:
182,192,261340,1,0,0:0:0:0:
36,192,261490,128,0,261565:0:0:0:0:
109,192,261490,128,0,261565:0:0:0:0:
256,192,261490,1,0,0:0:0:0:
329,192,261490,1,0,0:0:0:0:
36,192,261640,128,0,261715:0:0:0:0:
109,192,261640,128,0,261715:0:0:0:0:
475,192,261640,1,0,0:0:0:0:
256,192,261640,1,0,0:0:0:0:
402,192,261715,1,0,0:0:0:0:
182,192,261715,1,0,0:0:0:0:
329,192,261790,128,0,261865:0:0:0:0:
256,192,261790,128,0,261865:0:0:0:0:
475,192,261790,1,0,0:0:0:0:
109,192,261790,1,0,0:0:0:0:
109,192,261940,128,0,262240:0:0:0:0:
329,192,261940,128,0,262240:0:0:0:0:
256,192,261940,128,0,262240:0:0:0:0:
402,192,261940,1,0,0:0:0:0:
182,192,262090,1,0,0:0:0:0:
475,192,262090,1,0,0:0:0:0:
36,192,262240,128,0,262315:0:0:0:0:
182,192,262240,128,0,262315:0:0:0:0:
475,192,262240,1,0,0:0:0:0:
402,192,262240,1,0,0:0:0:0:
329,192,262315,1,0,0:0:0:0:
256,192,262315,1,0,0:0:0:0:
36,192,262390,128,0,262465:0:0:0:0:
182,192,262390,128,0,262465:0:0:0:0:
475,192,262390,1,0,0:0:0:0:
402,192,262390,1,0,0:0:0:0:
36,192,262540,128,0,262690:0:0:0:0:
182,192,262540,128,0,262690:0:0:0:0:
256,192,262540,128,0,262690:0:0:0:0:
329,192,262540,1,0,0:0:0:0:
475,192,262690,128,0,262765:0:0:0:0:
402,192,262690,128,0,262765:0:0:0:0:
109,192,262690,1,0,0:0:0:0:
329,192,262690,1,0,0:0:0:0:
402,192,262840,128,0,262915:0:0:0:0:
475,192,262840,128,0,262915:0:0:0:0:
256,192,262840,1,0,0:0:0:0:
109,192,262840,1,0,0:0:0:0:
329,192,262915,1,0,0:0:0:0:
36,192,262915,1,0,0:0:0:0:
109,192,262990,128,0,263065:0:0:0:0:
182,192,262990,128,0,263065:0:0:0:0:
256,192,262990,1,0,0:0:0:0:
402,192,262990,1,0,0:0:0:0:
109,192,263140,128,0,263440:0:0:0:0:
182,192,263140,128,0,263440:0:0:0:0:
402,192,263140,128,0,263440:0:0:0:0:
329,192,263140,1,0,0:0:0:0:
36,192,263140,1,0,0:0:0:0:
256,192,263290,1,0,0:0:0:0:
475,192,263290,1,0,0:0:0:0:
36,192,263440,1,0,0:0:0:0:
329,192,263440,1,0,0:0:0:0:
109,192,263515,1,0,0:0:0:0:
402,192,263515,1,0,0:0:0:0:
475,192,263590,128,0,263665:0:0:0:0:
256,192,263590,128,0,263665:0:0:0:0:
182,192,263590,1,0,0:0:0:0:
36,192,263590,1,0,0:0:0:0:
182,192,263740,128,0,263815:0:0:0:0:
402,192,263740,128,0,263815:0:0:0:0:
109,192,263740,1,0,0:0:0:0:
329,192,263740,1,0,0:0:0:0:
256,192,263890,128,0,263965:0:0:0:0:
475,192,263890,128,0,263965:0:0:0:0:
36,192,263890,1,0,0:0:0:0:
109,192,263890,1,0,0:0:0:0:
182,192,264040,128,0,264115:0:0:0:0:
402,192,264040,128,0,264115:0:0:0:0:
36,192,264040,1,0,0:0:0:0:
475,192,264040,1,0,0:0:0:0:
109,192,264115,1,0,0:0:0:0:
329,192,264115,1,0,0:0:0:0:
256,192,264190,128,0,264490:0:0:0:0:
402,192,264190,128,0,264490:0:0:0:0:
36,192,264190,128,0,264490:0:0:0:0:
182,192,264190,1,0,0:0:0:0:
109,192,264340,1,0,0:0:0:0:
475,192,264340,1,0,0:0:0:0:
182,192,264490,128,0,264565:0:0:0:0:
329,192,264490,128,0,264565:0:0:0:0:
109,192,264490,1,0,0:0:0:0:
475,192,264490,1,0,0:0:0:0:
256,192,264640,1,0,0:0:0:0:
402,192,264640,1,0,0:0:0:0:
182,192,264715,1,0,0:0:0:0:
329,192,264715,1,0,0:0:0:0:
109,192,264790,128,0,264940:0:0:0:0:
256,192,264790,128,0,264940:0:0:0:0:
475,192,264790,1,0,0:0:0:0:
402,192,264790,1,0,0:0:0:0:
329,192,264940,1,0,0:0:0:0:
182,192,264940,1,0,0:0:0:0:
109,192,265090,128,0,265240:0:0:0:0:
402,192,265090,128,0,265240:0:0:0:0:
36,192,265090,1,0,0:0:0:0:
256,192,265090,1,0,0:0:0:0:
475,192,265090,1,0,0:0:0:0:
36,192,265240,128,0,265390:0:0:0:0:
475,192,265240,128,0,265390:0:0:0:0:
182,192,265240,1,0,0:0:0:0:
329,192,265240,1,0,0:0:0:0:
182,192,265390,128,0,265540:0:0:0:0:
109,192,265390,1,0,0:0:0:0:
402,192,265390,1,0,0:0:0:0:
329,192,265390,128,0,265540:0:0:0:0:
256,192,265540,1,0,0:0:0:0:
36,192,265540,128,0,265690:0:0:0:0:
475,192,265540,128,0,265615:0:0:0:0:
402,192,265615,128,0,265690:0:0:0:0:
109,192,265615,128,0,265690:0:0:0:0:
329,192,265690,128,0,265765:0:0:0:0:
182,192,265690,128,0,265840:0:0:0:0:
256,192,265765,128,0,265840:0:0:0:0:
402,192,265765,128,0,265840:0:0:0:0:
109,192,265840,128,0,265990:0:0:0:0:
475,192,265840,128,0,265915:0:0:0:0:
36,192,265915,128,0,265990:0:0:0:0:
402,192,265915,128,0,265990:0:0:0:0:
329,192,265990,128,0,266065:0:0:0:0:
182,192,265990,128,0,266140:0:0:0:0:
402,192,266065,128,0,266140:0:0:0:0:
256,192,266065,128,0,266140:0:0:0:0:
475,192,266140,128,0,266290:0:0:0:0:
36,192,266140,128,0,266215:0:0:0:0:
402,192,266215,128,0,266290:0:0:0:0:
109,192,266215,128,0,266290:0:0:0:0:
329,192,266290,128,0,266440:0:0:0:0:
182,192,266290,128,0,266365:0:0:0:0:
256,192,266365,128,0,266440:0:0:0:0:
109,192,266365,128,0,266440:0:0:0:0:
475,192,266440,128,0,266590:0:0:0:0:
36,192,266440,128,0,266515:0:0:0:0:
402,192,266515,128,0,266590:0:0:0:0:
109,192,266515,128,0,266590:0:0:0:0:
329,192,266590,128,0,266740:0:0:0:0:
182,192,266590,128,0,266665:0:0:0:0:
256,192,266665,128,0,266740:0:0:0:0:
109,192,266665,128,0,266740:0:0:0:0:
402,192,266740,128,0,266815:0:0:0:0:
475,192,266740,128,0,266815:0:0:0:0:
36,192,266740,128,0,266815:0:0:0:0:
329,192,266815,128,0,266890:0:0:0:0:
109,192,266815,128,0,266890:0:0:0:0:
182,192,266890,128,0,266965:0:0:0:0:
402,192,266890,128,0,266965:0:0:0:0:
256,192,266965,128,0,267040:0:0:0:0:
475,192,266965,128,0,267040:0:0:0:0:
109,192,267040,128,0,267115:0:0:0:0:
402,192,267040,128,0,267115:0:0:0:0:
329,192,267115,128,0,267190:0:0:0:0:
182,192,267115,128,0,267190:0:0:0:0:
402,192,267190,128,0,267265:0:0:0:0:
109,192,267190,128,0,267265:0:0:0:0:
182,192,267265,128,0,267340:0:0:0:0:
329,192,267265,128,0,267340:0:0:0:0:
256,192,267340,128,0,267390:0:0:0:0:
36,192,267340,1,0,0:0:0:0:
475,192,267340,1,0,0:0:0:0:
182,192,267390,128,0,267440:0:0:0:0:
109,192,267440,128,0,267490:0:0:0:0:
36,192,267490,128,0,267540:0:0:0:0:
475,192,267490,1,0,0:0:0:0:
402,192,267490,1,0,0:0:0:0:
182,192,267540,128,0,267590:0:0:0:0:
256,192,267590,128,0,267640:0:0:0:0:
329,192,267640,128,0,267690:0:0:0:0:
36,192,267640,1,0,0:0:0:0:
109,192,267640,1,0,0:0:0:0:
475,192,267690,128,0,267740:0:0:0:0:
182,192,267715,1,0,0:0:0:0:
256,192,267740,128,0,267790:0:0:0:0:
402,192,267790,128,0,267840:0:0:0:0:
109,192,267790,1,0,0:0:0:0:
36,192,267790,1,0,0:0:0:0:
182,192,267840,128,0,267890:0:0:0:0:
329,192,267890,128,0,267940:0:0:0:0:
36,192,267940,1,0,0:0:0:0:
475,192,267940,1,0,0:0:0:0:
109,192,267940,128,0,268240:0:0:0:0:
402,192,267940,128,0,268240:0:0:0:0:
256,192,268090,1,0,0:0:0:0:
182,192,268090,1,0,0:0:0:0:
36,192,268240,1,0,0:0:0:0:
329,192,268240,1,0,0:0:0:0:
475,192,268240,1,0,0:0:0:0:
256,192,268240,1,0,0:0:0:0:
402,192,268315,1,0,0:0:0:0:
109,192,268315,1,0,0:0:0:0:
36,192,268390,1,0,0:0:0:0:
182,192,268390,128,0,268690:0:0:0:0:
329,192,268390,128,0,268690:0:0:0:0:
256,192,268390,1,0,0:0:0:0:
109,192,268540,1,0,0:0:0:0:
475,192,268540,1,0,0:0:0:0:
402,192,268540,1,0,0:0:0:0:
256,192,268690,128,0,268840:0:0:0:0:
109,192,268690,128,0,268840:0:0:0:0:
475,192,268690,1,0,0:0:0:0:
36,192,268690,1,0,0:0:0:0:
402,192,268690,1,0,0:0:0:0:
36,192,268840,128,0,268990:0:0:0:0:
402,192,268840,128,0,268990:0:0:0:0:
182,192,268840,1,0,0:0:0:0:
475,192,268840,1,0,0:0:0:0:
109,192,268990,128,0,269140:0:0:0:0:
475,192,268990,128,0,269140:0:0:0:0:
329,192,268990,1,0,0:0:0:0:
256,192,268990,1,0,0:0:0:0:
182,192,269140,128,0,269440:0:0:0:0:
402,192,269140,1,0,0:0:0:0:
36,192,269140,1,0,0:0:0:0:
329,192,269215,1,0,0:0:0:0:
109,192,269215,1,0,0:0:0:0:
256,192,269290,128,0,269440:0:0:0:0:
475,192,269290,1,0,0:0:0:0:
402,192,269290,1,0,0:0:0:0:
36,192,269290,1,0,0:0:0:0:
329,192,269365,1,0,0:0:0:0:
109,192,269365,1,0,0:0:0:0:
475,192,269440,128,0,269740:0:0:0:0:
36,192,269440,1,0,0:0:0:0:
402,192,269440,1,0,0:0:0:0:
329,192,269515,1,0,0:0:0:0:
109,192,269515,1,0,0:0:0:0:
402,192,269590,128,0,269740:0:0:0:0:
182,192,269590,1,0,0:0:0:0:
256,192,269590,1,0,0:0:0:0:
329,192,269665,1,0,0:0:0:0:
109,192,269665,1,0,0:0:0:0:
36,192,269740,128,0,270040:0:0:0:0:
256,192,269740,128,0,269890:0:0:0:0:
182,192,269740,1,0,0:0:0:0:
182,192,269890,128,0,270040:0:0:0:0:
475,192,269890,1,0,0:0:0:0:
402,192,269890,1,0,0:0:0:0:
475,192,270040,128,0,270340:0:0:0:0:
329,192,270040,128,0,270190:0:0:0:0:
109,192,270040,1,0,0:0:0:0:
256,192,270040,1,0,0:0:0:0:
402,192,270190,128,0,270340:0:0:0:0:
182,192,270190,1,0,0:0:0:0:
36,192,270190,1,0,0:0:0:0:
36,192,270340,128,0,270377:0:0:0:0:
329,192,270340,1,0,0:0:0:0:
256,192,270340,1,0,0:0:0:0:
109,192,270377,128,0,270415:0:0:0:0:
182,192,270415,128,0,270452:0:0:0:0:
256,192,270452,128,0,270490:0:0:0:0:
329,192,270490,128,0,270527:0:0:0:0:
109,192,270490,1,0,0:0:0:0:
402,192,270527,128,0,270565:0:0:0:0:
475,192,270565,128,0,270602:0:0:0:0:
402,192,270602,128,0,270640:0:0:0:0:
329,192,270640,128,0,270677:0:0:0:0:
36,192,270640,1,0,0:0:0:0:
256,192,270677,128,0,270715:0:0:0:0:
182,192,270715,128,0,270752:0:0:0:0:
475,192,270715,1,0,0:0:0:0:
109,192,270752,128,0,270790:0:0:0:0:
36,192,270790,128,0,270827:0:0:0:0:
402,192,270790,1,0,0:0:0:0:
109,192,270827,128,0,270865:0:0:0:0:
182,192,270865,128,0,270902:0:0:0:0:
256,192,270902,128,0,270940:0:0:0:0:
329,192,270940,128,0,270977:0:0:0:0:
109,192,270940,1,0,0:0:0:0:
402,192,270977,128,0,271015:0:0:0:0:
475,192,271015,128,0,271052:0:0:0:0:
402,192,271052,128,0,271090:0:0:0:0:
329,192,271090,128,0,271127:0:0:0:0:
36,192,271090,1,0,0:0:0:0:
256,192,271127,128,0,271165:0:0:0:0:
182,192,271165,128,0,271202:0:0:0:0:
109,192,271202,128,0,271240:0:0:0:0:
402,192,271240,1,0,0:0:0:0:
36,192,271240,128,0,271277:0:0:0:0:
109,192,271277,128,0,271315:0:0:0:0:
182,192,271315,128,0,271352:0:0:0:0:
475,192,271315,1,0,0:0:0:0:
256,192,271352,128,0,271390:0:0:0:0:
329,192,271390,128,0,271427:0:0:0:0:
109,192,271390,1,0,0:0:0:0:
402,192,271427,128,0,271465:0:0:0:0:
475,192,271465,128,0,271502:0:0:0:0:
402,192,271502,128,0,271540:0:0:0:0:
329,192,271540,128,0,271577:0:0:0:0:
36,192,271540,128,0,271615:0:0:0:0:
256,192,271577,128,0,271615:0:0:0:0:
182,192,271615,128,0,271652:0:0:0:0:
475,192,271615,128,0,271690:0:0:0:0:
109,192,271652,128,0,271690:0:0:0:0:
402,192,271690,128,0,271727:0:0:0:0:
36,192,271690,128,0,271765:0:0:0:0:
329,192,271727,128,0,271765:0:0:0:0:
256,192,271765,128,0,271802:0:0:0:0:
109,192,271765,128,0,271840:0:0:0:0:
182,192,271802,128,0,271840:0:0:0:0:
475,192,271840,128,0,271877:0:0:0:0:
36,192,271840,128,0,271915:0:0:0:0:
402,192,271877,128,0,271915:0:0:0:0:
329,192,271915,128,0,271952:0:0:0:0:
109,192,271915,128,0,271990:0:0:0:0:
256,192,271952,128,0,271990:0:0:0:0:
475,192,271990,128,0,272027:0:0:0:0:
182,192,271990,128,0,272065:0:0:0:0:
402,192,272027,128,0,272065:0:0:0:0:
329,192,272065,128,0,272102:0:0:0:0:
109,192,272065,128,0,272140:0:0:0:0:
182,192,272102,128,0,272140:0:0:0:0:
256,192,272140,128,0,272177:0:0:0:0:
36,192,272140,128,0,272215:0:0:0:0:
329,192,272177,128,0,272215:0:0:0:0:
402,192,272215,128,0,272252:0:0:0:0:
475,192,272215,128,0,272290:0:0:0:0:
109,192,272252,128,0,272290:0:0:0:0:
182,192,272290,128,0,272327:0:0:0:0:
36,192,272290,128,0,272365:0:0:0:0:
256,192,272327,128,0,272365:0:0:0:0:
329,192,272365,128,0,272402:0:0:0:0:
475,192,272365,128,0,272440:0:0:0:0:
36,192,272402,128,0,272440:0:0:0:0:
109,192,272440,128,0,272477:0:0:0:0:
402,192,272440,128,0,272515:0:0:0:0:
182,192,272477,128,0,272515:0:0:0:0:
256,192,272515,128,0,272552:0:0:0:0:
329,192,272515,128,0,272590:0:0:0:0:
36,192,272552,128,0,272590:0:0:0:0:
109,192,272590,128,0,272627:0:0:0:0:
402,192,272590,128,0,272665:0:0:0:0:
182,192,272627,128,0,272665:0:0:0:0:
256,192,272665,128,0,272702:0:0:0:0:
475,192,272665,128,0,272740:0:0:0:0:
329,192,272702,128,0,272740:0:0:0:0:
402,192,272740,128,0,272790:0:0:0:0:
36,192,272740,128,0,272790:0:0:0:0:
109,192,272790,128,0,272840:0:0:0:0:
329,192,272790,128,0,272840:0:0:0:0:
182,192,272840,128,0,272890:0:0:0:0:
475,192,272840,128,0,272890:0:0:0:0:
256,192,272890,128,0,272940:0:0:0:0:
402,192,272890,128,0,272940:0:0:0:0:
182,192,272940,128,0,272990:0:0:0:0:
329,192,272940,128,0,272990:0:0:0:0:
109,192,272990,128,0,273040:0:0:0:0:
402,192,272990,128,0,273040:0:0:0:0:
36,192,273040,128,0,273090:0:0:0:0:
475,192,273040,128,0,273090:0:0:0:0:
402,192,273090,128,0,273140:0:0:0:0:
109,192,273090,128,0,273140:0:0:0:0:
329,192,273140,128,0,273190:0:0:0:0:
182,192,273140,128,0,273190:0:0:0:0:
256,192,273190,128,0,273240:0:0:0:0:
109,192,273190,128,0,273240:0:0:0:0:
329,192,273240,128,0,273290:0:0:0:0:
36,192,273240,128,0,273290:0:0:0:0:
402,192,273290,128,0,273340:0:0:0:0:
109,192,273290,128,0,273340:0:0:0:0:
475,192,273340,128,0,273390:0:0:0:0:
182,192,273340,128,0,273390:0:0:0:0:
256,192,273390,128,0,273440:0:0:0:0:
402,192,273390,128,0,273440:0:0:0:0:
182,192,273440,128,0,273490:0:0:0:0:
329,192,273440,128,0,273490:0:0:0:0:
109,192,273490,128,0,273540:0:0:0:0:
402,192,273490,128,0,273540:0:0:0:0:
36,192,273540,128,0,273590:0:0:0:0:
475,192,273540,128,0,273590:0:0:0:0:
109,192,273590,128,0,273640:0:0:0:0:
402,192,273590,128,0,273640:0:0:0:0:
182,192,273640,128,0,273690:0:0:0:0:
329,192,273640,128,0,273690:0:0:0:0:
256,192,273690,128,0,273740:0:0:0:0:
475,192,273690,128,0,273740:0:0:0:0:
402,192,273740,128,0,273790:0:0:0:0:
182,192,273740,128,0,273790:0:0:0:0:
329,192,273790,128,0,273840:0:0:0:0:
109,192,273790,128,0,273840:0:0:0:0:
256,192,273840,128,0,273890:0:0:0:0:
36,192,273840,128,0,273890:0:0:0:0:
182,192,273890,128,0,273940:0:0:0:0:
475,192,273890,128,0,273940:0:0:0:0:
109,192,273940,128,0,273990:0:0:0:0:
402,192,273940,128,0,273990:0:0:0:0:
182,192,273990,128,0,274040:0:0:0:0:
475,192,273990,128,0,274040:0:0:0:0:
256,192,274040,128,0,274090:0:0:0:0:
36,192,274040,128,0,274090:0:0:0:0:
329,192,274090,128,0,274140:0:0:0:0:
109,192,274090,128,0,274140:0:0:0:0:
402,192,274140,128,0,274190:0:0:0:0:
182,192,274140,128,0,274190:0:0:0:0:
109,192,274190,128,0,274240:0:0:0:0:
475,192,274190,128,0,274240:0:0:0:0:
36,192,274240,128,0,274290:0:0:0:0:
256,192,274240,128,0,274290:0:0:0:0:
329,192,274290,128,0,274340:0:0:0:0:
109,192,274290,128,0,274340:0:0:0:0:
182,192,274340,128,0,274390:0:0:0:0:
402,192,274340,128,0,274390:0:0:0:0:
256,192,274390,128,0,274440:0:0:0:0:
475,192,274390,128,0,274440:0:0:0:0:
182,192,274440,128,0,274490:0:0:0:0:
402,192,274440,128,0,274490:0:0:0:0:
109,192,274490,128,0,274540:0:0:0:0:
329,192,274490,128,0,274540:0:0:0:0:
256,192,274540,128,0,274590:0:0:0:0:
36,192,274540,128,0,274590:0:0:0:0:
109,192,274590,128,0,274640:0:0:0:0:
329,192,274590,128,0,274640:0:0:0:0:
182,192,274640,128,0,274690:0:0:0:0:
475,192,274640,128,0,274690:0:0:0:0:
109,192,274690,128,0,274740:0:0:0:0:
402,192,274690,128,0,274740:0:0:0:0:
329,192,274740,128,0,274790:0:0:0:0:
36,192,274740,128,0,274790:0:0:0:0:
109,192,274790,128,0,274840:0:0:0:0:
256,192,274790,128,0,274840:0:0:0:0:
182,192,274840,128,0,274890:0:0:0:0:
402,192,274840,128,0,274890:0:0:0:0:
256,192,274890,128,0,274940:0:0:0:0:
475,192,274890,128,0,274940:0:0:0:0:
36,192,274940,128,0,274990:0:0:0:0:
329,192,274940,128,0,274990:0:0:0:0:
109,192,274990,128,0,275040:0:0:0:0:
402,192,274990,128,0,275040:0:0:0:0:
182,192,275040,128,0,275090:0:0:0:0:
475,192,275040,128,0,275090:0:0:0:0:
256,192,275090,128,0,275140:0:0:0:0:
36,192,275140,1,0,0:0:0:0:
109,192,275140,1,0,0:0:0:0:
329,192,275140,128,0,275440:0:0:0:0:
402,192,275140,128,0,275440:0:0:0:0:
256,192,275290,1,0,0:0:0:0:
182,192,275290,1,0,0:0:0:0:
36,192,275440,1,0,0:0:0:0:
109,192,275440,1,0,0:0:0:0:
475,192,275440,1,0,0:0:0:0:
329,192,275515,1,0,0:0:0:0:
182,192,275515,1,0,0:0:0:0:
36,192,275590,128,0,275740:0:0:0:0:
109,192,275590,128,0,275740:0:0:0:0:
402,192,275590,1,0,0:0:0:0:
256,192,275590,1,0,0:0:0:0:
475,192,275740,1,0,0:0:0:0:
329,192,275740,1,0,0:0:0:0:
182,192,275890,128,0,276040:0:0:0:0:
36,192,275890,128,0,276040:0:0:0:0:
402,192,275890,1,0,0:0:0:0:
256,192,275890,1,0,0:0:0:0:
256,192,276040,128,0,276190:0:0:0:0:
109,192,276040,128,0,276190:0:0:0:0:
475,192,276040,1,0,0:0:0:0:
329,192,276040,1,0,0:0:0:0:
402,192,276115,1,0,0:0:0:0:
182,192,276190,128,0,276340:0:0:0:0:
329,192,276190,128,0,276340:0:0:0:0:
36,192,276190,1,0,0:0:0:0:
475,192,276190,1,0,0:0:0:0:
256,192,276340,1,0,0:0:0:0:
402,192,276340,1,0,0:0:0:0:
109,192,276340,1,0,0:0:0:0:
475,192,276490,128,0,276640:0:0:0:0:
256,192,276490,128,0,276640:0:0:0:0:
329,192,276490,1,0,0:0:0:0:
36,192,276490,1,0,0:0:0:0:
402,192,276640,128,0,276790:0:0:0:0:
182,192,276640,128,0,276790:0:0:0:0:
109,192,276640,1,0,0:0:0:0:
256,192,276715,1,0,0:0:0:0:
329,192,276790,128,0,276940:0:0:0:0:
109,192,276790,128,0,276940:0:0:0:0:
36,192,276790,1,0,0:0:0:0:
475,192,276790,1,0,0:0:0:0:
182,192,276940,1,0,0:0:0:0:
475,192,276940,1,0,0:0:0:0:
256,192,277090,128,0,277390:0:0:0:0:
36,192,277090,128,0,277390:0:0:0:0:
402,192,277090,1,0,0:0:0:0:
109,192,277090,1,0,0:0:0:0:
182,192,277240,1,0,0:0:0:0:
475,192,277240,1,0,0:0:0:0:
402,192,277315,1,0,0:0:0:0:
109,192,277390,128,0,277540:0:0:0:0:
329,192,277390,128,0,277540:0:0:0:0:
475,192,277390,1,0,0:0:0:0:
182,192,277540,128,0,277615:0:0:0:0:
36,192,277540,1,0,0:0:0:0:
475,192,277540,1,0,0:0:0:0:
402,192,277615,1,0,0:0:0:0:
256,192,277615,128,0,277690:0:0:0:0:
329,192,277690,128,0,277765:0:0:0:0:
109,192,277690,1,0,0:0:0:0:
402,192,277765,128,0,277840:0:0:0:0:
182,192,277765,1,0,0:0:0:0:
475,192,277840,128,0,277915:0:0:0:0:
256,192,277840,1,0,0:0:0:0:
329,192,277915,128,0,277990:0:0:0:0:
182,192,277915,1,0,0:0:0:0:
256,192,277990,128,0,278065:0:0:0:0:
109,192,277990,1,0,0:0:0:0:
475,192,277990,1,0,0:0:0:0:
182,192,278065,128,0,278140:0:0:0:0:
402,192,278065,1,0,0:0:0:0:
36,192,278140,128,0,278215:0:0:0:0:
329,192,278140,1,0,0:0:0:0:
109,192,278215,128,0,278290:0:0:0:0:
402,192,278215,1,0,0:0:0:0:
182,192,278290,128,0,278365:0:0:0:0:
475,192,278290,1,0,0:0:0:0:
256,192,278365,128,0,278440:0:0:0:0:
36,192,278365,1,0,0:0:0:0:
402,192,278440,128,0,278515:0:0:0:0:
109,192,278440,1,0,0:0:0:0:
475,192,278440,1,0,0:0:0:0:
329,192,278515,128,0,278590:0:0:0:0:
182,192,278515,1,0,0:0:0:0:
256,192,278590,128,0,278665:0:0:0:0:
109,192,278590,1,0,0:0:0:0:
182,192,278665,128,0,278740:0:0:0:0:
475,192,278665,1,0,0:0:0:0:
36,192,278740,128,0,278815:0:0:0:0:
402,192,278740,1,0,0:0:0:0:
256,192,278740,1,0,0:0:0:0:
109,192,278815,128,0,278890:0:0:0:0:
329,192,278815,1,0,0:0:0:0:
256,192,278890,128,0,278965:0:0:0:0:
402,192,278890,1,0,0:0:0:0:
182,192,278965,128,0,279040:0:0:0:0:
36,192,278965,1,0,0:0:0:0:
475,192,279040,128,0,279115:0:0:0:0:
109,192,279040,1,0,0:0:0:0:
402,192,279115,128,0,279190:0:0:0:0:
182,192,279115,1,0,0:0:0:0:
256,192,279190,128,0,279265:0:0:0:0:
109,192,279190,1,0,0:0:0:0:
36,192,279190,1,0,0:0:0:0:
329,192,279265,128,0,279340:0:0:0:0:
182,192,279265,1,0,0:0:0:0:
36,192,279340,128,0,279415:0:0:0:0:
256,192,279340,1,0,0:0:0:0:
109,192,279415,128,0,279490:0:0:0:0:
329,192,279415,1,0,0:0:0:0:
182,192,279490,128,0,279565:0:0:0:0:
475,192,279490,1,0,0:0:0:0:
256,192,279565,128,0,279640:0:0:0:0:
402,192,279565,1,0,0:0:0:0:
475,192,279640,128,0,279715:0:0:0:0:
36,192,279640,1,0,0:0:0:0:
109,192,279640,1,0,0:0:0:0:
402,192,279715,128,0,279790:0:0:0:0:
182,192,279715,1,0,0:0:0:0:
329,192,279790,128,0,279865:0:0:0:0:
109,192,279790,1,0,0:0:0:0:
256,192,279865,128,0,279940:0:0:0:0:
36,192,279865,1,0,0:0:0:0:
182,192,279940,128,0,280015:0:0:0:0:
475,192,279940,128,0,280015:0:0:0:0:
109,192,279940,128,0,280015:0:0:0:0:
402,192,280015,128,0,280090:0:0:0:0:
256,192,280015,128,0,280090:0:0:0:0:
329,192,280090,128,0,280165:0:0:0:0:
182,192,280090,128,0,280165:0:0:0:0:
109,192,280165,128,0,280240:0:0:0:0:
256,192,280165,128,0,280240:0:0:0:0:
36,192,280240,128,0,280315:0:0:0:0:
329,192,280240,128,0,280315:0:0:0:0:
109,192,280315,128,0,280390:0:0:0:0:
402,192,280315,128,0,280390:0:0:0:0:
182,192,280390,128,0,280465:0:0:0:0:
475,192,280390,128,0,280465:0:0:0:0:
402,192,280465,128,0,280540:0:0:0:0:
256,192,280465,128,0,280540:0:0:0:0:
109,192,280540,128,0,280615:0:0:0:0:
329,192,280540,128,0,280615:0:0:0:0:
475,192,280540,128,0,280615:0:0:0:0:
256,192,280615,128,0,280690:0:0:0:0:
36,192,280615,128,0,280690:0:0:0:0:
109,192,280690,128,0,280765:0:0:0:0:
329,192,280690,128,0,280765:0:0:0:0:
256,192,280765,128,0,280840:0:0:0:0:
475,192,280765,128,0,280840:0:0:0:0:
182,192,280840,128,0,280915:0:0:0:0:
402,192,280840,128,0,280915:0:0:0:0:
36,192,280840,128,0,280915:0:0:0:0:
109,192,280915,128,0,280990:0:0:0:0:
329,192,280915,128,0,280990:0:0:0:0:
402,192,280990,128,0,281065:0:0:0:0:
182,192,280990,128,0,281065:0:0:0:0:
109,192,281065,128,0,281140:0:0:0:0:
329,192,281065,128,0,281140:0:0:0:0:
256,192,281140,128,0,281215:0:0:0:0:
36,192,281140,128,0,281215:0:0:0:0:
475,192,281140,128,0,281215:0:0:0:0:
329,192,281215,128,0,281290:0:0:0:0:
109,192,281215,128,0,281290:0:0:0:0:
402,192,281290,128,0,281365:0:0:0:0:
182,192,281290,128,0,281365:0:0:0:0:
256,192,281365,128,0,281440:0:0:0:0:
475,192,281365,128,0,281440:0:0:0:0:
36,192,281440,128,0,281515:0:0:0:0:
329,192,281440,128,0,281515:0:0:0:0:
182,192,281440,128,0,281515:0:0:0:0:
109,192,281515,128,0,281590:0:0:0:0:
402,192,281515,128,0,281590:0:0:0:0:
182,192,281590,128,0,281665:0:0:0:0:
475,192,281590,128,0,281665:0:0:0:0:
329,192,281590,128,0,281665:0:0:0:0:
256,192,281665,128,0,281740:0:0:0:0:
36,192,281665,128,0,281740:0:0:0:0:
109,192,281740,128,0,281815:0:0:0:0:
329,192,281740,128,0,281815:0:0:0:0:
182,192,281815,128,0,281890:0:0:0:0:
402,192,281815,128,0,281890:0:0:0:0:
256,192,281890,128,0,281965:0:0:0:0:
475,192,281890,128,0,281965:0:0:0:0:
36,192,281890,128,0,281965:0:0:0:0:
182,192,281965,128,0,282040:0:0:0:0:
402,192,281965,128,0,282040:0:0:0:0:
109,192,282040,128,0,282115:0:0:0:0:
329,192,282040,128,0,282115:0:0:0:0:
36,192,282115,128,0,282190:0:0:0:0:
256,192,282115,128,0,282190:0:0:0:0:
182,192,282190,128,0,282265:0:0:0:0:
475,192,282190,128,0,282265:0:0:0:0:
402,192,282265,128,0,282340:0:0:0:0:
109,192,282265,128,0,282340:0:0:0:0:
329,192,282340,128,0,282490:0:0:0:0:
36,192,282340,128,0,282490:0:0:0:0:
109,192,282415,128,0,282490:0:0:0:0:
182,192,282415,128,0,282490:0:0:0:0:
256,192,282490,128,0,282640:0:0:0:0:
475,192,282490,128,0,282640:0:0:0:0:
182,192,282565,128,0,282640:0:0:0:0:
402,192,282565,128,0,282640:0:0:0:0:
329,192,282640,128,0,282790:0:0:0:0:
109,192,282640,128,0,282790:0:0:0:0:
36,192,282715,128,0,282790:0:0:0:0:
256,192,282715,128,0,282790:0:0:0:0:
182,192,282790,128,0,282940:0:0:0:0:
402,192,282790,128,0,282940:0:0:0:0:
256,192,282865,128,0,282940:0:0:0:0:
475,192,282865,128,0,282940:0:0:0:0:
109,192,282940,128,0,283090:0:0:0:0:
329,192,282940,128,0,282977:0:0:0:0:
36,192,283015,128,0,283090:0:0:0:0:
402,192,283015,128,0,283052:0:0:0:0:
475,192,283090,128,0,283127:0:0:0:0:
256,192,283090,128,0,283240:0:0:0:0:
36,192,283165,128,0,283202:0:0:0:0:
329,192,283165,128,0,283240:0:0:0:0:
109,192,283240,128,0,283277:0:0:0:0:
402,192,283240,128,0,283390:0:0:0:0:
182,192,283315,128,0,283352:0:0:0:0:
475,192,283315,128,0,283390:0:0:0:0:
256,192,283390,128,0,283427:0:0:0:0:
36,192,283390,128,0,283540:0:0:0:0:
329,192,283465,128,0,283502:0:0:0:0:
109,192,283465,128,0,283540:0:0:0:0:
256,192,283540,128,0,283690:0:0:0:0:
402,192,283540,128,0,283615:0:0:0:0:
182,192,283540,128,0,283615:0:0:0:0:
329,192,283615,128,0,283765:0:0:0:0:
109,192,283615,128,0,283690:0:0:0:0:
402,192,283690,128,0,283840:0:0:0:0:
36,192,283690,128,0,283765:0:0:0:0:
475,192,283765,128,0,283915:0:0:0:0:
182,192,283765,128,0,283840:0:0:0:0:
256,192,283840,128,0,283990:0:0:0:0:
109,192,283840,128,0,283915:0:0:0:0:
329,192,283840,128,0,283915:0:0:0:0:
182,192,283915,128,0,284065:0:0:0:0:
402,192,283915,128,0,283990:0:0:0:0:
109,192,283990,128,0,284140:0:0:0:0:
475,192,283990,128,0,284065:0:0:0:0:
36,192,284065,128,0,284215:0:0:0:0:
329,192,284065,128,0,284215:0:0:0:0:
256,192,284065,128,0,284140:0:0:0:0:
402,192,284140,128,0,284290:0:0:0:0:
182,192,284140,128,0,284215:0:0:0:0:
475,192,284215,128,0,284365:0:0:0:0:
256,192,284215,128,0,284290:0:0:0:0:
182,192,284290,128,0,284440:0:0:0:0:
329,192,284290,128,0,284365:0:0:0:0:
109,192,284365,128,0,284515:0:0:0:0:
402,192,284365,128,0,284440:0:0:0:0:
36,192,284440,128,0,284590:0:0:0:0:
475,192,284440,128,0,284515:0:0:0:0:
256,192,284440,128,0,284515:0:0:0:0:
402,192,284515,128,0,284590:0:0:0:0:
182,192,284515,128,0,284590:0:0:0:0:
329,192,284590,128,0,284665:0:0:0:0:
109,192,284590,128,0,284665:0:0:0:0:
36,192,284665,128,0,284736:0:0:0:0:
256,192,284665,128,0,284736:0:0:0:0:
182,192,284736,1,0,0:0:0:0:
109,192,284736,1,0,0:0:0:0:
402,192,284736,1,0,0:0:0:0:
475,192,284736,1,0,0:0:0:0:
329,192,284736,1,0,0:0:0:0:
36,192,292736,132,0,294736:0:0:0:0:
402,192,294736,128,0,296736:0:0:0:0:
475,192,296736,128,0,298736:0:0:0:0:
109,192,296736,1,0,0:0:0:0:
36,192,296736,1,0,0:0:0:0:
256,192,296736,1,0,0:0:0:0:
109,192,296986,1,0,0:0:0:0:
36,192,296986,1,0,0:0:0:0:
256,192,296986,1,0,0:0:0:0:
36,192,297236,1,0,0:0:0:0:
109,192,297236,1,0,0:0:0:0:
256,192,297236,1,0,0:0:0:0:
256,192,297486,1,0,0:0:0:0:
109,192,297486,1,0,0:0:0:0:
36,192,297486,1,0,0:0:0:0:
36,192,297736,1,0,0:0:0:0:
109,192,297736,1,0,0:0:0:0:
256,192,297736,1,0,0:0:0:0:
109,192,297986,1,0,0:0:0:0:
36,192,297986,1,0,0:0:0:0:
256,192,297986,1,0,0:0:0:0:
256,192,298236,1,0,0:0:0:0:
109,192,298236,1,0,0:0:0:0:
36,192,298236,1,0,0:0:0:0:
256,192,298486,1,0,0:0:0:0:
109,192,298486,1,0,0:0:0:0:
36,192,298486,1,0,0:0:0:0:
329,192,298736,128,0,300736:0:0:0:0:
36,192,298736,1,0,0:0:0:0:
109,192,298736,1,0,0:0:0:0:
256,192,298736,1,0,0:0:0:0:
182,192,298986,1,0,0:0:0:0:
36,192,298986,1,0,0:0:0:0:
402,192,298986,1,0,0:0:0:0:
109,192,299236,1,0,0:0:0:0:
256,192,299236,1,0,0:0:0:0:
475,192,299236,1,0,0:0:0:0:
36,192,299486,1,0,0:0:0:0:
182,192,299486,1,0,0:0:0:0:
402,192,299486,1,0,0:0:0:0:
109,192,299736,1,0,0:0:0:0:
256,192,299736,1,0,0:0:0:0:
402,192,299736,1,0,0:0:0:0:
475,192,299986,1,0,0:0:0:0:
36,192,299986,1,0,0:0:0:0:
182,192,299986,1,0,0:0:0:0:
182,192,300236,1,0,0:0:0:0:
402,192,300236,1,0,0:0:0:0:
109,192,300236,1,0,0:0:0:0:
36,192,300486,1,0,0:0:0:0:
256,192,300486,1,0,0:0:0:0:
475,192,300486,1,0,0:0:0:0:
182,192,300736,128,0,302736:0:0:0:0:
109,192,300736,1,0,0:0:0:0:
36,192,300736,1,0,0:0:0:0:
475,192,300736,1,0,0:0:0:0:
402,192,300736,1,0,0:0:0:0:
329,192,301236,1,0,0:0:0:0:
256,192,301486,1,0,0:0:0:0:
475,192,301736,1,0,0:0:0:0:
402,192,301736,1,0,0:0:0:0:
329,192,301736,1,0,0:0:0:0:
36,192,301736,1,0,0:0:0:0:
109,192,301736,1,0,0:0:0:0:
329,192,302236,1,0,0:0:0:0:
329,192,302486,1,0,0:0:0:0:
256,192,302736,128,0,304736:0:0:0:0:
109,192,302736,1,0,0:0:0:0:
36,192,302736,1,0,0:0:0:0:
475,192,302736,1,0,0:0:0:0:
402,192,302736,1,0,0:0:0:0:
182,192,303236,1,0,0:0:0:0:
182,192,303486,1,0,0:0:0:0:
109,192,303736,1,0,0:0:0:0:
36,192,303736,1,0,0:0:0:0:
475,192,303736,1,0,0:0:0:0:
402,192,303736,1,0,0:0:0:0:
329,192,303736,1,0,0:0:0:0:
109,192,304236,1,0,0:0:0:0:
182,192,304486,1,0,0:0:0:0:
402,192,304736,128,0,306736:0:0:0:0:
109,192,304736,1,0,0:0:0:0:
36,192,304736,1,0,0:0:0:0:
475,192,304736,1,0,0:0:0:0:
329,192,304736,1,0,0:0:0:0:
256,192,305486,1,0,0:0:0:0:
256,192,305736,1,0,0:0:0:0:
182,192,305736,1,0,0:0:0:0:
36,192,305736,1,0,0:0:0:0:
475,192,305736,1,0,0:0:0:0:
329,192,305736,1,0,0:0:0:0:
109,192,306236,1,0,0:0:0:0:
256,192,306486,1,0,0:0:0:0:
182,192,306736,128,0,308736:0:0:0:0:
109,192,306736,1,0,0:0:0:0:
329,192,306736,1,0,0:0:0:0:
475,192,306736,1,0,0:0:0:0:
402,192,307236,1,0,0:0:0:0:
329,192,307486,1,0,0:0:0:0:
475,192,307736,1,0,0:0:0:0:
256,192,307736,1,0,0:0:0:0:
109,192,307736,1,0,0:0:0:0:
36,192,307736,1,0,0:0:0:0:
475,192,307986,1,0,0:0:0:0:
109,192,307986,1,0,0:0:0:0:
36,192,307986,1,0,0:0:0:0:
329,192,308236,1,0,0:0:0:0:
402,192,308236,1,0,0:0:0:0:
329,192,308486,1,0,0:0:0:0:
256,192,308736,128,0,310736:0:0:0:0:
109,192,308736,1,0,0:0:0:0:
36,192,308736,1,0,0:0:0:0:
475,192,308736,1,0,0:0:0:0:
402,192,308736,1,0,0:0:0:0:
182,192,309236,1,0,0:0:0:0:
329,192,309486,1,0,0:0:0:0:
329,192,309736,1,0,0:0:0:0:
475,192,309736,1,0,0:0:0:0:
402,192,309736,1,0,0:0:0:0:
109,192,309736,1,0,0:0:0:0:
36,192,309736,1,0,0:0:0:0:
182,192,309986,1,0,0:0:0:0:
329,192,310236,1,0,0:0:0:0:
109,192,310486,1,0,0:0:0:0:
36,192,310736,1,0,0:0:0:0:
182,192,310736,1,0,0:0:0:0:
475,192,310736,128,0,312736:0:0:0:0:
402,192,310736,1,0,0:0:0:0:
329,192,310736,1,0,0:0:0:0:
256,192,311236,1,0,0:0:0:0:
182,192,311486,1,0,0:0:0:0:
109,192,311736,1,0,0:0:0:0:
36,192,311736,1,0,0:0:0:0:
329,192,311736,1,0,0:0:0:0:
402,192,311736,1,0,0:0:0:0:
256,192,311736,1,0,0:0:0:0:
182,192,312236,1,0,0:0:0:0:
182,192,312486,1,0,0:0:0:0:
36,192,312736,128,0,314736:0:0:0:0:
109,192,312736,1,0,0:0:0:0:
182,192,312736,1,0,0:0:0:0:
402,192,312736,1,0,0:0:0:0:
329,192,312736,1,0,0:0:0:0:
256,192,312736,1,0,0:0:0:0:
402,192,313236,1,0,0:0:0:0:
329,192,313486,1,0,0:0:0:0:
475,192,313736,1,0,0:0:0:0:
402,192,313736,1,0,0:0:0:0:
256,192,313736,1,0,0:0:0:0:
182,192,313736,1,0,0:0:0:0:
109,192,313736,1,0,0:0:0:0:
329,192,313986,1,0,0:0:0:0:
475,192,314236,1,0,0:0:0:0:
182,192,314486,1,0,0:0:0:0:
256,192,314736,128,0,316736:0:0:0:0:
182,192,314736,1,0,0:0:0:0:
109,192,314736,1,0,0:0:0:0:
475,192,314736,1,0,0:0:0:0:
402,192,314736,1,0,0:0:0:0:
329,192,314736,1,0,0:0:0:0:
475,192,314986,1,0,0:0:0:0:
402,192,314986,1,0,0:0:0:0:
329,192,314986,1,0,0:0:0:0:
109,192,315236,1,0,0:0:0:0:
109,192,315486,1,0,0:0:0:0:
36,192,315736,1,0,0:0:0:0:
109,192,315736,1,0,0:0:0:0:
182,192,315736,1,0,0:0:0:0:
475,192,315736,1,0,0:0:0:0:
329,192,315736,1,0,0:0:0:0:
402,192,315986,1,0,0:0:0:0:
182,192,315986,1,0,0:0:0:0:
329,192,316236,1,0,0:0:0:0:
109,192,316236,1,0,0:0:0:0:
182,192,316486,1,0,0:0:0:0:
109,192,316611,1,0,0:0:0:0:
402,192,316736,128,0,318736:0:0:0:0:
36,192,316736,1,0,0:0:0:0:
182,192,316736,1,0,0:0:0:0:
329,192,316736,1,0,0:0:0:0:
475,192,316736,1,0,0:0:0:0:
256,192,317236,1,0,0:0:0:0:
109,192,317486,1,0,0:0:0:0:
36,192,317736,1,0,0:0:0:0:
182,192,317736,1,0,0:0:0:0:
256,192,317736,1,0,0:0:0:0:
329,192,317736,1,0,0:0:0:0:
475,192,317736,1,0,0:0:0:0:
256,192,318236,1,0,0:0:0:0:
256,192,318486,1,0,0:0:0:0:
109,192,318736,128,0,320736:0:0:0:0:
329,192,318736,1,0,0:0:0:0:
256,192,318736,1,0,0:0:0:0:
182,192,318736,1,0,0:0:0:0:
36,192,318736,1,0,0:0:0:0:
475,192,318736,1,0,0:0:0:0:
402,192,319236,1,0,0:0:0:0:
256,192,319486,1,0,0:0:0:0:
329,192,319736,1,0,0:0:0:0:
475,192,319736,1,0,0:0:0:0:
402,192,319736,1,0,0:0:0:0:
182,192,319736,1,0,0:0:0:0:
36,192,319736,1,0,0:0:0:0:
402,192,320236,1,0,0:0:0:0:
329,192,320486,1,0,0:0:0:0:
402,192,320736,1,0,0:0:0:0:
256,192,320736,128,0,322736:0:0:0:0:
475,192,320736,1,0,0:0:0:0:
182,192,320736,1,0,0:0:0:0:
36,192,320736,1,0,0:0:0:0:
329,192,321236,1,0,0:0:0:0:
182,192,321486,1,0,0:0:0:0:
182,192,321736,1,0,0:0:0:0:
109,192,321736,1,0,0:0:0:0:
36,192,321736,1,0,0:0:0:0:
402,192,321736,1,0,0:0:0:0:
475,192,321736,1,0,0:0:0:0:
402,192,322236,1,0,0:0:0:0:
329,192,322486,1,0,0:0:0:0:
182,192,322736,1,0,0:0:0:0:
36,192,322736,1,0,0:0:0:0:
475,192,322736,1,0,0:0:0:0:
402,192,322736,1,0,0:0:0:0:
109,192,322736,128,0,324736:0:0:0:0:
329,192,323236,1,0,0:0:0:0:
256,192,323486,1,0,0:0:0:0:
329,192,323611,1,0,0:0:0:0:
402,192,323736,1,0,0:0:0:0:
475,192,323736,1,0,0:0:0:0:
182,192,323736,1,0,0:0:0:0:
36,192,323736,1,0,0:0:0:0:
402,192,323986,1,0,0:0:0:0:
256,192,323986,1,0,0:0:0:0:
182,192,324236,1,0,0:0:0:0:
475,192,324236,1,0,0:0:0:0:
329,192,324486,1,0,0:0:0:0:
256,192,324486,1,0,0:0:0:0:
475,192,324736,1,0,0:0:0:0:
402,192,324736,1,0,0:0:0:0:
36,192,324736,1,0,0:0:0:0:
256,192,324736,1,0,0:0:0:0:
329,192,324736,1,0,0:0:0:0:
182,192,324736,128,0,326736:0:0:0:0:
329,192,325236,1,0,0:0:0:0:
256,192,325486,1,0,0:0:0:0:
36,192,325736,1,0,0:0:0:0:
402,192,325736,1,0,0:0:0:0:
475,192,325736,1,0,0:0:0:0:
329,192,325736,1,0,0:0:0:0:
109,192,325736,1,0,0:0:0:0:
256,192,326236,1,0,0:0:0:0:
329,192,326486,1,0,0:0:0:0:
402,192,326736,1,0,0:0:0:0:
256,192,326736,1,0,0:0:0:0:
36,192,326736,1,0,0:0:0:0:
109,192,326736,1,0,0:0:0:0:
475,192,326736,128,0,328736:0:0:0:0:
182,192,327236,1,0,0:0:0:0:
256,192,327486,1,0,0:0:0:0:
182,192,327736,1,0,0:0:0:0:
109,192,327736,1,0,0:0:0:0:
36,192,327736,1,0,0:0:0:0:
402,192,327736,1,0,0:0:0:0:
329,192,327736,1,0,0:0:0:0:
109,192,328236,1,0,0:0:0:0:
256,192,328486,1,0,0:0:0:0:
182,192,328736,1,0,0:0:0:0:
256,192,328736,1,0,0:0:0:0:
402,192,328736,1,0,0:0:0:0:
109,192,328736,1,0,0:0:0:0:
36,192,328736,1,0,0:0:0:0:
329,192,328736,128,0,330736:0:0:0:0:
182,192,329236,1,0,0:0:0:0:
256,192,329486,1,0,0:0:0:0:
182,192,329736,1,0,0:0:0:0:
109,192,329736,1,0,0:0:0:0:
36,192,329736,1,0,0:0:0:0:
475,192,329736,1,0,0:0:0:0:
402,192,329736,1,0,0:0:0:0:
402,192,330236,1,0,0:0:0:0:
256,192,330486,1,0,0:0:0:0:
109,192,330736,128,0,332736:0:0:0:0:
182,192,330736,1,0,0:0:0:0:
36,192,330736,1,0,0:0:0:0:
475,192,330736,1,0,0:0:0:0:
402,192,330736,1,0,0:0:0:0:
329,192,330986,1,0,0:0:0:0:
256,192,330986,1,0,0:0:0:0:
402,192,331236,1,0,0:0:0:0:
182,192,331486,1,0,0:0:0:0:
256,192,331486,1,0,0:0:0:0:
475,192,331736,1,0,0:0:0:0:
402,192,331736,1,0,0:0:0:0:
329,192,331736,1,0,0:0:0:0:
36,192,331736,1,0,0:0:0:0:
256,192,331986,1,0,0:0:0:0:
182,192,331986,1,0,0:0:0:0:
329,192,332236,1,0,0:0:0:0:
475,192,332236,1,0,0:0:0:0:
402,192,332486,1,0,0:0:0:0:
256,192,332486,1,0,0:0:0:0:
475,192,332736,1,0,0:0:0:0:
329,192,332736,1,0,0:0:0:0:
182,192,332736,1,0,0:0:0:0:
36,192,332736,1,0,0:0:0:0:
182,192,333236,1,0,0:0:0:0:
329,192,333236,1,0,0:0:0:0:
256,192,333486,1,0,0:0:0:0:
36,192,333736,128,0,334069:0:0:0:0:
182,192,333736,128,0,334069:0:0:0:0:
475,192,333736,1,0,0:0:0:0:
402,192,333736,1,0,0:0:0:0:
329,192,333736,1,0,0:0:0:0:
256,192,333736,1,0,0:0:0:0:
109,192,334069,128,0,334402:0:0:0:0:
256,192,334069,128,0,334402:0:0:0:0:
329,192,334402,128,0,334736:0:0:0:0:
182,192,334402,128,0,334736:0:0:0:0:
402,192,334736,1,0,0:0:0:0:
256,192,334736,1,0,0:0:0:0:
36,192,334736,1,0,0:0:0:0:
475,192,334736,1,0,0:0:0:0:
109,192,334736,1,0,0:0:0:0:
182,192,335236,1,0,0:0:0:0:
329,192,335236,1,0,0:0:0:0:
256,192,335486,1,0,0:0:0:0:
475,192,335736,128,0,336069:0:0:0:0:
329,192,335736,128,0,336069:0:0:0:0:
182,192,335736,1,0,0:0:0:0:
36,192,335736,1,0,0:0:0:0:
109,192,335736,1,0,0:0:0:0:
402,192,336069,128,0,336402:0:0:0:0:
256,192,336069,128,0,336402:0:0:0:0:
182,192,336402,128,0,336736:0:0:0:0:
329,192,336402,128,0,336736:0:0:0:0:
402,192,336736,1,0,0:0:0:0:
36,192,336736,1,0,0:0:0:0:
109,192,336736,1,0,0:0:0:0:
256,192,336736,1,0,0:0:0:0:
475,192,336736,1,0,0:0:0:0:
256,192,337236,1,0,0:0:0:0:
182,192,337486,1,0,0:0:0:0:
329,192,337486,1,0,0:0:0:0:
36,192,337736,128,0,338069:0:0:0:0:
475,192,337736,128,0,338069:0:0:0:0:
109,192,337736,1,0,0:0:0:0:
402,192,337736,1,0,0:0:0:0:
256,192,337736,1,0,0:0:0:0:
402,192,338069,128,0,338402:0:0:0:0:
109,192,338069,128,0,338402:0:0:0:0:
329,192,338402,128,0,338736:0:0:0:0:
182,192,338402,128,0,338736:0:0:0:0:
256,192,338736,1,0,0:0:0:0:
475,192,338736,1,0,0:0:0:0:
36,192,338736,1,0,0:0:0:0:
109,192,338736,128,0,339236:0:0:0:0:
402,192,338736,128,0,339236:0:0:0:0:
256,192,338986,1,0,0:0:0:0:
182,192,339236,128,0,339736:0:0:0:0:
329,192,339236,128,0,339736:0:0:0:0:
256,192,339486,1,0,0:0:0:0:
109,192,339736,128,0,340236:0:0:0:0:
402,192,339736,128,0,340236:0:0:0:0:
256,192,339736,1,0,0:0:0:0:
256,192,339986,1,0,0:0:0:0:
36,192,340236,128,0,340736:0:0:0:0:
475,192,340236,128,0,340736:0:0:0:0:
256,192,340486,128,0,340736:0:0:0:0:
182,192,340736,1,0,0:0:0:0:
109,192,340736,1,0,0:0:0:0:
402,192,340736,1,0,0:0:0:0:
329,192,340736,1,0,0:0:0:0:
182,192,341236,1,0,0:0:0:0:
329,192,341236,1,0,0:0:0:0:
256,192,341486,1,0,0:0:0:0:
475,192,341736,128,0,342069:0:0:0:0:
329,192,341736,128,0,342069:0:0:0:0:
36,192,341736,1,0,0:0:0:0:
109,192,341736,1,0,0:0:0:0:
182,192,341736,1,0,0:0:0:0:
256,192,341736,1,0,0:0:0:0:
402,192,342069,128,0,342402:0:0:0:0:
256,192,342069,128,0,342402:0:0:0:0:
182,192,342402,128,0,342736:0:0:0:0:
329,192,342402,128,0,342736:0:0:0:0:
109,192,342736,1,0,0:0:0:0:
256,192,342736,1,0,0:0:0:0:
475,192,342736,1,0,0:0:0:0:
36,192,342736,1,0,0:0:0:0:
402,192,342736,1,0,0:0:0:0:
329,192,343236,1,0,0:0:0:0:
182,192,343236,1,0,0:0:0:0:
256,192,343486,1,0,0:0:0:0:
36,192,343736,128,0,344069:0:0:0:0:
182,192,343736,128,0,344069:0:0:0:0:
329,192,343736,1,0,0:0:0:0:
475,192,343736,1,0,0:0:0:0:
402,192,343736,1,0,0:0:0:0:
109,192,344069,128,0,344402:0:0:0:0:
256,192,344069,128,0,344402:0:0:0:0:
329,192,344402,128,0,344736:0:0:0:0:
182,192,344402,128,0,344736:0:0:0:0:
109,192,344736,1,0,0:0:0:0:
475,192,344736,1,0,0:0:0:0:
402,192,344736,1,0,0:0:0:0:
256,192,344736,1,0,0:0:0:0:
36,192,344736,1,0,0:0:0:0:
256,192,345236,1,0,0:0:0:0:
329,192,345486,1,0,0:0:0:0:
182,192,345486,1,0,0:0:0:0:
475,192,345736,128,0,346069:0:0:0:0:
36,192,345736,128,0,346069:0:0:0:0:
402,192,345736,1,0,0:0:0:0:
109,192,345736,1,0,0:0:0:0:
256,192,345736,1,0,0:0:0:0:
109,192,346069,128,0,346402:0:0:0:0:
402,192,346069,128,0,346402:0:0:0:0:
182,192,346402,128,0,346736:0:0:0:0:
329,192,346402,128,0,346736:0:0:0:0:
256,192,346736,1,0,0:0:0:0:
36,192,346736,1,0,0:0:0:0:
475,192,346736,1,0,0:0:0:0:
402,192,346736,128,0,347236:0:0:0:0:
109,192,346736,128,0,347236:0:0:0:0:
329,192,347236,128,0,347736:0:0:0:0:
182,192,347236,128,0,347736:0:0:0:0:
402,192,347736,128,0,348236:0:0:0:0:
109,192,347736,128,0,348236:0:0:0:0:
256,192,347736,1,0,0:0:0:0:
256,192,347986,1,0,0:0:0:0:
475,192,348236,128,0,348736:0:0:0:0:
36,192,348236,128,0,348736:0:0:0:0:
256,192,348486,128,0,348736:0:0:0:0:
329,192,348736,1,0,0:0:0:0:
402,192,348736,1,0,0:0:0:0:
109,192,348736,1,0,0:0:0:0:
182,192,348736,1,0,0:0:0:0:
