osu file format v14

[General]
AudioFilename: audio.mp3
AudioLeadIn: 0
PreviewTime: 118007
Countdown: 0
SampleSet: Normal
StackLeniency: 0.7
Mode: 1
LetterboxInBreaks: 0
WidescreenStoryboard: 0

[Editor]
DistanceSpacing: 0.5
BeatDivisor: 4
GridSize: 32
TimelineZoom: 2.999999

[Metadata]
Title:Operation Ground and Pound
TitleUnicode:Operation Ground and Pound
Artist:DragonForce
ArtistUnicode:DragonForce
Creator:frukoyurdakul
Version:Tatsujin
Source:
Tags:herman li zp theart stream power metal Inhuman Rampage marathon
BeatmapID:1182240
BeatmapSetID:558955

[Difficulty]
HPDrainRate:4
CircleSize:2
OverallDifficulty:7
ApproachRate:10
SliderMultiplier:1.4
SliderTickRate:1

[Events]
//Background and Video events
0,0,"bg.png",0,0
//Break Periods
//Storyboard Layer 0 (Background)
//Storyboard Layer 1 (Fail)
//Storyboard Layer 2 (Pass)
//Storyboard Layer 3 (Foreground)
//Storyboard Sound Samples

[TimingPoints]
287,250,4,1,0,80,1,0
287,-120.481927710843,4,1,0,80,0,0
40412,-120.481927710843,4,1,0,40,0,0
44162,-120.481927710843,4,1,0,80,0,0
44282,300,4,1,0,80,1,0
118682,-100,4,1,0,80,0,1
140282,-100,4,1,0,80,0,0
142682,-100,4,1,0,80,0,1
147482,-100,4,1,0,80,0,0
225482,-100,4,1,0,80,0,1
247082,-100,4,1,0,80,0,0
249482,-100,4,1,0,80,0,1
254282,-100,4,1,0,80,0,0
260282,300,4,1,0,70,1,8
260297,300,4,1,0,70,1,0
260297,-133.333333333333,4,1,0,70,0,0
269882,300,4,1,0,60,1,0
269882,-133.333333333333,4,1,0,60,0,0
287882,-100,4,1,0,80,0,0
361082,-100,4,1,0,80,0,1
380282,-100,4,1,0,80,0,0
416282,-95.2380952380952,4,1,0,80,0,1
435482,-95.2380952380952,4,1,0,80,0,0
437882,-95.2380952380952,4,1,0,80,0,1
445082,-95.2380952380952,4,1,0,80,0,0
447482,-100,4,1,0,80,0,0
451232,-100,4,1,0,40,0,0
455807,-100,4,1,0,80,0,0

[HitObjects]
160,288,287,5,4,0:0:0:0:
160,288,4287,1,4,0:0:0:0:
352,288,6287,1,12,0:0:0:0:
160,288,8287,1,4,0:0:0:0:
160,288,10287,1,4,0:0:0:0:
160,288,12287,1,4,0:0:0:0:
352,288,14287,1,12,0:0:0:0:
160,288,16287,1,4,0:0:0:0:
160,96,16537,1,0,0:0:0:0:
160,96,16662,1,0,0:0:0:0:
352,96,16787,1,8,0:0:0:0:
160,96,17037,1,0,0:0:0:0:
160,96,17162,1,0,0:0:0:0:
160,96,17287,1,0,0:0:0:0:
160,96,17412,1,0,0:0:0:0:
160,96,17537,1,0,0:0:0:0:
160,96,17662,1,0,0:0:0:0:
160,96,17724,1,0,0:0:0:0:
352,96,17787,1,8,0:0:0:0:
160,96,17912,1,0,0:0:0:0:
160,96,18037,1,0,0:0:0:0:
160,96,18162,1,0,0:0:0:0:
352,96,18287,1,8,0:0:0:0:
160,96,18412,1,0,0:0:0:0:
160,96,18537,1,0,0:0:0:0:
160,96,18662,1,0,0:0:0:0:
352,96,18787,1,8,0:0:0:0:
160,96,19037,1,0,0:0:0:0:
160,96,19162,1,0,0:0:0:0:
160,96,19224,1,0,0:0:0:0:
160,96,19287,1,0,0:0:0:0:
160,96,19412,1,0,0:0:0:0:
160,96,19537,1,0,0:0:0:0:
160,96,19662,1,0,0:0:0:0:
352,96,19787,1,8,0:0:0:0:
160,96,19912,1,0,0:0:0:0:
352,96,20037,1,8,0:0:0:0:
160,96,20162,1,0,0:0:0:0:
352,96,20287,1,8,0:0:0:0:
160,96,20412,1,0,0:0:0:0:
160,96,20537,1,0,0:0:0:0:
160,96,20662,1,0,0:0:0:0:
352,96,20787,1,8,0:0:0:0:
160,96,21037,1,0,0:0:0:0:
160,96,21162,1,0,0:0:0:0:
160,96,21287,1,0,0:0:0:0:
160,96,21412,1,0,0:0:0:0:
160,96,21474,1,0,0:0:0:0:
160,96,21537,1,0,0:0:0:0:
160,96,21662,1,0,0:0:0:0:
352,96,21787,1,8,0:0:0:0:
160,96,21912,1,0,0:0:0:0:
352,96,22037,1,8,0:0:0:0:
160,96,22162,1,0,0:0:0:0:
352,96,22287,1,8,0:0:0:0:
160,96,22412,1,0,0:0:0:0:
160,96,22537,1,0,0:0:0:0:
160,96,22662,1,0,0:0:0:0:
352,96,22787,1,8,0:0:0:0:
160,96,23037,1,0,0:0:0:0:
160,96,23162,1,0,0:0:0:0:
352,96,23287,1,8,0:0:0:0:
352,96,23349,1,8,0:0:0:0:
160,96,23412,1,0,0:0:0:0:
160,96,23537,1,0,0:0:0:0:
352,96,23662,1,8,0:0:0:0:
160,96,23724,1,0,0:0:0:0:
160,96,23787,1,0,0:0:0:0:
160,96,23912,1,0,0:0:0:0:
352,96,24037,1,8,0:0:0:0:
160,96,24162,1,0,0:0:0:0:
160,288,24287,1,4,0:0:0:0:
160,96,24537,1,0,0:0:0:0:
160,96,24662,1,0,0:0:0:0:
352,96,24787,1,8,0:0:0:0:
160,96,25037,1,0,0:0:0:0:
160,96,25162,1,0,0:0:0:0:
160,96,25224,1,0,0:0:0:0:
160,96,25287,1,0,0:0:0:0:
160,96,25412,1,0,0:0:0:0:
160,96,25537,1,0,0:0:0:0:
160,96,25662,1,0,0:0:0:0:
352,96,25787,1,8,0:0:0:0:
160,96,25912,1,0,0:0:0:0:
352,96,26037,1,8,0:0:0:0:
160,96,26162,1,0,0:0:0:0:
352,96,26287,1,8,0:0:0:0:
160,96,26412,1,0,0:0:0:0:
160,96,26537,1,0,0:0:0:0:
160,96,26662,1,0,0:0:0:0:
352,96,26787,1,8,0:0:0:0:
160,96,27037,1,0,0:0:0:0:
160,96,27162,1,0,0:0:0:0:
352,96,27287,1,8,0:0:0:0:
160,96,27412,1,0,0:0:0:0:
160,96,27474,1,0,0:0:0:0:
160,96,27537,1,0,0:0:0:0:
352,96,27662,1,8,0:0:0:0:
160,96,27787,1,0,0:0:0:0:
160,96,27912,1,0,0:0:0:0:
352,96,28037,1,8,0:0:0:0:
160,96,28162,1,0,0:0:0:0:
352,96,28287,1,8,0:0:0:0:
160,96,28412,1,0,0:0:0:0:
160,96,28537,1,0,0:0:0:0:
160,96,28662,1,0,0:0:0:0:
352,96,28787,1,8,0:0:0:0:
160,96,29037,1,0,0:0:0:0:
160,96,29162,1,0,0:0:0:0:
160,96,29224,1,0,0:0:0:0:
160,96,29287,1,0,0:0:0:0:
160,96,29412,1,0,0:0:0:0:
160,96,29537,1,0,0:0:0:0:
160,96,29662,1,0,0:0:0:0:
352,96,29787,1,8,0:0:0:0:
160,96,29912,1,0,0:0:0:0:
352,96,30037,1,8,0:0:0:0:
160,96,30162,1,0,0:0:0:0:
352,96,30287,1,8,0:0:0:0:
160,96,30412,1,0,0:0:0:0:
160,96,30537,1,0,0:0:0:0:
160,96,30662,1,0,0:0:0:0:
352,96,30787,1,8,0:0:0:0:
160,96,31037,1,0,0:0:0:0:
160,96,31162,1,0,0:0:0:0:
352,96,31287,1,8,0:0:0:0:
160,96,31412,1,0,0:0:0:0:
160,96,31537,1,0,0:0:0:0:
352,96,31662,1,8,0:0:0:0:
160,96,31787,1,0,0:0:0:0:
160,96,31912,1,0,0:0:0:0:
352,96,32037,1,8,0:0:0:0:
160,96,32162,1,0,0:0:0:0:
160,288,32287,1,4,0:0:0:0:
160,96,34037,1,0,0:0:0:0:
160,288,34287,1,4,0:0:0:0:
352,96,35287,1,8,0:0:0:0:
352,96,35662,1,8,0:0:0:0:
160,96,36037,1,0,0:0:0:0:
352,288,36287,1,12,0:0:0:0:
160,96,38037,1,0,0:0:0:0:
352,288,38287,1,12,0:0:0:0:
352,96,38662,1,8,0:0:0:0:
160,96,39037,1,0,0:0:0:0:
160,288,39287,1,4,0:0:0:0:
352,96,39662,1,8,0:0:0:0:
160,96,40037,1,0,0:0:0:0:
352,288,40287,1,12,0:0:0:0:
256,192,40412,12,0,44037,0:0:0:0:
352,96,44282,5,8,0:0:0:0:
352,96,44357,1,8,0:0:0:0:
352,96,44432,1,8,0:0:0:0:
352,96,44507,1,8,0:0:0:0:
160,96,44582,1,0,0:0:0:0:
160,96,44657,1,0,0:0:0:0:
352,96,44732,1,8,0:0:0:0:
352,96,44807,1,8,0:0:0:0:
352,96,44882,1,8,0:0:0:0:
352,96,44957,1,8,0:0:0:0:
160,96,45032,1,0,0:0:0:0:
160,96,45107,1,0,0:0:0:0:
352,96,45182,1,8,0:0:0:0:
352,96,45257,1,8,0:0:0:0:
160,96,45332,1,0,0:0:0:0:
160,96,45407,1,0,0:0:0:0:
352,96,45482,1,8,0:0:0:0:
352,96,45557,1,8,0:0:0:0:
160,96,45632,1,0,0:0:0:0:
160,96,45707,1,0,0:0:0:0:
352,96,45782,1,8,0:0:0:0:
160,96,45857,1,0,0:0:0:0:
352,96,45932,1,8,0:0:0:0:
160,288,46082,1,4,0:0:0:0:
160,288,46232,1,4,0:0:0:0:
352,288,46382,1,12,0:0:0:0:
160,288,46682,1,4,0:0:0:0:
352,96,46832,1,8,0:0:0:0:
160,96,46982,1,0,0:0:0:0:
160,96,47057,1,0,0:0:0:0:
352,96,47132,1,8,0:0:0:0:
160,96,47282,1,0,0:0:0:0:
352,96,47432,1,8,0:0:0:0:
352,96,47507,1,8,0:0:0:0:
160,96,47582,1,0,0:0:0:0:
160,96,47657,1,0,0:0:0:0:
352,96,47732,1,8,0:0:0:0:
160,96,47882,1,0,0:0:0:0:
352,96,48032,1,8,0:0:0:0:
352,96,48107,1,8,0:0:0:0:
160,96,48182,1,0,0:0:0:0:
352,96,48332,1,8,0:0:0:0:
160,96,48482,1,0,0:0:0:0:
160,96,48632,1,0,0:0:0:0:
160,96,48707,1,0,0:0:0:0:
352,96,48782,1,8,0:0:0:0:
352,96,48857,1,8,0:0:0:0:
352,96,48932,1,8,0:0:0:0:
160,96,49082,1,0,0:0:0:0:
352,96,49232,1,8,0:0:0:0:
160,96,49307,1,0,0:0:0:0:
160,96,49382,1,0,0:0:0:0:
160,96,49457,1,0,0:0:0:0:
352,96,49532,1,8,0:0:0:0:
352,96,49607,1,8,0:0:0:0:
160,96,49682,1,0,0:0:0:0:
352,96,49832,1,8,0:0:0:0:
160,96,49982,1,0,0:0:0:0:
160,96,50057,1,0,0:0:0:0:
352,96,50132,1,8,0:0:0:0:
352,96,50282,1,8,0:0:0:0:
160,96,50357,1,0,0:0:0:0:
352,96,50432,1,8,0:0:0:0:
352,96,50507,1,8,0:0:0:0:
160,96,50582,1,0,0:0:0:0:
160,96,50657,1,0,0:0:0:0:
352,96,50732,1,8,0:0:0:0:
160,96,50882,1,0,0:0:0:0:
352,96,51032,1,8,0:0:0:0:
160,96,51182,1,0,0:0:0:0:
160,96,51257,1,0,0:0:0:0:
352,96,51332,1,8,0:0:0:0:
160,96,51482,1,0,0:0:0:0:
160,96,51557,1,0,0:0:0:0:
352,96,51632,1,8,0:0:0:0:
160,96,51707,1,0,0:0:0:0:
160,96,51782,1,0,0:0:0:0:
160,96,51857,1,0,0:0:0:0:
352,96,51932,1,8,0:0:0:0:
160,96,52007,1,0,0:0:0:0:
352,96,52082,1,8,0:0:0:0:
352,96,52157,1,8,0:0:0:0:
160,96,52232,1,0,0:0:0:0:
352,96,52307,1,8,0:0:0:0:
160,96,52382,1,0,0:0:0:0:
160,96,52457,1,0,0:0:0:0:
352,96,52532,1,8,0:0:0:0:
352,96,52607,1,8,0:0:0:0:
160,96,52682,1,0,0:0:0:0:
160,96,52757,1,0,0:0:0:0:
352,96,52832,1,8,0:0:0:0:
160,96,52907,1,0,0:0:0:0:
160,96,52982,1,0,0:0:0:0:
160,96,53057,1,0,0:0:0:0:
352,96,53132,1,8,0:0:0:0:
160,96,53207,1,0,0:0:0:0:
352,96,53282,1,8,0:0:0:0:
352,96,53357,1,8,0:0:0:0:
160,96,53432,1,0,0:0:0:0:
352,96,53507,1,8,0:0:0:0:
160,96,53582,1,0,0:0:0:0:
160,96,53657,1,0,0:0:0:0:
352,96,53732,1,8,0:0:0:0:
352,96,53807,1,8,0:0:0:0:
160,96,53882,1,0,0:0:0:0:
352,96,54032,1,8,0:0:0:0:
160,96,54182,1,0,0:0:0:0:
160,96,54257,1,0,0:0:0:0:
352,96,54332,1,8,0:0:0:0:
160,96,54482,1,0,0:0:0:0:
160,96,54557,1,0,0:0:0:0:
352,96,54632,1,8,0:0:0:0:
352,96,54782,1,8,0:0:0:0:
160,96,54932,1,0,0:0:0:0:
352,96,55082,1,8,0:0:0:0:
352,96,55157,1,8,0:0:0:0:
352,96,55232,1,8,0:0:0:0:
352,96,55307,1,8,0:0:0:0:
160,96,55382,1,0,0:0:0:0:
160,96,55457,1,0,0:0:0:0:
352,96,55532,1,8,0:0:0:0:
352,96,55607,1,8,0:0:0:0:
352,96,55682,1,8,0:0:0:0:
352,96,55757,1,8,0:0:0:0:
160,96,55832,1,0,0:0:0:0:
160,96,55907,1,0,0:0:0:0:
352,96,55982,1,8,0:0:0:0:
352,96,56057,1,8,0:0:0:0:
160,96,56132,1,0,0:0:0:0:
160,96,56207,1,0,0:0:0:0:
352,96,56282,1,8,0:0:0:0:
160,96,56357,1,0,0:0:0:0:
352,96,56432,1,8,0:0:0:0:
352,96,56507,1,8,0:0:0:0:
160,96,56582,1,0,0:0:0:0:
160,96,56657,1,0,0:0:0:0:
352,96,56732,1,8,0:0:0:0:
160,96,56807,1,0,0:0:0:0:
352,96,56882,1,8,0:0:0:0:
160,96,56957,1,0,0:0:0:0:
352,96,57032,1,8,0:0:0:0:
352,96,57107,1,8,0:0:0:0:
160,96,57182,1,0,0:0:0:0:
160,96,57257,1,0,0:0:0:0:
352,96,57332,1,8,0:0:0:0:
352,96,57407,1,8,0:0:0:0:
352,96,57482,1,8,0:0:0:0:
160,96,57557,1,0,0:0:0:0:
352,96,57632,1,8,0:0:0:0:
160,96,57707,1,0,0:0:0:0:
160,96,57782,1,0,0:0:0:0:
160,96,57857,1,0,0:0:0:0:
352,96,57932,1,8,0:0:0:0:
160,96,58007,1,0,0:0:0:0:
352,96,58082,1,8,0:0:0:0:
160,96,58157,1,0,0:0:0:0:
352,96,58232,1,8,0:0:0:0:
352,96,58307,1,8,0:0:0:0:
160,96,58382,1,0,0:0:0:0:
352,96,58457,1,8,0:0:0:0:
352,96,58532,1,8,0:0:0:0:
160,96,58607,1,0,0:0:0:0:
352,96,58682,1,8,0:0:0:0:
160,96,58757,1,0,0:0:0:0:
352,96,58832,1,8,0:0:0:0:
352,96,58907,1,8,0:0:0:0:
160,96,58982,1,0,0:0:0:0:
160,96,59057,1,0,0:0:0:0:
352,96,59132,1,8,0:0:0:0:
160,96,59207,1,0,0:0:0:0:
352,96,59282,1,8,0:0:0:0:
160,96,59357,1,0,0:0:0:0:
352,96,59432,1,8,0:0:0:0:
160,96,59507,1,0,0:0:0:0:
160,96,59582,1,0,0:0:0:0:
160,96,59657,1,0,0:0:0:0:
352,96,59732,1,8,0:0:0:0:
160,96,59807,1,0,0:0:0:0:
160,96,59882,1,0,0:0:0:0:
160,96,59957,1,0,0:0:0:0:
352,96,60032,1,8,0:0:0:0:
352,96,60107,1,8,0:0:0:0:
160,96,60182,1,0,0:0:0:0:
160,96,60257,1,0,0:0:0:0:
352,96,60332,1,8,0:0:0:0:
160,96,60407,1,0,0:0:0:0:
352,96,60482,1,8,0:0:0:0:
352,96,60557,1,8,0:0:0:0:
160,96,60632,1,0,0:0:0:0:
160,96,60707,1,0,0:0:0:0:
352,96,60782,1,8,0:0:0:0:
352,96,60857,1,8,0:0:0:0:
160,96,60932,1,0,0:0:0:0:
160,96,61007,1,0,0:0:0:0:
352,96,61082,1,8,0:0:0:0:
160,96,61157,1,0,0:0:0:0:
160,96,61232,1,0,0:0:0:0:
160,96,61307,1,0,0:0:0:0:
352,96,61382,1,8,0:0:0:0:
160,96,61457,1,0,0:0:0:0:
352,96,61532,1,8,0:0:0:0:
352,96,61607,1,8,0:0:0:0:
160,96,61682,1,0,0:0:0:0:
160,96,61757,1,0,0:0:0:0:
352,96,61832,1,8,0:0:0:0:
160,96,61907,1,0,0:0:0:0:
160,96,61982,1,0,0:0:0:0:
160,96,62057,1,0,0:0:0:0:
352,96,62132,1,8,0:0:0:0:
352,96,62207,1,8,0:0:0:0:
160,96,62282,1,0,0:0:0:0:
160,96,62357,1,0,0:0:0:0:
352,96,62432,1,8,0:0:0:0:
160,96,62507,1,0,0:0:0:0:
352,96,62582,1,8,0:0:0:0:
352,96,62657,1,8,0:0:0:0:
160,96,62732,1,0,0:0:0:0:
160,96,62807,1,0,0:0:0:0:
352,96,62882,1,8,0:0:0:0:
160,96,62957,1,0,0:0:0:0:
352,96,63032,1,8,0:0:0:0:
160,96,63107,1,0,0:0:0:0:
352,96,63182,1,8,0:0:0:0:
352,96,63257,1,8,0:0:0:0:
160,96,63332,1,0,0:0:0:0:
160,96,63407,1,0,0:0:0:0:
352,96,63482,1,8,0:0:0:0:
352,96,63557,1,8,0:0:0:0:
160,96,63632,1,0,0:0:0:0:
160,96,63782,1,0,0:0:0:0:
352,96,63932,1,8,0:0:0:0:
352,96,64007,1,8,0:0:0:0:
160,96,64082,1,0,0:0:0:0:
160,96,64232,1,0,0:0:0:0:
352,96,64382,1,8,0:0:0:0:
352,96,64457,1,8,0:0:0:0:
160,96,64532,1,0,0:0:0:0:
352,96,64682,1,8,0:0:0:0:
352,96,64757,1,8,0:0:0:0:
352,96,64832,1,8,0:0:0:0:
352,96,64907,1,8,0:0:0:0:
160,96,64982,1,0,0:0:0:0:
160,96,65057,1,0,0:0:0:0:
352,96,65132,1,8,0:0:0:0:
352,96,65207,1,8,0:0:0:0:
352,96,65282,1,8,0:0:0:0:
352,96,65357,1,8,0:0:0:0:
160,96,65432,1,0,0:0:0:0:
160,96,65507,1,0,0:0:0:0:
352,96,65582,1,8,0:0:0:0:
352,96,65657,1,8,0:0:0:0:
160,96,65732,1,0,0:0:0:0:
352,288,65882,1,12,0:0:0:0:
352,288,66182,1,12,0:0:0:0:
352,96,66482,1,8,0:0:0:0:
160,288,66632,1,4,0:0:0:0:
160,288,66932,1,4,0:0:0:0:
352,288,67082,1,12,0:0:0:0:
352,288,67382,1,12,0:0:0:0:
352,96,67682,1,8,0:0:0:0:
352,96,67757,1,8,0:0:0:0:
160,96,67832,1,0,0:0:0:0:
160,96,67907,1,0,0:0:0:0:
352,96,67982,1,8,0:0:0:0:
160,288,68282,1,4,0:0:0:0:
160,288,68582,1,4,0:0:0:0:
352,96,68882,1,8,0:0:0:0:
160,288,69032,1,4,0:0:0:0:
160,96,69332,2,0,L|440:316,1,350
160,288,70682,1,4,0:0:0:0:
352,96,70832,1,8,0:0:0:0:
160,96,70982,1,0,0:0:0:0:
160,96,71057,1,0,0:0:0:0:
352,96,71132,1,8,0:0:0:0:
160,96,71282,1,0,0:0:0:0:
352,96,71432,1,8,0:0:0:0:
352,96,71507,1,8,0:0:0:0:
160,96,71582,1,0,0:0:0:0:
160,96,71657,1,0,0:0:0:0:
352,96,71732,1,8,0:0:0:0:
160,96,71882,1,0,0:0:0:0:
352,96,72032,1,8,0:0:0:0:
352,96,72107,1,8,0:0:0:0:
160,96,72182,1,0,0:0:0:0:
352,96,72332,1,8,0:0:0:0:
160,96,72482,1,0,0:0:0:0:
160,96,72557,1,0,0:0:0:0:
352,96,72632,1,8,0:0:0:0:
352,96,72707,1,8,0:0:0:0:
160,96,72782,1,0,0:0:0:0:
352,96,72932,1,8,0:0:0:0:
160,96,73082,1,0,0:0:0:0:
352,96,73232,1,8,0:0:0:0:
160,96,73382,1,0,0:0:0:0:
160,96,73457,1,0,0:0:0:0:
352,96,73532,1,8,0:0:0:0:
352,96,73682,1,8,0:0:0:0:
160,96,73757,1,0,0:0:0:0:
352,96,73832,1,8,0:0:0:0:
352,96,73907,1,8,0:0:0:0:
160,96,73982,1,0,0:0:0:0:
352,96,74132,1,8,0:0:0:0:
352,96,74207,1,8,0:0:0:0:
160,96,74282,1,0,0:0:0:0:
352,96,74432,1,8,0:0:0:0:
160,96,74582,1,0,0:0:0:0:
160,96,74657,1,0,0:0:0:0:
352,96,74732,1,8,0:0:0:0:
160,96,74882,1,0,0:0:0:0:
352,96,75032,1,8,0:0:0:0:
160,96,75182,1,0,0:0:0:0:
160,96,75257,1,0,0:0:0:0:
352,96,75332,1,8,0:0:0:0:
352,96,75407,1,8,0:0:0:0:
160,96,75482,1,0,0:0:0:0:
352,96,75632,1,8,0:0:0:0:
160,96,75782,1,0,0:0:0:0:
160,96,75857,1,0,0:0:0:0:
352,96,75932,1,8,0:0:0:0:
352,96,76007,1,8,0:0:0:0:
160,96,76082,1,0,0:0:0:0:
352,96,76232,1,8,0:0:0:0:
352,96,76307,1,8,0:0:0:0:
160,96,76382,1,0,0:0:0:0:
160,96,76457,1,0,0:0:0:0:
352,96,76532,1,8,0:0:0:0:
160,96,76682,1,0,0:0:0:0:
352,96,76832,1,8,0:0:0:0:
160,96,76982,1,0,0:0:0:0:
160,96,77057,1,0,0:0:0:0:
352,96,77132,1,8,0:0:0:0:
352,96,77282,1,8,0:0:0:0:
352,96,77432,1,8,0:0:0:0:
352,96,77507,1,8,0:0:0:0:
160,96,77582,1,0,0:0:0:0:
160,96,77657,1,0,0:0:0:0:
352,96,77732,1,8,0:0:0:0:
160,96,77882,1,0,0:0:0:0:
352,96,78032,1,8,0:0:0:0:
160,96,78182,1,0,0:0:0:0:
160,96,78257,1,0,0:0:0:0:
352,96,78332,1,8,0:0:0:0:
352,96,78407,1,8,0:0:0:0:
160,96,78482,1,0,0:0:0:0:
160,96,78557,1,0,0:0:0:0:
352,96,78632,1,8,0:0:0:0:
160,96,78782,1,0,0:0:0:0:
160,96,78857,1,0,0:0:0:0:
160,96,78932,1,0,0:0:0:0:
352,288,79082,1,12,0:0:0:0:
160,288,79232,1,4,0:0:0:0:
160,288,79382,1,4,0:0:0:0:
160,288,79532,1,4,0:0:0:0:
160,288,79682,1,4,0:0:0:0:
160,288,79832,1,4,0:0:0:0:
160,288,79982,1,4,0:0:0:0:
160,288,80132,1,4,0:0:0:0:
352,288,80282,1,12,0:0:0:0:
352,96,80432,1,8,0:0:0:0:
160,96,80582,1,0,0:0:0:0:
160,96,80657,1,0,0:0:0:0:
352,96,80732,1,8,0:0:0:0:
160,96,80882,1,0,0:0:0:0:
352,96,81032,1,8,0:0:0:0:
352,96,81107,1,8,0:0:0:0:
160,96,81182,1,0,0:0:0:0:
160,96,81257,1,0,0:0:0:0:
352,96,81332,1,8,0:0:0:0:
160,96,81482,1,0,0:0:0:0:
352,96,81632,1,8,0:0:0:0:
352,96,81707,1,8,0:0:0:0:
160,96,81782,1,0,0:0:0:0:
352,96,81932,1,8,0:0:0:0:
160,96,82082,1,0,0:0:0:0:
160,96,82157,1,0,0:0:0:0:
352,96,82232,1,8,0:0:0:0:
352,96,82307,1,8,0:0:0:0:
160,96,82382,1,0,0:0:0:0:
352,96,82532,1,8,0:0:0:0:
160,96,82682,1,0,0:0:0:0:
352,96,82832,1,8,0:0:0:0:
352,96,82982,1,8,0:0:0:0:
160,96,83057,1,0,0:0:0:0:
352,96,83132,1,8,0:0:0:0:
352,96,83282,1,8,0:0:0:0:
160,96,83357,1,0,0:0:0:0:
352,96,83432,1,8,0:0:0:0:
352,96,83507,1,8,0:0:0:0:
160,96,83582,1,0,0:0:0:0:
352,96,83732,1,8,0:0:0:0:
352,96,83807,1,8,0:0:0:0:
160,96,83882,1,0,0:0:0:0:
160,96,83957,1,0,0:0:0:0:
352,96,84032,1,8,0:0:0:0:
160,96,84182,1,0,0:0:0:0:
160,96,84257,1,0,0:0:0:0:
352,96,84332,1,8,0:0:0:0:
160,96,84482,1,0,0:0:0:0:
352,96,84632,1,8,0:0:0:0:
160,96,84707,1,0,0:0:0:0:
160,96,84782,1,0,0:0:0:0:
160,96,84857,1,0,0:0:0:0:
352,96,84932,1,8,0:0:0:0:
160,288,85082,1,4,0:0:0:0:
352,96,85232,1,8,0:0:0:0:
160,96,85382,1,0,0:0:0:0:
160,96,85457,1,0,0:0:0:0:
352,96,85532,1,8,0:0:0:0:
352,96,85607,1,8,0:0:0:0:
160,96,85682,1,0,0:0:0:0:
352,96,85832,1,8,0:0:0:0:
352,96,85907,1,8,0:0:0:0:
160,96,85982,1,0,0:0:0:0:
352,96,86132,1,8,0:0:0:0:
160,96,86282,1,0,0:0:0:0:
352,96,86432,1,8,0:0:0:0:
160,96,86582,1,0,0:0:0:0:
160,96,86657,1,0,0:0:0:0:
352,96,86732,1,8,0:0:0:0:
160,96,86882,1,0,0:0:0:0:
352,96,87032,1,8,0:0:0:0:
352,96,87182,1,8,0:0:0:0:
352,96,87257,1,8,0:0:0:0:
160,96,87332,1,0,0:0:0:0:
352,96,87482,1,8,0:0:0:0:
352,96,87557,1,8,0:0:0:0:
160,96,87632,1,0,0:0:0:0:
160,96,87707,1,0,0:0:0:0:
352,96,87782,1,8,0:0:0:0:
160,96,87857,1,0,0:0:0:0:
352,96,87932,1,8,0:0:0:0:
160,96,88007,1,0,0:0:0:0:
352,96,88082,1,8,0:0:0:0:
160,96,88157,1,0,0:0:0:0:
160,96,88232,1,0,0:0:0:0:
352,96,88307,1,8,0:0:0:0:
160,96,88382,1,0,0:0:0:0:
160,96,88457,1,0,0:0:0:0:
352,96,88532,1,8,0:0:0:0:
160,96,88607,1,0,0:0:0:0:
352,96,88682,1,8,0:0:0:0:
352,96,88757,1,8,0:0:0:0:
160,96,88832,1,0,0:0:0:0:
160,96,88907,1,0,0:0:0:0:
352,96,88982,1,8,0:0:0:0:
160,96,89057,1,0,0:0:0:0:
160,96,89132,1,0,0:0:0:0:
160,96,89207,1,0,0:0:0:0:
352,96,89282,1,8,0:0:0:0:
160,96,89357,1,0,0:0:0:0:
160,96,89432,1,0,0:0:0:0:
160,96,89507,1,0,0:0:0:0:
352,96,89582,1,8,0:0:0:0:
352,96,89882,1,8,0:0:0:0:
160,96,89957,1,0,0:0:0:0:
352,96,90032,1,8,0:0:0:0:
352,96,90107,1,8,0:0:0:0:
160,96,90182,1,0,0:0:0:0:
160,96,90257,1,0,0:0:0:0:
352,96,90332,1,8,0:0:0:0:
160,96,90407,1,0,0:0:0:0:
160,96,90482,1,0,0:0:0:0:
160,96,90557,1,0,0:0:0:0:
352,96,90632,1,8,0:0:0:0:
160,96,90707,1,0,0:0:0:0:
352,96,90782,1,8,0:0:0:0:
160,96,90857,1,0,0:0:0:0:
160,96,90932,1,0,0:0:0:0:
160,96,91007,1,0,0:0:0:0:
352,96,91082,1,8,0:0:0:0:
352,96,91157,1,8,0:0:0:0:
160,96,91232,1,0,0:0:0:0:
160,96,91307,1,0,0:0:0:0:
352,96,91382,1,8,0:0:0:0:
160,96,91457,1,0,0:0:0:0:
352,96,91532,1,8,0:0:0:0:
352,96,91607,1,8,0:0:0:0:
160,96,91682,1,0,0:0:0:0:
160,96,91757,1,0,0:0:0:0:
352,96,91832,1,8,0:0:0:0:
160,96,91907,1,0,0:0:0:0:
352,96,91982,1,8,0:0:0:0:
160,96,92057,1,0,0:0:0:0:
160,96,92132,1,0,0:0:0:0:
160,96,92207,1,0,0:0:0:0:
352,96,92282,1,8,0:0:0:0:
160,96,92432,1,0,0:0:0:0:
160,96,92507,1,0,0:0:0:0:
352,96,92582,1,8,0:0:0:0:
352,96,92732,1,8,0:0:0:0:
160,96,92882,1,0,0:0:0:0:
160,96,92957,1,0,0:0:0:0:
352,96,93032,1,8,0:0:0:0:
160,96,93107,1,0,0:0:0:0:
352,96,93182,1,8,0:0:0:0:
352,96,93257,1,8,0:0:0:0:
160,96,93332,1,0,0:0:0:0:
352,96,93482,1,8,0:0:0:0:
352,96,93557,1,8,0:0:0:0:
352,96,93632,1,8,0:0:0:0:
352,96,93707,1,8,0:0:0:0:
160,96,93782,1,0,0:0:0:0:
160,96,93857,1,0,0:0:0:0:
352,96,93932,1,8,0:0:0:0:
352,96,94007,1,8,0:0:0:0:
160,96,94082,1,0,0:0:0:0:
160,96,94157,1,0,0:0:0:0:
352,96,94232,1,8,0:0:0:0:
160,96,94307,1,0,0:0:0:0:
352,96,94382,1,8,0:0:0:0:
352,96,94457,1,8,0:0:0:0:
160,96,94532,1,0,0:0:0:0:
352,96,94682,1,8,0:0:0:0:
352,96,94757,1,8,0:0:0:0:
160,96,94832,1,0,0:0:0:0:
160,96,94907,1,0,0:0:0:0:
352,96,94982,1,8,0:0:0:0:
160,96,95057,1,0,0:0:0:0:
352,96,95132,1,8,0:0:0:0:
352,96,95207,1,8,0:0:0:0:
160,96,95282,1,0,0:0:0:0:
160,96,95357,1,0,0:0:0:0:
352,96,95432,1,8,0:0:0:0:
160,96,95507,1,0,0:0:0:0:
352,96,95582,1,8,0:0:0:0:
352,96,95657,1,8,0:0:0:0:
160,96,95732,1,0,0:0:0:0:
160,96,95807,1,0,0:0:0:0:
352,96,95882,1,8,0:0:0:0:
160,96,95957,1,0,0:0:0:0:
160,96,96032,1,0,0:0:0:0:
160,96,96107,1,0,0:0:0:0:
352,96,96182,1,8,0:0:0:0:
160,96,96257,1,0,0:0:0:0:
352,96,96332,1,8,0:0:0:0:
352,96,96407,1,8,0:0:0:0:
352,96,96482,1,8,0:0:0:0:
352,96,96557,1,8,0:0:0:0:
160,96,96632,1,0,0:0:0:0:
160,96,96707,1,0,0:0:0:0:
352,96,96782,1,8,0:0:0:0:
160,96,96857,1,0,0:0:0:0:
160,96,96932,1,0,0:0:0:0:
160,96,97007,1,0,0:0:0:0:
352,96,97082,1,8,0:0:0:0:
160,96,97157,1,0,0:0:0:0:
160,96,97232,1,0,0:0:0:0:
352,96,97307,1,8,0:0:0:0:
160,96,97382,1,0,0:0:0:0:
160,96,97457,1,0,0:0:0:0:
352,96,97532,1,8,0:0:0:0:
160,96,97607,1,0,0:0:0:0:
352,96,97682,1,8,0:0:0:0:
160,96,97757,1,0,0:0:0:0:
160,96,97832,1,0,0:0:0:0:
352,96,97907,1,8,0:0:0:0:
160,96,97982,1,0,0:0:0:0:
160,96,98057,1,0,0:0:0:0:
352,96,98132,1,8,0:0:0:0:
160,288,98282,1,4,0:0:0:0:
160,288,98432,1,4,0:0:0:0:
160,288,98582,1,4,0:0:0:0:
160,288,98732,1,4,0:0:0:0:
160,288,99032,1,4,0:0:0:0:
352,96,99332,1,8,0:0:0:0:
160,288,99482,1,4,0:0:0:0:
352,96,99632,1,8,0:0:0:0:
160,96,99782,1,0,0:0:0:0:
160,96,99857,1,0,0:0:0:0:
352,96,99932,1,8,0:0:0:0:
160,96,100082,1,0,0:0:0:0:
352,96,100232,1,8,0:0:0:0:
352,96,100307,1,8,0:0:0:0:
160,96,100382,1,0,0:0:0:0:
160,96,100457,1,0,0:0:0:0:
352,96,100532,1,8,0:0:0:0:
160,96,100682,1,0,0:0:0:0:
352,96,100832,1,8,0:0:0:0:
352,96,100907,1,8,0:0:0:0:
160,96,100982,1,0,0:0:0:0:
352,96,101132,1,8,0:0:0:0:
160,96,101282,1,0,0:0:0:0:
352,96,101432,1,8,0:0:0:0:
160,96,101507,1,0,0:0:0:0:
160,96,101582,1,0,0:0:0:0:
160,96,101657,1,0,0:0:0:0:
352,96,101732,1,8,0:0:0:0:
160,96,101882,1,0,0:0:0:0:
352,96,102032,1,8,0:0:0:0:
352,96,102107,1,8,0:0:0:0:
160,96,102182,1,0,0:0:0:0:
160,96,102257,1,0,0:0:0:0:
352,96,102332,1,8,0:0:0:0:
160,96,102482,1,0,0:0:0:0:
352,96,102632,1,8,0:0:0:0:
352,96,102707,1,8,0:0:0:0:
160,96,102782,1,0,0:0:0:0:
352,96,102932,1,8,0:0:0:0:
352,96,103007,1,8,0:0:0:0:
160,96,103082,1,0,0:0:0:0:
160,96,103157,1,0,0:0:0:0:
160,96,103232,1,0,0:0:0:0:
352,96,103382,1,8,0:0:0:0:
352,96,103532,1,8,0:0:0:0:
160,96,103682,1,0,0:0:0:0:
160,96,103757,1,0,0:0:0:0:
160,96,103832,1,0,0:0:0:0:
352,96,103982,1,8,0:0:0:0:
352,96,104132,1,8,0:0:0:0:
160,288,104282,1,4,0:0:0:0:
352,96,104432,1,8,0:0:0:0:
160,96,104582,1,0,0:0:0:0:
160,96,104657,1,0,0:0:0:0:
352,96,104732,1,8,0:0:0:0:
160,96,104882,1,0,0:0:0:0:
352,96,105032,1,8,0:0:0:0:
352,96,105107,1,8,0:0:0:0:
160,96,105182,1,0,0:0:0:0:
160,96,105257,1,0,0:0:0:0:
352,96,105332,1,8,0:0:0:0:
352,96,105482,1,8,0:0:0:0:
160,96,105557,1,0,0:0:0:0:
352,96,105632,1,8,0:0:0:0:
160,96,105782,1,0,0:0:0:0:
160,96,105857,1,0,0:0:0:0:
352,96,105932,1,8,0:0:0:0:
160,96,106082,1,0,0:0:0:0:
352,96,106232,1,8,0:0:0:0:
160,96,106307,1,0,0:0:0:0:
160,96,106382,1,0,0:0:0:0:
160,96,106457,1,0,0:0:0:0:
352,96,106532,1,8,0:0:0:0:
160,96,106682,1,0,0:0:0:0:
352,96,106832,1,8,0:0:0:0:
352,96,106907,1,8,0:0:0:0:
160,96,106982,1,0,0:0:0:0:
352,96,107132,1,8,0:0:0:0:
160,96,107282,1,0,0:0:0:0:
352,96,107432,1,8,0:0:0:0:
160,96,107582,1,0,0:0:0:0:
160,96,107657,1,0,0:0:0:0:
352,96,107732,1,8,0:0:0:0:
352,96,107882,1,8,0:0:0:0:
160,96,107957,1,0,0:0:0:0:
160,96,108032,1,0,0:0:0:0:
160,96,108107,1,0,0:0:0:0:
352,96,108182,1,8,0:0:0:0:
352,96,108257,1,8,0:0:0:0:
160,96,108332,1,0,0:0:0:0:
160,96,108407,1,0,0:0:0:0:
352,96,108482,1,8,0:0:0:0:
160,96,108557,1,0,0:0:0:0:
160,96,108632,1,0,0:0:0:0:
160,96,108707,1,0,0:0:0:0:
352,96,108782,1,8,0:0:0:0:
352,96,108857,1,8,0:0:0:0:
352,96,108932,1,8,0:0:0:0:
160,96,109007,1,0,0:0:0:0:
352,96,109082,1,8,0:0:0:0:
352,96,109232,1,8,0:0:0:0:
160,96,109382,1,0,0:0:0:0:
160,96,109457,1,0,0:0:0:0:
352,96,109532,1,8,0:0:0:0:
160,96,109682,1,0,0:0:0:0:
160,96,109757,1,0,0:0:0:0:
352,96,109832,1,8,0:0:0:0:
352,96,109907,1,8,0:0:0:0:
160,96,109982,1,0,0:0:0:0:
160,96,110057,1,0,0:0:0:0:
352,96,110132,1,8,0:0:0:0:
160,96,110282,1,0,0:0:0:0:
352,96,110432,1,8,0:0:0:0:
160,96,110582,1,0,0:0:0:0:
160,96,110657,1,0,0:0:0:0:
352,96,110732,1,8,0:0:0:0:
160,96,110882,1,0,0:0:0:0:
352,96,111032,1,8,0:0:0:0:
352,96,111182,1,8,0:0:0:0:
352,96,111257,1,8,0:0:0:0:
160,96,111332,1,0,0:0:0:0:
352,96,111482,1,8,0:0:0:0:
160,96,111632,1,0,0:0:0:0:
160,96,111782,1,0,0:0:0:0:
160,96,111857,1,0,0:0:0:0:
352,96,111932,1,8,0:0:0:0:
160,96,112082,1,0,0:0:0:0:
352,96,112232,1,8,0:0:0:0:
160,96,112307,1,0,0:0:0:0:
352,96,112382,1,8,0:0:0:0:
352,96,112457,1,8,0:0:0:0:
160,96,112532,1,0,0:0:0:0:
160,96,112682,1,0,0:0:0:0:
352,96,112832,1,8,0:0:0:0:
160,96,112982,1,0,0:0:0:0:
160,96,113057,1,0,0:0:0:0:
352,96,113132,1,8,0:0:0:0:
160,96,113207,1,0,0:0:0:0:
160,96,113282,1,0,0:0:0:0:
352,96,113432,1,8,0:0:0:0:
352,96,113507,1,8,0:0:0:0:
160,96,113582,1,0,0:0:0:0:
160,96,113657,1,0,0:0:0:0:
352,96,113732,1,8,0:0:0:0:
352,96,113882,1,8,0:0:0:0:
160,96,113957,1,0,0:0:0:0:
352,96,114032,1,8,0:0:0:0:
160,96,114107,1,0,0:0:0:0:
352,96,114182,1,8,0:0:0:0:
160,96,114257,1,0,0:0:0:0:
352,96,114332,1,8,0:0:0:0:
160,96,114407,1,0,0:0:0:0:
352,96,114482,1,8,0:0:0:0:
352,96,114557,1,8,0:0:0:0:
160,96,114632,1,0,0:0:0:0:
160,96,114707,1,0,0:0:0:0:
352,96,114782,1,8,0:0:0:0:
352,96,114857,1,8,0:0:0:0:
160,96,114932,1,0,0:0:0:0:
160,96,115007,1,0,0:0:0:0:
352,96,115082,1,8,0:0:0:0:
160,96,115157,1,0,0:0:0:0:
352,96,115232,1,8,0:0:0:0:
160,96,115307,1,0,0:0:0:0:
352,96,115382,1,8,0:0:0:0:
160,96,115457,1,0,0:0:0:0:
352,96,115532,1,8,0:0:0:0:
160,96,115607,1,0,0:0:0:0:
352,96,115682,1,8,0:0:0:0:
160,96,115757,1,0,0:0:0:0:
352,96,115832,1,8,0:0:0:0:
352,96,115907,1,8,0:0:0:0:
160,96,115982,1,0,0:0:0:0:
160,96,116057,1,0,0:0:0:0:
352,96,116132,1,8,0:0:0:0:
160,96,116207,1,0,0:0:0:0:
352,96,116282,1,8,0:0:0:0:
160,96,116357,1,0,0:0:0:0:
160,96,116432,1,0,0:0:0:0:
160,96,116507,1,0,0:0:0:0:
352,96,116582,1,8,0:0:0:0:
160,96,116657,1,0,0:0:0:0:
352,96,116732,1,8,0:0:0:0:
352,96,116807,1,8,0:0:0:0:
160,96,116882,1,0,0:0:0:0:
160,96,116957,1,0,0:0:0:0:
352,96,117032,1,8,0:0:0:0:
160,96,117107,1,0,0:0:0:0:
352,96,117182,1,8,0:0:0:0:
352,96,117257,1,8,0:0:0:0:
160,96,117332,1,0,0:0:0:0:
160,96,117407,1,0,0:0:0:0:
352,96,117482,1,8,0:0:0:0:
352,96,117557,1,8,0:0:0:0:
352,96,117632,1,8,0:0:0:0:
352,96,117707,1,8,0:0:0:0:
160,96,117782,1,0,0:0:0:0:
160,96,117857,1,0,0:0:0:0:
352,96,117932,1,8,0:0:0:0:
352,96,118007,1,8,0:0:0:0:
352,96,118082,1,8,0:0:0:0:
352,96,118157,1,8,0:0:0:0:
160,96,118232,1,0,0:0:0:0:
160,96,118307,1,0,0:0:0:0:
352,96,118382,1,8,0:0:0:0:
352,96,118457,1,8,0:0:0:0:
160,96,118532,1,0,0:0:0:0:
160,288,118682,1,4,0:0:0:0:
352,96,118832,1,8,0:0:0:0:
160,96,118982,1,0,0:0:0:0:
160,96,119057,1,0,0:0:0:0:
352,96,119132,1,8,0:0:0:0:
160,96,119282,1,0,0:0:0:0:
352,96,119432,1,8,0:0:0:0:
160,96,119507,1,0,0:0:0:0:
160,96,119582,1,0,0:0:0:0:
160,96,119657,1,0,0:0:0:0:
352,96,119732,1,8,0:0:0:0:
352,96,119807,1,8,0:0:0:0:
160,96,119882,1,0,0:0:0:0:
352,96,120032,1,8,0:0:0:0:
352,96,120107,1,8,0:0:0:0:
160,96,120182,1,0,0:0:0:0:
352,96,120332,1,8,0:0:0:0:
160,96,120482,1,0,0:0:0:0:
352,96,120632,1,8,0:0:0:0:
160,96,120782,1,0,0:0:0:0:
160,96,120857,1,0,0:0:0:0:
352,96,120932,1,8,0:0:0:0:
352,96,121007,1,8,0:0:0:0:
160,96,121082,1,0,0:0:0:0:
352,96,121232,1,8,0:0:0:0:
352,96,121382,1,8,0:0:0:0:
160,96,121457,1,0,0:0:0:0:
352,96,121532,1,8,0:0:0:0:
160,96,121682,1,0,0:0:0:0:
352,96,121832,1,8,0:0:0:0:
160,96,121982,1,0,0:0:0:0:
160,96,122057,1,0,0:0:0:0:
352,96,122132,1,8,0:0:0:0:
160,96,122282,1,0,0:0:0:0:
160,96,122357,1,0,0:0:0:0:
352,96,122432,1,8,0:0:0:0:
160,96,122507,1,0,0:0:0:0:
160,96,122582,1,0,0:0:0:0:
160,96,122657,1,0,0:0:0:0:
352,96,122732,1,8,0:0:0:0:
352,96,122807,1,8,0:0:0:0:
160,96,122882,1,0,0:0:0:0:
160,96,122957,1,0,0:0:0:0:
352,96,123032,1,8,0:0:0:0:
160,96,123107,1,0,0:0:0:0:
352,96,123182,1,8,0:0:0:0:
352,96,123257,1,8,0:0:0:0:
160,96,123332,1,0,0:0:0:0:
160,96,123407,1,0,0:0:0:0:
160,96,123482,1,0,0:0:0:0:
352,96,123632,1,8,0:0:0:0:
160,96,123782,1,0,0:0:0:0:
160,96,123857,1,0,0:0:0:0:
352,96,123932,1,8,0:0:0:0:
160,96,124082,1,0,0:0:0:0:
352,96,124232,1,8,0:0:0:0:
352,96,124307,1,8,0:0:0:0:
160,96,124382,1,0,0:0:0:0:
160,96,124457,1,0,0:0:0:0:
352,96,124532,1,8,0:0:0:0:
160,96,124682,1,0,0:0:0:0:
160,96,124757,1,0,0:0:0:0:
352,96,124832,1,8,0:0:0:0:
352,96,124907,1,8,0:0:0:0:
160,96,124982,1,0,0:0:0:0:
160,96,125057,1,0,0:0:0:0:
352,96,125132,1,8,0:0:0:0:
160,96,125282,1,0,0:0:0:0:
352,96,125432,1,8,0:0:0:0:
160,96,125582,1,0,0:0:0:0:
160,96,125657,1,0,0:0:0:0:
352,96,125732,1,8,0:0:0:0:
352,96,125882,1,8,0:0:0:0:
352,96,125957,1,8,0:0:0:0:
160,96,126032,1,0,0:0:0:0:
160,96,126107,1,0,0:0:0:0:
352,96,126182,1,8,0:0:0:0:
160,96,126257,1,0,0:0:0:0:
352,96,126332,1,8,0:0:0:0:
352,96,126407,1,8,0:0:0:0:
160,96,126482,1,0,0:0:0:0:
160,96,126557,1,0,0:0:0:0:
352,96,126632,1,8,0:0:0:0:
160,96,126707,1,0,0:0:0:0:
352,96,126782,1,8,0:0:0:0:
352,96,126857,1,8,0:0:0:0:
160,96,126932,1,0,0:0:0:0:
352,96,127082,1,8,0:0:0:0:
352,96,127157,1,8,0:0:0:0:
352,96,127232,1,8,0:0:0:0:
160,96,127307,1,0,0:0:0:0:
352,96,127382,1,8,0:0:0:0:
352,96,127457,1,8,0:0:0:0:
352,96,127532,1,8,0:0:0:0:
160,96,127607,1,0,0:0:0:0:
352,96,127682,1,8,0:0:0:0:
352,96,127757,1,8,0:0:0:0:
160,96,127832,1,0,0:0:0:0:
160,96,127907,1,0,0:0:0:0:
352,96,127982,1,8,0:0:0:0:
352,96,128057,1,8,0:0:0:0:
160,96,128132,1,0,0:0:0:0:
352,96,128207,1,8,0:0:0:0:
160,96,128282,1,0,0:0:0:0:
160,96,128357,1,0,0:0:0:0:
352,96,128432,1,8,0:0:0:0:
160,96,128507,1,0,0:0:0:0:
160,96,128582,1,0,0:0:0:0:
160,96,128657,1,0,0:0:0:0:
352,96,128732,1,8,0:0:0:0:
352,96,128807,1,8,0:0:0:0:
160,96,128882,1,0,0:0:0:0:
160,96,128957,1,0,0:0:0:0:
352,96,129032,1,8,0:0:0:0:
160,96,129107,1,0,0:0:0:0:
160,96,129182,1,0,0:0:0:0:
160,96,129257,1,0,0:0:0:0:
352,96,129332,1,8,0:0:0:0:
160,96,129407,1,0,0:0:0:0:
352,96,129482,1,8,0:0:0:0:
160,96,129557,1,0,0:0:0:0:
160,96,129632,1,0,0:0:0:0:
160,96,129707,1,0,0:0:0:0:
352,96,129782,1,8,0:0:0:0:
160,96,129857,1,0,0:0:0:0:
352,96,129932,1,8,0:0:0:0:
352,96,130007,1,8,0:0:0:0:
160,96,130082,1,0,0:0:0:0:
160,96,130157,1,0,0:0:0:0:
352,96,130232,1,8,0:0:0:0:
160,96,130307,1,0,0:0:0:0:
160,96,130382,1,0,0:0:0:0:
160,96,130457,1,0,0:0:0:0:
352,96,130532,1,8,0:0:0:0:
160,96,130607,1,0,0:0:0:0:
352,96,130682,1,8,0:0:0:0:
160,96,130757,1,0,0:0:0:0:
160,96,130832,1,0,0:0:0:0:
160,96,130907,1,0,0:0:0:0:
352,96,130982,1,8,0:0:0:0:
160,96,131057,1,0,0:0:0:0:
352,96,131132,1,8,0:0:0:0:
352,96,131207,1,8,0:0:0:0:
160,96,131282,1,0,0:0:0:0:
160,96,131357,1,0,0:0:0:0:
352,96,131432,1,8,0:0:0:0:
160,96,131507,1,0,0:0:0:0:
160,96,131582,1,0,0:0:0:0:
160,96,131657,1,0,0:0:0:0:
352,96,131732,1,8,0:0:0:0:
160,96,131807,1,0,0:0:0:0:
352,96,131882,1,8,0:0:0:0:
352,96,131957,1,8,0:0:0:0:
352,96,132032,1,8,0:0:0:0:
352,96,132107,1,8,0:0:0:0:
160,96,132182,1,0,0:0:0:0:
160,96,132257,1,0,0:0:0:0:
352,96,132332,1,8,0:0:0:0:
352,96,132407,1,8,0:0:0:0:
352,96,132482,1,8,0:0:0:0:
352,96,132557,1,8,0:0:0:0:
160,96,132632,1,0,0:0:0:0:
160,96,132707,1,0,0:0:0:0:
352,96,132782,1,8,0:0:0:0:
160,96,132857,1,0,0:0:0:0:
352,96,132932,1,8,0:0:0:0:
352,96,133007,1,8,0:0:0:0:
160,96,133082,1,0,0:0:0:0:
352,96,133232,1,8,0:0:0:0:
160,96,133382,1,0,0:0:0:0:
160,96,133457,1,0,0:0:0:0:
352,96,133532,1,8,0:0:0:0:
352,96,133607,1,8,0:0:0:0:
160,96,133682,1,0,0:0:0:0:
352,96,133832,1,8,0:0:0:0:
352,96,133907,1,8,0:0:0:0:
160,96,133982,1,0,0:0:0:0:
160,96,134057,1,0,0:0:0:0:
352,96,134132,1,8,0:0:0:0:
160,96,134282,1,0,0:0:0:0:
352,96,134432,1,8,0:0:0:0:
160,96,134582,1,0,0:0:0:0:
160,96,134657,1,0,0:0:0:0:
352,96,134732,1,8,0:0:0:0:
160,96,134882,1,0,0:0:0:0:
352,96,135032,1,8,0:0:0:0:
352,96,135107,1,8,0:0:0:0:
160,96,135182,1,0,0:0:0:0:
160,96,135257,1,0,0:0:0:0:
352,96,135332,1,8,0:0:0:0:
352,96,135482,1,8,0:0:0:0:
160,96,135557,1,0,0:0:0:0:
160,96,135632,1,0,0:0:0:0:
160,96,135707,1,0,0:0:0:0:
352,96,135782,1,8,0:0:0:0:
160,96,135857,1,0,0:0:0:0:
352,96,135932,1,8,0:0:0:0:
160,96,136082,1,0,0:0:0:0:
352,96,136232,1,8,0:0:0:0:
352,96,136307,1,8,0:0:0:0:
160,96,136382,1,0,0:0:0:0:
160,96,136457,1,0,0:0:0:0:
352,96,136532,1,8,0:0:0:0:
160,96,136607,1,0,0:0:0:0:
352,96,136682,1,8,0:0:0:0:
160,96,136832,1,0,0:0:0:0:
352,96,136982,1,8,0:0:0:0:
160,96,137057,1,0,0:0:0:0:
352,96,137132,1,8,0:0:0:0:
160,96,137282,1,0,0:0:0:0:
352,96,137432,1,8,0:0:0:0:
352,96,137507,1,8,0:0:0:0:
160,96,137582,1,0,0:0:0:0:
352,96,137732,1,8,0:0:0:0:
160,96,137807,1,0,0:0:0:0:
352,96,137882,1,8,0:0:0:0:
352,96,137957,1,8,0:0:0:0:
160,96,138032,1,0,0:0:0:0:
160,96,138107,1,0,0:0:0:0:
352,96,138182,1,8,0:0:0:0:
160,96,138257,1,0,0:0:0:0:
352,96,138332,1,8,0:0:0:0:
352,96,138407,1,8,0:0:0:0:
160,96,138482,1,0,0:0:0:0:
160,96,138557,1,0,0:0:0:0:
352,96,138632,1,8,0:0:0:0:
160,96,138707,1,0,0:0:0:0:
352,96,138782,1,8,0:0:0:0:
352,96,138857,1,8,0:0:0:0:
160,96,138932,1,0,0:0:0:0:
160,96,139007,1,0,0:0:0:0:
352,96,139082,1,8,0:0:0:0:
160,96,139157,1,0,0:0:0:0:
160,96,139232,1,0,0:0:0:0:
160,96,139307,1,0,0:0:0:0:
352,96,139382,1,8,0:0:0:0:
352,96,139457,1,8,0:0:0:0:
160,96,139532,1,0,0:0:0:0:
160,96,139607,1,0,0:0:0:0:
352,96,139682,1,8,0:0:0:0:
160,96,139757,1,0,0:0:0:0:
160,96,139832,1,0,0:0:0:0:
160,96,139907,1,0,0:0:0:0:
352,96,139982,1,8,0:0:0:0:
352,96,140057,1,8,0:0:0:0:
160,96,140132,1,0,0:0:0:0:
160,96,140207,1,0,0:0:0:0:
352,96,140282,1,8,0:0:0:0:
352,96,142682,1,8,0:0:0:0:
160,96,142757,1,0,0:0:0:0:
160,96,142832,1,0,0:0:0:0:
160,96,142907,1,0,0:0:0:0:
352,96,142982,1,8,0:0:0:0:
352,96,143057,1,8,0:0:0:0:
160,96,143132,1,0,0:0:0:0:
160,96,143207,1,0,0:0:0:0:
352,96,143282,1,8,0:0:0:0:
160,96,143357,1,0,0:0:0:0:
160,96,143432,1,0,0:0:0:0:
160,96,143507,1,0,0:0:0:0:
352,96,143582,1,8,0:0:0:0:
352,96,143657,1,8,0:0:0:0:
160,96,143732,1,0,0:0:0:0:
160,96,143807,1,0,0:0:0:0:
352,96,143882,1,8,0:0:0:0:
352,96,143957,1,8,0:0:0:0:
352,96,144032,1,8,0:0:0:0:
160,96,144107,1,0,0:0:0:0:
352,96,144182,1,8,0:0:0:0:
352,96,144257,1,8,0:0:0:0:
160,96,144332,1,0,0:0:0:0:
160,96,144407,1,0,0:0:0:0:
352,96,144482,1,8,0:0:0:0:
160,96,144557,1,0,0:0:0:0:
160,96,144632,1,0,0:0:0:0:
160,96,144707,1,0,0:0:0:0:
352,96,144782,1,8,0:0:0:0:
352,96,144857,1,8,0:0:0:0:
160,96,144932,1,0,0:0:0:0:
160,96,145007,1,0,0:0:0:0:
352,96,145082,1,8,0:0:0:0:
160,96,145157,1,0,0:0:0:0:
160,96,145232,1,0,0:0:0:0:
160,96,145307,1,0,0:0:0:0:
160,96,145382,1,0,0:0:0:0:
160,96,145457,1,0,0:0:0:0:
352,96,145532,1,8,0:0:0:0:
352,96,145607,1,8,0:0:0:0:
160,96,145682,1,0,0:0:0:0:
160,96,145757,1,0,0:0:0:0:
160,96,145832,1,0,0:0:0:0:
160,96,145907,1,0,0:0:0:0:
352,96,145982,1,8,0:0:0:0:
160,96,146057,1,0,0:0:0:0:
160,96,146132,1,0,0:0:0:0:
160,96,146207,1,0,0:0:0:0:
352,96,146282,1,8,0:0:0:0:
352,96,146357,1,8,0:0:0:0:
352,96,146432,1,8,0:0:0:0:
352,96,146507,1,8,0:0:0:0:
160,96,146582,1,0,0:0:0:0:
160,96,146657,1,0,0:0:0:0:
352,96,146732,1,8,0:0:0:0:
352,96,146807,1,8,0:0:0:0:
160,96,146882,1,0,0:0:0:0:
160,96,146957,1,0,0:0:0:0:
352,96,147032,1,8,0:0:0:0:
352,96,147107,1,8,0:0:0:0:
352,96,147182,1,8,0:0:0:0:
352,96,147257,1,8,0:0:0:0:
160,96,147332,1,0,0:0:0:0:
160,96,147407,1,0,0:0:0:0:
352,96,147482,1,8,0:0:0:0:
352,96,149882,1,8,0:0:0:0:
160,96,149957,1,0,0:0:0:0:
160,96,150032,1,0,0:0:0:0:
160,96,150107,1,0,0:0:0:0:
352,96,150182,1,8,0:0:0:0:
352,96,150257,1,8,0:0:0:0:
160,96,150332,1,0,0:0:0:0:
160,96,150407,1,0,0:0:0:0:
352,96,150482,1,8,0:0:0:0:
160,96,150557,1,0,0:0:0:0:
160,96,150632,1,0,0:0:0:0:
160,96,150707,1,0,0:0:0:0:
352,96,150782,1,8,0:0:0:0:
352,96,150857,1,8,0:0:0:0:
160,96,150932,1,0,0:0:0:0:
160,288,151082,1,4,0:0:0:0:
352,96,151382,1,8,0:0:0:0:
352,96,151419,1,8,0:0:0:0:
352,288,151682,1,12,0:0:0:0:
352,96,151982,1,8,0:0:0:0:
352,96,152019,1,8,0:0:0:0:
160,288,152282,1,4,0:0:0:0:
160,288,152432,1,4,0:0:0:0:
352,288,152732,1,12,0:0:0:0:
32,192,152882,2,4,L|252:192,1,218.75
160,96,153482,1,0,0:0:0:0:
352,96,153632,1,8,0:0:0:0:
352,96,153707,1,8,0:0:0:0:
160,96,153782,1,0,0:0:0:0:
352,96,153932,1,8,0:0:0:0:
160,96,154082,1,0,0:0:0:0:
352,96,154232,1,8,0:0:0:0:
352,96,154307,1,8,0:0:0:0:
160,96,154382,1,0,0:0:0:0:
160,96,154457,1,0,0:0:0:0:
352,96,154532,1,8,0:0:0:0:
160,96,154682,1,0,0:0:0:0:
352,96,154832,1,8,0:0:0:0:
160,96,154982,1,0,0:0:0:0:
160,96,155057,1,0,0:0:0:0:
352,96,155132,1,8,0:0:0:0:
160,96,155282,1,0,0:0:0:0:
160,96,155357,1,0,0:0:0:0:
352,96,155432,1,8,0:0:0:0:
160,96,155507,1,0,0:0:0:0:
352,96,155582,1,8,0:0:0:0:
352,96,155732,1,8,0:0:0:0:
352,96,155807,1,8,0:0:0:0:
160,96,155882,1,0,0:0:0:0:
352,96,156032,1,8,0:0:0:0:
160,96,156182,1,0,0:0:0:0:
160,96,156257,1,0,0:0:0:0:
352,96,156332,1,8,0:0:0:0:
160,96,156482,1,0,0:0:0:0:
352,96,156632,1,8,0:0:0:0:
352,96,156707,1,8,0:0:0:0:
160,96,156782,1,0,0:0:0:0:
160,96,156857,1,0,0:0:0:0:
352,96,156932,1,8,0:0:0:0:
352,96,157082,1,8,0:0:0:0:
160,96,157157,1,0,0:0:0:0:
352,96,157232,1,8,0:0:0:0:
160,96,157382,1,0,0:0:0:0:
160,96,157457,1,0,0:0:0:0:
352,96,157532,1,8,0:0:0:0:
352,96,157682,1,8,0:0:0:0:
352,96,157757,1,8,0:0:0:0:
160,96,157832,1,0,0:0:0:0:
160,96,157907,1,0,0:0:0:0:
352,96,157982,1,8,0:0:0:0:
160,96,158057,1,0,0:0:0:0:
352,96,158132,1,8,0:0:0:0:
160,96,158207,1,0,0:0:0:0:
352,96,158282,1,8,0:0:0:0:
352,96,158357,1,8,0:0:0:0:
160,96,158432,1,0,0:0:0:0:
160,96,158507,1,0,0:0:0:0:
352,96,158582,1,8,0:0:0:0:
352,96,158657,1,8,0:0:0:0:
352,96,158732,1,8,0:0:0:0:
160,96,158807,1,0,0:0:0:0:
352,96,158882,1,8,0:0:0:0:
352,96,158957,1,8,0:0:0:0:
160,96,159032,1,0,0:0:0:0:
160,96,159107,1,0,0:0:0:0:
352,96,159182,1,8,0:0:0:0:
352,96,159257,1,8,0:0:0:0:
352,96,159332,1,8,0:0:0:0:
160,96,159407,1,0,0:0:0:0:
352,96,159482,1,8,0:0:0:0:
352,96,159557,1,8,0:0:0:0:
160,96,159632,1,0,0:0:0:0:
160,96,159707,1,0,0:0:0:0:
352,96,159782,1,8,0:0:0:0:
352,96,159857,1,8,0:0:0:0:
352,96,159932,1,8,0:0:0:0:
160,96,160007,1,0,0:0:0:0:
352,96,160082,1,8,0:0:0:0:
352,96,160157,1,8,0:0:0:0:
160,96,160232,1,0,0:0:0:0:
160,96,160307,1,0,0:0:0:0:
352,96,160382,1,8,0:0:0:0:
352,96,160457,1,8,0:0:0:0:
352,96,160532,1,8,0:0:0:0:
160,96,160607,1,0,0:0:0:0:
352,96,160682,1,8,0:0:0:0:
352,96,160832,1,8,0:0:0:0:
160,96,160982,1,0,0:0:0:0:
160,96,161057,1,0,0:0:0:0:
352,96,161132,1,8,0:0:0:0:
160,96,161282,1,0,0:0:0:0:
160,96,161357,1,0,0:0:0:0:
352,96,161432,1,8,0:0:0:0:
352,96,161582,1,8,0:0:0:0:
160,96,161732,1,0,0:0:0:0:
352,96,161882,1,8,0:0:0:0:
160,96,161957,1,0,0:0:0:0:
160,96,162032,1,0,0:0:0:0:
160,96,162107,1,0,0:0:0:0:
352,96,162182,1,8,0:0:0:0:
160,96,162257,1,0,0:0:0:0:
160,96,162332,1,0,0:0:0:0:
160,96,162407,1,0,0:0:0:0:
352,96,162482,1,8,0:0:0:0:
352,96,162557,1,8,0:0:0:0:
352,96,162632,1,8,0:0:0:0:
352,96,162707,1,8,0:0:0:0:
160,96,162782,1,0,0:0:0:0:
160,96,162857,1,0,0:0:0:0:
160,96,162932,1,0,0:0:0:0:
160,96,163007,1,0,0:0:0:0:
352,96,163082,1,8,0:0:0:0:
160,96,163157,1,0,0:0:0:0:
352,96,163232,1,8,0:0:0:0:
160,96,163307,1,0,0:0:0:0:
160,96,163382,1,0,0:0:0:0:
160,96,163457,1,0,0:0:0:0:
352,96,163532,1,8,0:0:0:0:
160,96,163607,1,0,0:0:0:0:
352,96,163682,1,8,0:0:0:0:
160,96,163757,1,0,0:0:0:0:
352,96,163832,1,8,0:0:0:0:
352,96,163907,1,8,0:0:0:0:
160,96,163982,1,0,0:0:0:0:
160,96,164057,1,0,0:0:0:0:
352,96,164132,1,8,0:0:0:0:
352,96,164207,1,8,0:0:0:0:
352,96,164282,1,8,0:0:0:0:
160,96,164357,1,0,0:0:0:0:
352,96,164432,1,8,0:0:0:0:
160,96,164507,1,0,0:0:0:0:
160,96,164582,1,0,0:0:0:0:
160,96,164657,1,0,0:0:0:0:
352,96,164732,1,8,0:0:0:0:
160,96,164807,1,0,0:0:0:0:
352,96,164882,1,8,0:0:0:0:
160,96,164957,1,0,0:0:0:0:
352,96,165032,1,8,0:0:0:0:
352,96,165107,1,8,0:0:0:0:
160,96,165182,1,0,0:0:0:0:
352,96,165257,1,8,0:0:0:0:
352,96,165332,1,8,0:0:0:0:
160,96,165407,1,0,0:0:0:0:
352,96,165482,1,8,0:0:0:0:
160,96,165557,1,0,0:0:0:0:
352,96,165632,1,8,0:0:0:0:
160,96,165707,1,0,0:0:0:0:
160,96,165782,1,0,0:0:0:0:
160,96,165857,1,0,0:0:0:0:
352,96,165932,1,8,0:0:0:0:
160,96,166007,1,0,0:0:0:0:
352,96,166082,1,8,0:0:0:0:
160,96,166157,1,0,0:0:0:0:
352,96,166232,1,8,0:0:0:0:
352,96,166307,1,8,0:0:0:0:
160,96,166382,1,0,0:0:0:0:
160,96,166457,1,0,0:0:0:0:
352,96,166532,1,8,0:0:0:0:
160,96,166607,1,0,0:0:0:0:
160,96,166682,1,0,0:0:0:0:
160,96,166757,1,0,0:0:0:0:
352,96,166832,1,8,0:0:0:0:
160,96,166907,1,0,0:0:0:0:
352,96,166982,1,8,0:0:0:0:
352,96,167057,1,8,0:0:0:0:
160,96,167132,1,0,0:0:0:0:
160,96,167207,1,0,0:0:0:0:
352,96,167282,1,8,0:0:0:0:
352,96,167357,1,8,0:0:0:0:
160,96,167432,1,0,0:0:0:0:
352,96,167507,1,8,0:0:0:0:
160,96,167582,1,0,0:0:0:0:
160,96,167657,1,0,0:0:0:0:
352,96,167732,1,8,0:0:0:0:
352,96,167807,1,8,0:0:0:0:
160,96,167882,1,0,0:0:0:0:
160,96,167957,1,0,0:0:0:0:
352,96,168032,1,8,0:0:0:0:
160,96,168107,1,0,0:0:0:0:
352,96,168182,1,8,0:0:0:0:
160,96,168257,1,0,0:0:0:0:
352,96,168332,1,8,0:0:0:0:
352,96,168407,1,8,0:0:0:0:
160,96,168482,1,0,0:0:0:0:
160,96,168557,1,0,0:0:0:0:
352,96,168632,1,8,0:0:0:0:
160,96,168707,1,0,0:0:0:0:
160,96,168782,1,0,0:0:0:0:
160,96,168857,1,0,0:0:0:0:
352,96,168932,1,8,0:0:0:0:
352,96,169007,1,8,0:0:0:0:
160,96,169082,1,0,0:0:0:0:
160,96,169157,1,0,0:0:0:0:
352,96,169232,1,8,0:0:0:0:
160,96,169307,1,0,0:0:0:0:
352,96,169382,1,8,0:0:0:0:
352,96,169457,1,8,0:0:0:0:
352,96,169532,1,8,0:0:0:0:
160,96,169607,1,0,0:0:0:0:
352,96,169682,1,8,0:0:0:0:
352,96,169757,1,8,0:0:0:0:
160,96,169832,1,0,0:0:0:0:
160,96,169907,1,0,0:0:0:0:
352,96,169982,1,8,0:0:0:0:
160,96,170057,1,0,0:0:0:0:
352,96,170132,1,8,0:0:0:0:
352,96,170207,1,8,0:0:0:0:
160,96,170282,1,0,0:0:0:0:
160,96,170432,1,0,0:0:0:0:
160,96,170507,1,0,0:0:0:0:
352,96,170582,1,8,0:0:0:0:
352,96,170732,1,8,0:0:0:0:
160,96,170882,1,0,0:0:0:0:
352,96,171032,1,8,0:0:0:0:
160,96,171182,1,0,0:0:0:0:
160,96,171257,1,0,0:0:0:0:
352,96,171332,1,8,0:0:0:0:
352,96,171482,1,8,0:0:0:0:
352,96,171557,1,8,0:0:0:0:
352,96,171632,1,8,0:0:0:0:
352,96,171707,1,8,0:0:0:0:
160,96,171782,1,0,0:0:0:0:
160,96,171857,1,0,0:0:0:0:
160,96,171932,1,0,0:0:0:0:
160,96,172007,1,0,0:0:0:0:
352,96,172082,1,8,0:0:0:0:
352,96,172157,1,8,0:0:0:0:
352,96,172232,1,8,0:0:0:0:
352,96,172307,1,8,0:0:0:0:
160,96,172382,1,0,0:0:0:0:
160,96,172457,1,0,0:0:0:0:
160,96,172532,1,0,0:0:0:0:
352,288,172682,1,12,0:0:0:0:
352,288,172982,1,12,0:0:0:0:
352,96,173282,1,8,0:0:0:0:
160,288,173432,1,4,0:0:0:0:
160,288,173732,1,4,0:0:0:0:
352,288,173882,1,12,0:0:0:0:
352,288,174182,1,12,0:0:0:0:
352,96,174482,1,8,0:0:0:0:
160,96,174557,1,0,0:0:0:0:
352,96,174632,1,8,0:0:0:0:
352,96,174707,1,8,0:0:0:0:
160,96,174782,1,0,0:0:0:0:
352,96,175082,1,8,0:0:0:0:
352,96,175157,1,8,0:0:0:0:
352,96,175232,1,8,0:0:0:0:
160,96,175307,1,0,0:0:0:0:
352,96,175382,1,8,0:0:0:0:
352,96,175457,1,8,0:0:0:0:
160,96,175532,1,0,0:0:0:0:
160,96,175607,1,0,0:0:0:0:
352,96,175682,1,8,0:0:0:0:
352,96,175757,1,8,0:0:0:0:
160,96,175832,1,0,0:0:0:0:
160,96,175907,1,0,0:0:0:0:
352,96,175982,1,8,0:0:0:0:
160,96,176057,1,0,0:0:0:0:
160,96,176132,1,0,0:0:0:0:
32,192,176282,2,4,L|480:192,1,420
160,288,177482,1,4,0:0:0:0:
352,96,177632,1,8,0:0:0:0:
160,96,177782,1,0,0:0:0:0:
160,96,177857,1,0,0:0:0:0:
352,96,177932,1,8,0:0:0:0:
352,96,178082,1,8,0:0:0:0:
352,96,178157,1,8,0:0:0:0:
160,96,178232,1,0,0:0:0:0:
160,96,178382,1,0,0:0:0:0:
352,96,178532,1,8,0:0:0:0:
160,96,178682,1,0,0:0:0:0:
352,96,178832,1,8,0:0:0:0:
352,96,178907,1,8,0:0:0:0:
160,96,178982,1,0,0:0:0:0:
160,96,179057,1,0,0:0:0:0:
352,96,179132,1,8,0:0:0:0:
160,96,179282,1,0,0:0:0:0:
352,96,179432,1,8,0:0:0:0:
160,96,179582,1,0,0:0:0:0:
160,96,179657,1,0,0:0:0:0:
352,96,179732,1,8,0:0:0:0:
160,96,179882,1,0,0:0:0:0:
160,96,179957,1,0,0:0:0:0:
352,96,180032,1,8,0:0:0:0:
160,96,180182,1,0,0:0:0:0:
352,96,180332,1,8,0:0:0:0:
352,96,180407,1,8,0:0:0:0:
160,96,180482,1,0,0:0:0:0:
160,96,180557,1,0,0:0:0:0:
352,96,180632,1,8,0:0:0:0:
160,96,180782,1,0,0:0:0:0:
160,96,180857,1,0,0:0:0:0:
352,96,180932,1,8,0:0:0:0:
352,96,181007,1,8,0:0:0:0:
160,96,181082,1,0,0:0:0:0:
352,96,181232,1,8,0:0:0:0:
160,96,181382,1,0,0:0:0:0:
160,96,181457,1,0,0:0:0:0:
352,96,181532,1,8,0:0:0:0:
160,96,181682,1,0,0:0:0:0:
160,96,181757,1,0,0:0:0:0:
352,96,181832,1,8,0:0:0:0:
160,96,181982,1,0,0:0:0:0:
352,96,182132,1,8,0:0:0:0:
352,96,182207,1,8,0:0:0:0:
160,96,182282,1,0,0:0:0:0:
352,96,182432,1,8,0:0:0:0:
352,96,182582,1,8,0:0:0:0:
160,96,182657,1,0,0:0:0:0:
352,96,182732,1,8,0:0:0:0:
160,96,182882,1,0,0:0:0:0:
160,96,182957,1,0,0:0:0:0:
352,96,183032,1,8,0:0:0:0:
160,96,183182,1,0,0:0:0:0:
160,96,183257,1,0,0:0:0:0:
352,96,183332,1,8,0:0:0:0:
352,96,183407,1,8,0:0:0:0:
160,96,183482,1,0,0:0:0:0:
352,96,183632,1,8,0:0:0:0:
352,96,183707,1,8,0:0:0:0:
160,96,183782,1,0,0:0:0:0:
352,96,183932,1,8,0:0:0:0:
160,96,184082,1,0,0:0:0:0:
352,96,184232,1,8,0:0:0:0:
352,96,184307,1,8,0:0:0:0:
160,96,184382,1,0,0:0:0:0:
160,96,184457,1,0,0:0:0:0:
352,96,184532,1,8,0:0:0:0:
352,96,184607,1,8,0:0:0:0:
160,96,184682,1,0,0:0:0:0:
352,96,184832,1,8,0:0:0:0:
160,96,184982,1,0,0:0:0:0:
160,96,185057,1,0,0:0:0:0:
352,96,185132,1,8,0:0:0:0:
160,96,185282,1,0,0:0:0:0:
160,96,185432,1,0,0:0:0:0:
352,96,185582,1,8,0:0:0:0:
160,96,185732,1,0,0:0:0:0:
352,288,185882,1,12,0:0:0:0:
352,96,186182,1,8,0:0:0:0:
352,96,186332,1,8,0:0:0:0:
352,96,186482,1,8,0:0:0:0:
160,96,186632,1,0,0:0:0:0:
352,288,186782,1,12,0:0:0:0:
160,288,187082,1,4,0:0:0:0:
352,96,187232,1,8,0:0:0:0:
160,96,187382,1,0,0:0:0:0:
160,96,187457,1,0,0:0:0:0:
352,96,187532,1,8,0:0:0:0:
352,96,187607,1,8,0:0:0:0:
160,96,187682,1,0,0:0:0:0:
352,96,187832,1,8,0:0:0:0:
160,96,187982,1,0,0:0:0:0:
160,96,188057,1,0,0:0:0:0:
352,96,188132,1,8,0:0:0:0:
160,96,188282,1,0,0:0:0:0:
352,96,188432,1,8,0:0:0:0:
352,96,188507,1,8,0:0:0:0:
160,96,188582,1,0,0:0:0:0:
352,96,188732,1,8,0:0:0:0:
160,96,188882,1,0,0:0:0:0:
160,96,188957,1,0,0:0:0:0:
352,96,189032,1,8,0:0:0:0:
160,96,189107,1,0,0:0:0:0:
160,96,189182,1,0,0:0:0:0:
160,96,189257,1,0,0:0:0:0:
352,96,189332,1,8,0:0:0:0:
352,96,189407,1,8,0:0:0:0:
160,96,189482,1,0,0:0:0:0:
352,96,189632,1,8,0:0:0:0:
352,96,189707,1,8,0:0:0:0:
160,96,189782,1,0,0:0:0:0:
160,96,189857,1,0,0:0:0:0:
352,96,189932,1,8,0:0:0:0:
160,96,190082,1,0,0:0:0:0:
352,96,190232,1,8,0:0:0:0:
160,96,190382,1,0,0:0:0:0:
160,96,190457,1,0,0:0:0:0:
352,96,190532,1,8,0:0:0:0:
160,96,190682,1,0,0:0:0:0:
352,96,190832,1,8,0:0:0:0:
352,96,190907,1,8,0:0:0:0:
160,96,190982,1,0,0:0:0:0:
352,96,191132,1,8,0:0:0:0:
160,96,191282,1,0,0:0:0:0:
352,96,191432,1,8,0:0:0:0:
160,96,191582,1,0,0:0:0:0:
160,96,191657,1,0,0:0:0:0:
352,96,191732,1,8,0:0:0:0:
352,96,191807,1,8,0:0:0:0:
160,96,191882,1,0,0:0:0:0:
352,96,192032,1,8,0:0:0:0:
160,96,192182,1,0,0:0:0:0:
160,96,192257,1,0,0:0:0:0:
352,96,192332,1,8,0:0:0:0:
160,96,192482,1,0,0:0:0:0:
160,96,192557,1,0,0:0:0:0:
352,96,192632,1,8,0:0:0:0:
352,96,192707,1,8,0:0:0:0:
160,96,192782,1,0,0:0:0:0:
160,96,192857,1,0,0:0:0:0:
352,96,192932,1,8,0:0:0:0:
160,96,193082,1,0,0:0:0:0:
352,96,193232,1,8,0:0:0:0:
352,96,193307,1,8,0:0:0:0:
160,96,193382,1,0,0:0:0:0:
352,96,193532,1,8,0:0:0:0:
160,96,193682,1,0,0:0:0:0:
160,96,193757,1,0,0:0:0:0:
352,96,193832,1,8,0:0:0:0:
352,96,193982,1,8,0:0:0:0:
352,96,194057,1,8,0:0:0:0:
160,96,194132,1,0,0:0:0:0:
352,96,194282,1,8,0:0:0:0:
160,96,194357,1,0,0:0:0:0:
160,96,194432,1,0,0:0:0:0:
160,96,194507,1,0,0:0:0:0:
352,96,194582,1,8,0:0:0:0:
160,96,194657,1,0,0:0:0:0:
352,96,194732,1,8,0:0:0:0:
160,96,194807,1,0,0:0:0:0:
160,96,194882,1,0,0:0:0:0:
160,96,194957,1,0,0:0:0:0:
352,96,195032,1,8,0:0:0:0:
160,96,195107,1,0,0:0:0:0:
352,96,195182,1,8,0:0:0:0:
160,96,195257,1,0,0:0:0:0:
160,96,195332,1,0,0:0:0:0:
160,96,195407,1,0,0:0:0:0:
352,96,195482,1,8,0:0:0:0:
352,96,195557,1,8,0:0:0:0:
160,96,195632,1,0,0:0:0:0:
160,96,195707,1,0,0:0:0:0:
352,96,195782,1,8,0:0:0:0:
160,96,195857,1,0,0:0:0:0:
160,96,195932,1,0,0:0:0:0:
160,96,196007,1,0,0:0:0:0:
352,96,196082,1,8,0:0:0:0:
160,96,196157,1,0,0:0:0:0:
160,96,196232,1,0,0:0:0:0:
160,96,196307,1,0,0:0:0:0:
352,96,196382,1,8,0:0:0:0:
160,96,196457,1,0,0:0:0:0:
160,96,196532,1,0,0:0:0:0:
160,96,196607,1,0,0:0:0:0:
352,96,196682,1,8,0:0:0:0:
352,96,196757,1,8,0:0:0:0:
160,96,196832,1,0,0:0:0:0:
160,96,196907,1,0,0:0:0:0:
352,96,196982,1,8,0:0:0:0:
160,96,197057,1,0,0:0:0:0:
352,96,197132,1,8,0:0:0:0:
160,96,197207,1,0,0:0:0:0:
160,96,197282,1,0,0:0:0:0:
160,96,197357,1,0,0:0:0:0:
352,96,197432,1,8,0:0:0:0:
160,96,197507,1,0,0:0:0:0:
352,96,197582,1,8,0:0:0:0:
352,96,197657,1,8,0:0:0:0:
160,96,197732,1,0,0:0:0:0:
160,96,197807,1,0,0:0:0:0:
352,96,197882,1,8,0:0:0:0:
352,96,197957,1,8,0:0:0:0:
160,96,198032,1,0,0:0:0:0:
160,96,198107,1,0,0:0:0:0:
352,96,198182,1,8,0:0:0:0:
160,96,198257,1,0,0:0:0:0:
352,96,198332,1,8,0:0:0:0:
352,96,198407,1,8,0:0:0:0:
160,96,198482,1,0,0:0:0:0:
160,96,198557,1,0,0:0:0:0:
352,96,198632,1,8,0:0:0:0:
160,96,198707,1,0,0:0:0:0:
352,96,198782,1,8,0:0:0:0:
160,96,198857,1,0,0:0:0:0:
160,96,198932,1,0,0:0:0:0:
160,96,199007,1,0,0:0:0:0:
352,96,199082,1,8,0:0:0:0:
352,96,199232,1,8,0:0:0:0:
160,96,199382,1,0,0:0:0:0:
160,96,199457,1,0,0:0:0:0:
352,96,199532,1,8,0:0:0:0:
160,96,199682,1,0,0:0:0:0:
352,96,199832,1,8,0:0:0:0:
160,96,199982,1,0,0:0:0:0:
160,96,200057,1,0,0:0:0:0:
352,96,200132,1,8,0:0:0:0:
352,96,200282,1,8,0:0:0:0:
352,96,200357,1,8,0:0:0:0:
352,96,200432,1,8,0:0:0:0:
160,96,200507,1,0,0:0:0:0:
352,96,200582,1,8,0:0:0:0:
352,96,200657,1,8,0:0:0:0:
160,96,200732,1,0,0:0:0:0:
160,96,200807,1,0,0:0:0:0:
352,96,200882,1,8,0:0:0:0:
352,96,200957,1,8,0:0:0:0:
352,96,201032,1,8,0:0:0:0:
160,96,201107,1,0,0:0:0:0:
352,96,201182,1,8,0:0:0:0:
352,96,201257,1,8,0:0:0:0:
160,96,201332,1,0,0:0:0:0:
160,96,201407,1,0,0:0:0:0:
352,96,201482,1,8,0:0:0:0:
160,96,201707,1,0,0:0:0:0:
352,96,201782,1,8,0:0:0:0:
160,96,201932,1,0,0:0:0:0:
352,96,202082,1,8,0:0:0:0:
160,96,202307,1,0,0:0:0:0:
352,96,202382,1,8,0:0:0:0:
160,96,202532,1,0,0:0:0:0:
352,96,202682,1,8,0:0:0:0:
160,96,202907,1,0,0:0:0:0:
352,96,202982,1,8,0:0:0:0:
352,96,203132,1,8,0:0:0:0:
160,96,203282,1,0,0:0:0:0:
160,96,203507,1,0,0:0:0:0:
352,96,203582,1,8,0:0:0:0:
160,96,203732,1,0,0:0:0:0:
352,96,203882,1,8,0:0:0:0:
160,96,203957,1,0,0:0:0:0:
160,96,204032,1,0,0:0:0:0:
352,96,204107,1,8,0:0:0:0:
160,96,204182,1,0,0:0:0:0:
160,96,204257,1,0,0:0:0:0:
352,96,204332,1,8,0:0:0:0:
160,96,204407,1,0,0:0:0:0:
352,96,204482,1,8,0:0:0:0:
160,96,204557,1,0,0:0:0:0:
160,96,204632,1,0,0:0:0:0:
352,96,204707,1,8,0:0:0:0:
160,96,204782,1,0,0:0:0:0:
160,96,204857,1,0,0:0:0:0:
352,96,204932,1,8,0:0:0:0:
160,288,205082,1,4,0:0:0:0:
160,288,205232,1,4,0:0:0:0:
160,288,205532,1,4,0:0:0:0:
160,288,205832,1,4,0:0:0:0:
352,96,206132,1,8,0:0:0:0:
160,288,206282,1,4,0:0:0:0:
352,96,206432,1,8,0:0:0:0:
160,96,206582,1,0,0:0:0:0:
160,96,206657,1,0,0:0:0:0:
352,96,206732,1,8,0:0:0:0:
160,96,206882,1,0,0:0:0:0:
352,96,207032,1,8,0:0:0:0:
352,96,207107,1,8,0:0:0:0:
160,96,207182,1,0,0:0:0:0:
160,96,207257,1,0,0:0:0:0:
352,96,207332,1,8,0:0:0:0:
160,96,207482,1,0,0:0:0:0:
352,96,207632,1,8,0:0:0:0:
352,96,207707,1,8,0:0:0:0:
160,96,207782,1,0,0:0:0:0:
352,96,207932,1,8,0:0:0:0:
160,96,208082,1,0,0:0:0:0:
160,96,208157,1,0,0:0:0:0:
352,96,208232,1,8,0:0:0:0:
352,96,208307,1,8,0:0:0:0:
160,96,208382,1,0,0:0:0:0:
160,96,208457,1,0,0:0:0:0:
352,96,208532,1,8,0:0:0:0:
160,96,208682,1,0,0:0:0:0:
352,96,208832,1,8,0:0:0:0:
352,96,208907,1,8,0:0:0:0:
160,96,208982,1,0,0:0:0:0:
160,96,209057,1,0,0:0:0:0:
352,96,209132,1,8,0:0:0:0:
160,96,209282,1,0,0:0:0:0:
352,96,209432,1,8,0:0:0:0:
352,96,209507,1,8,0:0:0:0:
160,96,209582,1,0,0:0:0:0:
352,96,209732,1,8,0:0:0:0:
352,96,209807,1,8,0:0:0:0:
160,96,209882,1,0,0:0:0:0:
160,96,209957,1,0,0:0:0:0:
160,96,210032,1,0,0:0:0:0:
352,96,210182,1,8,0:0:0:0:
352,96,210332,1,8,0:0:0:0:
160,96,210482,1,0,0:0:0:0:
160,96,210557,1,0,0:0:0:0:
160,96,210632,1,0,0:0:0:0:
352,96,210782,1,8,0:0:0:0:
352,96,210932,1,8,0:0:0:0:
160,288,211082,1,4,0:0:0:0:
352,96,211232,1,8,0:0:0:0:
160,96,211382,1,0,0:0:0:0:
160,96,211457,1,0,0:0:0:0:
352,96,211532,1,8,0:0:0:0:
160,96,211682,1,0,0:0:0:0:
352,96,211832,1,8,0:0:0:0:
352,96,211907,1,8,0:0:0:0:
160,96,211982,1,0,0:0:0:0:
160,96,212057,1,0,0:0:0:0:
352,96,212132,1,8,0:0:0:0:
352,96,212282,1,8,0:0:0:0:
160,96,212357,1,0,0:0:0:0:
352,96,212432,1,8,0:0:0:0:
160,96,212582,1,0,0:0:0:0:
160,96,212657,1,0,0:0:0:0:
352,96,212732,1,8,0:0:0:0:
160,96,212882,1,0,0:0:0:0:
352,96,213032,1,8,0:0:0:0:
160,96,213107,1,0,0:0:0:0:
160,96,213182,1,0,0:0:0:0:
160,96,213257,1,0,0:0:0:0:
352,96,213332,1,8,0:0:0:0:
160,96,213482,1,0,0:0:0:0:
352,96,213632,1,8,0:0:0:0:
352,96,213707,1,8,0:0:0:0:
160,96,213782,1,0,0:0:0:0:
352,96,213932,1,8,0:0:0:0:
160,96,214082,1,0,0:0:0:0:
352,96,214232,1,8,0:0:0:0:
160,96,214307,1,0,0:0:0:0:
160,96,214457,1,0,0:0:0:0:
352,96,214532,1,8,0:0:0:0:
352,96,214682,1,8,0:0:0:0:
352,96,214757,1,8,0:0:0:0:
352,96,214832,1,8,0:0:0:0:
352,96,214907,1,8,0:0:0:0:
160,96,214982,1,0,0:0:0:0:
160,96,215057,1,0,0:0:0:0:
160,96,215132,1,0,0:0:0:0:
160,96,215207,1,0,0:0:0:0:
352,96,215282,1,8,0:0:0:0:
160,96,215357,1,0,0:0:0:0:
352,96,215432,1,8,0:0:0:0:
160,96,215507,1,0,0:0:0:0:
352,96,215582,1,8,0:0:0:0:
352,96,215657,1,8,0:0:0:0:
160,96,215732,1,0,0:0:0:0:
160,96,215807,1,0,0:0:0:0:
352,96,215882,1,8,0:0:0:0:
352,96,216032,1,8,0:0:0:0:
160,96,216182,1,0,0:0:0:0:
160,96,216257,1,0,0:0:0:0:
352,96,216332,1,8,0:0:0:0:
160,96,216482,1,0,0:0:0:0:
160,96,216557,1,0,0:0:0:0:
352,96,216632,1,8,0:0:0:0:
352,96,216707,1,8,0:0:0:0:
160,96,216782,1,0,0:0:0:0:
160,96,216857,1,0,0:0:0:0:
352,96,216932,1,8,0:0:0:0:
160,96,217082,1,0,0:0:0:0:
352,96,217232,1,8,0:0:0:0:
160,96,217382,1,0,0:0:0:0:
160,96,217457,1,0,0:0:0:0:
352,96,217532,1,8,0:0:0:0:
352,96,217682,1,8,0:0:0:0:
352,96,217757,1,8,0:0:0:0:
160,96,217832,1,0,0:0:0:0:
160,96,217982,1,0,0:0:0:0:
160,96,218057,1,0,0:0:0:0:
352,96,218132,1,8,0:0:0:0:
352,96,218282,1,8,0:0:0:0:
160,96,218432,1,0,0:0:0:0:
160,96,218582,1,0,0:0:0:0:
160,96,218657,1,0,0:0:0:0:
352,96,218732,1,8,0:0:0:0:
160,96,218882,1,0,0:0:0:0:
160,96,218957,1,0,0:0:0:0:
352,96,219032,1,8,0:0:0:0:
160,96,219107,1,0,0:0:0:0:
352,96,219182,1,8,0:0:0:0:
352,96,219257,1,8,0:0:0:0:
160,96,219332,1,0,0:0:0:0:
160,96,219482,1,0,0:0:0:0:
352,96,219632,1,8,0:0:0:0:
160,96,219782,1,0,0:0:0:0:
160,96,219857,1,0,0:0:0:0:
352,96,219932,1,8,0:0:0:0:
160,96,220007,1,0,0:0:0:0:
160,96,220082,1,0,0:0:0:0:
352,96,220232,1,8,0:0:0:0:
352,96,220307,1,8,0:0:0:0:
160,96,220382,1,0,0:0:0:0:
160,96,220457,1,0,0:0:0:0:
352,96,220532,1,8,0:0:0:0:
352,96,220682,1,8,0:0:0:0:
160,96,220757,1,0,0:0:0:0:
352,96,220832,1,8,0:0:0:0:
160,96,220907,1,0,0:0:0:0:
352,96,220982,1,8,0:0:0:0:
160,96,221057,1,0,0:0:0:0:
352,96,221132,1,8,0:0:0:0:
160,96,221207,1,0,0:0:0:0:
352,96,221282,1,8,0:0:0:0:
352,96,221357,1,8,0:0:0:0:
160,96,221432,1,0,0:0:0:0:
160,96,221507,1,0,0:0:0:0:
352,96,221582,1,8,0:0:0:0:
352,96,221657,1,8,0:0:0:0:
160,96,221732,1,0,0:0:0:0:
160,96,221807,1,0,0:0:0:0:
352,96,221882,1,8,0:0:0:0:
160,96,221957,1,0,0:0:0:0:
352,96,222032,1,8,0:0:0:0:
160,96,222107,1,0,0:0:0:0:
352,96,222182,1,8,0:0:0:0:
160,96,222257,1,0,0:0:0:0:
352,96,222332,1,8,0:0:0:0:
160,96,222407,1,0,0:0:0:0:
352,96,222482,1,8,0:0:0:0:
160,96,222557,1,0,0:0:0:0:
352,96,222632,1,8,0:0:0:0:
352,96,222707,1,8,0:0:0:0:
160,96,222782,1,0,0:0:0:0:
160,96,222857,1,0,0:0:0:0:
352,96,222932,1,8,0:0:0:0:
160,96,223007,1,0,0:0:0:0:
352,96,223082,1,8,0:0:0:0:
352,96,223157,1,8,0:0:0:0:
160,96,223232,1,0,0:0:0:0:
160,96,223307,1,0,0:0:0:0:
160,96,223382,1,0,0:0:0:0:
160,96,223457,1,0,0:0:0:0:
352,96,223532,1,8,0:0:0:0:
352,96,223607,1,8,0:0:0:0:
160,96,223682,1,0,0:0:0:0:
160,96,223757,1,0,0:0:0:0:
160,96,223832,1,0,0:0:0:0:
160,96,223907,1,0,0:0:0:0:
352,96,223982,1,8,0:0:0:0:
160,96,224057,1,0,0:0:0:0:
160,96,224132,1,0,0:0:0:0:
160,96,224207,1,0,0:0:0:0:
352,96,224282,1,8,0:0:0:0:
352,96,224357,1,8,0:0:0:0:
160,96,224432,1,0,0:0:0:0:
160,96,224507,1,0,0:0:0:0:
352,96,224582,1,8,0:0:0:0:
352,96,224657,1,8,0:0:0:0:
352,96,224732,1,8,0:0:0:0:
352,96,224807,1,8,0:0:0:0:
160,96,224882,1,0,0:0:0:0:
160,96,224957,1,0,0:0:0:0:
352,96,225032,1,8,0:0:0:0:
352,96,225107,1,8,0:0:0:0:
352,96,225182,1,8,0:0:0:0:
352,96,225257,1,8,0:0:0:0:
160,96,225332,1,0,0:0:0:0:
160,288,225482,1,4,0:0:0:0:
352,96,225632,1,8,0:0:0:0:
160,96,225782,1,0,0:0:0:0:
160,96,225857,1,0,0:0:0:0:
352,96,225932,1,8,0:0:0:0:
160,96,226082,1,0,0:0:0:0:
352,96,226232,1,8,0:0:0:0:
160,96,226307,1,0,0:0:0:0:
160,96,226382,1,0,0:0:0:0:
160,96,226457,1,0,0:0:0:0:
352,96,226532,1,8,0:0:0:0:
352,96,226607,1,8,0:0:0:0:
160,96,226682,1,0,0:0:0:0:
352,96,226832,1,8,0:0:0:0:
352,96,226907,1,8,0:0:0:0:
160,96,226982,1,0,0:0:0:0:
352,96,227132,1,8,0:0:0:0:
160,96,227282,1,0,0:0:0:0:
352,96,227432,1,8,0:0:0:0:
160,96,227582,1,0,0:0:0:0:
160,96,227657,1,0,0:0:0:0:
352,96,227732,1,8,0:0:0:0:
352,96,227807,1,8,0:0:0:0:
160,96,227882,1,0,0:0:0:0:
160,96,228032,1,0,0:0:0:0:
160,96,228107,1,0,0:0:0:0:
352,96,228182,1,8,0:0:0:0:
160,96,228257,1,0,0:0:0:0:
352,96,228332,1,8,0:0:0:0:
160,96,228482,1,0,0:0:0:0:
160,96,228557,1,0,0:0:0:0:
352,96,228632,1,8,0:0:0:0:
352,96,228782,1,8,0:0:0:0:
352,96,228857,1,8,0:0:0:0:
352,96,228932,1,8,0:0:0:0:
160,96,229082,1,0,0:0:0:0:
160,96,229157,1,0,0:0:0:0:
352,96,229232,1,8,0:0:0:0:
160,96,229307,1,0,0:0:0:0:
160,96,229382,1,0,0:0:0:0:
160,96,229457,1,0,0:0:0:0:
352,96,229532,1,8,0:0:0:0:
352,96,229607,1,8,0:0:0:0:
160,96,229682,1,0,0:0:0:0:
160,96,229757,1,0,0:0:0:0:
352,96,229832,1,8,0:0:0:0:
160,96,229907,1,0,0:0:0:0:
352,96,229982,1,8,0:0:0:0:
352,96,230057,1,8,0:0:0:0:
160,96,230132,1,0,0:0:0:0:
160,96,230207,1,0,0:0:0:0:
160,96,230282,1,0,0:0:0:0:
352,96,230432,1,8,0:0:0:0:
160,96,230582,1,0,0:0:0:0:
160,96,230657,1,0,0:0:0:0:
352,96,230732,1,8,0:0:0:0:
160,96,230882,1,0,0:0:0:0:
352,96,231032,1,8,0:0:0:0:
352,96,231107,1,8,0:0:0:0:
160,96,231182,1,0,0:0:0:0:
160,96,231257,1,0,0:0:0:0:
352,96,231332,1,8,0:0:0:0:
160,96,231482,1,0,0:0:0:0:
160,96,231557,1,0,0:0:0:0:
352,96,231632,1,8,0:0:0:0:
352,96,231707,1,8,0:0:0:0:
160,96,231782,1,0,0:0:0:0:
160,96,231857,1,0,0:0:0:0:
352,96,231932,1,8,0:0:0:0:
160,96,232082,1,0,0:0:0:0:
352,96,232232,1,8,0:0:0:0:
160,96,232382,1,0,0:0:0:0:
160,96,232457,1,0,0:0:0:0:
352,96,232532,1,8,0:0:0:0:
160,96,232682,1,0,0:0:0:0:
352,96,232832,1,8,0:0:0:0:
352,96,232907,1,8,0:0:0:0:
160,96,232982,1,0,0:0:0:0:
160,96,233057,1,0,0:0:0:0:
352,96,233132,1,8,0:0:0:0:
160,96,233282,1,0,0:0:0:0:
352,96,233432,1,8,0:0:0:0:
160,96,233582,1,0,0:0:0:0:
160,96,233657,1,0,0:0:0:0:
352,96,233732,1,8,0:0:0:0:
352,96,233882,1,8,0:0:0:0:
352,96,233957,1,8,0:0:0:0:
352,96,234032,1,8,0:0:0:0:
352,96,234107,1,8,0:0:0:0:
160,96,234182,1,0,0:0:0:0:
160,96,234257,1,0,0:0:0:0:
160,96,234332,1,0,0:0:0:0:
160,96,234407,1,0,0:0:0:0:
352,96,234482,1,8,0:0:0:0:
352,96,234557,1,8,0:0:0:0:
160,96,234632,1,0,0:0:0:0:
160,96,234707,1,0,0:0:0:0:
352,96,234782,1,8,0:0:0:0:
160,96,234857,1,0,0:0:0:0:
352,96,234932,1,8,0:0:0:0:
352,96,235007,1,8,0:0:0:0:
160,96,235082,1,0,0:0:0:0:
160,96,235157,1,0,0:0:0:0:
352,96,235232,1,8,0:0:0:0:
160,96,235307,1,0,0:0:0:0:
160,96,235382,1,0,0:0:0:0:
160,96,235457,1,0,0:0:0:0:
352,96,235532,1,8,0:0:0:0:
352,96,235607,1,8,0:0:0:0:
160,96,235682,1,0,0:0:0:0:
160,96,235757,1,0,0:0:0:0:
352,96,235832,1,8,0:0:0:0:
160,96,235907,1,0,0:0:0:0:
160,96,235982,1,0,0:0:0:0:
160,96,236057,1,0,0:0:0:0:
352,96,236132,1,8,0:0:0:0:
160,96,236207,1,0,0:0:0:0:
352,96,236282,1,8,0:0:0:0:
160,96,236357,1,0,0:0:0:0:
160,96,236432,1,0,0:0:0:0:
160,96,236507,1,0,0:0:0:0:
352,96,236582,1,8,0:0:0:0:
160,96,236657,1,0,0:0:0:0:
352,96,236732,1,8,0:0:0:0:
352,96,236807,1,8,0:0:0:0:
160,96,236882,1,0,0:0:0:0:
160,96,236957,1,0,0:0:0:0:
352,96,237032,1,8,0:0:0:0:
160,96,237107,1,0,0:0:0:0:
352,96,237182,1,8,0:0:0:0:
352,96,237257,1,8,0:0:0:0:
160,96,237332,1,0,0:0:0:0:
160,96,237407,1,0,0:0:0:0:
352,96,237482,1,8,0:0:0:0:
160,96,237557,1,0,0:0:0:0:
160,96,237632,1,0,0:0:0:0:
160,96,237707,1,0,0:0:0:0:
352,96,237782,1,8,0:0:0:0:
160,96,237857,1,0,0:0:0:0:
352,96,237932,1,8,0:0:0:0:
352,96,238007,1,8,0:0:0:0:
160,96,238082,1,0,0:0:0:0:
160,96,238157,1,0,0:0:0:0:
352,96,238232,1,8,0:0:0:0:
160,96,238307,1,0,0:0:0:0:
160,96,238382,1,0,0:0:0:0:
160,96,238457,1,0,0:0:0:0:
352,96,238532,1,8,0:0:0:0:
160,96,238607,1,0,0:0:0:0:
352,96,238682,1,8,0:0:0:0:
352,96,238757,1,8,0:0:0:0:
352,96,238832,1,8,0:0:0:0:
352,96,238907,1,8,0:0:0:0:
160,96,238982,1,0,0:0:0:0:
160,96,239057,1,0,0:0:0:0:
352,96,239132,1,8,0:0:0:0:
160,96,239207,1,0,0:0:0:0:
352,96,239282,1,8,0:0:0:0:
352,96,239357,1,8,0:0:0:0:
352,96,239432,1,8,0:0:0:0:
352,96,239507,1,8,0:0:0:0:
160,96,239582,1,0,0:0:0:0:
160,96,239657,1,0,0:0:0:0:
352,96,239732,1,8,0:0:0:0:
160,96,239807,1,0,0:0:0:0:
160,96,239882,1,0,0:0:0:0:
352,96,240032,1,8,0:0:0:0:
160,96,240182,1,0,0:0:0:0:
160,96,240257,1,0,0:0:0:0:
352,96,240332,1,8,0:0:0:0:
352,96,240407,1,8,0:0:0:0:
160,96,240482,1,0,0:0:0:0:
352,96,240632,1,8,0:0:0:0:
352,96,240707,1,8,0:0:0:0:
160,96,240782,1,0,0:0:0:0:
160,96,240857,1,0,0:0:0:0:
352,96,240932,1,8,0:0:0:0:
160,96,241082,1,0,0:0:0:0:
352,96,241232,1,8,0:0:0:0:
160,96,241382,1,0,0:0:0:0:
160,96,241457,1,0,0:0:0:0:
352,96,241532,1,8,0:0:0:0:
160,96,241682,1,0,0:0:0:0:
352,96,241832,1,8,0:0:0:0:
352,96,241907,1,8,0:0:0:0:
160,96,241982,1,0,0:0:0:0:
352,96,242132,1,8,0:0:0:0:
352,96,242282,1,8,0:0:0:0:
160,96,242357,1,0,0:0:0:0:
160,96,242432,1,0,0:0:0:0:
160,96,242507,1,0,0:0:0:0:
352,96,242582,1,8,0:0:0:0:
160,96,242657,1,0,0:0:0:0:
352,96,242732,1,8,0:0:0:0:
160,96,242882,1,0,0:0:0:0:
352,96,243032,1,8,0:0:0:0:
352,96,243107,1,8,0:0:0:0:
160,96,243182,1,0,0:0:0:0:
160,96,243257,1,0,0:0:0:0:
352,96,243332,1,8,0:0:0:0:
160,96,243407,1,0,0:0:0:0:
352,96,243482,1,8,0:0:0:0:
160,96,243632,1,0,0:0:0:0:
352,96,243782,1,8,0:0:0:0:
160,96,243857,1,0,0:0:0:0:
352,96,243932,1,8,0:0:0:0:
160,96,244082,1,0,0:0:0:0:
352,96,244232,1,8,0:0:0:0:
352,96,244307,1,8,0:0:0:0:
160,96,244382,1,0,0:0:0:0:
160,96,244532,1,0,0:0:0:0:
160,96,244607,1,0,0:0:0:0:
352,96,244682,1,8,0:0:0:0:
352,96,244757,1,8,0:0:0:0:
352,96,244832,1,8,0:0:0:0:
352,96,244907,1,8,0:0:0:0:
160,96,244982,1,0,0:0:0:0:
160,96,245057,1,0,0:0:0:0:
352,96,245132,1,8,0:0:0:0:
352,96,245207,1,8,0:0:0:0:
352,96,245282,1,8,0:0:0:0:
352,96,245357,1,8,0:0:0:0:
160,96,245432,1,0,0:0:0:0:
160,96,245507,1,0,0:0:0:0:
352,96,245582,1,8,0:0:0:0:
352,96,245657,1,8,0:0:0:0:
160,96,245732,1,0,0:0:0:0:
160,96,245807,1,0,0:0:0:0:
352,96,245882,1,8,0:0:0:0:
352,96,245957,1,8,0:0:0:0:
352,96,246032,1,8,0:0:0:0:
352,96,246107,1,8,0:0:0:0:
160,96,246182,1,0,0:0:0:0:
160,96,246257,1,0,0:0:0:0:
352,96,246332,1,8,0:0:0:0:
352,96,246407,1,8,0:0:0:0:
352,96,246482,1,8,0:0:0:0:
352,96,246557,1,8,0:0:0:0:
160,96,246632,1,0,0:0:0:0:
160,96,246707,1,0,0:0:0:0:
352,96,246782,1,8,0:0:0:0:
352,96,246857,1,8,0:0:0:0:
160,96,246932,1,0,0:0:0:0:
160,96,247007,1,0,0:0:0:0:
352,96,247082,1,8,0:0:0:0:
352,96,249482,1,8,0:0:0:0:
160,96,249557,1,0,0:0:0:0:
160,96,249632,1,0,0:0:0:0:
160,96,249707,1,0,0:0:0:0:
352,96,249782,1,8,0:0:0:0:
352,96,249857,1,8,0:0:0:0:
160,96,249932,1,0,0:0:0:0:
160,96,250007,1,0,0:0:0:0:
352,96,250082,1,8,0:0:0:0:
160,96,250157,1,0,0:0:0:0:
160,96,250232,1,0,0:0:0:0:
160,96,250307,1,0,0:0:0:0:
352,96,250382,1,8,0:0:0:0:
352,96,250457,1,8,0:0:0:0:
160,96,250532,1,0,0:0:0:0:
160,96,250607,1,0,0:0:0:0:
352,96,250682,1,8,0:0:0:0:
352,96,250757,1,8,0:0:0:0:
352,96,250832,1,8,0:0:0:0:
160,96,250907,1,0,0:0:0:0:
352,96,250982,1,8,0:0:0:0:
352,96,251057,1,8,0:0:0:0:
160,96,251132,1,0,0:0:0:0:
160,96,251207,1,0,0:0:0:0:
352,96,251282,1,8,0:0:0:0:
160,96,251357,1,0,0:0:0:0:
160,96,251432,1,0,0:0:0:0:
160,96,251507,1,0,0:0:0:0:
352,96,251582,1,8,0:0:0:0:
352,96,251657,1,8,0:0:0:0:
160,96,251732,1,0,0:0:0:0:
160,96,251807,1,0,0:0:0:0:
352,96,251882,1,8,0:0:0:0:
160,96,251957,1,0,0:0:0:0:
160,96,252032,1,0,0:0:0:0:
160,96,252107,1,0,0:0:0:0:
160,96,252182,1,0,0:0:0:0:
160,96,252257,1,0,0:0:0:0:
352,96,252332,1,8,0:0:0:0:
352,96,252407,1,8,0:0:0:0:
160,96,252482,1,0,0:0:0:0:
160,96,252557,1,0,0:0:0:0:
160,96,252632,1,0,0:0:0:0:
160,96,252707,1,0,0:0:0:0:
352,96,252782,1,8,0:0:0:0:
160,96,252857,1,0,0:0:0:0:
160,96,252932,1,0,0:0:0:0:
160,96,253007,1,0,0:0:0:0:
352,96,253082,1,8,0:0:0:0:
352,96,253157,1,8,0:0:0:0:
160,96,253232,1,0,0:0:0:0:
160,96,253307,1,0,0:0:0:0:
352,96,253382,1,8,0:0:0:0:
160,96,253457,1,0,0:0:0:0:
160,96,253532,1,0,0:0:0:0:
160,96,253607,1,0,0:0:0:0:
352,96,253682,1,8,0:0:0:0:
352,96,253757,1,8,0:0:0:0:
160,96,253832,1,0,0:0:0:0:
160,96,253907,1,0,0:0:0:0:
352,96,253982,1,8,0:0:0:0:
160,96,254057,1,0,0:0:0:0:
160,96,254132,1,0,0:0:0:0:
160,96,254207,1,0,0:0:0:0:
352,96,254282,1,8,0:0:0:0:
352,96,256682,1,8,0:0:0:0:
160,96,256757,1,0,0:0:0:0:
352,96,256832,1,8,0:0:0:0:
352,96,256907,1,8,0:0:0:0:
160,96,256982,1,0,0:0:0:0:
160,96,257057,1,0,0:0:0:0:
352,96,257132,1,8,0:0:0:0:
160,96,257207,1,0,0:0:0:0:
160,96,257282,1,0,0:0:0:0:
160,96,257357,1,0,0:0:0:0:
352,96,257432,1,8,0:0:0:0:
352,96,257507,1,8,0:0:0:0:
160,96,257582,1,0,0:0:0:0:
160,96,257657,1,0,0:0:0:0:
352,96,257732,1,8,0:0:0:0:
352,288,257882,1,12,0:0:0:0:
160,288,258482,1,4,0:0:0:0:
352,288,259082,1,12,0:0:0:0:
352,288,259232,1,12,0:0:0:0:
352,288,259532,1,12,0:0:0:0:
352,288,259682,1,12,0:0:0:0:
160,288,260297,1,4,0:0:0:0:
160,96,260597,1,0,0:0:0:0:
160,96,260747,1,0,0:0:0:0:
160,96,260897,1,0,0:0:0:0:
160,96,261047,1,0,0:0:0:0:
352,96,261197,1,8,0:0:0:0:
352,96,261347,1,8,0:0:0:0:
160,96,261497,1,0,0:0:0:0:
160,96,261647,1,0,0:0:0:0:
160,96,261797,1,0,0:0:0:0:
160,96,261947,1,0,0:0:0:0:
352,96,262097,1,8,0:0:0:0:
160,96,262247,1,0,0:0:0:0:
352,96,262397,1,8,0:0:0:0:
352,96,262547,1,8,0:0:0:0:
160,288,262697,1,4,0:0:0:0:
160,96,262997,1,0,0:0:0:0:
160,96,263147,1,0,0:0:0:0:
160,96,263297,1,0,0:0:0:0:
160,96,263447,1,0,0:0:0:0:
352,96,263597,1,8,0:0:0:0:
160,96,263747,1,0,0:0:0:0:
160,96,263897,1,0,0:0:0:0:
352,96,264047,1,8,0:0:0:0:
160,96,264197,1,0,0:0:0:0:
160,96,264347,1,0,0:0:0:0:
352,96,264497,1,8,0:0:0:0:
160,96,264647,1,0,0:0:0:0:
352,96,264797,1,8,0:0:0:0:
352,96,264947,1,8,0:0:0:0:
160,288,265097,1,4,0:0:0:0:
160,96,265397,1,0,0:0:0:0:
160,96,265547,1,0,0:0:0:0:
160,96,265697,1,0,0:0:0:0:
160,96,265847,1,0,0:0:0:0:
352,96,265997,1,8,0:0:0:0:
352,96,266147,1,8,0:0:0:0:
160,96,266297,1,0,0:0:0:0:
160,96,266447,1,0,0:0:0:0:
160,96,266597,1,0,0:0:0:0:
160,96,266747,1,0,0:0:0:0:
352,96,266897,1,8,0:0:0:0:
160,96,267047,1,0,0:0:0:0:
352,96,267197,1,8,0:0:0:0:
352,96,267347,1,8,0:0:0:0:
160,288,267497,1,4,0:0:0:0:
160,96,267797,1,0,0:0:0:0:
160,96,267947,1,0,0:0:0:0:
160,96,268097,1,0,0:0:0:0:
160,96,268247,1,0,0:0:0:0:
352,96,268397,1,8,0:0:0:0:
160,96,268547,1,0,0:0:0:0:
352,96,268697,1,8,0:0:0:0:
160,288,268847,1,4,0:0:0:0:
160,288,269147,1,4,0:0:0:0:
160,288,269447,1,4,0:0:0:0:
352,96,269597,1,8,0:0:0:0:
160,96,269747,1,0,0:0:0:0:
160,288,269882,1,4,0:0:0:0:
160,96,270182,1,0,0:0:0:0:
352,96,270482,1,8,0:0:0:0:
160,96,270782,1,0,0:0:0:0:
160,96,270932,1,0,0:0:0:0:
160,96,271082,1,0,0:0:0:0:
160,96,271382,1,0,0:0:0:0:
160,96,271532,1,0,0:0:0:0:
352,96,271682,1,8,0:0:0:0:
160,96,271982,1,0,0:0:0:0:
160,96,272282,1,0,0:0:0:0:
160,96,272582,1,0,0:0:0:0:
160,96,272732,1,0,0:0:0:0:
352,96,272882,1,8,0:0:0:0:
160,96,273182,1,0,0:0:0:0:
160,96,273332,1,0,0:0:0:0:
160,96,273482,1,0,0:0:0:0:
160,96,273782,1,0,0:0:0:0:
160,96,273932,1,0,0:0:0:0:
352,96,274082,1,8,0:0:0:0:
160,96,274232,1,0,0:0:0:0:
352,96,274382,1,8,0:0:0:0:
160,96,274682,1,0,0:0:0:0:
160,96,274982,1,0,0:0:0:0:
352,96,275282,1,8,0:0:0:0:
160,96,275582,1,0,0:0:0:0:
160,96,275732,1,0,0:0:0:0:
160,96,275882,1,0,0:0:0:0:
160,96,276182,1,0,0:0:0:0:
160,96,276332,1,0,0:0:0:0:
352,96,276482,1,8,0:0:0:0:
160,96,276782,1,0,0:0:0:0:
160,96,277082,1,0,0:0:0:0:
160,96,277382,1,0,0:0:0:0:
160,96,277532,1,0,0:0:0:0:
352,96,277682,1,8,0:0:0:0:
352,96,277982,1,8,0:0:0:0:
352,96,278132,1,8,0:0:0:0:
160,96,278282,1,0,0:0:0:0:
160,96,278582,1,0,0:0:0:0:
160,96,278732,1,0,0:0:0:0:
352,96,278882,1,8,0:0:0:0:
352,96,279182,1,8,0:0:0:0:
160,288,279482,1,4,0:0:0:0:
160,96,279782,1,0,0:0:0:0:
352,96,280082,1,8,0:0:0:0:
160,96,280382,1,0,0:0:0:0:
160,96,280532,1,0,0:0:0:0:
160,96,280682,1,0,0:0:0:0:
160,96,280982,1,0,0:0:0:0:
160,96,281132,1,0,0:0:0:0:
352,96,281282,1,8,0:0:0:0:
160,96,281582,1,0,0:0:0:0:
160,96,281882,1,0,0:0:0:0:
160,96,282182,1,0,0:0:0:0:
160,96,282332,1,0,0:0:0:0:
352,96,282482,1,8,0:0:0:0:
160,96,282782,1,0,0:0:0:0:
160,96,282932,1,0,0:0:0:0:
160,96,283082,1,0,0:0:0:0:
160,96,283382,1,0,0:0:0:0:
160,96,283532,1,0,0:0:0:0:
352,96,283682,1,8,0:0:0:0:
160,96,283832,1,0,0:0:0:0:
352,96,283982,1,8,0:0:0:0:
160,288,284282,1,4,0:0:0:0:
160,96,284582,1,0,0:0:0:0:
160,96,284732,1,0,0:0:0:0:
352,96,284882,1,8,0:0:0:0:
160,96,285182,1,0,0:0:0:0:
160,96,285332,1,0,0:0:0:0:
160,96,285482,1,0,0:0:0:0:
160,96,285782,1,0,0:0:0:0:
160,96,285932,1,0,0:0:0:0:
352,96,286082,1,8,0:0:0:0:
160,96,286382,1,0,0:0:0:0:
160,96,286682,1,0,0:0:0:0:
160,96,286982,1,0,0:0:0:0:
160,96,287132,1,0,0:0:0:0:
352,96,287282,1,8,0:0:0:0:
160,96,287582,1,0,0:0:0:0:
352,96,287882,1,8,0:0:0:0:
352,96,287957,1,8,0:0:0:0:
352,96,288032,1,8,0:0:0:0:
160,96,288107,1,0,0:0:0:0:
352,96,288182,1,8,0:0:0:0:
352,96,288257,1,8,0:0:0:0:
160,96,288332,1,0,0:0:0:0:
160,96,288407,1,0,0:0:0:0:
352,96,288482,1,8,0:0:0:0:
352,96,288557,1,8,0:0:0:0:
352,96,288632,1,8,0:0:0:0:
160,96,288707,1,0,0:0:0:0:
352,96,288782,1,8,0:0:0:0:
352,96,288857,1,8,0:0:0:0:
160,96,288932,1,0,0:0:0:0:
160,96,289007,1,0,0:0:0:0:
352,96,289082,1,8,0:0:0:0:
352,96,289232,1,8,0:0:0:0:
160,96,289382,1,0,0:0:0:0:
352,96,289532,1,8,0:0:0:0:
352,96,289682,1,8,0:0:0:0:
160,96,289832,1,0,0:0:0:0:
160,96,289982,1,0,0:0:0:0:
352,96,290132,1,8,0:0:0:0:
352,96,290282,1,8,0:0:0:0:
352,96,290432,1,8,0:0:0:0:
160,96,290582,1,0,0:0:0:0:
352,96,290732,1,8,0:0:0:0:
352,96,290882,1,8,0:0:0:0:
160,96,291032,1,0,0:0:0:0:
160,96,291182,1,0,0:0:0:0:
352,96,291332,1,8,0:0:0:0:
352,96,291482,1,8,0:0:0:0:
352,96,291632,1,8,0:0:0:0:
352,96,291782,1,8,0:0:0:0:
160,96,291932,1,0,0:0:0:0:
352,96,292082,1,8,0:0:0:0:
352,96,292232,1,8,0:0:0:0:
160,96,292382,1,0,0:0:0:0:
160,96,292532,1,0,0:0:0:0:
160,96,292682,1,0,0:0:0:0:
160,96,292832,1,0,0:0:0:0:
352,96,292982,1,8,0:0:0:0:
160,96,293132,1,0,0:0:0:0:
160,96,293282,1,0,0:0:0:0:
160,96,293357,1,0,0:0:0:0:
160,96,293432,1,0,0:0:0:0:
160,96,293507,1,0,0:0:0:0:
352,96,293582,1,8,0:0:0:0:
160,96,293732,1,0,0:0:0:0:
352,96,293882,1,8,0:0:0:0:
352,96,294032,1,8,0:0:0:0:
160,96,294182,1,0,0:0:0:0:
352,96,294332,1,8,0:0:0:0:
352,96,294482,1,8,0:0:0:0:
160,96,294632,1,0,0:0:0:0:
160,96,294782,1,0,0:0:0:0:
352,96,294932,1,8,0:0:0:0:
352,96,295082,1,8,0:0:0:0:
352,96,295232,1,8,0:0:0:0:
160,96,295382,1,0,0:0:0:0:
352,96,295532,1,8,0:0:0:0:
352,96,295682,1,8,0:0:0:0:
160,96,295832,1,0,0:0:0:0:
160,96,295982,1,0,0:0:0:0:
352,96,296132,1,8,0:0:0:0:
352,96,296282,1,8,0:0:0:0:
352,96,296432,1,8,0:0:0:0:
352,96,296582,1,8,0:0:0:0:
160,96,296732,1,0,0:0:0:0:
352,96,296882,1,8,0:0:0:0:
352,96,297032,1,8,0:0:0:0:
160,96,297182,1,0,0:0:0:0:
160,96,297332,1,0,0:0:0:0:
160,96,297482,1,0,0:0:0:0:
160,96,297632,1,0,0:0:0:0:
352,288,297782,1,12,0:0:0:0:
160,96,297932,1,0,0:0:0:0:
160,96,298082,1,0,0:0:0:0:
160,96,298232,1,0,0:0:0:0:
352,288,298382,1,12,0:0:0:0:
160,96,298532,1,0,0:0:0:0:
160,288,298682,1,4,0:0:0:0:
160,96,298832,1,0,0:0:0:0:
352,96,298982,1,8,0:0:0:0:
352,96,299132,1,8,0:0:0:0:
160,96,299282,1,0,0:0:0:0:
160,96,299432,1,0,0:0:0:0:
352,96,299582,1,8,0:0:0:0:
352,96,299732,1,8,0:0:0:0:
352,96,299882,1,8,0:0:0:0:
352,96,300032,1,8,0:0:0:0:
352,96,300182,1,8,0:0:0:0:
160,96,300332,1,0,0:0:0:0:
160,96,300482,1,0,0:0:0:0:
160,96,300632,1,0,0:0:0:0:
352,96,300782,1,8,0:0:0:0:
160,96,300932,1,0,0:0:0:0:
352,96,301082,1,8,0:0:0:0:
352,96,301232,1,8,0:0:0:0:
352,96,301382,1,8,0:0:0:0:
160,96,301532,1,0,0:0:0:0:
352,96,301682,1,8,0:0:0:0:
352,96,301832,1,8,0:0:0:0:
160,96,301982,1,0,0:0:0:0:
160,96,302132,1,0,0:0:0:0:
352,96,302282,1,8,0:0:0:0:
352,96,302432,1,8,0:0:0:0:
160,96,302582,1,0,0:0:0:0:
160,96,302732,1,0,0:0:0:0:
352,96,302882,1,8,0:0:0:0:
160,96,303032,1,0,0:0:0:0:
160,96,303182,1,0,0:0:0:0:
352,96,303332,1,8,0:0:0:0:
352,96,303482,1,8,0:0:0:0:
352,96,303632,1,8,0:0:0:0:
352,96,303782,1,8,0:0:0:0:
160,96,303932,1,0,0:0:0:0:
160,96,304082,1,0,0:0:0:0:
160,96,304232,1,0,0:0:0:0:
160,96,304382,1,0,0:0:0:0:
352,96,304532,1,8,0:0:0:0:
352,96,304682,1,8,0:0:0:0:
352,96,304832,1,8,0:0:0:0:
352,96,304982,1,8,0:0:0:0:
160,96,305132,1,0,0:0:0:0:
160,96,305282,1,0,0:0:0:0:
160,96,305432,1,0,0:0:0:0:
352,96,305582,1,8,0:0:0:0:
352,96,305732,1,8,0:0:0:0:
160,96,305882,1,0,0:0:0:0:
160,96,306032,1,0,0:0:0:0:
352,96,306182,1,8,0:0:0:0:
160,96,306332,1,0,0:0:0:0:
160,96,306482,1,0,0:0:0:0:
160,96,306632,1,0,0:0:0:0:
352,96,306782,1,8,0:0:0:0:
160,96,306932,1,0,0:0:0:0:
352,96,307082,1,8,0:0:0:0:
352,96,307232,1,8,0:0:0:0:
352,96,307382,1,8,0:0:0:0:
160,96,307532,1,0,0:0:0:0:
160,96,307682,1,0,0:0:0:0:
160,96,307832,1,0,0:0:0:0:
160,96,307907,1,0,0:0:0:0:
352,96,307982,1,8,0:0:0:0:
160,96,308132,1,0,0:0:0:0:
352,96,308282,1,8,0:0:0:0:
160,288,308432,1,4,0:0:0:0:
160,288,308732,1,4,0:0:0:0:
160,288,309032,1,4,0:0:0:0:
352,288,309332,1,12,0:0:0:0:
352,288,309632,1,12,0:0:0:0:
160,96,309782,1,0,0:0:0:0:
160,96,309932,1,0,0:0:0:0:
352,96,310082,1,8,0:0:0:0:
160,96,310232,1,0,0:0:0:0:
160,96,310382,1,0,0:0:0:0:
352,96,310532,1,8,0:0:0:0:
352,96,310682,1,8,0:0:0:0:
160,96,310757,1,0,0:0:0:0:
352,96,310832,1,8,0:0:0:0:
160,96,310907,1,0,0:0:0:0:
352,96,310982,1,8,0:0:0:0:
160,96,311057,1,0,0:0:0:0:
352,96,311132,1,8,0:0:0:0:
160,96,311207,1,0,0:0:0:0:
352,96,311282,1,8,0:0:0:0:
160,96,311357,1,0,0:0:0:0:
352,96,311432,1,8,0:0:0:0:
160,96,311507,1,0,0:0:0:0:
352,96,311582,1,8,0:0:0:0:
160,96,311657,1,0,0:0:0:0:
352,96,311732,1,8,0:0:0:0:
256,192,311882,12,0,312932,0:0:0:0:
352,96,313082,5,8,0:0:0:0:
352,96,313157,1,8,0:0:0:0:
352,96,313232,1,8,0:0:0:0:
160,96,313307,1,0,0:0:0:0:
352,96,313382,1,8,0:0:0:0:
352,96,313457,1,8,0:0:0:0:
160,96,313532,1,0,0:0:0:0:
160,96,313607,1,0,0:0:0:0:
352,96,313682,1,8,0:0:0:0:
352,96,313757,1,8,0:0:0:0:
160,96,313832,1,0,0:0:0:0:
160,96,313907,1,0,0:0:0:0:
352,96,313982,1,8,0:0:0:0:
160,96,314057,1,0,0:0:0:0:
160,96,314132,1,0,0:0:0:0:
160,96,314207,1,0,0:0:0:0:
352,96,314282,1,8,0:0:0:0:
160,96,314357,1,0,0:0:0:0:
352,96,314432,1,8,0:0:0:0:
352,96,314507,1,8,0:0:0:0:
160,96,314582,1,0,0:0:0:0:
160,96,314657,1,0,0:0:0:0:
352,96,314732,1,8,0:0:0:0:
160,96,314807,1,0,0:0:0:0:
160,96,314882,1,0,0:0:0:0:
160,96,314957,1,0,0:0:0:0:
352,96,315032,1,8,0:0:0:0:
352,96,315107,1,8,0:0:0:0:
160,96,315182,1,0,0:0:0:0:
160,96,315257,1,0,0:0:0:0:
352,96,315332,1,8,0:0:0:0:
352,96,315407,1,8,0:0:0:0:
160,96,315482,1,0,0:0:0:0:
352,96,315557,1,8,0:0:0:0:
160,96,315632,1,0,0:0:0:0:
160,96,315707,1,0,0:0:0:0:
352,96,315782,1,8,0:0:0:0:
352,96,315932,1,8,0:0:0:0:
352,96,316082,1,8,0:0:0:0:
352,96,316157,1,8,0:0:0:0:
160,96,316232,1,0,0:0:0:0:
160,96,316307,1,0,0:0:0:0:
352,96,316382,1,8,0:0:0:0:
160,96,316457,1,0,0:0:0:0:
352,96,316532,1,8,0:0:0:0:
352,96,316682,1,8,0:0:0:0:
352,96,316757,1,8,0:0:0:0:
160,96,316832,1,0,0:0:0:0:
160,96,316907,1,0,0:0:0:0:
352,96,316982,1,8,0:0:0:0:
352,96,317132,1,8,0:0:0:0:
352,96,317282,1,8,0:0:0:0:
352,96,317357,1,8,0:0:0:0:
352,96,317432,1,8,0:0:0:0:
160,96,317507,1,0,0:0:0:0:
352,96,317582,1,8,0:0:0:0:
160,96,317657,1,0,0:0:0:0:
352,96,317732,1,8,0:0:0:0:
352,96,317882,1,8,0:0:0:0:
160,96,317957,1,0,0:0:0:0:
160,96,318032,1,0,0:0:0:0:
160,96,318107,1,0,0:0:0:0:
352,96,318182,1,8,0:0:0:0:
352,96,318257,1,8,0:0:0:0:
160,96,318332,1,0,0:0:0:0:
160,96,318407,1,0,0:0:0:0:
352,96,318482,1,8,0:0:0:0:
352,96,318557,1,8,0:0:0:0:
352,96,318632,1,8,0:0:0:0:
352,96,318707,1,8,0:0:0:0:
160,96,318782,1,0,0:0:0:0:
352,96,318857,1,8,0:0:0:0:
160,96,318932,1,0,0:0:0:0:
160,96,319007,1,0,0:0:0:0:
352,96,319082,1,8,0:0:0:0:
160,96,319157,1,0,0:0:0:0:
160,96,319232,1,0,0:0:0:0:
160,96,319307,1,0,0:0:0:0:
352,96,319382,1,8,0:0:0:0:
352,96,319457,1,8,0:0:0:0:
160,96,319532,1,0,0:0:0:0:
352,96,319682,1,8,0:0:0:0:
352,96,319719,1,8,0:0:0:0:
352,96,319832,1,8,0:0:0:0:
352,96,319869,1,8,0:0:0:0:
352,96,319982,1,8,0:0:0:0:
352,96,320019,1,8,0:0:0:0:
352,96,320132,1,8,0:0:0:0:
352,96,320169,1,8,0:0:0:0:
352,96,320282,1,8,0:0:0:0:
352,96,320357,1,8,0:0:0:0:
160,96,320432,1,0,0:0:0:0:
160,96,320507,1,0,0:0:0:0:
352,96,320582,1,8,0:0:0:0:
160,96,320657,1,0,0:0:0:0:
352,96,320732,1,8,0:0:0:0:
352,96,320807,1,8,0:0:0:0:
160,96,320882,1,0,0:0:0:0:
160,96,320957,1,0,0:0:0:0:
352,96,321032,1,8,0:0:0:0:
160,96,321107,1,0,0:0:0:0:
352,96,321182,1,8,0:0:0:0:
352,96,321257,1,8,0:0:0:0:
160,96,321332,1,0,0:0:0:0:
160,96,321407,1,0,0:0:0:0:
352,96,321482,1,8,0:0:0:0:
352,96,321557,1,8,0:0:0:0:
352,96,321632,1,8,0:0:0:0:
352,96,321707,1,8,0:0:0:0:
160,96,321782,1,0,0:0:0:0:
160,96,321857,1,0,0:0:0:0:
352,96,321932,1,8,0:0:0:0:
352,96,322007,1,8,0:0:0:0:
352,96,322082,1,8,0:0:0:0:
352,96,322157,1,8,0:0:0:0:
160,96,322232,1,0,0:0:0:0:
160,96,322307,1,0,0:0:0:0:
352,96,322382,1,8,0:0:0:0:
352,96,322457,1,8,0:0:0:0:
160,96,322532,1,0,0:0:0:0:
160,288,322682,1,4,0:0:0:0:
352,96,322832,1,8,0:0:0:0:
160,96,322982,1,0,0:0:0:0:
160,96,323057,1,0,0:0:0:0:
352,96,323132,1,8,0:0:0:0:
352,96,323207,1,8,0:0:0:0:
160,96,323282,1,0,0:0:0:0:
352,96,323432,1,8,0:0:0:0:
352,96,323507,1,8,0:0:0:0:
160,96,323582,1,0,0:0:0:0:
160,96,323657,1,0,0:0:0:0:
352,96,323732,1,8,0:0:0:0:
160,96,323882,1,0,0:0:0:0:
352,96,324032,1,8,0:0:0:0:
160,96,324107,1,0,0:0:0:0:
160,96,324182,1,0,0:0:0:0:
160,96,324257,1,0,0:0:0:0:
352,96,324332,1,8,0:0:0:0:
160,96,324482,1,0,0:0:0:0:
352,96,324632,1,8,0:0:0:0:
160,96,324782,1,0,0:0:0:0:
160,96,324857,1,0,0:0:0:0:
352,96,324932,1,8,0:0:0:0:
160,96,325082,1,0,0:0:0:0:
352,96,325232,1,8,0:0:0:0:
352,96,325307,1,8,0:0:0:0:
160,96,325382,1,0,0:0:0:0:
352,96,325532,1,8,0:0:0:0:
160,96,325682,1,0,0:0:0:0:
160,96,325757,1,0,0:0:0:0:
352,96,325832,1,8,0:0:0:0:
352,96,325907,1,8,0:0:0:0:
160,96,325982,1,0,0:0:0:0:
352,96,326132,1,8,0:0:0:0:
160,96,326282,1,0,0:0:0:0:
352,96,326432,1,8,0:0:0:0:
160,96,326507,1,0,0:0:0:0:
352,96,326582,1,8,0:0:0:0:
352,96,326657,1,8,0:0:0:0:
160,96,326732,1,0,0:0:0:0:
160,96,326882,1,0,0:0:0:0:
352,96,327032,1,8,0:0:0:0:
352,96,327182,1,8,0:0:0:0:
352,96,327257,1,8,0:0:0:0:
352,96,327332,1,8,0:0:0:0:
352,96,327482,1,8,0:0:0:0:
352,96,327557,1,8,0:0:0:0:
160,96,327632,1,0,0:0:0:0:
160,96,327707,1,0,0:0:0:0:
352,96,327782,1,8,0:0:0:0:
160,96,327857,1,0,0:0:0:0:
160,96,327932,1,0,0:0:0:0:
160,96,328007,1,0,0:0:0:0:
352,96,328082,1,8,0:0:0:0:
160,96,328157,1,0,0:0:0:0:
352,96,328232,1,8,0:0:0:0:
160,96,328307,1,0,0:0:0:0:
352,96,328382,1,8,0:0:0:0:
352,96,328457,1,8,0:0:0:0:
160,96,328532,1,0,0:0:0:0:
352,96,328607,1,8,0:0:0:0:
352,96,328682,1,8,0:0:0:0:
352,96,328757,1,8,0:0:0:0:
160,96,328832,1,0,0:0:0:0:
160,96,328907,1,0,0:0:0:0:
352,96,328982,1,8,0:0:0:0:
352,96,329057,1,8,0:0:0:0:
160,96,329132,1,0,0:0:0:0:
160,96,329207,1,0,0:0:0:0:
352,96,329282,1,8,0:0:0:0:
352,96,329357,1,8,0:0:0:0:
352,96,329432,1,8,0:0:0:0:
160,96,329507,1,0,0:0:0:0:
352,96,329582,1,8,0:0:0:0:
160,96,329657,1,0,0:0:0:0:
352,96,329732,1,8,0:0:0:0:
160,96,329882,1,0,0:0:0:0:
160,96,329957,1,0,0:0:0:0:
352,96,330032,1,8,0:0:0:0:
160,96,330107,1,0,0:0:0:0:
352,96,330182,1,8,0:0:0:0:
352,96,330257,1,8,0:0:0:0:
352,96,330332,1,8,0:0:0:0:
352,96,330407,1,8,0:0:0:0:
160,96,330482,1,0,0:0:0:0:
160,96,330557,1,0,0:0:0:0:
352,96,330632,1,8,0:0:0:0:
160,96,330707,1,0,0:0:0:0:
352,96,330782,1,8,0:0:0:0:
352,96,330857,1,8,0:0:0:0:
160,96,330932,1,0,0:0:0:0:
160,96,331007,1,0,0:0:0:0:
352,96,331082,1,8,0:0:0:0:
352,96,331157,1,8,0:0:0:0:
352,96,331232,1,8,0:0:0:0:
352,96,331307,1,8,0:0:0:0:
160,96,331382,1,0,0:0:0:0:
160,96,331457,1,0,0:0:0:0:
352,96,331532,1,8,0:0:0:0:
160,96,331607,1,0,0:0:0:0:
352,96,331682,1,8,0:0:0:0:
352,96,331757,1,8,0:0:0:0:
352,96,331832,1,8,0:0:0:0:
352,96,331907,1,8,0:0:0:0:
160,96,331982,1,0,0:0:0:0:
352,96,332057,1,8,0:0:0:0:
160,96,332132,1,0,0:0:0:0:
352,288,332282,1,12,0:0:0:0:
352,288,332882,1,12,0:0:0:0:
352,288,333482,1,12,0:0:0:0:
352,288,334082,1,12,0:0:0:0:
352,96,334682,1,8,0:0:0:0:
160,96,334757,1,0,0:0:0:0:
352,96,334832,1,8,0:0:0:0:
160,96,334907,1,0,0:0:0:0:
352,96,334982,1,8,0:0:0:0:
160,96,335057,1,0,0:0:0:0:
352,96,335132,1,8,0:0:0:0:
160,96,335207,1,0,0:0:0:0:
352,96,335282,1,8,0:0:0:0:
352,96,335357,1,8,0:0:0:0:
352,96,335432,1,8,0:0:0:0:
160,96,335507,1,0,0:0:0:0:
352,96,335582,1,8,0:0:0:0:
352,96,335657,1,8,0:0:0:0:
160,96,335732,1,0,0:0:0:0:
160,96,335807,1,0,0:0:0:0:
352,96,335882,1,8,0:0:0:0:
160,96,335957,1,0,0:0:0:0:
352,96,336032,1,8,0:0:0:0:
160,96,336107,1,0,0:0:0:0:
352,96,336182,1,8,0:0:0:0:
160,96,336257,1,0,0:0:0:0:
352,96,336332,1,8,0:0:0:0:
160,96,336407,1,0,0:0:0:0:
352,96,336482,1,8,0:0:0:0:
352,96,336557,1,8,0:0:0:0:
160,96,336632,1,0,0:0:0:0:
160,96,336707,1,0,0:0:0:0:
352,96,336782,1,8,0:0:0:0:
160,96,336857,1,0,0:0:0:0:
160,96,336932,1,0,0:0:0:0:
160,288,337082,1,4,0:0:0:0:
160,288,337682,1,4,0:0:0:0:
160,288,338282,1,4,0:0:0:0:
160,288,338882,1,4,0:0:0:0:
352,96,339482,1,8,0:0:0:0:
352,96,339519,1,8,0:0:0:0:
352,96,339632,1,8,0:0:0:0:
352,96,339669,1,8,0:0:0:0:
352,96,339782,1,8,0:0:0:0:
352,96,339819,1,8,0:0:0:0:
160,96,339932,1,0,0:0:0:0:
160,96,339969,1,0,0:0:0:0:
352,96,340082,1,8,0:0:0:0:
352,96,340119,1,8,0:0:0:0:
352,96,340232,1,8,0:0:0:0:
352,96,340269,1,8,0:0:0:0:
352,96,340382,1,8,0:0:0:0:
352,96,340419,1,8,0:0:0:0:
160,96,340532,1,0,0:0:0:0:
160,96,340569,1,0,0:0:0:0:
352,96,340682,1,8,0:0:0:0:
352,96,340719,1,8,0:0:0:0:
352,96,340982,1,8,0:0:0:0:
352,96,341019,1,8,0:0:0:0:
352,96,341282,1,8,0:0:0:0:
352,96,341319,1,8,0:0:0:0:
160,96,341432,1,0,0:0:0:0:
160,96,341469,1,0,0:0:0:0:
160,96,341582,1,0,0:0:0:0:
160,96,341619,1,0,0:0:0:0:
160,288,341882,1,4,0:0:0:0:
352,96,342032,1,8,0:0:0:0:
160,96,342182,1,0,0:0:0:0:
160,96,342257,1,0,0:0:0:0:
352,96,342332,1,8,0:0:0:0:
352,96,342407,1,8,0:0:0:0:
160,96,342482,1,0,0:0:0:0:
352,96,342632,1,8,0:0:0:0:
160,96,342782,1,0,0:0:0:0:
160,96,342857,1,0,0:0:0:0:
352,96,342932,1,8,0:0:0:0:
352,96,343082,1,8,0:0:0:0:
160,96,343157,1,0,0:0:0:0:
352,96,343232,1,8,0:0:0:0:
352,96,343307,1,8,0:0:0:0:
160,96,343382,1,0,0:0:0:0:
160,96,343457,1,0,0:0:0:0:
352,96,343532,1,8,0:0:0:0:
160,96,343682,1,0,0:0:0:0:
352,96,343832,1,8,0:0:0:0:
352,96,343907,1,8,0:0:0:0:
160,96,343982,1,0,0:0:0:0:
160,96,344057,1,0,0:0:0:0:
352,96,344132,1,8,0:0:0:0:
352,96,344282,1,8,0:0:0:0:
160,96,344357,1,0,0:0:0:0:
352,96,344432,1,8,0:0:0:0:
352,96,344507,1,8,0:0:0:0:
160,96,344582,1,0,0:0:0:0:
352,96,344657,1,8,0:0:0:0:
160,96,344732,1,0,0:0:0:0:
160,96,344807,1,0,0:0:0:0:
352,96,344882,1,8,0:0:0:0:
160,96,344957,1,0,0:0:0:0:
352,96,345032,1,8,0:0:0:0:
352,96,345107,1,8,0:0:0:0:
160,96,345182,1,0,0:0:0:0:
352,96,345257,1,8,0:0:0:0:
160,96,345332,1,0,0:0:0:0:
160,96,345407,1,0,0:0:0:0:
352,96,345482,1,8,0:0:0:0:
352,96,345557,1,8,0:0:0:0:
160,96,345632,1,0,0:0:0:0:
160,96,345707,1,0,0:0:0:0:
352,96,345782,1,8,0:0:0:0:
160,96,345857,1,0,0:0:0:0:
160,96,345932,1,0,0:0:0:0:
160,96,346007,1,0,0:0:0:0:
352,96,346082,1,8,0:0:0:0:
352,96,346157,1,8,0:0:0:0:
160,96,346232,1,0,0:0:0:0:
160,96,346307,1,0,0:0:0:0:
352,96,346382,1,8,0:0:0:0:
160,96,346457,1,0,0:0:0:0:
352,96,346532,1,8,0:0:0:0:
160,96,346682,1,0,0:0:0:0:
352,96,346757,1,8,0:0:0:0:
352,96,346832,1,8,0:0:0:0:
160,96,346982,1,0,0:0:0:0:
352,96,347057,1,8,0:0:0:0:
352,96,347132,1,8,0:0:0:0:
160,96,347282,1,0,0:0:0:0:
160,96,347357,1,0,0:0:0:0:
352,96,347432,1,8,0:0:0:0:
160,96,347582,1,0,0:0:0:0:
160,96,347657,1,0,0:0:0:0:
352,96,347732,1,8,0:0:0:0:
160,96,347882,1,0,0:0:0:0:
160,96,347957,1,0,0:0:0:0:
352,96,348032,1,8,0:0:0:0:
160,96,348107,1,0,0:0:0:0:
352,96,348182,1,8,0:0:0:0:
352,96,348257,1,8,0:0:0:0:
160,96,348332,1,0,0:0:0:0:
32,192,348482,2,0,L|256:192,1,218.75
160,96,349082,1,0,0:0:0:0:
160,96,349157,1,0,0:0:0:0:
352,96,349232,1,8,0:0:0:0:
352,96,349307,1,8,0:0:0:0:
160,96,349382,1,0,0:0:0:0:
352,96,349457,1,8,0:0:0:0:
352,96,349532,1,8,0:0:0:0:
352,96,349607,1,8,0:0:0:0:
160,96,349682,1,0,0:0:0:0:
160,96,349757,1,0,0:0:0:0:
352,96,349832,1,8,0:0:0:0:
352,96,349907,1,8,0:0:0:0:
160,96,349982,1,0,0:0:0:0:
352,96,350057,1,8,0:0:0:0:
352,96,350132,1,8,0:0:0:0:
160,96,350207,1,0,0:0:0:0:
352,96,350282,1,8,0:0:0:0:
160,96,350357,1,0,0:0:0:0:
352,96,350432,1,8,0:0:0:0:
160,96,350507,1,0,0:0:0:0:
352,96,350582,1,8,0:0:0:0:
352,96,350657,1,8,0:0:0:0:
160,96,350732,1,0,0:0:0:0:
160,96,350807,1,0,0:0:0:0:
352,96,350882,1,8,0:0:0:0:
160,96,350957,1,0,0:0:0:0:
352,96,351032,1,8,0:0:0:0:
160,96,351107,1,0,0:0:0:0:
352,96,351182,1,8,0:0:0:0:
352,96,351257,1,8,0:0:0:0:
160,96,351332,1,0,0:0:0:0:
352,96,351407,1,8,0:0:0:0:
160,96,351482,1,0,0:0:0:0:
352,96,351632,1,8,0:0:0:0:
160,96,351782,1,0,0:0:0:0:
160,96,351857,1,0,0:0:0:0:
352,96,351932,1,8,0:0:0:0:
352,96,352007,1,8,0:0:0:0:
160,96,352082,1,0,0:0:0:0:
352,96,352232,1,8,0:0:0:0:
352,96,352307,1,8,0:0:0:0:
160,96,352382,1,0,0:0:0:0:
352,96,352532,1,8,0:0:0:0:
160,96,352682,1,0,0:0:0:0:
352,96,352832,1,8,0:0:0:0:
160,96,352982,1,0,0:0:0:0:
160,96,353057,1,0,0:0:0:0:
352,96,353132,1,8,0:0:0:0:
160,96,353282,1,0,0:0:0:0:
352,96,353432,1,8,0:0:0:0:
160,96,353582,1,0,0:0:0:0:
160,96,353657,1,0,0:0:0:0:
352,96,353732,1,8,0:0:0:0:
352,96,353807,1,8,0:0:0:0:
160,96,353882,1,0,0:0:0:0:
352,96,354032,1,8,0:0:0:0:
352,96,354107,1,8,0:0:0:0:
160,96,354182,1,0,0:0:0:0:
352,96,354332,1,8,0:0:0:0:
160,96,354482,1,0,0:0:0:0:
352,96,354632,1,8,0:0:0:0:
352,96,354707,1,8,0:0:0:0:
160,96,354782,1,0,0:0:0:0:
352,96,354932,1,8,0:0:0:0:
160,96,355082,1,0,0:0:0:0:
352,96,355232,1,8,0:0:0:0:
160,96,355307,1,0,0:0:0:0:
352,96,355382,1,8,0:0:0:0:
352,96,355457,1,8,0:0:0:0:
160,96,355532,1,0,0:0:0:0:
352,96,355682,1,8,0:0:0:0:
352,96,355757,1,8,0:0:0:0:
352,96,355832,1,8,0:0:0:0:
160,96,355907,1,0,0:0:0:0:
352,96,355982,1,8,0:0:0:0:
352,96,356057,1,8,0:0:0:0:
160,96,356132,1,0,0:0:0:0:
160,96,356207,1,0,0:0:0:0:
352,96,356282,1,8,0:0:0:0:
160,96,356357,1,0,0:0:0:0:
352,96,356432,1,8,0:0:0:0:
160,96,356507,1,0,0:0:0:0:
352,96,356582,1,8,0:0:0:0:
352,96,356657,1,8,0:0:0:0:
160,96,356732,1,0,0:0:0:0:
160,96,356807,1,0,0:0:0:0:
352,96,356882,1,8,0:0:0:0:
160,96,356957,1,0,0:0:0:0:
352,96,357032,1,8,0:0:0:0:
160,96,357107,1,0,0:0:0:0:
352,96,357182,1,8,0:0:0:0:
352,96,357257,1,8,0:0:0:0:
160,96,357332,1,0,0:0:0:0:
160,96,357407,1,0,0:0:0:0:
352,96,357482,1,8,0:0:0:0:
352,96,357557,1,8,0:0:0:0:
160,96,357632,1,0,0:0:0:0:
160,96,357707,1,0,0:0:0:0:
352,96,357782,1,8,0:0:0:0:
352,96,357857,1,8,0:0:0:0:
352,96,357932,1,8,0:0:0:0:
160,96,358007,1,0,0:0:0:0:
352,96,358082,1,8,0:0:0:0:
352,96,358157,1,8,0:0:0:0:
160,96,358232,1,0,0:0:0:0:
160,96,358307,1,0,0:0:0:0:
352,96,358382,1,8,0:0:0:0:
352,96,358457,1,8,0:0:0:0:
352,96,358532,1,8,0:0:0:0:
160,96,358607,1,0,0:0:0:0:
352,96,358682,1,8,0:0:0:0:
160,96,358757,1,0,0:0:0:0:
160,96,358832,1,0,0:0:0:0:
160,96,358907,1,0,0:0:0:0:
352,96,358982,1,8,0:0:0:0:
160,96,359057,1,0,0:0:0:0:
160,96,359132,1,0,0:0:0:0:
160,96,359207,1,0,0:0:0:0:
352,96,359282,1,8,0:0:0:0:
352,96,359357,1,8,0:0:0:0:
160,96,359432,1,0,0:0:0:0:
160,96,359507,1,0,0:0:0:0:
352,96,359582,1,8,0:0:0:0:
352,96,359657,1,8,0:0:0:0:
160,96,359732,1,0,0:0:0:0:
160,96,359807,1,0,0:0:0:0:
352,96,359882,1,8,0:0:0:0:
160,96,359957,1,0,0:0:0:0:
160,96,360032,1,0,0:0:0:0:
352,96,360107,1,8,0:0:0:0:
160,96,360182,1,0,0:0:0:0:
160,96,360257,1,0,0:0:0:0:
352,96,360332,1,8,0:0:0:0:
160,96,360407,1,0,0:0:0:0:
352,96,360482,1,8,0:0:0:0:
352,96,360557,1,8,0:0:0:0:
352,96,360632,1,8,0:0:0:0:
160,96,360707,1,0,0:0:0:0:
352,96,360782,1,8,0:0:0:0:
352,96,360857,1,8,0:0:0:0:
160,96,360932,1,0,0:0:0:0:
160,288,361082,1,4,0:0:0:0:
352,96,361232,1,8,0:0:0:0:
160,96,361382,1,0,0:0:0:0:
160,96,361457,1,0,0:0:0:0:
352,96,361532,1,8,0:0:0:0:
160,96,361682,1,0,0:0:0:0:
352,96,361832,1,8,0:0:0:0:
160,96,361907,1,0,0:0:0:0:
160,96,362057,1,0,0:0:0:0:
352,96,362132,1,8,0:0:0:0:
160,96,362282,1,0,0:0:0:0:
352,96,362432,1,8,0:0:0:0:
352,96,362507,1,8,0:0:0:0:
160,96,362582,1,0,0:0:0:0:
352,96,362732,1,8,0:0:0:0:
160,96,362882,1,0,0:0:0:0:
160,96,362957,1,0,0:0:0:0:
352,96,363032,1,8,0:0:0:0:
352,96,363107,1,8,0:0:0:0:
160,96,363182,1,0,0:0:0:0:
160,96,363257,1,0,0:0:0:0:
352,96,363332,1,8,0:0:0:0:
160,96,363482,1,0,0:0:0:0:
352,96,363632,1,8,0:0:0:0:
352,96,363707,1,8,0:0:0:0:
160,96,363782,1,0,0:0:0:0:
160,96,363857,1,0,0:0:0:0:
352,96,363932,1,8,0:0:0:0:
160,96,364082,1,0,0:0:0:0:
352,96,364232,1,8,0:0:0:0:
160,96,364307,1,0,0:0:0:0:
160,96,364457,1,0,0:0:0:0:
352,96,364532,1,8,0:0:0:0:
160,96,364682,1,0,0:0:0:0:
160,96,364757,1,0,0:0:0:0:
352,96,364832,1,8,0:0:0:0:
160,96,364982,1,0,0:0:0:0:
160,96,365057,1,0,0:0:0:0:
352,96,365132,1,8,0:0:0:0:
160,96,365282,1,0,0:0:0:0:
160,96,365357,1,0,0:0:0:0:
352,96,365432,1,8,0:0:0:0:
160,96,365507,1,0,0:0:0:0:
352,96,365582,1,8,0:0:0:0:
352,96,365657,1,8,0:0:0:0:
352,96,365732,1,8,0:0:0:0:
352,96,365807,1,8,0:0:0:0:
160,96,365882,1,0,0:0:0:0:
352,96,366032,1,8,0:0:0:0:
160,96,366182,1,0,0:0:0:0:
160,96,366257,1,0,0:0:0:0:
352,96,366332,1,8,0:0:0:0:
160,96,366407,1,0,0:0:0:0:
160,96,366482,1,0,0:0:0:0:
352,96,366632,1,8,0:0:0:0:
160,96,366707,1,0,0:0:0:0:
160,96,366857,1,0,0:0:0:0:
352,96,366932,1,8,0:0:0:0:
352,96,367007,1,8,0:0:0:0:
160,96,367082,1,0,0:0:0:0:
352,96,367232,1,8,0:0:0:0:
352,96,367307,1,8,0:0:0:0:
160,96,367382,1,0,0:0:0:0:
352,96,367532,1,8,0:0:0:0:
352,96,367607,1,8,0:0:0:0:
160,96,367682,1,0,0:0:0:0:
160,96,367757,1,0,0:0:0:0:
352,96,367832,1,8,0:0:0:0:
160,96,367982,1,0,0:0:0:0:
160,96,368057,1,0,0:0:0:0:
352,96,368132,1,8,0:0:0:0:
352,96,368282,1,8,0:0:0:0:
352,96,368357,1,8,0:0:0:0:
160,96,368432,1,0,0:0:0:0:
160,96,368507,1,0,0:0:0:0:
352,96,368582,1,8,0:0:0:0:
160,96,368657,1,0,0:0:0:0:
352,96,368732,1,8,0:0:0:0:
160,96,368807,1,0,0:0:0:0:
352,96,368882,1,8,0:0:0:0:
352,96,368957,1,8,0:0:0:0:
352,96,369032,1,8,0:0:0:0:
352,96,369107,1,8,0:0:0:0:
160,96,369182,1,0,0:0:0:0:
160,96,369257,1,0,0:0:0:0:
352,96,369332,1,8,0:0:0:0:
160,96,369407,1,0,0:0:0:0:
352,96,369482,1,8,0:0:0:0:
352,96,369557,1,8,0:0:0:0:
352,96,369632,1,8,0:0:0:0:
352,96,369707,1,8,0:0:0:0:
160,96,369782,1,0,0:0:0:0:
160,96,369857,1,0,0:0:0:0:
352,96,369932,1,8,0:0:0:0:
160,96,370007,1,0,0:0:0:0:
160,96,370082,1,0,0:0:0:0:
160,96,370157,1,0,0:0:0:0:
352,96,370232,1,8,0:0:0:0:
352,96,370307,1,8,0:0:0:0:
352,96,370382,1,8,0:0:0:0:
352,96,370457,1,8,0:0:0:0:
160,96,370532,1,0,0:0:0:0:
160,96,370607,1,0,0:0:0:0:
352,96,370682,1,8,0:0:0:0:
160,96,370757,1,0,0:0:0:0:
352,96,370832,1,8,0:0:0:0:
160,96,370907,1,0,0:0:0:0:
160,96,370982,1,0,0:0:0:0:
160,96,371057,1,0,0:0:0:0:
352,96,371132,1,8,0:0:0:0:
352,96,371207,1,8,0:0:0:0:
160,96,371282,1,0,0:0:0:0:
160,96,371357,1,0,0:0:0:0:
352,96,371432,1,8,0:0:0:0:
160,96,371507,1,0,0:0:0:0:
352,96,371582,1,8,0:0:0:0:
352,96,371657,1,8,0:0:0:0:
160,96,371732,1,0,0:0:0:0:
160,96,371807,1,0,0:0:0:0:
352,96,371882,1,8,0:0:0:0:
160,96,371957,1,0,0:0:0:0:
352,96,372032,1,8,0:0:0:0:
352,96,372107,1,8,0:0:0:0:
160,96,372182,1,0,0:0:0:0:
160,96,372257,1,0,0:0:0:0:
352,96,372332,1,8,0:0:0:0:
160,96,372407,1,0,0:0:0:0:
160,96,372482,1,0,0:0:0:0:
160,96,372557,1,0,0:0:0:0:
352,96,372632,1,8,0:0:0:0:
160,96,372707,1,0,0:0:0:0:
352,96,372782,1,8,0:0:0:0:
352,96,372857,1,8,0:0:0:0:
160,96,372932,1,0,0:0:0:0:
160,96,373007,1,0,0:0:0:0:
352,96,373082,1,8,0:0:0:0:
160,96,373157,1,0,0:0:0:0:
352,96,373232,1,8,0:0:0:0:
352,96,373307,1,8,0:0:0:0:
160,96,373382,1,0,0:0:0:0:
160,96,373457,1,0,0:0:0:0:
352,96,373532,1,8,0:0:0:0:
160,96,373607,1,0,0:0:0:0:
160,96,373682,1,0,0:0:0:0:
160,96,373757,1,0,0:0:0:0:
352,96,373832,1,8,0:0:0:0:
160,96,373907,1,0,0:0:0:0:
352,96,373982,1,8,0:0:0:0:
352,96,374057,1,8,0:0:0:0:
160,96,374132,1,0,0:0:0:0:
352,96,374207,1,8,0:0:0:0:
160,96,374282,1,0,0:0:0:0:
160,96,374432,1,0,0:0:0:0:
352,96,374582,1,8,0:0:0:0:
352,96,374657,1,8,0:0:0:0:
352,96,374732,1,8,0:0:0:0:
352,96,374807,1,8,0:0:0:0:
160,96,374882,1,0,0:0:0:0:
160,96,375032,1,0,0:0:0:0:
352,96,375182,1,8,0:0:0:0:
352,96,375257,1,8,0:0:0:0:
160,96,375332,1,0,0:0:0:0:
160,96,375407,1,0,0:0:0:0:
352,96,375482,1,8,0:0:0:0:
160,96,375557,1,0,0:0:0:0:
352,96,375632,1,8,0:0:0:0:
352,96,375707,1,8,0:0:0:0:
160,96,375782,1,0,0:0:0:0:
160,96,375857,1,0,0:0:0:0:
352,96,375932,1,8,0:0:0:0:
160,96,376007,1,0,0:0:0:0:
160,96,376082,1,0,0:0:0:0:
160,96,376157,1,0,0:0:0:0:
352,96,376232,1,8,0:0:0:0:
352,96,376307,1,8,0:0:0:0:
160,96,376382,1,0,0:0:0:0:
160,96,376457,1,0,0:0:0:0:
352,96,376532,1,8,0:0:0:0:
160,96,376607,1,0,0:0:0:0:
352,96,376682,1,8,0:0:0:0:
352,96,376757,1,8,0:0:0:0:
160,96,376832,1,0,0:0:0:0:
160,96,376907,1,0,0:0:0:0:
352,96,376982,1,8,0:0:0:0:
160,96,377057,1,0,0:0:0:0:
352,96,377132,1,8,0:0:0:0:
352,96,377207,1,8,0:0:0:0:
160,96,377282,1,0,0:0:0:0:
160,96,377357,1,0,0:0:0:0:
352,96,377432,1,8,0:0:0:0:
160,96,377507,1,0,0:0:0:0:
160,96,377582,1,0,0:0:0:0:
160,96,377657,1,0,0:0:0:0:
352,96,377732,1,8,0:0:0:0:
352,96,377807,1,8,0:0:0:0:
160,96,377882,1,0,0:0:0:0:
160,96,378032,1,0,0:0:0:0:
352,96,378182,1,8,0:0:0:0:
352,96,378257,1,8,0:0:0:0:
352,96,378332,1,8,0:0:0:0:
352,96,378407,1,8,0:0:0:0:
160,96,378482,1,0,0:0:0:0:
160,96,378632,1,0,0:0:0:0:
352,96,378782,1,8,0:0:0:0:
352,96,378857,1,8,0:0:0:0:
352,96,378932,1,8,0:0:0:0:
352,96,379007,1,8,0:0:0:0:
160,96,379082,1,0,0:0:0:0:
160,96,379157,1,0,0:0:0:0:
352,96,379232,1,8,0:0:0:0:
160,96,379307,1,0,0:0:0:0:
352,96,379382,1,8,0:0:0:0:
352,96,379457,1,8,0:0:0:0:
352,96,379532,1,8,0:0:0:0:
352,96,379607,1,8,0:0:0:0:
160,96,379682,1,0,0:0:0:0:
160,96,379757,1,0,0:0:0:0:
352,96,379832,1,8,0:0:0:0:
160,96,379907,1,0,0:0:0:0:
352,96,379982,1,8,0:0:0:0:
352,96,380057,1,8,0:0:0:0:
160,96,380132,1,0,0:0:0:0:
160,288,380282,1,4,0:0:0:0:
352,288,381482,1,12,0:0:0:0:
160,288,382682,1,4,0:0:0:0:
352,96,382832,1,8,0:0:0:0:
160,96,382982,1,0,0:0:0:0:
160,96,383057,1,0,0:0:0:0:
352,96,383132,1,8,0:0:0:0:
352,96,383282,1,8,0:0:0:0:
160,96,383357,1,0,0:0:0:0:
352,96,383432,1,8,0:0:0:0:
352,96,383507,1,8,0:0:0:0:
160,96,383582,1,0,0:0:0:0:
352,96,383732,1,8,0:0:0:0:
160,96,383882,1,0,0:0:0:0:
352,96,384032,1,8,0:0:0:0:
160,96,384182,1,0,0:0:0:0:
160,96,384257,1,0,0:0:0:0:
352,96,384332,1,8,0:0:0:0:
352,96,384482,1,8,0:0:0:0:
352,96,384557,1,8,0:0:0:0:
352,96,384632,1,8,0:0:0:0:
160,96,384782,1,0,0:0:0:0:
160,96,384857,1,0,0:0:0:0:
352,96,384932,1,8,0:0:0:0:
160,96,385082,1,0,0:0:0:0:
352,96,385232,1,8,0:0:0:0:
352,96,385307,1,8,0:0:0:0:
160,96,385382,1,0,0:0:0:0:
352,96,385532,1,8,0:0:0:0:
352,96,385607,1,8,0:0:0:0:
160,96,385682,1,0,0:0:0:0:
160,96,385757,1,0,0:0:0:0:
352,96,385832,1,8,0:0:0:0:
160,96,385982,1,0,0:0:0:0:
160,96,386057,1,0,0:0:0:0:
352,96,386132,1,8,0:0:0:0:
352,96,386282,1,8,0:0:0:0:
160,96,386357,1,0,0:0:0:0:
352,96,386432,1,8,0:0:0:0:
160,96,386507,1,0,0:0:0:0:
160,96,386582,1,0,0:0:0:0:
160,96,386657,1,0,0:0:0:0:
352,96,386732,1,8,0:0:0:0:
160,96,386882,1,0,0:0:0:0:
160,96,386957,1,0,0:0:0:0:
352,96,387032,1,8,0:0:0:0:
352,96,387182,1,8,0:0:0:0:
352,96,387257,1,8,0:0:0:0:
160,96,387332,1,0,0:0:0:0:
352,96,387407,1,8,0:0:0:0:
160,96,387482,1,0,0:0:0:0:
352,96,387632,1,8,0:0:0:0:
352,96,387782,1,8,0:0:0:0:
160,96,387857,1,0,0:0:0:0:
352,96,387932,1,8,0:0:0:0:
352,96,388082,1,8,0:0:0:0:
352,96,388157,1,8,0:0:0:0:
160,96,388232,1,0,0:0:0:0:
160,96,388307,1,0,0:0:0:0:
352,96,388382,1,8,0:0:0:0:
160,96,388457,1,0,0:0:0:0:
352,96,388532,1,8,0:0:0:0:
160,96,388682,1,0,0:0:0:0:
160,96,388757,1,0,0:0:0:0:
352,96,388832,1,8,0:0:0:0:
352,96,388907,1,8,0:0:0:0:
160,96,388982,1,0,0:0:0:0:
352,96,389132,1,8,0:0:0:0:
352,96,389207,1,8,0:0:0:0:
160,96,389282,1,0,0:0:0:0:
160,96,389357,1,0,0:0:0:0:
352,96,389432,1,8,0:0:0:0:
352,96,389582,1,8,0:0:0:0:
352,96,389657,1,8,0:0:0:0:
160,96,389732,1,0,0:0:0:0:
352,96,389882,1,8,0:0:0:0:
352,96,389957,1,8,0:0:0:0:
160,96,390032,1,0,0:0:0:0:
160,96,390107,1,0,0:0:0:0:
352,96,390182,1,8,0:0:0:0:
160,96,390257,1,0,0:0:0:0:
352,96,390332,1,8,0:0:0:0:
160,96,390482,1,0,0:0:0:0:
352,96,390632,1,8,0:0:0:0:
160,96,390782,1,0,0:0:0:0:
352,96,390932,1,8,0:0:0:0:
32,192,391082,2,8,L|504:32,1,498.75
352,96,392282,1,8,0:0:0:0:
352,96,392357,1,8,0:0:0:0:
352,96,392432,1,8,0:0:0:0:
160,96,392507,1,0,0:0:0:0:
352,96,392582,1,8,0:0:0:0:
352,96,392657,1,8,0:0:0:0:
160,96,392732,1,0,0:0:0:0:
160,96,392807,1,0,0:0:0:0:
352,96,392882,1,8,0:0:0:0:
352,96,392957,1,8,0:0:0:0:
352,96,393032,1,8,0:0:0:0:
160,96,393107,1,0,0:0:0:0:
352,96,393182,1,8,0:0:0:0:
352,96,393257,1,8,0:0:0:0:
160,96,393332,1,0,0:0:0:0:
160,96,393407,1,0,0:0:0:0:
352,96,393482,1,8,0:0:0:0:
160,96,393557,1,0,0:0:0:0:
160,96,393632,1,0,0:0:0:0:
352,96,393707,1,8,0:0:0:0:
160,96,393782,1,0,0:0:0:0:
160,96,393857,1,0,0:0:0:0:
352,96,393932,1,8,0:0:0:0:
160,96,394007,1,0,0:0:0:0:
352,96,394082,1,8,0:0:0:0:
160,96,394157,1,0,0:0:0:0:
160,96,394232,1,0,0:0:0:0:
352,96,394307,1,8,0:0:0:0:
160,96,394382,1,0,0:0:0:0:
160,96,394457,1,0,0:0:0:0:
352,96,394532,1,8,0:0:0:0:
160,96,394607,1,0,0:0:0:0:
352,96,394682,1,8,0:0:0:0:
160,96,394757,1,0,0:0:0:0:
352,96,394832,1,8,0:0:0:0:
352,96,394907,1,8,0:0:0:0:
160,96,394982,1,0,0:0:0:0:
160,96,395057,1,0,0:0:0:0:
352,96,395132,1,8,0:0:0:0:
352,96,395207,1,8,0:0:0:0:
160,96,395282,1,0,0:0:0:0:
160,96,395357,1,0,0:0:0:0:
352,96,395432,1,8,0:0:0:0:
160,96,395507,1,0,0:0:0:0:
352,96,395582,1,8,0:0:0:0:
352,96,395657,1,8,0:0:0:0:
160,96,395732,1,0,0:0:0:0:
160,96,395807,1,0,0:0:0:0:
160,96,395882,1,0,0:0:0:0:
160,96,395957,1,0,0:0:0:0:
352,96,396032,1,8,0:0:0:0:
160,96,396107,1,0,0:0:0:0:
352,96,396182,1,8,0:0:0:0:
352,96,396257,1,8,0:0:0:0:
160,96,396332,1,0,0:0:0:0:
160,96,396407,1,0,0:0:0:0:
352,96,396482,1,8,0:0:0:0:
352,96,396582,1,8,0:0:0:0:
352,96,396682,1,8,0:0:0:0:
352,96,396782,1,8,0:0:0:0:
160,96,397082,1,0,0:0:0:0:
352,96,397232,1,8,0:0:0:0:
352,96,397307,1,8,0:0:0:0:
160,96,397382,1,0,0:0:0:0:
160,96,397457,1,0,0:0:0:0:
352,96,397532,1,8,0:0:0:0:
352,96,397682,1,8,0:0:0:0:
160,96,397757,1,0,0:0:0:0:
352,96,397832,1,8,0:0:0:0:
160,96,397907,1,0,0:0:0:0:
352,96,397982,1,8,0:0:0:0:
160,96,398132,1,0,0:0:0:0:
160,96,398282,1,0,0:0:0:0:
352,96,398357,1,8,0:0:0:0:
160,96,398432,1,0,0:0:0:0:
352,96,398507,1,8,0:0:0:0:
160,96,398582,1,0,0:0:0:0:
160,96,398732,1,0,0:0:0:0:
160,96,398807,1,0,0:0:0:0:
352,96,398882,1,8,0:0:0:0:
160,96,398957,1,0,0:0:0:0:
352,96,399032,1,8,0:0:0:0:
352,96,399182,1,8,0:0:0:0:
160,96,399332,1,0,0:0:0:0:
352,96,399482,1,8,0:0:0:0:
160,96,399632,1,0,0:0:0:0:
352,96,399707,1,8,0:0:0:0:
160,96,399782,1,0,0:0:0:0:
160,96,399857,1,0,0:0:0:0:
352,96,399932,1,8,0:0:0:0:
160,96,400082,1,0,0:0:0:0:
352,96,400232,1,8,0:0:0:0:
352,96,400382,1,8,0:0:0:0:
160,96,400457,1,0,0:0:0:0:
352,96,400532,1,8,0:0:0:0:
352,96,400682,1,8,0:0:0:0:
352,96,400757,1,8,0:0:0:0:
352,96,400832,1,8,0:0:0:0:
352,96,400907,1,8,0:0:0:0:
160,96,400982,1,0,0:0:0:0:
160,96,401057,1,0,0:0:0:0:
160,96,401132,1,0,0:0:0:0:
160,96,401207,1,0,0:0:0:0:
352,96,401282,1,8,0:0:0:0:
352,96,401357,1,8,0:0:0:0:
160,96,401432,1,0,0:0:0:0:
352,96,401507,1,8,0:0:0:0:
160,96,401582,1,0,0:0:0:0:
160,96,401657,1,0,0:0:0:0:
160,96,401732,1,0,0:0:0:0:
160,96,401807,1,0,0:0:0:0:
352,96,401882,1,8,0:0:0:0:
352,96,401957,1,8,0:0:0:0:
160,96,402032,1,0,0:0:0:0:
160,96,402107,1,0,0:0:0:0:
352,96,402182,1,8,0:0:0:0:
352,96,402257,1,8,0:0:0:0:
352,96,402332,1,8,0:0:0:0:
352,96,402407,1,8,0:0:0:0:
160,96,402482,1,0,0:0:0:0:
160,96,402557,1,0,0:0:0:0:
352,96,402632,1,8,0:0:0:0:
160,96,402707,1,0,0:0:0:0:
352,96,402782,1,8,0:0:0:0:
352,96,402857,1,8,0:0:0:0:
160,96,402932,1,0,0:0:0:0:
352,96,403007,1,8,0:0:0:0:
352,96,403082,1,8,0:0:0:0:
352,96,403157,1,8,0:0:0:0:
160,96,403232,1,0,0:0:0:0:
160,96,403307,1,0,0:0:0:0:
352,96,403382,1,8,0:0:0:0:
160,96,403457,1,0,0:0:0:0:
352,96,403532,1,8,0:0:0:0:
352,96,403607,1,8,0:0:0:0:
160,96,403682,1,0,0:0:0:0:
352,96,403757,1,8,0:0:0:0:
352,96,403832,1,8,0:0:0:0:
160,96,403907,1,0,0:0:0:0:
352,96,403982,1,8,0:0:0:0:
160,96,404057,1,0,0:0:0:0:
160,96,404132,1,0,0:0:0:0:
160,96,404207,1,0,0:0:0:0:
352,96,404282,1,8,0:0:0:0:
352,96,404357,1,8,0:0:0:0:
160,96,404432,1,0,0:0:0:0:
160,96,404507,1,0,0:0:0:0:
352,96,404582,1,8,0:0:0:0:
160,96,404657,1,0,0:0:0:0:
352,96,404732,1,8,0:0:0:0:
160,96,404807,1,0,0:0:0:0:
352,96,404882,1,8,0:0:0:0:
352,96,404957,1,8,0:0:0:0:
160,96,405032,1,0,0:0:0:0:
160,96,405107,1,0,0:0:0:0:
352,96,405182,1,8,0:0:0:0:
160,96,405257,1,0,0:0:0:0:
160,96,405332,1,0,0:0:0:0:
160,96,405407,1,0,0:0:0:0:
352,96,405482,1,8,0:0:0:0:
352,96,405557,1,8,0:0:0:0:
352,96,405632,1,8,0:0:0:0:
352,96,405707,1,8,0:0:0:0:
160,96,405782,1,0,0:0:0:0:
160,96,405857,1,0,0:0:0:0:
352,96,405932,1,8,0:0:0:0:
352,96,406007,1,8,0:0:0:0:
352,96,406082,1,8,0:0:0:0:
352,96,406157,1,8,0:0:0:0:
160,96,406232,1,0,0:0:0:0:
160,96,406307,1,0,0:0:0:0:
352,96,406382,1,8,0:0:0:0:
352,96,406457,1,8,0:0:0:0:
160,96,406532,1,0,0:0:0:0:
352,288,406682,1,12,0:0:0:0:
160,288,409082,1,4,0:0:0:0:
352,96,411482,1,8,0:0:0:0:
160,96,411707,1,0,0:0:0:0:
352,96,411782,1,8,0:0:0:0:
160,96,411932,1,0,0:0:0:0:
352,96,412082,1,8,0:0:0:0:
160,96,412232,1,0,0:0:0:0:
352,96,412382,1,8,0:0:0:0:
160,96,412532,1,0,0:0:0:0:
352,96,412682,1,8,0:0:0:0:
160,96,412907,1,0,0:0:0:0:
352,96,412982,1,8,0:0:0:0:
160,96,413132,1,0,0:0:0:0:
352,96,413282,1,8,0:0:0:0:
160,96,413432,1,0,0:0:0:0:
352,96,413582,1,8,0:0:0:0:
160,96,413732,1,0,0:0:0:0:
352,96,413882,1,8,0:0:0:0:
160,96,413957,1,0,0:0:0:0:
160,96,414032,1,0,0:0:0:0:
160,96,414107,1,0,0:0:0:0:
160,96,414182,1,0,0:0:0:0:
160,96,414257,1,0,0:0:0:0:
352,96,414332,1,8,0:0:0:0:
160,96,414407,1,0,0:0:0:0:
160,96,414482,1,0,0:0:0:0:
160,96,414557,1,0,0:0:0:0:
160,96,414632,1,0,0:0:0:0:
160,96,414707,1,0,0:0:0:0:
352,96,414782,1,8,0:0:0:0:
352,96,414857,1,8,0:0:0:0:
160,96,414932,1,0,0:0:0:0:
160,288,415082,1,4,0:0:0:0:
160,288,415232,1,4,0:0:0:0:
160,288,415382,1,4,0:0:0:0:
160,288,415532,1,4,0:0:0:0:
352,288,415682,1,12,0:0:0:0:
352,288,415982,1,12,0:0:0:0:
160,288,416282,1,4,0:0:0:0:
352,96,416432,1,8,0:0:0:0:
160,96,416582,1,0,0:0:0:0:
160,96,416657,1,0,0:0:0:0:
352,96,416732,1,8,0:0:0:0:
160,96,416882,1,0,0:0:0:0:
352,96,417032,1,8,0:0:0:0:
160,96,417107,1,0,0:0:0:0:
160,96,417182,1,0,0:0:0:0:
160,96,417257,1,0,0:0:0:0:
352,96,417332,1,8,0:0:0:0:
352,96,417407,1,8,0:0:0:0:
160,96,417482,1,0,0:0:0:0:
352,96,417632,1,8,0:0:0:0:
352,96,417707,1,8,0:0:0:0:
160,96,417782,1,0,0:0:0:0:
352,96,417932,1,8,0:0:0:0:
160,96,418082,1,0,0:0:0:0:
352,96,418232,1,8,0:0:0:0:
160,96,418382,1,0,0:0:0:0:
160,96,418457,1,0,0:0:0:0:
352,96,418532,1,8,0:0:0:0:
352,96,418607,1,8,0:0:0:0:
160,96,418682,1,0,0:0:0:0:
160,96,418832,1,0,0:0:0:0:
160,96,418907,1,0,0:0:0:0:
352,96,418982,1,8,0:0:0:0:
352,96,419057,1,8,0:0:0:0:
352,96,419132,1,8,0:0:0:0:
160,96,419282,1,0,0:0:0:0:
160,96,419357,1,0,0:0:0:0:
352,96,419432,1,8,0:0:0:0:
352,96,419582,1,8,0:0:0:0:
352,96,419657,1,8,0:0:0:0:
352,96,419732,1,8,0:0:0:0:
160,96,419882,1,0,0:0:0:0:
160,96,419957,1,0,0:0:0:0:
352,96,420032,1,8,0:0:0:0:
160,96,420107,1,0,0:0:0:0:
160,96,420182,1,0,0:0:0:0:
160,96,420257,1,0,0:0:0:0:
352,96,420332,1,8,0:0:0:0:
352,96,420407,1,8,0:0:0:0:
160,96,420482,1,0,0:0:0:0:
160,96,420557,1,0,0:0:0:0:
352,96,420632,1,8,0:0:0:0:
160,96,420707,1,0,0:0:0:0:
352,96,420782,1,8,0:0:0:0:
352,96,420857,1,8,0:0:0:0:
160,96,420932,1,0,0:0:0:0:
160,96,421007,1,0,0:0:0:0:
160,96,421082,1,0,0:0:0:0:
352,96,421232,1,8,0:0:0:0:
160,96,421382,1,0,0:0:0:0:
160,96,421457,1,0,0:0:0:0:
352,96,421532,1,8,0:0:0:0:
160,96,421682,1,0,0:0:0:0:
352,96,421832,1,8,0:0:0:0:
352,96,421907,1,8,0:0:0:0:
160,96,421982,1,0,0:0:0:0:
160,96,422057,1,0,0:0:0:0:
352,96,422132,1,8,0:0:0:0:
160,96,422282,1,0,0:0:0:0:
160,96,422357,1,0,0:0:0:0:
352,96,422432,1,8,0:0:0:0:
352,96,422507,1,8,0:0:0:0:
160,96,422582,1,0,0:0:0:0:
160,96,422657,1,0,0:0:0:0:
352,96,422732,1,8,0:0:0:0:
160,96,422882,1,0,0:0:0:0:
352,96,423032,1,8,0:0:0:0:
160,96,423182,1,0,0:0:0:0:
160,96,423257,1,0,0:0:0:0:
352,96,423332,1,8,0:0:0:0:
160,96,423482,1,0,0:0:0:0:
160,96,423557,1,0,0:0:0:0:
352,96,423632,1,8,0:0:0:0:
352,96,423707,1,8,0:0:0:0:
160,96,423782,1,0,0:0:0:0:
160,96,423857,1,0,0:0:0:0:
352,96,423932,1,8,0:0:0:0:
160,96,424007,1,0,0:0:0:0:
160,96,424082,1,0,0:0:0:0:
160,96,424157,1,0,0:0:0:0:
352,96,424232,1,8,0:0:0:0:
160,96,424307,1,0,0:0:0:0:
160,96,424382,1,0,0:0:0:0:
160,96,424457,1,0,0:0:0:0:
352,96,424532,1,8,0:0:0:0:
160,96,424607,1,0,0:0:0:0:
352,96,424682,1,8,0:0:0:0:
352,96,424757,1,8,0:0:0:0:
352,96,424832,1,8,0:0:0:0:
352,96,424907,1,8,0:0:0:0:
160,96,424982,1,0,0:0:0:0:
160,96,425057,1,0,0:0:0:0:
160,96,425132,1,0,0:0:0:0:
160,96,425207,1,0,0:0:0:0:
352,96,425282,1,8,0:0:0:0:
352,96,425357,1,8,0:0:0:0:
160,96,425432,1,0,0:0:0:0:
160,96,425507,1,0,0:0:0:0:
352,96,425582,1,8,0:0:0:0:
160,96,425657,1,0,0:0:0:0:
352,96,425732,1,8,0:0:0:0:
160,96,425807,1,0,0:0:0:0:
352,96,425882,1,8,0:0:0:0:
160,96,425957,1,0,0:0:0:0:
160,96,426032,1,0,0:0:0:0:
160,96,426107,1,0,0:0:0:0:
352,96,426182,1,8,0:0:0:0:
160,96,426257,1,0,0:0:0:0:
352,96,426332,1,8,0:0:0:0:
352,96,426407,1,8,0:0:0:0:
160,96,426482,1,0,0:0:0:0:
160,96,426557,1,0,0:0:0:0:
352,96,426632,1,8,0:0:0:0:
160,96,426707,1,0,0:0:0:0:
160,96,426782,1,0,0:0:0:0:
160,96,426857,1,0,0:0:0:0:
352,96,426932,1,8,0:0:0:0:
160,96,427007,1,0,0:0:0:0:
352,96,427082,1,8,0:0:0:0:
160,96,427157,1,0,0:0:0:0:
160,96,427232,1,0,0:0:0:0:
160,96,427307,1,0,0:0:0:0:
352,96,427382,1,8,0:0:0:0:
160,96,427457,1,0,0:0:0:0:
352,96,427532,1,8,0:0:0:0:
352,96,427607,1,8,0:0:0:0:
160,96,427682,1,0,0:0:0:0:
160,96,427757,1,0,0:0:0:0:
352,96,427832,1,8,0:0:0:0:
160,96,427907,1,0,0:0:0:0:
160,96,427982,1,0,0:0:0:0:
160,96,428057,1,0,0:0:0:0:
352,96,428132,1,8,0:0:0:0:
160,96,428207,1,0,0:0:0:0:
352,96,428282,1,8,0:0:0:0:
160,96,428357,1,0,0:0:0:0:
160,96,428432,1,0,0:0:0:0:
160,96,428507,1,0,0:0:0:0:
352,96,428582,1,8,0:0:0:0:
160,96,428657,1,0,0:0:0:0:
352,96,428732,1,8,0:0:0:0:
352,96,428807,1,8,0:0:0:0:
160,96,428882,1,0,0:0:0:0:
160,96,428957,1,0,0:0:0:0:
352,96,429032,1,8,0:0:0:0:
160,96,429107,1,0,0:0:0:0:
160,96,429182,1,0,0:0:0:0:
160,96,429257,1,0,0:0:0:0:
352,96,429332,1,8,0:0:0:0:
160,96,429407,1,0,0:0:0:0:
352,96,429482,1,8,0:0:0:0:
352,96,429557,1,8,0:0:0:0:
352,96,429632,1,8,0:0:0:0:
352,96,429707,1,8,0:0:0:0:
160,96,429782,1,0,0:0:0:0:
160,96,429857,1,0,0:0:0:0:
352,96,429932,1,8,0:0:0:0:
160,96,430007,1,0,0:0:0:0:
352,96,430082,1,8,0:0:0:0:
352,96,430157,1,8,0:0:0:0:
352,96,430232,1,8,0:0:0:0:
352,96,430307,1,8,0:0:0:0:
160,96,430382,1,0,0:0:0:0:
160,96,430457,1,0,0:0:0:0:
352,96,430532,1,8,0:0:0:0:
352,96,430607,1,8,0:0:0:0:
160,96,430682,1,0,0:0:0:0:
352,96,430832,1,8,0:0:0:0:
160,96,430982,1,0,0:0:0:0:
160,96,431057,1,0,0:0:0:0:
352,96,431132,1,8,0:0:0:0:
352,96,431207,1,8,0:0:0:0:
160,96,431282,1,0,0:0:0:0:
352,96,431432,1,8,0:0:0:0:
352,96,431507,1,8,0:0:0:0:
160,96,431582,1,0,0:0:0:0:
160,96,431657,1,0,0:0:0:0:
352,96,431732,1,8,0:0:0:0:
160,96,431882,1,0,0:0:0:0:
352,96,432032,1,8,0:0:0:0:
160,96,432182,1,0,0:0:0:0:
160,96,432257,1,0,0:0:0:0:
352,96,432332,1,8,0:0:0:0:
160,96,432482,1,0,0:0:0:0:
352,96,432632,1,8,0:0:0:0:
352,96,432707,1,8,0:0:0:0:
160,96,432782,1,0,0:0:0:0:
352,96,432932,1,8,0:0:0:0:
352,96,433082,1,8,0:0:0:0:
160,96,433157,1,0,0:0:0:0:
160,96,433232,1,0,0:0:0:0:
160,96,433307,1,0,0:0:0:0:
352,96,433382,1,8,0:0:0:0:
160,96,433457,1,0,0:0:0:0:
352,96,433532,1,8,0:0:0:0:
160,96,433607,1,0,0:0:0:0:
160,96,433682,1,0,0:0:0:0:
160,96,433757,1,0,0:0:0:0:
352,96,433832,1,8,0:0:0:0:
352,96,433907,1,8,0:0:0:0:
160,96,433982,1,0,0:0:0:0:
160,96,434057,1,0,0:0:0:0:
352,96,434132,1,8,0:0:0:0:
160,96,434207,1,0,0:0:0:0:
352,96,434282,1,8,0:0:0:0:
352,96,434357,1,8,0:0:0:0:
160,96,434432,1,0,0:0:0:0:
160,96,434507,1,0,0:0:0:0:
352,96,434582,1,8,0:0:0:0:
160,96,434657,1,0,0:0:0:0:
352,96,434732,1,8,0:0:0:0:
160,96,434807,1,0,0:0:0:0:
352,96,434882,1,8,0:0:0:0:
160,96,434957,1,0,0:0:0:0:
352,96,435032,1,8,0:0:0:0:
352,96,435107,1,8,0:0:0:0:
352,96,435182,1,8,0:0:0:0:
352,96,435257,1,8,0:0:0:0:
352,96,435332,1,8,0:0:0:0:
32,352,435482,2,0,L|452:32,1,523.687484018326
352,96,436682,1,8,0:0:0:0:
352,96,436757,1,8,0:0:0:0:
352,96,436832,1,8,0:0:0:0:
352,96,436907,1,8,0:0:0:0:
160,96,436982,1,0,0:0:0:0:
160,96,437132,1,0,0:0:0:0:
352,96,437282,1,8,0:0:0:0:
352,96,437357,1,8,0:0:0:0:
352,96,437432,1,8,0:0:0:0:
352,96,437507,1,8,0:0:0:0:
160,96,437582,1,0,0:0:0:0:
160,96,437732,1,0,0:0:0:0:
352,96,437882,1,8,0:0:0:0:
160,96,437957,1,0,0:0:0:0:
160,96,438032,1,0,0:0:0:0:
160,96,438107,1,0,0:0:0:0:
352,96,438182,1,8,0:0:0:0:
352,96,438257,1,8,0:0:0:0:
160,96,438332,1,0,0:0:0:0:
160,96,438407,1,0,0:0:0:0:
352,96,438482,1,8,0:0:0:0:
352,96,438557,1,8,0:0:0:0:
160,96,438632,1,0,0:0:0:0:
160,96,438707,1,0,0:0:0:0:
352,96,438782,1,8,0:0:0:0:
160,96,438857,1,0,0:0:0:0:
160,96,438932,1,0,0:0:0:0:
160,96,439007,1,0,0:0:0:0:
352,96,439082,1,8,0:0:0:0:
352,96,439157,1,8,0:0:0:0:
352,96,439232,1,8,0:0:0:0:
160,96,439307,1,0,0:0:0:0:
352,96,439382,1,8,0:0:0:0:
352,96,439457,1,8,0:0:0:0:
160,96,439532,1,0,0:0:0:0:
160,96,439607,1,0,0:0:0:0:
352,96,439682,1,8,0:0:0:0:
352,96,439757,1,8,0:0:0:0:
160,96,439832,1,0,0:0:0:0:
352,96,439907,1,8,0:0:0:0:
352,96,439982,1,8,0:0:0:0:
352,96,440057,1,8,0:0:0:0:
160,96,440132,1,0,0:0:0:0:
160,96,440207,1,0,0:0:0:0:
352,96,440282,1,8,0:0:0:0:
160,96,440357,1,0,0:0:0:0:
160,96,440432,1,0,0:0:0:0:
160,96,440507,1,0,0:0:0:0:
352,96,440582,1,8,0:0:0:0:
352,96,440657,1,8,0:0:0:0:
160,96,440732,1,0,0:0:0:0:
160,96,440807,1,0,0:0:0:0:
352,96,440882,1,8,0:0:0:0:
160,96,440957,1,0,0:0:0:0:
160,96,441032,1,0,0:0:0:0:
160,96,441107,1,0,0:0:0:0:
352,96,441182,1,8,0:0:0:0:
352,96,441257,1,8,0:0:0:0:
160,96,441332,1,0,0:0:0:0:
160,96,441407,1,0,0:0:0:0:
352,96,441482,1,8,0:0:0:0:
352,96,441557,1,8,0:0:0:0:
352,96,441632,1,8,0:0:0:0:
160,96,441707,1,0,0:0:0:0:
352,96,441782,1,8,0:0:0:0:
352,96,441857,1,8,0:0:0:0:
352,96,441932,1,8,0:0:0:0:
160,96,442007,1,0,0:0:0:0:
352,96,442082,1,8,0:0:0:0:
352,96,442157,1,8,0:0:0:0:
160,96,442232,1,0,0:0:0:0:
352,96,442307,1,8,0:0:0:0:
352,96,442382,1,8,0:0:0:0:
352,96,442457,1,8,0:0:0:0:
160,96,442532,1,0,0:0:0:0:
160,288,442682,1,4,0:0:0:0:
352,96,442832,1,8,0:0:0:0:
160,96,442982,1,0,0:0:0:0:
160,96,443057,1,0,0:0:0:0:
352,96,443132,1,8,0:0:0:0:
160,96,443282,1,0,0:0:0:0:
352,96,443432,1,8,0:0:0:0:
160,96,443582,1,0,0:0:0:0:
160,96,443657,1,0,0:0:0:0:
352,96,443732,1,8,0:0:0:0:
352,96,443882,1,8,0:0:0:0:
352,96,443957,1,8,0:0:0:0:
160,96,444032,1,0,0:0:0:0:
160,96,444107,1,0,0:0:0:0:
352,96,444182,1,8,0:0:0:0:
160,96,444257,1,0,0:0:0:0:
352,96,444332,1,8,0:0:0:0:
352,96,444407,1,8,0:0:0:0:
160,96,444482,1,0,0:0:0:0:
160,96,444557,1,0,0:0:0:0:
352,96,444632,1,8,0:0:0:0:
352,96,444707,1,8,0:0:0:0:
352,96,444782,1,8,0:0:0:0:
352,96,444857,1,8,0:0:0:0:
160,96,444932,1,0,0:0:0:0:
160,288,445082,1,4,0:0:0:0:
352,288,446282,1,12,0:0:0:0:
32,192,447482,2,12,L|504:12,1,498.75
160,288,448682,1,4,0:0:0:0:
160,288,448982,1,4,0:0:0:0:
160,288,449282,1,4,0:0:0:0:
160,288,449582,1,4,0:0:0:0:
352,96,449882,1,8,0:0:0:0:
352,96,449957,1,8,0:0:0:0:
160,96,450032,1,0,0:0:0:0:
160,96,450107,1,0,0:0:0:0:
352,96,450182,1,8,0:0:0:0:
160,96,450257,1,0,0:0:0:0:
352,96,450332,1,8,0:0:0:0:
352,96,450407,1,8,0:0:0:0:
160,96,450482,1,0,0:0:0:0:
160,96,450557,1,0,0:0:0:0:
352,96,450632,1,8,0:0:0:0:
160,96,450707,1,0,0:0:0:0:
352,96,450782,1,8,0:0:0:0:
352,96,450857,1,8,0:0:0:0:
160,96,450932,1,0,0:0:0:0:
160,288,451082,1,4,0:0:0:0:
256,192,451232,12,4,455732,0:0:0:0:
352,96,455882,5,8,0:0:0:0:
352,96,455957,1,8,0:0:0:0:
352,96,456032,1,8,0:0:0:0:
160,96,456107,1,0,0:0:0:0:
352,96,456182,1,8,0:0:0:0:
352,96,456257,1,8,0:0:0:0:
160,96,456332,1,0,0:0:0:0:
160,96,456407,1,0,0:0:0:0:
352,96,456482,1,8,0:0:0:0:
160,96,456557,1,0,0:0:0:0:
352,96,456632,1,8,0:0:0:0:
160,96,456707,1,0,0:0:0:0:
352,96,456782,1,8,0:0:0:0:
352,96,456857,1,8,0:0:0:0:
160,96,456932,1,0,0:0:0:0:
160,96,457007,1,0,0:0:0:0:
352,96,457082,1,8,0:0:0:0:
160,96,457157,1,0,0:0:0:0:
352,96,457232,1,8,0:0:0:0:
352,96,457307,1,8,0:0:0:0:
160,96,457382,1,0,0:0:0:0:
160,96,457457,1,0,0:0:0:0:
352,96,457532,1,8,0:0:0:0:
352,96,457607,1,8,0:0:0:0:
160,96,457682,1,0,0:0:0:0:
352,96,457757,1,8,0:0:0:0:
160,96,457832,1,0,0:0:0:0:
160,96,457907,1,0,0:0:0:0:
352,96,457982,1,8,0:0:0:0:
160,96,458057,1,0,0:0:0:0:
160,96,458132,1,0,0:0:0:0:
352,288,458282,1,12,0:0:0:0:
160,288,458882,1,4,0:0:0:0:
352,288,459482,1,12,0:0:0:0:
160,288,459632,1,4,0:0:0:0:
352,288,459782,1,12,0:0:0:0:
352,288,459932,1,12,0:0:0:0:
160,288,460082,1,4,0:0:0:0:
