osu file format v14

[General]
AudioFilename: audio.mp3
AudioLeadIn: 0
PreviewTime: 71285
Countdown: 0
SampleSet: Soft
StackLeniency: 0.5
Mode: 0
LetterboxInBreaks: 0
WidescreenStoryboard: 0

[Editor]
DistanceSpacing: 1
BeatDivisor: 4
GridSize: 32
TimelineZoom: 3.099998

[Metadata]
Title:Midnight Madness
TitleUnicode:Midnight Madness
Artist:DragonForce
ArtistUnicode:DragonForce
Creator:Nyarlothotep
Version:Legend
Source:
Tags:deathstream reaching into infinity marathon
BeatmapID:1509505
BeatmapSetID:677895

[Difficulty]
HPDrainRate:6
CircleSize:4.5
OverallDifficulty:8
ApproachRate:9.5
SliderMultiplier:1.5
SliderTickRate:1

[Events]
//Background and Video events
0,0,"bg.jpg",0,0
//Break Periods
//Storyboard Layer 0 (Background)
//Storyboard Layer 1 (Fail)
//Storyboard Layer 2 (Pass)
//Storyboard Layer 3 (Foreground)
//Storyboard Sound Samples

[TimingPoints]
485,300,4,1,1,30,1,0
2885,-100,4,1,1,60,0,0
12935,-83.3333333333333,4,1,1,60,0,0
24485,-100,4,1,1,60,0,0
31685,-125,4,1,1,60,0,0
32585,-142.857142857143,4,1,1,60,0,0
34085,-83.3333333333333,4,1,1,60,0,0
43685,-66.6666666666667,4,1,1,60,0,0
53285,-200,4,2,1,60,0,0
62885,-133.333333333333,4,2,1,60,0,0
65285,-200,4,2,1,60,0,0
67385,-125,4,2,1,60,0,0
67685,-200,4,2,1,60,0,0
70085,-100,4,1,1,60,0,0
70385,-133.333333333333,4,1,1,60,0,0
72485,-66.6666666666667,4,1,1,60,0,1
91685,-83.3333333333333,4,1,1,60,0,0
111185,-76.9230769230769,4,1,1,60,0,0
120485,-71.4285714285714,4,1,1,60,0,0
127685,-100,4,1,1,60,0,0
130085,-66.6666666666667,4,1,1,60,0,0
139685,-200,4,2,1,60,0,0
153785,-142.857142857143,4,2,1,60,0,0
154085,-200,4,2,1,60,0,0
154535,-200,4,2,1,60,0,0
156485,-100,4,1,1,60,0,0
157085,-133.333333333333,4,1,1,60,0,0
158885,-71.4285714285714,4,1,1,60,0,1
178085,-100,4,3,1,60,0,0
186485,-100,4,1,1,60,0,0
202085,-66.6666666666667,4,1,1,60,0,0
204485,-83.3333333333333,4,1,1,60,0,0
211685,-200,4,2,1,60,0,0
213485,-200,4,2,1,60,0,0
221285,-200,4,2,1,60,0,0
228485,-100,4,1,1,60,0,0
234485,-76.9230769230769,4,1,1,60,0,0
239285,-100,4,1,1,60,0,0
242885,-76.9230769230769,4,1,1,60,0,0
249485,-100,4,1,1,60,0,0
250085,-66.6666666666667,4,1,1,60,0,0
258485,-100,4,1,1,60,0,0
263585,-100,4,1,1,60,0,0
278885,-71.4285714285714,4,1,1,60,0,0
288935,-100,4,1,1,60,0,0
316985,-71.4285714285714,4,1,1,60,0,0
317285,-200,4,2,1,60,0,0
321335,-142.857142857143,4,2,1,60,0,0
324485,-200,4,2,1,60,0,0
326285,-142.857142857143,4,2,1,60,0,0
329285,-200,4,2,1,60,0,0
331385,-142.857142857143,4,2,1,60,0,0
331685,-200,4,2,1,60,0,0
332285,-200,4,2,1,60,0,0
335285,-200,4,1,1,60,0,1
337385,-71.4285714285714,4,1,1,60,0,1
355685,-100,4,1,1,60,0,0

[Colours]
Combo1 : 255,128,255
Combo2 : 0,128,255
Combo3 : 128,128,255
Combo4 : 255,128,64

[HitObjects]
256,192,485,12,0,2735,0:0:0:0:
358,103,2885,6,0,P|370:173|308:258,1,150
219,279,3335,1,0,0:0:0:0:
128,200,3485,1,0,0:0:0:0:
238,152,3635,1,0,0:0:0:0:
115,286,3785,1,0,0:0:0:0:
89,293,3860,1,0,0:0:0:0:
62,294,3935,1,0,0:0:0:0:
206,348,4085,2,0,P|253:352|288:338,1,75
316,171,4385,5,0,0:0:0:0:
432,105,4535,1,0,0:0:0:0:
490,239,4685,2,0,L|412:255,1,75
268,73,4985,1,0,0:0:0:0:
301,80,5060,1,0,0:0:0:0:
332,88,5135,1,0,0:0:0:0:
210,171,5285,6,0,L|123:190,1,75
25,118,5585,1,0,0:0:0:0:
194,78,5735,1,0,0:0:0:0:
85,5,5885,1,0,0:0:0:0:
156,202,6035,1,0,0:0:0:0:
272,231,6185,1,0,0:0:0:0:
303,240,6260,1,0,0:0:0:0:
335,249,6335,1,0,0:0:0:0:
279,338,6485,5,0,0:0:0:0:
247,349,6560,1,0,0:0:0:0:
213,349,6635,1,0,0:0:0:0:
182,334,6710,1,0,0:0:0:0:
166,303,6785,1,0,0:0:0:0:
124,301,6860,1,0,0:0:0:0:
85,285,6935,1,0,0:0:0:0:
65,248,7010,1,0,0:0:0:0:
69,207,7085,5,0,0:0:0:0:
92,172,7160,1,0,0:0:0:0:
127,150,7235,1,0,0:0:0:0:
154,119,7310,1,0,0:0:0:0:
159,78,7385,1,0,0:0:0:0:
144,39,7460,1,0,0:0:0:0:
105,24,7535,1,0,0:0:0:0:
66,39,7610,1,0,0:0:0:0:
47,76,7685,6,0,P|67:142|149:175,1,150
244,123,8135,1,0,0:0:0:0:
332,203,8285,1,0,0:0:0:0:
414,115,8435,1,0,0:0:0:0:
459,226,8585,1,0,0:0:0:0:
470,261,8660,1,0,0:0:0:0:
481,297,8735,1,0,0:0:0:0:
356,241,8885,6,0,L|369:157,1,75
288,54,9185,1,0,0:0:0:0:
425,75,9335,1,0,0:0:0:0:
298,174,9485,2,0,P|242:182|207:178,1,75
104,107,9785,1,0,0:0:0:0:
95,148,9860,1,0,0:0:0:0:
85,187,9935,1,0,0:0:0:0:
214,292,10085,6,0,L|199:197,1,75
314,192,10385,1,0,0:0:0:0:
332,159,10460,1,0,0:0:0:0:
348,125,10535,1,0,0:0:0:0:
437,210,10685,1,0,0:0:0:0:
340,294,10835,1,0,0:0:0:0:
214,229,10985,1,0,0:0:0:0:
213,268,11060,1,0,0:0:0:0:
211,307,11135,1,0,0:0:0:0:
326,215,11285,5,0,0:0:0:0:
349,185,11360,1,0,0:0:0:0:
356,148,11435,1,0,0:0:0:0:
349,111,11510,1,0,0:0:0:0:
335,75,11585,1,0,0:0:0:0:
300,45,11660,1,0,0:0:0:0:
293,93,11735,1,0,0:0:0:0:
268,135,11810,1,0,0:0:0:0:
229,165,11885,5,0,0:0:0:0:
180,170,11960,1,0,0:0:0:0:
135,149,12035,1,0,0:0:0:0:
113,105,12110,1,0,0:0:0:0:
120,56,12185,1,0,0:0:0:0:
159,28,12260,1,0,0:0:0:0:
207,28,12335,1,0,0:0:0:0:
244,59,12410,1,0,0:0:0:0:
251,107,12485,6,0,L|240:272,1,150
137,347,12935,1,0,0:0:0:0:
287,305,13085,1,0,0:0:0:0:
133,200,13235,1,0,0:0:0:0:
286,163,13385,1,0,0:0:0:0:
311,134,13460,1,0,0:0:0:0:
338,105,13535,1,0,0:0:0:0:
429,191,13685,2,0,L|415:291,1,89.9999972534181
309,344,13985,5,0,0:0:0:0:
302,307,14060,1,0,0:0:0:0:
294,267,14135,1,0,0:0:0:0:
188,207,14285,1,0,0:0:0:0:
326,148,14435,1,0,0:0:0:0:
187,91,14585,1,0,0:0:0:0:
170,50,14660,1,0,0:0:0:0:
155,15,14735,1,0,0:0:0:0:
82,159,14885,2,0,L|8:240,1,89.9999972534181
152,253,15185,5,0,0:0:0:0:
167,290,15260,1,0,0:0:0:0:
183,327,15335,1,0,0:0:0:0:
316,349,15485,1,0,0:0:0:0:
270,227,15635,1,0,0:0:0:0:
397,240,15785,1,0,0:0:0:0:
411,202,15860,1,0,0:0:0:0:
425,164,15935,1,0,0:0:0:0:
335,35,16085,5,0,0:0:0:0:
323,64,16160,1,0,0:0:0:0:
323,95,16235,1,0,0:0:0:0:
334,124,16310,1,0,0:0:0:0:
358,150,16385,1,0,0:0:0:0:
377,180,16460,1,0,0:0:0:0:
378,215,16535,1,0,0:0:0:0:
366,249,16610,1,0,0:0:0:0:
334,266,16685,5,0,0:0:0:0:
323,305,16760,1,0,0:0:0:0:
293,332,16835,1,0,0:0:0:0:
253,342,16910,1,0,0:0:0:0:
213,331,16985,1,0,0:0:0:0:
179,307,17060,1,0,0:0:0:0:
165,268,17135,1,0,0:0:0:0:
165,227,17210,1,0,0:0:0:0:
176,188,17285,6,0,P|178:140|155:79,1,89.9999972534181
72,16,17585,1,0,0:0:0:0:
51,57,17660,1,0,0:0:0:0:
55,103,17735,1,0,0:0:0:0:
142,182,17885,1,0,0:0:0:0:
101,295,18035,1,0,0:0:0:0:
246,260,18185,1,0,0:0:0:0:
257,217,18260,1,0,0:0:0:0:
268,173,18335,1,0,0:0:0:0:
370,269,18485,6,0,L|401:383,1,89.9999972534181
485,232,18785,1,0,0:0:0:0:
491,192,18860,1,0,0:0:0:0:
486,151,18935,1,0,0:0:0:0:
314,85,19085,1,0,0:0:0:0:
435,36,19235,1,0,0:0:0:0:
366,193,19385,1,0,0:0:0:0:
345,233,19460,1,0,0:0:0:0:
327,273,19535,1,0,0:0:0:0:
206,238,19685,6,0,L|114:265,1,89.9999972534181
53,133,19985,1,0,0:0:0:0:
94,149,20060,1,0,0:0:0:0:
135,166,20135,1,0,0:0:0:0:
257,133,20285,1,0,0:0:0:0:
389,216,20435,1,0,0:0:0:0:
274,346,20585,1,0,0:0:0:0:
255,310,20660,1,0,0:0:0:0:
236,273,20735,1,0,0:0:0:0:
299,194,20885,5,0,0:0:0:0:
306,163,20960,1,0,0:0:0:0:
305,131,21035,1,0,0:0:0:0:
293,101,21110,1,0,0:0:0:0:
269,80,21185,1,0,0:0:0:0:
239,68,21260,1,0,0:0:0:0:
208,48,21335,1,0,0:0:0:0:
196,13,21410,1,0,0:0:0:0:
158,28,21485,5,0,0:0:0:0:
142,65,21560,1,0,0:0:0:0:
147,109,21635,1,0,0:0:0:0:
170,147,21710,1,0,0:0:0:0:
198,187,21785,1,0,0:0:0:0:
202,236,21860,1,0,0:0:0:0:
177,278,21935,1,0,0:0:0:0:
130,295,22010,1,0,0:0:0:0:
79,275,22085,5,0,0:0:0:0:
378,58,22385,5,0,0:0:0:0:
111,166,22685,5,0,0:0:0:0:
346,306,22985,5,0,0:0:0:0:
39,54,23285,5,0,0:0:0:0:
126,369,23585,5,0,0:0:0:0:
482,122,23885,5,0,0:0:0:0:
244,158,24035,5,0,0:0:0:0:
244,158,24110,1,0,0:0:0:0:
244,158,24185,1,0,0:0:0:0:
244,158,24485,6,0,L|255:253,1,75
355,365,24785,1,0,0:0:0:0:
358,327,24860,1,0,0:0:0:0:
361,289,24935,1,0,0:0:0:0:
245,183,25085,2,0,L|393:151,1,150
395,234,25535,5,0,0:0:0:0:
261,144,25685,1,0,0:0:0:0:
255,276,25835,1,0,0:0:0:0:
145,80,25985,1,0,0:0:0:0:
122,241,26135,1,0,0:0:0:0:
39,15,26285,2,0,B|97:47|110:98|110:98|41:74|-14:90,1,225
66,188,26885,5,0,0:0:0:0:
144,269,27035,1,0,0:0:0:0:
55,361,27185,2,0,P|110:377|155:366,1,75
231,295,27485,2,0,P|286:279|386:312,1,150
458,368,27935,5,0,0:0:0:0:
415,243,28085,1,0,0:0:0:0:
321,339,28235,1,0,0:0:0:0:
354,176,28385,1,0,0:0:0:0:
252,254,28535,1,0,0:0:0:0:
278,44,28685,2,0,L|268:140,1,75
160,195,28985,1,0,0:0:0:0:
172,230,29060,1,0,0:0:0:0:
196,259,29135,1,0,0:0:0:0:
341,142,29285,5,0,0:0:0:0:
421,264,29435,1,0,0:0:0:0:
288,280,29585,1,0,0:0:0:0:
284,313,29660,1,0,0:0:0:0:
280,346,29735,1,0,0:0:0:0:
74,331,29885,2,0,P|97:251|152:198,1,150
243,133,30335,5,0,0:0:0:0:
348,254,30485,1,0,0:0:0:0:
165,264,30635,1,0,0:0:0:0:
342,180,30785,1,0,0:0:0:0:
168,129,30935,1,0,0:0:0:0:
296,28,31085,2,0,L|287:119,1,75
370,327,31385,5,0,0:0:0:0:
270,208,31535,1,0,0:0:0:0:
382,94,31685,2,0,L|392:161,2,60
472,305,32135,2,0,L|462:231,2,60
418,166,32585,2,0,P|315:135|207:181,1,209.999993591309
172,267,33335,5,0,0:0:0:0:
316,113,33485,1,0,0:0:0:0:
316,113,33560,1,0,0:0:0:0:
316,113,33635,1,0,0:0:0:0:
267,284,33785,1,0,0:0:0:0:
147,118,33935,1,0,0:0:0:0:
433,106,34085,6,0,P|451:149|452:213,1,89.9999972534181
359,331,34385,2,0,P|362:287|381:246,1,89.9999972534181
461,193,34685,2,0,P|425:168|380:162,1,89.9999972534181
192,166,34985,5,0,0:0:0:0:
242,335,35135,1,0,0:0:0:0:
298,157,35285,1,0,0:0:0:0:
147,259,35435,1,0,0:0:0:0:
335,279,35585,1,0,0:0:0:0:
187,341,35735,1,0,0:0:0:0:
30,285,35885,2,0,P|36:226|66:175,1,89.9999972534181
162,28,36185,5,0,0:0:0:0:
179,59,36260,1,0,0:0:0:0:
184,94,36335,1,0,0:0:0:0:
181,129,36410,1,0,0:0:0:0:
168,162,36485,1,0,0:0:0:0:
228,278,36635,6,0,P|277:239|292:200,1,89.9999972534181
378,63,36935,2,0,P|361:115|368:163,1,89.9999972534181
430,303,37235,1,0,0:0:0:0:
449,270,37310,1,0,0:0:0:0:
456,230,37385,1,0,0:0:0:0:
440,78,37535,5,0,0:0:0:0:
342,169,37685,1,0,0:0:0:0:
216,112,37835,1,0,0:0:0:0:
89,195,37985,1,0,0:0:0:0:
104,70,38135,1,0,0:0:0:0:
218,197,38285,2,0,L|214:308,1,89.9999972534181
69,296,38585,5,0,0:0:0:0:
50,270,38660,1,0,0:0:0:0:
40,240,38735,1,0,0:0:0:0:
40,208,38810,1,0,0:0:0:0:
52,179,38885,1,0,0:0:0:0:
158,194,39035,6,0,P|201:186|236:158,1,89.9999972534181
286,64,39335,2,0,P|345:82|386:134,1,89.9999972534181
403,202,39635,1,0,0:0:0:0:
394,236,39710,1,0,0:0:0:0:
370,263,39785,1,0,0:0:0:0:
246,287,39935,5,0,0:0:0:0:
262,143,40085,1,0,0:0:0:0:
125,187,40235,1,0,0:0:0:0:
300,291,40385,1,0,0:0:0:0:
242,97,40535,1,0,0:0:0:0:
90,228,40685,1,0,0:0:0:0:
389,148,40835,5,0,0:0:0:0:
247,369,40985,1,0,0:0:0:0:
236,339,41060,1,0,0:0:0:0:
226,309,41135,1,0,0:0:0:0:
127,186,41285,2,0,P|167:158|222:148,1,89.9999972534181
456,154,41585,5,0,0:0:0:0:
446,186,41660,1,0,0:0:0:0:
438,222,41735,2,0,L|414:322,1,89.9999972534181
317,229,42035,1,0,0:0:0:0:
208,301,42185,2,0,P|244:331|293:341,1,89.9999972534181
398,185,42485,5,0,0:0:0:0:
374,151,42560,1,0,0:0:0:0:
341,126,42635,1,0,0:0:0:0:
301,115,42710,1,0,0:0:0:0:
260,119,42785,1,0,0:0:0:0:
200,204,42935,5,0,0:0:0:0:
127,108,43085,1,0,0:0:0:0:
74,253,43235,1,0,0:0:0:0:
269,166,43385,1,0,0:0:0:0:
74,50,43535,1,0,0:0:0:0:
273,281,43685,6,0,P|293:220|274:148,1,112.500004291535
163,43,43985,1,0,0:0:0:0:
128,240,44135,1,0,0:0:0:0:
315,156,44285,2,0,L|430:100,2,112.500004291535
198,318,44735,1,0,0:0:0:0:
198,318,44885,6,0,L|157:214,1,112.500004291535
100,65,45185,1,0,0:0:0:0:
218,130,45335,1,0,0:0:0:0:
344,62,45485,1,0,0:0:0:0:
288,181,45635,1,0,0:0:0:0:
363,274,45785,1,0,0:0:0:0:
396,280,45860,1,0,0:0:0:0:
429,276,45935,1,0,0:0:0:0:
458,259,46010,1,0,0:0:0:0:
480,234,46085,6,0,P|474:169|433:93,1,112.500004291535
304,29,46385,1,0,0:0:0:0:
261,176,46535,1,0,0:0:0:0:
88,106,46685,1,0,0:0:0:0:
299,116,46835,2,0,L|279:237,1,112.500004291535
146,315,47135,5,0,0:0:0:0:
64,226,47285,2,0,L|81:129,1,56.2500021457673
164,143,47435,5,0,0:0:0:0:
176,185,47510,1,0,0:0:0:0:
188,222,47585,2,0,L|205:276,1,56.2500021457673
349,314,47735,5,0,0:0:0:0:
337,272,47810,1,0,0:0:0:0:
325,235,47885,2,0,L|308:181,1,56.2500021457673
400,35,48035,5,0,0:0:0:0:
412,77,48110,1,0,0:0:0:0:
424,114,48185,2,0,L|441:168,1,56.2500021457673
441,320,48335,5,0,0:0:0:0:
441,320,48410,1,0,0:0:0:0:
441,320,48485,2,0,L|391:345,1,56.2500021457673
323,243,48635,5,0,0:0:0:0:
323,243,48710,1,0,0:0:0:0:
323,243,48785,2,0,L|292:289,1,56.2500021457673
170,234,48935,5,0,0:0:0:0:
170,234,49010,1,0,0:0:0:0:
170,234,49085,2,0,L|166:289,1,56.2500021457673
24,289,49235,5,0,0:0:0:0:
24,289,49310,1,0,0:0:0:0:
24,289,49385,2,0,L|49:338,1,56.2500021457673
211,325,49535,2,0,L|186:275,3,56.2500021457673
256,136,49835,2,0,L|281:185,3,56.2500021457673
393,178,50135,5,0,0:0:0:0:
404,204,50210,1,0,0:0:0:0:
406,238,50285,1,0,0:0:0:0:
394,269,50360,1,0,0:0:0:0:
362,292,50435,1,0,0:0:0:0:
323,298,50510,1,0,0:0:0:0:
286,283,50585,1,0,0:0:0:0:
253,260,50660,2,0,L|185:248,1,56.2500021457673
91,284,50885,5,0,0:0:0:0:
63,255,50960,1,0,0:0:0:0:
58,215,51035,1,0,0:0:0:0:
72,178,51110,1,0,0:0:0:0:
102,153,51185,1,0,0:0:0:0:
126,122,51260,1,0,0:0:0:0:
131,83,51335,1,0,0:0:0:0:
374,22,51485,5,0,0:0:0:0:
219,341,51785,5,0,0:0:0:0:
105,70,52085,5,0,0:0:0:0:
81,94,52160,1,0,0:0:0:0:
67,127,52235,1,0,0:0:0:0:
68,165,52310,1,0,0:0:0:0:
84,206,52385,1,0,0:0:0:0:
127,232,52460,1,0,0:0:0:0:
168,260,52535,1,0,0:0:0:0:
180,309,52610,1,0,0:0:0:0:
210,268,52685,5,0,0:0:0:0:
254,243,52760,1,0,0:0:0:0:
304,239,52835,1,0,0:0:0:0:
353,251,52910,1,0,0:0:0:0:
398,273,52985,1,0,0:0:0:0:
448,275,53060,1,0,0:0:0:0:
487,243,53135,1,0,0:0:0:0:
496,193,53210,1,0,0:0:0:0:
482,148,53285,6,0,P|454:114|338:85,1,150
282,228,54185,1,0,0:0:0:0:
109,344,54485,2,0,L|125:262,1,75
263,211,55085,1,0,0:0:0:0:
419,311,55385,1,0,0:0:0:0:
374,157,55685,2,0,B|325:179|308:254|308:254|264:182|297:64,1,300
364,168,57485,5,0,0:0:0:0:
218,204,57785,1,0,0:0:0:0:
73,149,58085,2,0,B|68:185|97:224|97:224|83:262|83:262|86:299,1,150
249,327,58985,1,0,0:0:0:0:
382,194,59285,2,0,P|390:220|390:279,1,75
250,189,59885,1,0,0:0:0:0:
375,146,60185,1,0,0:0:0:0:
461,255,60485,6,0,B|505:266|505:266|488:221|424:201,1,150
287,236,61385,1,0,0:0:0:0:
150,334,61685,2,0,P|138:298|142:261,1,75
257,163,62285,1,0,0:0:0:0:
159,52,62585,1,0,0:0:0:0:
346,66,62885,2,0,B|406:114|410:208|410:208|388:175|361:153,1,225
247,142,63785,1,0,0:0:0:0:
144,221,64085,2,0,B|84:173|80:79|80:79|102:112|129:134,1,225
264,179,64985,5,0,0:0:0:0:
205,335,65285,2,0,B|272:299|356:333|356:333|426:302|426:302|361:271,1,300
195,246,67085,6,0,L|175:195,1,37.5
230,277,67385,2,0,L|245:200,1,60
267,311,67685,2,0,L|316:217,1,75
192,273,68285,1,0,0:0:0:0:
312,344,68585,1,0,0:0:0:0:
291,205,68885,2,0,L|215:195,2,75
424,205,69785,5,0,0:0:0:0:
361,337,70085,1,0,0:0:0:0:
254,243,70385,2,0,L|189:231,1,56.2500021457673
420,240,70685,2,0,L|480:251,1,56.2500021457673
340,165,70985,1,0,0:0:0:0:
223,269,71135,1,0,0:0:0:0:
35,270,71285,5,0,0:0:0:0:
29,245,71360,1,0,0:0:0:0:
30,216,71435,1,0,0:0:0:0:
45,189,71510,1,0,0:0:0:0:
66,159,71585,1,0,0:0:0:0:
81,122,71660,1,0,0:0:0:0:
75,82,71735,1,0,0:0:0:0:
55,44,71810,5,0,0:0:0:0:
102,46,71885,1,0,0:0:0:0:
136,78,71960,1,0,0:0:0:0:
149,123,72035,1,0,0:0:0:0:
149,170,72110,1,0,0:0:0:0:
153,217,72185,1,0,0:0:0:0:
176,258,72260,1,0,0:0:0:0:
217,282,72335,1,0,0:0:0:0:
264,284,72410,1,0,0:0:0:0:
307,262,72485,6,0,P|346:211|357:155,1,112.500004291535
302,70,72785,5,0,0:0:0:0:
295,108,72860,1,0,0:0:0:0:
304,146,72935,1,0,0:0:0:0:
326,178,73010,1,0,0:0:0:0:
345,216,73085,1,0,0:0:0:0:
349,262,73160,1,0,0:0:0:0:
329,302,73235,1,0,0:0:0:0:
287,319,73310,1,0,0:0:0:0:
242,310,73385,6,0,P|203:260|200:205,1,112.500004291535
251,74,73685,1,0,0:0:0:0:
291,223,73835,2,0,P|345:240|400:229,1,112.500004291535
512,258,74135,2,0,P|500:203|465:160,1,112.500004291535
324,32,74435,1,0,0:0:0:0:
318,70,74510,1,0,0:0:0:0:
312,109,74585,1,0,0:0:0:0:
102,65,74735,5,0,0:0:0:0:
102,65,74885,2,0,P|129:135|169:160,1,112.500004291535
324,63,75185,2,0,P|338:118|323:171,1,112.500004291535
255,289,75485,5,0,0:0:0:0:
218,315,75560,1,0,0:0:0:0:
173,321,75635,1,0,0:0:0:0:
134,314,75710,1,0,0:0:0:0:
101,292,75785,1,0,0:0:0:0:
85,256,75860,1,0,0:0:0:0:
81,211,75935,1,0,0:0:0:0:
106,174,76010,1,0,0:0:0:0:
146,154,76085,5,0,0:0:0:0:
182,127,76160,1,0,0:0:0:0:
204,87,76235,1,0,0:0:0:0:
209,42,76310,1,0,0:0:0:0:
170,19,76385,1,0,0:0:0:0:
130,41,76460,1,0,0:0:0:0:
130,86,76535,1,0,0:0:0:0:
168,108,76610,1,0,0:0:0:0:
212,113,76685,6,0,P|266:102|319:59,1,112.500004291535
430,112,76985,2,0,L|372:208,1,112.500004291535
331,348,77285,5,0,0:0:0:0:
307,332,77360,1,0,0:0:0:0:
298,305,77435,1,0,0:0:0:0:
303,276,77510,1,0,0:0:0:0:
333,251,77585,1,0,0:0:0:0:
350,216,77660,1,0,0:0:0:0:
355,182,77735,1,0,0:0:0:0:
344,150,77810,1,0,0:0:0:0:
320,118,77885,5,0,0:0:0:0:
285,99,77960,1,0,0:0:0:0:
248,85,78035,1,0,0:0:0:0:
233,48,78110,1,0,0:0:0:0:
253,14,78185,6,0,P|320:19|370:47,1,112.500004291535
407,168,78485,1,0,0:0:0:0:
299,257,78635,1,0,0:0:0:0:
223,377,78785,2,0,L|193:268,1,112.500004291535
117,160,79085,1,0,0:0:0:0:
260,128,79235,1,0,0:0:0:0:
343,3,79385,2,0,L|372:111,1,112.500004291535
415,235,79685,5,0,0:0:0:0:
415,257,79760,1,0,0:0:0:0:
407,278,79835,1,0,0:0:0:0:
388,299,79910,1,0,0:0:0:0:
360,305,79985,1,0,0:0:0:0:
328,293,80060,1,0,0:0:0:0:
304,269,80135,1,0,0:0:0:0:
279,246,80210,1,0,0:0:0:0:
240,236,80285,5,0,0:0:0:0:
195,241,80360,1,0,0:0:0:0:
154,260,80435,1,0,0:0:0:0:
111,275,80510,1,0,0:0:0:0:
66,279,80585,1,0,0:0:0:0:
24,261,80660,1,0,0:0:0:0:
6,219,80735,1,0,0:0:0:0:
12,174,80810,1,0,0:0:0:0:
48,147,80885,5,0,0:0:0:0:
90,160,80960,1,0,0:0:0:0:
134,164,81035,1,0,0:0:0:0:
177,152,81110,1,0,0:0:0:0:
217,131,81185,6,0,P|263:112|328:119,1,112.500004291535
432,205,81485,1,0,0:0:0:0:
298,250,81635,1,0,0:0:0:0:
193,364,81785,2,0,P|185:299|214:250,1,112.500004291535
134,164,82085,2,0,P|179:132|235:131,1,112.500004291535
364,61,82385,5,0,0:0:0:0:
376,98,82460,1,0,0:0:0:0:
381,136,82535,1,0,0:0:0:0:
373,176,82610,1,0,0:0:0:0:
352,209,82685,1,0,0:0:0:0:
245,213,82835,5,0,0:0:0:0:
74,75,82985,2,0,P|52:137|63:190,1,112.500004291535
245,213,83285,1,0,0:0:0:0:
29,306,83435,2,0,P|91:327|144:316,1,112.500004291535
245,213,83735,1,0,0:0:0:0:
405,114,83885,2,0,P|398:176|360:226,1,112.500004291535
245,213,84185,1,0,0:0:0:0:
96,175,84335,1,0,0:0:0:0:
250,141,84485,5,0,0:0:0:0:
255,166,84560,1,0,0:0:0:0:
270,194,84635,1,0,0:0:0:0:
292,215,84710,1,0,0:0:0:0:
312,248,84785,1,0,0:0:0:0:
305,286,84860,1,0,0:0:0:0:
268,312,84935,1,0,0:0:0:0:
223,315,85010,1,0,0:0:0:0:
175,287,85085,5,0,0:0:0:0:
203,252,85160,1,0,0:0:0:0:
215,208,85235,1,0,0:0:0:0:
220,163,85310,1,0,0:0:0:0:
208,119,85385,1,0,0:0:0:0:
181,82,85460,1,0,0:0:0:0:
140,62,85535,1,0,0:0:0:0:
96,49,85610,1,0,0:0:0:0:
51,58,85685,5,0,0:0:0:0:
91,77,85760,1,0,0:0:0:0:
132,93,85835,1,0,0:0:0:0:
176,95,85910,1,0,0:0:0:0:
220,85,85985,1,0,0:0:0:0:
260,65,86060,1,0,0:0:0:0:
302,50,86135,1,0,0:0:0:0:
347,52,86210,1,0,0:0:0:0:
389,72,86285,6,0,P|429:120|443:171,1,112.500004291535
512,257,86585,2,0,P|459:292|407:300,1,112.500004291535
314,361,86885,2,0,P|309:282|355:212,2,112.500004291535
441,295,87335,1,0,0:0:0:0:
468,156,87485,1,0,0:0:0:0:
458,125,87560,1,0,0:0:0:0:
439,96,87635,1,0,0:0:0:0:
407,79,87710,1,0,0:0:0:0:
372,74,87785,2,0,L|339:191,1,112.500004291535
349,298,88085,6,0,P|289:285|251:248,2,112.500004291535
344,196,88535,1,0,0:0:0:0:
408,112,88685,2,0,L|415:-8,2,112.500004291535
452,214,89135,1,0,0:0:0:0:
303,223,89285,5,0,0:0:0:0:
280,205,89360,1,0,0:0:0:0:
265,181,89435,1,0,0:0:0:0:
257,153,89510,1,0,0:0:0:0:
260,119,89585,1,0,0:0:0:0:
280,92,89660,1,0,0:0:0:0:
316,77,89735,1,0,0:0:0:0:
354,82,89810,1,0,0:0:0:0:
374,115,89885,5,0,0:0:0:0:
348,144,89960,1,0,0:0:0:0:
308,145,90035,1,0,0:0:0:0:
269,135,90110,1,0,0:0:0:0:
235,113,90185,1,0,0:0:0:0:
197,99,90260,1,0,0:0:0:0:
157,101,90335,1,0,0:0:0:0:
123,121,90410,1,0,0:0:0:0:
106,156,90485,5,0,0:0:0:0:
119,198,90560,1,0,0:0:0:0:
157,220,90635,1,0,0:0:0:0:
201,220,90710,1,0,0:0:0:0:
243,205,90785,1,0,0:0:0:0:
275,196,90860,1,0,0:0:0:0:
302,200,90935,1,0,0:0:0:0:
320,213,91010,1,0,0:0:0:0:
329,227,91085,5,0,0:0:0:0:
111,274,91385,5,0,0:0:0:0:
242,73,91685,6,0,L|238:170,1,89.9999972534181
360,204,91985,1,0,0:0:0:0:
360,204,92135,2,0,L|351:326,1,89.9999972534181
225,357,92435,1,0,0:0:0:0:
300,203,92585,5,0,0:0:0:0:
228,20,92735,2,0,L|219:132,1,89.9999972534181
60,262,93035,1,0,0:0:0:0:
225,183,93185,1,0,0:0:0:0:
377,254,93335,2,0,L|453:301,1,89.9999972534181
257,300,93635,5,0,0:0:0:0:
257,300,93785,2,0,L|181:253,1,89.9999972534181
376,55,94085,2,0,L|352:141,1,89.9999972534181
217,226,94385,1,0,0:0:0:0:
217,226,94535,2,0,L|241:140,1,89.9999972534181
279,14,94835,1,0,0:0:0:0:
174,90,94985,1,0,0:0:0:0:
370,119,95135,1,0,0:0:0:0:
406,231,95285,5,0,0:0:0:0:
389,245,95360,1,0,0:0:0:0:
370,258,95435,1,0,0:0:0:0:
352,272,95510,1,0,0:0:0:0:
333,284,95585,1,0,0:0:0:0:
313,295,95660,1,0,0:0:0:0:
293,306,95735,6,0,L|236:342,1,44.999998626709
102,336,95885,2,0,L|159:300,1,44.999998626709
183,169,96035,2,0,L|126:205,1,44.999998626709
19,101,96185,2,0,L|76:137,1,44.999998626709
225,29,96335,2,0,L|186:53,1,44.999998626709
288,134,96485,6,0,L|356:217,1,89.9999972534181
279,342,96785,1,0,0:0:0:0:
279,342,96935,2,0,L|221:272,1,89.9999972534181
64,99,97235,1,0,0:0:0:0:
250,134,97385,1,0,0:0:0:0:
372,37,97535,6,0,P|417:37|460:52,1,89.9999972534181
335,164,97835,1,0,0:0:0:0:
301,313,97985,1,0,0:0:0:0:
301,313,98135,2,0,P|260:328|215:326,1,89.9999972534181
4,239,98435,1,0,0:0:0:0:
220,191,98585,1,0,0:0:0:0:
420,245,98735,6,0,P|418:289|428:335,1,89.9999972534181
306,155,99035,1,0,0:0:0:0:
306,155,99185,6,0,P|320:101|321:59,1,89.9999972534181
184,4,99485,1,0,0:0:0:0:
93,216,99635,1,0,0:0:0:0:
287,103,99785,1,0,0:0:0:0:
62,82,99935,1,0,0:0:0:0:
284,244,100085,6,0,L|242:230,3,44.999998626709
388,226,100385,2,0,L|431:241,3,44.999998626709
337,110,100685,5,0,0:0:0:0:
300,93,100760,1,0,0:0:0:0:
260,90,100835,1,0,0:0:0:0:
227,100,100910,1,0,0:0:0:0:
192,114,100985,1,0,0:0:0:0:
158,116,101060,1,0,0:0:0:0:
128,109,101135,1,0,0:0:0:0:
106,94,101210,1,0,0:0:0:0:
90,71,101285,6,0,P|56:100|35:140,1,89.9999972534181
172,184,101585,1,0,0:0:0:0:
237,320,101735,2,0,P|263:284|276:241,1,89.9999972534181
54,269,102035,1,0,0:0:0:0:
164,130,102185,1,0,0:0:0:0:
329,92,102335,2,0,L|385:181,1,89.9999972534181
460,300,102635,5,0,0:0:0:0:
332,218,102785,1,0,0:0:0:0:
188,249,102935,2,0,L|203:344,1,89.9999972534181
389,340,103235,1,0,0:0:0:0:
265,200,103385,1,0,0:0:0:0:
389,53,103535,1,0,0:0:0:0:
392,205,103685,2,0,P|377:256|333:311,1,89.9999972534181
236,264,103985,5,0,0:0:0:0:
184,56,104135,2,0,P|149:114|151:178,1,89.9999972534181
265,200,104435,1,0,0:0:0:0:
107,304,104585,2,0,P|144:328|206:327,1,89.9999972534181
363,218,104885,5,0,0:0:0:0:
339,185,104960,1,0,0:0:0:0:
316,151,105035,1,0,0:0:0:0:
291,118,105110,1,0,0:0:0:0:
267,90,105185,2,0,P|251:136|273:203,1,89.9999972534181
423,135,105485,6,0,L|459:186,1,44.999998626709
370,223,105635,2,0,L|371:294,1,44.999998626709
276,277,105785,2,0,L|241:335,1,44.999998626709
152,298,105935,2,0,L|92:324,1,44.999998626709
0,275,106085,6,0,L|90:236,1,89.9999972534181
214,59,106385,1,0,0:0:0:0:
214,59,106460,1,0,0:0:0:0:
214,59,106535,2,0,L|170:160,1,89.9999972534181
190,299,106835,1,0,0:0:0:0:
378,281,106985,1,0,0:0:0:0:
378,281,107060,1,0,0:0:0:0:
378,281,107135,2,0,B|414:199,1,89.9999972534181
310,68,107435,5,0,0:0:0:0:
143,111,107585,1,0,0:0:0:0:
143,111,107660,1,0,0:0:0:0:
143,111,107735,2,0,B|68:22,1,89.9999972534181
42,227,108035,1,0,0:0:0:0:
172,281,108185,1,0,0:0:0:0:
172,281,108260,1,0,0:0:0:0:
172,281,108335,2,0,B|246:369,1,89.9999972534181
367,348,108635,5,0,0:0:0:0:
300,175,108785,1,0,0:0:0:0:
300,175,108860,1,0,0:0:0:0:
300,175,108935,2,0,B|246:104,1,89.9999972534181
302,18,109235,1,0,0:0:0:0:
218,208,109385,1,0,0:0:0:0:
218,208,109460,1,0,0:0:0:0:
218,208,109535,1,0,0:0:0:0:
169,52,109685,5,0,0:0:0:0:
169,52,109760,1,0,0:0:0:0:
169,52,109835,2,0,L|177:121,1,44.999998626709
171,284,109985,5,0,0:0:0:0:
171,284,110060,1,0,0:0:0:0:
170,283,110135,2,0,L|164:238,1,44.999998626709
288,148,110285,5,0,0:0:0:0:
288,148,110360,1,0,0:0:0:0:
288,148,110435,2,0,L|219:156,1,44.999998626709
56,150,110585,5,0,0:0:0:0:
56,150,110660,1,0,0:0:0:0:
57,149,110735,2,0,L|101:143,1,44.999998626709
152,136,110885,5,0,0:0:0:0:
174,212,111035,1,0,0:0:0:0:
233,157,111185,2,0,P|270:93|242:35,1,97.4999955368044
175,30,111485,2,0,L|153:138,1,97.4999955368044
212,265,111785,1,0,0:0:0:0:
237,286,111860,1,0,0:0:0:0:
257,305,111935,1,0,0:0:0:0:
310,185,112085,5,0,0:0:0:0:
477,187,112235,1,0,0:0:0:0:
258,95,112385,1,0,0:0:0:0:
250,128,112460,1,0,0:0:0:0:
243,161,112535,1,0,0:0:0:0:
133,238,112685,2,0,P|155:294|190:327,1,97.4999955368044
325,260,112985,5,0,0:0:0:0:
335,227,113060,1,0,0:0:0:0:
337,188,113135,1,0,0:0:0:0:
328,156,113210,1,0,0:0:0:0:
307,127,113285,1,0,0:0:0:0:
168,139,113435,1,0,0:0:0:0:
40,71,113585,6,0,P|29:124|44:174,1,97.4999955368044
2,277,113885,1,0,0:0:0:0:
2,277,113960,1,0,0:0:0:0:
2,277,114035,2,0,P|48:299|97:302,1,97.4999955368044
162,175,114335,5,0,0:0:0:0:
312,70,114485,1,0,0:0:0:0:
252,252,114635,1,0,0:0:0:0:
196,73,114785,1,0,0:0:0:0:
343,185,114935,1,0,0:0:0:0:
512,127,115085,2,0,P|502:205|479:255,1,97.4999955368044
329,319,115385,5,0,0:0:0:0:
302,331,115460,1,0,0:0:0:0:
272,334,115535,1,0,0:0:0:0:
242,332,115610,1,0,0:0:0:0:
214,323,115685,1,0,0:0:0:0:
42,197,115835,6,0,P|102:173|158:194,1,97.4999955368044
186,262,116135,2,0,P|233:266|276:243,1,97.4999955368044
377,186,116435,1,0,0:0:0:0:
370,152,116510,1,0,0:0:0:0:
353,122,116585,1,0,0:0:0:0:
195,26,116735,5,0,0:0:0:0:
19,155,116885,1,0,0:0:0:0:
241,142,117035,1,0,0:0:0:0:
57,39,117185,1,0,0:0:0:0:
135,230,117335,1,0,0:0:0:0:
42,380,117485,2,0,P|99:385|165:369,1,97.4999955368044
290,223,117785,5,0,0:0:0:0:
496,237,117935,1,0,0:0:0:0:
200,278,118085,2,0,L|99:295,1,97.4999955368044
342,150,118535,2,0,L|438:133,1,97.4999955368044
203,36,118985,2,0,B|267:87|270:152|270:152|248:120|213:114,1,194.999991073609
140,247,119435,5,0,0:0:0:0:
263,47,119585,1,0,0:0:0:0:
314,334,119735,1,0,0:0:0:0:
130,107,119885,1,0,0:0:0:0:
364,173,120035,1,0,0:0:0:0:
444,342,120185,1,0,0:0:0:0:
444,342,120260,1,0,0:0:0:0:
444,342,120335,1,0,0:0:0:0:
430,124,120485,1,0,0:0:0:0:
321,260,120635,6,0,L|209:245,1,104.999996795654
168,107,120935,1,0,0:0:0:0:
186,133,121010,1,0,0:0:0:0:
211,157,121085,2,0,P|256:184|308:183,1,104.999996795654
409,82,121385,1,0,0:0:0:0:
434,115,121460,1,0,0:0:0:0:
447,154,121535,2,0,P|458:215|440:266,1,104.999996795654
299,310,121835,5,0,0:0:0:0:
291,127,121985,1,0,0:0:0:0:
375,235,122135,1,0,0:0:0:0:
219,204,122285,2,0,L|87:173,1,104.999996795654
22,120,122585,5,0,0:0:0:0:
10,149,122660,1,0,0:0:0:0:
8,180,122735,1,0,0:0:0:0:
17,215,122810,1,0,0:0:0:0:
42,241,122885,1,0,0:0:0:0:
113,360,123035,5,0,0:0:0:0:
113,360,123185,2,0,P|164:343|200:304,1,104.999996795654
153,167,123485,2,0,P|204:165|250:189,1,104.999996795654
318,334,123785,1,0,0:0:0:0:
338,303,123860,1,0,0:0:0:0:
346,267,123935,1,0,0:0:0:0:
324,126,124085,5,0,0:0:0:0:
144,125,124235,1,0,0:0:0:0:
241,33,124385,1,0,0:0:0:0:
234,209,124535,1,0,0:0:0:0:
418,167,124685,2,0,P|373:146|298:149,1,104.999996795654
204,230,124985,5,0,0:0:0:0:
175,207,125060,1,0,0:0:0:0:
156,175,125135,1,0,0:0:0:0:
147,133,125210,1,0,0:0:0:0:
157,89,125285,1,0,0:0:0:0:
455,153,125435,5,0,0:0:0:0:
455,153,125510,1,0,0:0:0:0:
455,153,125585,2,0,L|334:142,1,104.999996795654
99,193,125885,5,0,0:0:0:0:
99,193,125960,1,0,0:0:0:0:
99,193,126035,2,0,L|220:204,1,104.999996795654
357,88,126335,5,0,0:0:0:0:
334,306,126485,1,0,0:0:0:0:
494,145,126635,1,0,0:0:0:0:
245,178,126785,1,0,0:0:0:0:
481,278,126935,1,0,0:0:0:0:
321,131,127085,1,0,0:0:0:0:
190,253,127235,1,0,0:0:0:0:
314,185,127385,5,0,0:0:0:0:
322,214,127460,1,0,0:0:0:0:
332,246,127535,1,0,0:0:0:0:
339,275,127610,1,0,0:0:0:0:
347,303,127685,2,0,P|296:308|254:297,1,75
270,179,127985,2,0,B|268:140|282:97|282:97|220:161|122:159,1,225
176,10,128585,2,0,P|221:-9|315:23,1,150
348,118,129035,5,0,0:0:0:0:
359,137,129110,1,0,0:0:0:0:
365,158,129185,1,0,0:0:0:0:
367,184,129260,1,0,0:0:0:0:
367,210,129335,1,0,0:0:0:0:
373,243,129410,1,0,0:0:0:0:
399,274,129485,1,0,0:0:0:0:
443,278,129560,1,0,0:0:0:0:
481,254,129635,5,0,0:0:0:0:
441,231,129710,1,0,0:0:0:0:
396,236,129785,1,0,0:0:0:0:
359,262,129860,1,0,0:0:0:0:
323,289,129935,1,0,0:0:0:0:
277,295,130010,1,0,0:0:0:0:
231,281,130085,6,0,P|181:253|134:182,1,112.500004291535
302,172,130385,1,0,0:0:0:0:
232,38,130535,2,0,P|289:39|364:79,1,112.500004291535
498,64,130835,2,0,P|501:122|474:200,1,112.500004291535
139,261,131135,5,0,0:0:0:0:
139,261,131210,1,0,0:0:0:0:
139,261,131285,2,0,P|171:202|222:162,1,112.500004291535
374,52,131585,2,0,P|376:119|353:179,1,112.500004291535
253,189,131885,1,0,0:0:0:0:
384,180,132035,1,0,0:0:0:0:
201,278,132185,2,0,L|76:340,1,112.500004291535
210,77,132485,5,0,0:0:0:0:
457,131,132635,2,0,L|458:243,1,112.500004291535
333,103,132935,1,0,0:0:0:0:
86,52,133085,2,0,L|87:164,1,112.500004291535
255,224,133385,1,0,0:0:0:0:
409,181,133535,1,0,0:0:0:0:
368,329,133685,5,0,0:0:0:0:
368,329,133760,1,0,0:0:0:0:
368,329,133835,2,0,L|354:250,1,56.2500021457673
232,263,133985,5,0,0:0:0:0:
232,263,134060,1,0,0:0:0:0:
232,263,134135,2,0,L|245:184,1,56.2500021457673
397,172,134285,5,0,0:0:0:0:
397,172,134360,1,0,0:0:0:0:
397,172,134435,2,0,L|383:93,1,56.2500021457673
261,106,134585,5,0,0:0:0:0:
261,106,134660,1,0,0:0:0:0:
261,106,134735,2,0,L|274:27,1,56.2500021457673
155,117,134885,2,0,L|146:173,3,56.2500021457673
309,252,135185,2,0,L|318:196,3,56.2500021457673
474,163,135485,2,0,L|464:218,3,56.2500021457673
323,89,135785,2,0,L|332:33,3,56.2500021457673
185,108,136085,5,0,0:0:0:0:
180,147,136160,1,0,0:0:0:0:
184,186,136235,2,0,L|240:220,1,56.2500021457673
151,326,136385,5,0,0:0:0:0:
190,331,136460,1,0,0:0:0:0:
229,327,136535,2,0,L|263:270,1,56.2500021457673
371,359,136685,5,0,0:0:0:0:
376,320,136760,1,0,0:0:0:0:
372,281,136835,2,0,L|315:246,1,56.2500021457673
405,141,136985,5,0,0:0:0:0:
366,136,137060,1,0,0:0:0:0:
327,140,137135,2,0,L|292:196,1,56.2500021457673
183,264,137285,5,0,0:0:0:0:
143,265,137360,1,0,0:0:0:0:
104,258,137435,1,0,0:0:0:0:
73,227,137510,1,0,0:0:0:0:
55,184,137585,1,0,0:0:0:0:
38,219,137660,1,0,0:0:0:0:
33,258,137735,1,0,0:0:0:0:
47,294,137810,1,0,0:0:0:0:
75,321,137885,5,0,0:0:0:0:
112,332,137960,1,0,0:0:0:0:
151,330,138035,1,0,0:0:0:0:
187,316,138110,1,0,0:0:0:0:
223,300,138185,1,0,0:0:0:0:
261,291,138260,1,0,0:0:0:0:
299,300,138335,1,0,0:0:0:0:
339,319,138410,1,0,0:0:0:0:
380,337,138485,5,0,0:0:0:0:
424,330,138560,1,0,0:0:0:0:
459,302,138635,1,0,0:0:0:0:
474,259,138710,1,0,0:0:0:0:
457,217,138785,1,0,0:0:0:0:
430,180,138860,1,0,0:0:0:0:
421,135,138935,1,0,0:0:0:0:
444,96,139010,1,0,0:0:0:0:
484,76,139085,5,0,0:0:0:0:
469,118,139160,1,0,0:0:0:0:
452,148,139235,1,0,0:0:0:0:
429,165,139310,1,0,0:0:0:0:
408,172,139385,1,0,0:0:0:0:
386,174,139460,1,0,0:0:0:0:
369,173,139535,1,0,0:0:0:0:
359,170,139610,1,0,0:0:0:0:
354,167,139685,6,0,P|327:235|348:316,1,150
453,229,140585,1,0,0:0:0:0:
330,138,140885,2,0,L|242:145,1,75
99,219,141485,1,0,0:0:0:0:
238,85,141785,1,0,0:0:0:0:
404,139,142085,2,0,P|403:180|381:238,2,75
254,238,142985,1,0,0:0:0:0:
78,155,143285,1,0,0:0:0:0:
182,232,143885,5,0,0:0:0:0:
279,297,144185,1,0,0:0:0:0:
128,351,144485,2,0,B|133:300|88:249|88:249|112:260|138:255,1,150
241,144,145385,1,0,0:0:0:0:
313,19,145685,2,0,P|328:58|330:102,1,75
231,220,146285,1,0,0:0:0:0:
386,142,146585,1,0,0:0:0:0:
410,331,146885,2,0,B|447:316|445:268|445:268|394:258|363:283,1,150
185,258,147785,5,0,0:0:0:0:
402,152,148085,2,0,P|418:185|424:223,1,75
248,146,148685,2,0,P|232:112|227:76,1,75
468,221,149285,2,0,P|433:280|353:308,1,150
306,201,150185,1,0,0:0:0:0:
193,238,150485,2,0,L|164:161,1,75
245,65,151085,2,0,P|272:100|289:147,1,75
294,258,151685,5,0,0:0:0:0:
218,343,151985,2,0,L|143:336,2,75
381,353,152885,1,0,0:0:0:0:
229,225,153485,6,0,L|279:217,1,37.5
259,180,153785,2,0,L|329:129,1,52.4999983978272
277,125,154085,2,0,L|317:53,1,75
204,178,154685,2,0,P|169:228|161:266,1,75
191,329,155285,1,0,0:0:0:0:
44,232,155585,2,0,P|44:305|88:364,1,150
233,319,156485,5,0,0:0:0:0:
348,289,156785,1,0,0:0:0:0:
217,225,157085,2,0,L|144:218,1,56.2500021457673
358,195,157385,2,0,L|414:199,1,56.2500021457673
232,49,157685,5,0,0:0:0:0:
241,69,157760,1,0,0:0:0:0:
241,91,157835,1,0,0:0:0:0:
236,113,157910,1,0,0:0:0:0:
224,138,157985,1,0,0:0:0:0:
206,160,158060,1,0,0:0:0:0:
192,187,158135,1,0,0:0:0:0:
184,219,158210,1,0,0:0:0:0:
192,254,158285,5,0,0:0:0:0:
218,279,158360,1,0,0:0:0:0:
253,269,158435,1,0,0:0:0:0:
289,268,158510,1,0,0:0:0:0:
322,281,158585,1,0,0:0:0:0:
348,306,158660,1,0,0:0:0:0:
375,329,158735,1,0,0:0:0:0:
411,329,158810,1,0,0:0:0:0:
449,312,158885,6,0,P|465:244|434:168,1,104.999996795654
478,77,159185,1,0,0:0:0:0:
447,84,159260,1,0,0:0:0:0:
416,91,159335,1,0,0:0:0:0:
385,99,159410,1,0,0:0:0:0:
354,106,159485,1,0,0:0:0:0:
323,112,159560,1,0,0:0:0:0:
292,120,159635,1,0,0:0:0:0:
261,127,159710,1,0,0:0:0:0:
230,133,159785,6,0,L|217:249,1,104.999996795654
290,359,160085,2,0,L|301:254,1,104.999996795654
113,122,160385,2,0,L|101:226,1,104.999996795654
372,305,160685,2,0,L|383:200,1,104.999996795654
466,112,160985,2,0,P|415:76|339:71,1,104.999996795654
172,60,161285,5,0,0:0:0:0:
158,94,161360,1,0,0:0:0:0:
160,130,161435,1,0,0:0:0:0:
178,161,161510,1,0,0:0:0:0:
207,182,161585,1,0,0:0:0:0:
242,190,161660,1,0,0:0:0:0:
277,183,161735,1,0,0:0:0:0:
309,164,161810,1,0,0:0:0:0:
343,187,161885,5,0,0:0:0:0:
361,224,161960,1,0,0:0:0:0:
349,264,162035,1,0,0:0:0:0:
323,297,162110,1,0,0:0:0:0:
282,309,162185,1,0,0:0:0:0:
242,295,162260,1,0,0:0:0:0:
202,281,162335,1,0,0:0:0:0:
162,296,162410,1,0,0:0:0:0:
137,261,162485,5,0,0:0:0:0:
137,219,162560,1,0,0:0:0:0:
158,182,162635,1,0,0:0:0:0:
176,144,162710,1,0,0:0:0:0:
179,102,162785,1,0,0:0:0:0:
323,40,162935,6,0,P|337:96|327:153,1,104.999996795654
215,324,163235,2,0,P|200:267|210:210,1,104.999996795654
292,184,163535,1,0,0:0:0:0:
137,97,163685,2,0,P|188:91|238:106,1,104.999996795654
337,232,163985,5,0,0:0:0:0:
359,196,164060,1,0,0:0:0:0:
368,155,164135,1,0,0:0:0:0:
364,112,164210,1,0,0:0:0:0:
343,75,164285,1,0,0:0:0:0:
221,8,164435,6,0,P|198:60|205:123,1,104.999996795654
278,160,164735,1,0,0:0:0:0:
346,266,164885,2,0,P|291:283|229:269,1,104.999996795654
153,146,165185,5,0,0:0:0:0:
94,294,165335,1,0,0:0:0:0:
241,281,165485,2,0,P|264:221|269:159,1,104.999996795654
343,123,165785,1,0,0:0:0:0:
275,22,165935,2,0,P|327:24|376:41,1,104.999996795654
383,159,166235,5,0,0:0:0:0:
387,184,166310,1,0,0:0:0:0:
389,215,166385,1,0,0:0:0:0:
377,251,166460,1,0,0:0:0:0:
366,291,166535,1,0,0:0:0:0:
384,328,166610,1,0,0:0:0:0:
425,325,166685,1,0,0:0:0:0:
434,284,166760,1,0,0:0:0:0:
398,261,166835,5,0,0:0:0:0:
351,267,166910,1,0,0:0:0:0:
310,290,166985,1,0,0:0:0:0:
265,306,167060,1,0,0:0:0:0:
217,308,167135,1,0,0:0:0:0:
173,290,167210,1,0,0:0:0:0:
150,248,167285,1,0,0:0:0:0:
155,201,167360,1,0,0:0:0:0:
191,170,167435,1,0,0:0:0:0:
327,201,167585,6,0,L|282:85,1,104.999996795654
45,83,167885,2,0,L|82:181,1,104.999996795654
196,194,168185,1,0,0:0:0:0:
182,302,168335,2,0,P|277:263|296:226,1,104.999996795654
395,304,168635,5,0,0:0:0:0:
378,271,168710,1,0,0:0:0:0:
372,234,168785,1,0,0:0:0:0:
372,197,168860,1,0,0:0:0:0:
382,161,168935,1,0,0:0:0:0:
401,129,169010,1,0,0:0:0:0:
431,107,169085,2,0,P|457:162|456:212,1,104.999996795654
366,196,169385,6,0,L|251:206,1,104.999996795654
168,113,169685,1,0,0:0:0:0:
144,140,169760,1,0,0:0:0:0:
131,174,169835,1,0,0:0:0:0:
42,263,169985,6,0,P|92:291|160:293,1,104.999996795654
226,236,170285,2,0,P|271:209|322:203,1,104.999996795654
407,96,170585,2,0,P|429:142|432:194,1,104.999996795654
449,307,170885,5,0,0:0:0:0:
412,313,170960,1,0,0:0:0:0:
375,310,171035,1,0,0:0:0:0:
341,295,171110,1,0,0:0:0:0:
303,276,171185,1,0,0:0:0:0:
261,267,171260,1,0,0:0:0:0:
219,275,171335,1,0,0:0:0:0:
180,301,171410,1,0,0:0:0:0:
136,319,171485,5,0,0:0:0:0:
88,321,171560,1,0,0:0:0:0:
45,300,171635,1,0,0:0:0:0:
34,253,171710,1,0,0:0:0:0:
50,208,171785,1,0,0:0:0:0:
69,165,171860,1,0,0:0:0:0:
59,118,171935,1,0,0:0:0:0:
41,74,172010,1,0,0:0:0:0:
72,39,172085,5,0,0:0:0:0:
113,61,172160,1,0,0:0:0:0:
110,108,172235,1,0,0:0:0:0:
117,154,172310,1,0,0:0:0:0:
153,183,172385,1,0,0:0:0:0:
287,204,172535,5,0,0:0:0:0:
375,82,172685,2,0,P|414:140|412:194,1,104.999996795654
478,291,172985,2,0,P|409:309|359:289,1,104.999996795654
298,204,173285,2,0,P|249:185|198:194,1,104.999996795654
136,331,173585,5,0,0:0:0:0:
114,307,173660,1,0,0:0:0:0:
109,275,173735,1,0,0:0:0:0:
118,244,173810,1,0,0:0:0:0:
144,211,173885,1,0,0:0:0:0:
164,174,173960,1,0,0:0:0:0:
167,132,174035,1,0,0:0:0:0:
156,91,174110,1,0,0:0:0:0:
128,59,174185,6,0,P|180:48|229:62,1,104.999996795654
326,18,174485,2,0,P|341:67|332:118,1,104.999996795654
220,273,174785,2,0,P|204:223|213:172,1,104.999996795654
269,70,175085,5,0,0:0:0:0:
290,111,175160,1,0,0:0:0:0:
292,158,175235,1,0,0:0:0:0:
268,198,175310,1,0,0:0:0:0:
241,237,175385,1,0,0:0:0:0:
232,283,175460,1,0,0:0:0:0:
256,323,175535,1,0,0:0:0:0:
301,333,175610,1,0,0:0:0:0:
345,317,175685,5,0,0:0:0:0:
295,166,175835,1,0,0:0:0:0:
203,282,175985,1,0,0:0:0:0:
441,195,176135,1,0,0:0:0:0:
329,93,176285,1,0,0:0:0:0:
329,93,176360,1,0,0:0:0:0:
329,93,176435,1,0,0:0:0:0:
320,323,176585,5,0,0:0:0:0:
320,323,176660,1,0,0:0:0:0:
320,323,176735,1,0,0:0:0:0:
175,165,176885,1,0,0:0:0:0:
151,340,177035,1,0,0:0:0:0:
317,58,177185,1,0,0:0:0:0:
419,301,177485,5,0,0:0:0:0:
419,301,177785,5,0,0:0:0:0:
213,37,178085,6,0,L|208:92,15,37.5
136,183,179285,6,0,L|139:145,7,37.5
281,149,179885,2,0,L|279:98,3,37.5
234,234,180185,2,0,L|183:260,3,37.5
335,232,180485,6,0,L|369:259,15,37.5
203,249,181685,6,0,L|174:225,7,37.5
299,161,182285,2,0,L|281:218,3,37.5
280,72,182585,2,0,L|249:22,3,37.5
374,106,182885,6,0,L|416:94,15,37.5
248,200,184085,6,0,L|211:210,7,37.5
300,292,184685,2,0,L|268:328,3,37.5
388,280,184985,2,0,L|415:305,3,37.5
382,191,185285,6,0,L|412:161,7,37.5
290,196,185885,2,0,L|309:161,7,37.5
227,75,186485,5,0,0:0:0:0:
209,99,186560,1,0,0:0:0:0:
192,123,186635,1,0,0:0:0:0:
175,148,186710,1,0,0:0:0:0:
159,173,186785,1,0,0:0:0:0:
274,177,187085,5,0,0:0:0:0:
268,206,187160,1,0,0:0:0:0:
264,236,187235,1,0,0:0:0:0:
259,265,187310,1,0,0:0:0:0:
256,295,187385,1,0,0:0:0:0:
398,228,187685,5,0,0:0:0:0:
391,253,187760,1,0,0:0:0:0:
376,275,187835,1,0,0:0:0:0:
355,291,187910,1,0,0:0:0:0:
329,297,187985,1,0,0:0:0:0:
299,297,188060,1,0,0:0:0:0:
273,281,188135,1,0,0:0:0:0:
256,256,188210,1,0,0:0:0:0:
245,225,188285,5,0,0:0:0:0:
245,192,188360,1,0,0:0:0:0:
258,162,188435,1,0,0:0:0:0:
278,135,188510,1,0,0:0:0:0:
288,98,188585,1,0,0:0:0:0:
283,60,188660,1,0,0:0:0:0:
255,34,188735,1,0,0:0:0:0:
219,22,188810,1,0,0:0:0:0:
179,34,188885,5,0,0:0:0:0:
156,68,188960,1,0,0:0:0:0:
155,109,189035,1,0,0:0:0:0:
170,147,189110,1,0,0:0:0:0:
199,175,189185,1,0,0:0:0:0:
239,182,189260,1,0,0:0:0:0:
279,175,189335,1,0,0:0:0:0:
319,168,189410,1,0,0:0:0:0:
360,166,189485,6,0,L|386:209,3,37.5
360,297,189785,2,0,L|340:264,3,37.5
273,225,190085,5,0,0:0:0:0:
240,205,190160,1,0,0:0:0:0:
203,194,190235,1,0,0:0:0:0:
165,196,190310,1,0,0:0:0:0:
130,210,190385,1,0,0:0:0:0:
105,238,190460,1,0,0:0:0:0:
69,250,190535,1,0,0:0:0:0:
35,238,190610,1,0,0:0:0:0:
20,203,190685,5,0,0:0:0:0:
32,167,190760,1,0,0:0:0:0:
64,147,190835,1,0,0:0:0:0:
101,150,190910,1,0,0:0:0:0:
138,150,190985,1,0,0:0:0:0:
174,136,191060,1,0,0:0:0:0:
203,110,191135,1,0,0:0:0:0:
213,73,191210,1,0,0:0:0:0:
240,47,191285,5,0,0:0:0:0:
276,39,191360,1,0,0:0:0:0:
312,47,191435,1,0,0:0:0:0:
324,82,191510,1,0,0:0:0:0:
324,125,191585,1,0,0:0:0:0:
304,161,191660,1,0,0:0:0:0:
273,188,191735,1,0,0:0:0:0:
256,225,191810,1,0,0:0:0:0:
263,265,191885,6,0,L|276:313,3,37.5
205,348,192185,2,0,L|195:311,3,37.5
128,260,192485,5,0,0:0:0:0:
137,219,192560,1,0,0:0:0:0:
163,187,192635,1,0,0:0:0:0:
203,176,192710,1,0,0:0:0:0:
241,190,192785,1,0,0:0:0:0:
273,215,192860,1,0,0:0:0:0:
310,232,192935,1,0,0:0:0:0:
351,230,193010,1,0,0:0:0:0:
385,208,193085,5,0,0:0:0:0:
405,172,193160,1,0,0:0:0:0:
427,137,193235,1,0,0:0:0:0:
465,121,193310,1,0,0:0:0:0:
442,86,193385,1,0,0:0:0:0:
402,73,193460,1,0,0:0:0:0:
360,77,193535,1,0,0:0:0:0:
319,67,193610,1,0,0:0:0:0:
281,49,193685,5,0,0:0:0:0:
249,22,193760,1,0,0:0:0:0:
208,15,193835,1,0,0:0:0:0:
169,30,193910,1,0,0:0:0:0:
148,65,193985,1,0,0:0:0:0:
153,105,194060,1,0,0:0:0:0:
182,133,194135,1,0,0:0:0:0:
223,134,194210,1,0,0:0:0:0:
258,113,194285,6,0,L|265:57,3,37.5
315,170,194585,2,0,L|310:207,3,37.5
237,257,194885,5,0,0:0:0:0:
248,300,194960,1,0,0:0:0:0:
280,330,195035,1,0,0:0:0:0:
324,336,195110,1,0,0:0:0:0:
364,316,195185,1,0,0:0:0:0:
385,276,195260,1,0,0:0:0:0:
375,231,195335,1,0,0:0:0:0:
342,200,195410,1,0,0:0:0:0:
299,183,195485,5,0,0:0:0:0:
260,160,195560,1,0,0:0:0:0:
238,119,195635,1,0,0:0:0:0:
240,73,195710,1,0,0:0:0:0:
267,33,195785,1,0,0:0:0:0:
309,19,195860,1,0,0:0:0:0:
352,33,195935,1,0,0:0:0:0:
396,30,196010,1,0,0:0:0:0:
391,79,196085,5,0,0:0:0:0:
420,118,196160,1,0,0:0:0:0:
449,156,196235,1,0,0:0:0:0:
477,195,196310,1,0,0:0:0:0:
427,195,196385,1,0,0:0:0:0:
378,192,196460,1,0,0:0:0:0:
329,188,196535,1,0,0:0:0:0:
280,182,196610,1,0,0:0:0:0:
313,217,196685,5,0,0:0:0:0:
347,245,196760,1,0,0:0:0:0:
381,273,196835,1,0,0:0:0:0:
335,291,196910,1,0,0:0:0:0:
293,311,196985,1,0,0:0:0:0:
251,330,197060,1,0,0:0:0:0:
295,340,197135,1,0,0:0:0:0:
338,349,197210,1,0,0:0:0:0:
385,360,197285,6,0,L|473:373,1,75
417,120,197585,1,0,0:0:0:0:
368,122,197660,1,0,0:0:0:0:
320,132,197735,2,0,P|267:161|251:182,1,75
78,130,198035,5,0,0:0:0:0:
156,279,198185,1,0,0:0:0:0:
204,287,198260,1,0,0:0:0:0:
252,282,198335,2,0,P|300:253|319:228,1,75
365,37,198635,1,0,0:0:0:0:
472,123,198785,5,0,0:0:0:0:
481,174,198860,1,0,0:0:0:0:
489,226,198935,2,0,L|499:313,1,75
389,347,199235,2,0,P|353:358|316:360,1,75
273,222,199535,2,0,P|235:222|199:233,1,75
69,322,199835,5,0,0:0:0:0:
39,75,199985,1,0,0:0:0:0:
35,120,200060,1,0,0:0:0:0:
30,167,200135,2,0,L|26:247,1,75
158,189,200435,1,0,0:0:0:0:
278,312,200585,5,0,0:0:0:0:
282,267,200660,1,0,0:0:0:0:
287,220,200735,2,0,L|291:140,1,75
387,331,201035,1,0,0:0:0:0:
453,202,201185,1,0,0:0:0:0:
455,153,201260,1,0,0:0:0:0:
457,106,201335,2,0,L|457:26,1,75
315,201,201635,1,0,0:0:0:0:
270,328,201785,5,0,0:0:0:0:
248,288,201860,1,0,0:0:0:0:
229,245,201935,1,0,0:0:0:0:
212,204,202010,1,0,0:0:0:0:
196,163,202085,6,0,L|106:160,3,56.2500021457673
369,101,202385,2,0,L|314:93,3,56.2500021457673
292,240,202685,2,0,L|348:247,3,56.2500021457673
398,113,202985,2,0,L|343:105,3,56.2500021457673
321,252,203285,2,0,L|377:259,3,56.2500021457673
430,126,203585,2,0,L|375:118,3,56.2500021457673
352,264,203885,2,0,L|408:271,3,56.2500021457673
450,141,204185,2,0,L|395:133,3,56.2500021457673
326,289,204485,5,0,0:0:0:0:
322,253,204560,1,0,0:0:0:0:
320,216,204635,2,0,L|313:140,1,44.999998626709
412,65,204785,1,0,0:0:0:0:
416,102,204860,1,0,0:0:0:0:
419,139,204935,2,0,L|424:204,1,44.999998626709
347,327,205085,5,0,0:0:0:0:
343,290,205160,1,0,0:0:0:0:
340,253,205235,2,0,L|335:186,1,44.999998626709
433,103,205385,1,0,0:0:0:0:
437,139,205460,1,0,0:0:0:0:
439,176,205535,2,0,L|443:244,1,44.999998626709
304,212,205685,5,0,0:0:0:0:
296,172,205760,1,0,0:0:0:0:
277,139,205835,1,0,0:0:0:0:
247,111,205910,1,0,0:0:0:0:
206,108,205985,1,0,0:0:0:0:
172,85,206060,1,0,0:0:0:0:
164,42,206135,1,0,0:0:0:0:
193,13,206210,1,0,0:0:0:0:
233,15,206285,6,0,L|279:32,1,44.999998626709
368,122,206435,2,0,L|322:139,1,44.999998626709
127,180,206585,2,0,L|173:197,1,44.999998626709
447,256,206735,2,0,L|401:273,1,44.999998626709
327,290,206885,5,0,0:0:0:0:
286,289,206960,1,0,0:0:0:0:
246,281,207035,1,0,0:0:0:0:
209,264,207110,1,0,0:0:0:0:
169,253,207185,1,0,0:0:0:0:
126,251,207260,1,0,0:0:0:0:
89,265,207335,1,0,0:0:0:0:
62,289,207410,1,0,0:0:0:0:
59,320,207485,5,0,0:0:0:0:
78,344,207560,1,0,0:0:0:0:
107,354,207635,1,0,0:0:0:0:
138,352,207710,1,0,0:0:0:0:
176,340,207785,1,0,0:0:0:0:
215,329,207860,1,0,0:0:0:0:
256,335,207935,1,0,0:0:0:0:
295,344,208010,1,0,0:0:0:0:
343,351,208085,5,0,0:0:0:0:
400,339,208160,1,0,0:0:0:0:
443,300,208235,1,0,0:0:0:0:
466,246,208310,1,0,0:0:0:0:
462,187,208385,1,0,0:0:0:0:
430,137,208460,1,0,0:0:0:0:
416,80,208535,1,0,0:0:0:0:
449,32,208610,1,0,0:0:0:0:
398,61,208685,5,0,0:0:0:0:
341,77,208760,1,0,0:0:0:0:
282,76,208835,1,0,0:0:0:0:
225,60,208910,1,0,0:0:0:0:
184,18,208985,1,0,0:0:0:0:
127,2,209060,1,0,0:0:0:0:
68,8,209135,1,0,0:0:0:0:
34,36,209210,1,0,0:0:0:0:
27,62,209285,5,0,0:0:0:0:
27,89,209360,1,0,0:0:0:0:
31,115,209435,1,0,0:0:0:0:
37,141,209510,1,0,0:0:0:0:
55,171,209585,1,0,0:0:0:0:
65,205,209660,1,0,0:0:0:0:
70,240,209735,1,0,0:0:0:0:
55,273,209810,1,0,0:0:0:0:
98,283,209885,5,0,0:0:0:0:
142,291,209960,1,0,0:0:0:0:
186,285,210035,1,0,0:0:0:0:
226,264,210110,1,0,0:0:0:0:
265,242,210185,1,0,0:0:0:0:
308,229,210260,1,0,0:0:0:0:
352,237,210335,1,0,0:0:0:0:
373,253,210410,1,0,0:0:0:0:
382,273,210485,5,0,0:0:0:0:
432,254,210560,1,0,0:0:0:0:
465,200,210635,1,0,0:0:0:0:
461,137,210710,1,0,0:0:0:0:
414,94,210785,1,0,0:0:0:0:
351,101,210860,1,0,0:0:0:0:
288,99,210935,1,0,0:0:0:0:
223,76,211010,1,0,0:0:0:0:
174,116,211085,5,0,0:0:0:0:
183,178,211160,1,0,0:0:0:0:
243,197,211235,1,0,0:0:0:0:
295,162,211310,1,0,0:0:0:0:
273,98,211385,1,0,0:0:0:0:
302,37,211460,1,0,0:0:0:0:
368,24,211535,1,0,0:0:0:0:
420,66,211610,1,0,0:0:0:0:
421,137,211685,6,0,P|316:189|288:44,1,300
340,111,213185,1,0,0:0:0:0:
270,171,213485,1,0,0:0:0:0:
342,203,213785,1,0,0:0:0:0:
242,98,214085,2,0,P|212:218|348:190,1,300
396,166,215585,1,0,0:0:0:0:
396,166,215885,2,0,L|403:253,1,75
328,308,216485,5,0,0:0:0:0:
235,267,216785,2,0,P|226:303|231:340,2,75
337,196,217685,1,0,0:0:0:0:
264,91,217985,1,0,0:0:0:0:
264,91,218285,2,0,L|261:174,1,75
312,232,218885,2,0,P|357:182|265:202,1,225
286,330,220085,5,0,0:0:0:0:
205,289,220385,1,0,0:0:0:0:
317,256,220685,1,0,0:0:0:0:
160,208,220985,1,0,0:0:0:0:
256,192,221285,5,0,0:0:0:0:
256,192,221360,12,0,222410,0:0:0:0:
176,112,222485,5,0,0:0:0:0:
256,192,222560,12,0,223610,0:0:0:0:
176,272,223685,5,0,0:0:0:0:
256,192,223760,12,0,224810,0:0:0:0:
336,112,224885,5,0,0:0:0:0:
256,192,224960,12,0,226010,0:0:0:0:
336,272,226085,5,0,0:0:0:0:
256,192,226160,12,0,227210,0:0:0:0:
137,266,227285,5,0,0:0:0:0:
256,192,227360,12,0,228410,0:0:0:0:
375,118,228485,5,0,0:0:0:0:
307,199,228785,1,0,0:0:0:0:
172,103,229085,1,0,0:0:0:0:
49,273,229385,1,0,0:0:0:0:
250,142,229685,1,0,0:0:0:0:
301,300,229985,5,0,0:0:0:0:
250,142,230135,1,0,0:0:0:0:
406,323,230285,2,0,P|449:249|445:178,1,150
317,55,230885,5,0,0:0:0:0:
351,76,230960,1,0,0:0:0:0:
370,112,231035,1,0,0:0:0:0:
367,153,231110,1,0,0:0:0:0:
338,182,231185,1,0,0:0:0:0:
297,187,231260,1,0,0:0:0:0:
266,159,231335,1,0,0:0:0:0:
286,123,231410,1,0,0:0:0:0:
272,83,231485,5,0,0:0:0:0:
252,119,231560,1,0,0:0:0:0:
220,145,231635,1,0,0:0:0:0:
178,147,231710,1,0,0:0:0:0:
141,126,231785,1,0,0:0:0:0:
119,90,231860,1,0,0:0:0:0:
125,49,231935,1,0,0:0:0:0:
158,24,232010,1,0,0:0:0:0:
190,49,232085,5,0,0:0:0:0:
157,74,232160,1,0,0:0:0:0:
133,108,232235,1,0,0:0:0:0:
132,149,232310,1,0,0:0:0:0:
155,183,232385,1,0,0:0:0:0:
193,198,232460,1,0,0:0:0:0:
224,224,232535,1,0,0:0:0:0:
230,264,232610,1,0,0:0:0:0:
220,304,232685,5,0,0:0:0:0:
185,327,232760,1,0,0:0:0:0:
146,310,232835,1,0,0:0:0:0:
136,269,232910,1,0,0:0:0:0:
156,233,232985,1,0,0:0:0:0:
196,223,233060,1,0,0:0:0:0:
229,247,233135,1,0,0:0:0:0:
250,282,233210,1,0,0:0:0:0:
293,260,233285,5,0,0:0:0:0:
335,235,233360,1,0,0:0:0:0:
375,208,233435,1,0,0:0:0:0:
416,182,233510,1,0,0:0:0:0:
457,157,233585,2,0,L|330:165,1,112.5
282,60,233885,5,0,0:0:0:0:
262,104,233960,1,0,0:0:0:0:
243,149,234035,1,0,0:0:0:0:
221,192,234110,1,0,0:0:0:0:
196,234,234185,2,0,P|167:189|182:111,1,112.5
80,165,234485,6,0,P|91:115|65:49,2,97.4999955368044
202,122,234935,1,0,0:0:0:0:
202,122,235085,2,0,P|252:101|306:95,1,97.4999955368044
300,215,235385,2,0,P|348:207|392:187,1,97.4999955368044
384,47,235685,5,0,0:0:0:0:
335,60,235760,1,0,0:0:0:0:
286,74,235835,1,0,0:0:0:0:
237,87,235910,1,0,0:0:0:0:
188,101,235985,1,0,0:0:0:0:
139,115,236060,1,0,0:0:0:0:
187,130,236135,5,0,0:0:0:0:
236,139,236210,1,0,0:0:0:0:
286,146,236285,1,0,0:0:0:0:
336,153,236360,1,0,0:0:0:0:
385,161,236435,1,0,0:0:0:0:
341,182,236510,5,0,0:0:0:0:
294,196,236585,1,0,0:0:0:0:
246,207,236660,1,0,0:0:0:0:
198,216,236735,1,0,0:0:0:0:
240,240,236810,5,0,0:0:0:0:
284,259,236885,1,0,0:0:0:0:
327,281,236960,1,0,0:0:0:0:
369,303,237035,1,0,0:0:0:0:
340,342,237110,5,0,0:0:0:0:
300,360,237185,1,0,0:0:0:0:
255,364,237260,1,0,0:0:0:0:
211,351,237335,1,0,0:0:0:0:
175,324,237410,1,0,0:0:0:0:
158,283,237485,1,0,0:0:0:0:
158,234,237560,1,0,0:0:0:0:
165,185,237635,1,0,0:0:0:0:
152,137,237710,5,0,0:0:0:0:
118,101,237785,1,0,0:0:0:0:
69,92,237860,1,0,0:0:0:0:
37,129,237935,1,0,0:0:0:0:
64,169,238010,1,0,0:0:0:0:
112,174,238085,1,0,0:0:0:0:
160,169,238160,1,0,0:0:0:0:
208,170,238235,2,0,L|308:202,1,97.4999955368044
225,281,238535,5,0,0:0:0:0:
275,278,238610,1,0,0:0:0:0:
325,273,238685,1,0,0:0:0:0:
374,264,238760,1,0,0:0:0:0:
342,224,238835,1,0,0:0:0:0:
305,188,238910,1,0,0:0:0:0:
270,151,238985,1,0,0:0:0:0:
315,129,239060,1,0,0:0:0:0:
363,112,239135,5,0,0:0:0:0:
411,98,239210,1,0,0:0:0:0:
367,56,239285,2,0,B|318:71|305:104|288:147|272:174|253:199|223:207|178:204|155:184|141:165|141:130|155:96|179:76|213:64|248:75|284:127|259:148|249:161|255:211|346:223,1,525
455,231,240485,5,0,0:0:0:0:
455,231,240635,2,0,P|392:296|315:303,1,150
256,363,241085,2,0,P|228:334|214:274,1,75
137,175,241385,1,0,0:0:0:0:
126,131,241460,1,0,0:0:0:0:
132,85,241535,1,0,0:0:0:0:
212,17,241685,5,0,0:0:0:0:
272,112,241835,1,0,0:0:0:0:
306,134,241910,1,0,0:0:0:0:
346,150,241985,2,0,L|433:146,2,75
190,98,242435,1,0,0:0:0:0:
426,59,242585,1,0,0:0:0:0:
261,233,242735,1,0,0:0:0:0:
25,145,242885,2,0,L|112:149,1,48.7499977684022
334,159,243035,2,0,L|274:156,1,48.7499977684022
142,310,243335,6,0,L|145:262,1,48.7499977684022
156,7,243485,2,0,L|154:56,1,48.7499977684022
242,285,243635,2,0,L|245:237,1,48.7499977684022
255,41,243785,2,0,L|253:90,1,48.7499977684022
338,260,243935,2,0,L|342:212,1,48.7499977684022
351,77,244085,2,0,L|348:126,1,48.7499977684022
474,356,244235,5,0,0:0:0:0:
492,311,244310,1,0,0:0:0:0:
496,262,244385,1,0,0:0:0:0:
461,170,244535,2,0,P|455:117|466:68,1,97.4999955368044
338,83,244835,5,0,0:0:0:0:
294,104,244910,1,0,0:0:0:0:
245,100,244985,1,0,0:0:0:0:
202,75,245060,1,0,0:0:0:0:
160,49,245135,1,0,0:0:0:0:
111,43,245210,1,0,0:0:0:0:
69,67,245285,2,0,L|32:111,1,48.7499977684022
174,146,245435,5,0,0:0:0:0:
142,183,245510,1,0,0:0:0:0:
110,219,245585,2,0,L|71:260,1,48.7499977684022
190,282,245735,2,0,L|223:246,1,48.7499977684022
75,223,245885,2,0,L|42:259,1,48.7499977684022
50,307,246035,5,0,0:0:0:0:
96,322,246110,1,0,0:0:0:0:
144,319,246185,1,0,0:0:0:0:
187,296,246260,1,0,0:0:0:0:
222,262,246335,1,0,0:0:0:0:
266,241,246410,1,0,0:0:0:0:
314,248,246485,6,0,L|323:369,1,97.4999955368044
456,237,246785,2,0,L|452:189,1,48.7499977684022
314,248,246935,2,0,L|320:317,1,48.7499977684022
456,237,247085,2,0,L|452:189,1,48.7499977684022
314,248,247235,2,0,L|320:317,1,48.7499977684022
456,237,247385,2,0,L|452:189,1,48.7499977684022
314,248,247535,2,0,L|320:317,1,48.7499977684022
457,245,247685,2,0,B|464:175|420:146|420:146|473:122|490:59,1,194.999991073609
358,59,248135,2,0,B|299:80|292:149|292:149|249:186|186:137,1,194.999991073609
33,130,248585,2,0,B|104:101|98:39|98:39|162:14|204:51,1,194.999991073609
268,98,249035,5,0,0:0:0:0:
252,144,249110,1,0,0:0:0:0:
265,190,249185,1,0,0:0:0:0:
291,231,249260,1,0,0:0:0:0:
294,279,249335,1,0,0:0:0:0:
274,323,249410,1,0,0:0:0:0:
277,368,249485,2,0,B|204:308|204:308|151:303|151:303|78:238,1,225
280,159,250085,6,0,L|208:142,1,56.2500021457673
62,102,250235,2,0,L|128:120,1,56.2500021457673
139,245,250385,2,0,L|155:191,1,56.2500021457673
209,15,250535,2,0,L|194:69,1,56.2500021457673
79,224,250685,2,0,L|140:191,1,56.2500021457673
213,153,250835,2,0,L|261:125,1,56.2500021457673
343,76,250985,5,0,0:0:0:0:
335,108,251060,1,0,0:0:0:0:
326,140,251135,1,0,0:0:0:0:
319,173,251210,1,0,0:0:0:0:
310,205,251285,6,0,L|329:312,1,56.2500021457673
183,264,251435,1,0,0:0:0:0:
195,232,251510,1,0,0:0:0:0:
206,200,251585,1,0,0:0:0:0:
218,168,251660,1,0,0:0:0:0:
230,136,251735,2,0,L|208:59,1,56.2500021457673
127,42,251885,6,0,L|142:96,1,56.2500021457673
61,185,252035,2,0,L|107:216,1,56.2500021457673
104,326,252185,2,0,L|153:301,1,56.2500021457673
248,344,252335,2,0,L|284:282,1,56.2500021457673
248,148,252485,5,0,0:0:0:0:
263,105,252560,1,0,0:0:0:0:
302,83,252635,1,0,0:0:0:0:
346,85,252710,1,0,0:0:0:0:
386,110,252785,1,0,0:0:0:0:
430,116,252860,1,0,0:0:0:0:
470,97,252935,1,0,0:0:0:0:
463,143,253010,1,0,0:0:0:0:
456,187,253085,6,0,L|443:257,1,56.2500021457673
355,256,253235,2,0,L|368:186,1,56.2500021457673
285,161,253385,2,0,L|272:231,1,56.2500021457673
191,219,253535,2,0,L|204:149,1,56.2500021457673
158,51,253685,5,0,0:0:0:0:
154,67,253760,1,0,0:0:0:0:
144,81,253835,1,0,0:0:0:0:
135,95,253910,1,0,0:0:0:0:
128,110,253985,1,0,0:0:0:0:
120,131,254060,1,0,0:0:0:0:
119,159,254135,1,0,0:0:0:0:
145,188,254210,1,0,0:0:0:0:
169,218,254285,2,0,P|202:296|161:374,1,168.750006437302
60,332,254585,6,0,L|142:290,1,56.2500021457673
241,174,254735,2,0,L|159:216,1,56.2500021457673
205,322,254885,2,0,L|287:280,1,56.2500021457673
263,188,255035,2,0,L|181:230,1,56.2500021457673
227,336,255185,2,0,L|309:294,1,56.2500021457673
285,202,255335,2,0,L|203:244,1,56.2500021457673
249,350,255485,2,0,L|331:308,1,56.2500021457673
373,223,255635,6,0,L|388:169,2,56.2500021457673
322,89,255860,6,0,L|300:171,2,56.2500021457673
432,130,256085,6,0,L|447:76,2,56.2500021457673
403,203,256310,1,0,0:0:0:0:
366,218,256385,1,0,0:0:0:0:
340,247,256460,1,0,0:0:0:0:
333,285,256535,1,0,0:0:0:0:
355,317,256610,1,0,0:0:0:0:
391,330,256685,2,0,L|462:318,1,56.2500021457673
487,195,256835,6,0,L|416:207,1,56.2500021457673
330,241,256985,2,0,P|337:159|403:110,1,168.750006437302
279,23,257285,6,0,L|266:106,1,56.2500021457673
182,180,257435,2,0,L|195:97,1,56.2500021457673
303,218,257585,2,0,L|316:135,1,56.2500021457673
176,212,257735,2,0,L|189:129,1,56.2500021457673
370,193,257885,1,0,0:0:0:0:
382,224,257960,1,0,0:0:0:0:
382,257,258035,1,0,0:0:0:0:
378,290,258110,1,0,0:0:0:0:
362,320,258185,5,0,0:0:0:0:
192,251,258335,1,0,0:0:0:0:
275,346,258485,2,0,B|253:267|306:148|306:148|272:195|204:205,1,300
227,200,259385,5,0,0:0:0:0:
133,53,259685,5,0,0:0:0:0:
119,90,259760,1,0,0:0:0:0:
115,129,259835,1,0,0:0:0:0:
129,165,259910,1,0,0:0:0:0:
149,198,259985,1,0,0:0:0:0:
169,231,260060,1,0,0:0:0:0:
181,268,260135,1,0,0:0:0:0:
180,307,260210,1,0,0:0:0:0:
153,343,260285,5,0,0:0:0:0:
108,340,260360,1,0,0:0:0:0:
76,308,260435,1,0,0:0:0:0:
88,264,260510,1,0,0:0:0:0:
127,242,260585,1,0,0:0:0:0:
171,243,260660,1,0,0:0:0:0:
213,228,260735,1,0,0:0:0:0:
241,193,260810,1,0,0:0:0:0:
251,160,260885,5,0,0:0:0:0:
246,126,260960,1,0,0:0:0:0:
233,94,261035,1,0,0:0:0:0:
219,63,261110,1,0,0:0:0:0:
203,32,261185,1,0,0:0:0:0:
175,51,261260,1,0,0:0:0:0:
157,79,261335,1,0,0:0:0:0:
163,112,261410,1,0,0:0:0:0:
194,143,261485,5,0,0:0:0:0:
238,137,261560,1,0,0:0:0:0:
278,116,261635,1,0,0:0:0:0:
321,105,261710,1,0,0:0:0:0:
363,120,261785,1,0,0:0:0:0:
390,155,261860,1,0,0:0:0:0:
382,199,261935,1,0,0:0:0:0:
345,225,262010,1,0,0:0:0:0:
325,255,262085,5,0,0:0:0:0:
329,288,262160,1,0,0:0:0:0:
349,314,262235,1,0,0:0:0:0:
377,332,262310,1,0,0:0:0:0:
390,301,262385,1,0,0:0:0:0:
405,270,262460,1,0,0:0:0:0:
428,245,262535,1,0,0:0:0:0:
458,231,262610,1,0,0:0:0:0:
429,195,262685,5,0,0:0:0:0:
385,184,262760,1,0,0:0:0:0:
342,197,262835,1,0,0:0:0:0:
304,221,262910,1,0,0:0:0:0:
260,232,262985,1,0,0:0:0:0:
215,224,263060,1,0,0:0:0:0:
173,206,263135,1,0,0:0:0:0:
134,182,263210,1,0,0:0:0:0:
89,183,263285,5,0,0:0:0:0:
74,225,263360,1,0,0:0:0:0:
60,267,263435,1,0,0:0:0:0:
44,309,263510,1,0,0:0:0:0:
30,351,263585,2,0,L|123:303,1,75
230,117,263885,5,0,0:0:0:0:
242,160,263960,1,0,0:0:0:0:
252,203,264035,1,0,0:0:0:0:
264,246,264110,1,0,0:0:0:0:
278,288,264185,2,0,L|352:229,1,75
416,333,264485,5,0,0:0:0:0:
435,300,264560,1,0,0:0:0:0:
438,261,264635,1,0,0:0:0:0:
423,226,264710,1,0,0:0:0:0:
403,193,264785,1,0,0:0:0:0:
406,155,264860,1,0,0:0:0:0:
427,124,264935,1,0,0:0:0:0:
461,108,265010,1,0,0:0:0:0:
424,82,265085,5,0,0:0:0:0:
381,67,265160,1,0,0:0:0:0:
336,72,265235,1,0,0:0:0:0:
306,105,265310,1,0,0:0:0:0:
266,127,265385,1,0,0:0:0:0:
221,123,265460,1,0,0:0:0:0:
185,96,265535,1,0,0:0:0:0:
162,57,265610,1,0,0:0:0:0:
142,8,265685,5,0,0:0:0:0:
113,47,265760,1,0,0:0:0:0:
104,95,265835,1,0,0:0:0:0:
117,141,265910,1,0,0:0:0:0:
138,184,265985,1,0,0:0:0:0:
136,232,266060,1,0,0:0:0:0:
133,280,266135,1,0,0:0:0:0:
111,323,266210,1,0,0:0:0:0:
74,284,266285,5,0,0:0:0:0:
64,232,266360,1,0,0:0:0:0:
92,188,266435,1,0,0:0:0:0:
143,176,266510,1,0,0:0:0:0:
188,201,266585,1,0,0:0:0:0:
237,217,266660,1,0,0:0:0:0:
285,197,266735,1,0,0:0:0:0:
312,152,266810,1,0,0:0:0:0:
319,100,266885,6,0,L|295:45,1,37.5
150,41,267035,1,0,0:0:0:0:
150,41,267110,1,0,0:0:0:0:
150,41,267185,2,0,L|163:86,1,37.5
228,263,267335,2,0,L|197:198,1,37.5
78,194,267485,5,0,0:0:0:0:
78,194,267560,1,0,0:0:0:0:
78,194,267635,2,0,L|143:216,1,37.5
333,275,267785,2,0,L|266:251,1,37.5
150,116,267935,2,0,L|170:147,1,37.5
139,308,268085,2,0,L|214:229,1,75
269,168,268385,5,0,0:0:0:0:
298,133,268460,1,0,0:0:0:0:
327,99,268535,1,0,0:0:0:0:
359,67,268610,1,0,0:0:0:0:
390,34,268685,1,0,0:0:0:0:
421,80,268760,5,0,0:0:0:0:
420,136,268835,1,0,0:0:0:0:
375,169,268910,1,0,0:0:0:0:
319,158,268985,1,0,0:0:0:0:
297,106,269060,1,0,0:0:0:0:
254,68,269135,1,0,0:0:0:0:
198,75,269210,1,0,0:0:0:0:
165,121,269285,6,0,L|137:188,3,37.5
135,232,269585,1,0,0:0:0:0:
176,250,269660,1,0,0:0:0:0:
216,269,269735,1,0,0:0:0:0:
256,288,269810,1,0,0:0:0:0:
295,309,269885,2,0,L|284:364,3,37.5
374,341,270185,5,0,0:0:0:0:
386,297,270260,1,0,0:0:0:0:
397,253,270335,1,0,0:0:0:0:
406,208,270410,1,0,0:0:0:0:
415,163,270485,2,0,L|469:187,3,37.5
302,100,270785,5,0,0:0:0:0:
307,144,270860,1,0,0:0:0:0:
313,188,270935,1,0,0:0:0:0:
319,232,271010,1,0,0:0:0:0:
323,276,271085,2,0,L|268:275,3,37.5
182,274,271385,2,0,L|237:275,3,37.5
261,258,271685,5,0,0:0:0:0:
228,226,271760,1,0,0:0:0:0:
199,191,271835,1,0,0:0:0:0:
190,146,271910,1,0,0:0:0:0:
198,101,271985,1,0,0:0:0:0:
201,56,272060,1,0,0:0:0:0:
174,19,272135,1,0,0:0:0:0:
129,20,272210,1,0,0:0:0:0:
97,57,272285,5,0,0:0:0:0:
101,105,272360,1,0,0:0:0:0:
144,126,272435,1,0,0:0:0:0:
191,115,272510,1,0,0:0:0:0:
238,103,272585,1,0,0:0:0:0:
284,118,272660,1,0,0:0:0:0:
312,157,272735,1,0,0:0:0:0:
325,203,272810,1,0,0:0:0:0:
323,255,272885,5,0,0:0:0:0:
322,302,272960,1,0,0:0:0:0:
350,346,273035,1,0,0:0:0:0:
400,358,273110,1,0,0:0:0:0:
397,305,273185,1,0,0:0:0:0:
354,274,273260,1,0,0:0:0:0:
304,256,273335,1,0,0:0:0:0:
251,256,273410,1,0,0:0:0:0:
195,264,273485,5,0,0:0:0:0:
138,262,273560,1,0,0:0:0:0:
86,238,273635,1,0,0:0:0:0:
52,193,273710,1,0,0:0:0:0:
65,138,273785,1,0,0:0:0:0:
113,108,273860,1,0,0:0:0:0:
168,119,273935,1,0,0:0:0:0:
200,164,274010,1,0,0:0:0:0:
202,220,274085,6,0,L|199:261,3,37.5
270,155,274385,1,0,0:0:0:0:
268,211,274460,1,0,0:0:0:0:
265,267,274535,1,0,0:0:0:0:
264,323,274610,1,0,0:0:0:0:
258,378,274685,2,0,L|188:359,3,37.5
159,291,274985,2,0,L|229:310,3,37.5
293,326,275285,5,0,0:0:0:0:
340,302,275360,1,0,0:0:0:0:
358,252,275435,1,0,0:0:0:0:
335,204,275510,1,0,0:0:0:0:
306,160,275585,1,0,0:0:0:0:
317,101,275660,1,0,0:0:0:0:
368,77,275735,1,0,0:0:0:0:
418,101,275810,1,0,0:0:0:0:
436,154,275885,5,0,0:0:0:0:
414,206,275960,1,0,0:0:0:0:
360,224,276035,1,0,0:0:0:0:
306,205,276110,1,0,0:0:0:0:
262,169,276185,1,0,0:0:0:0:
209,147,276260,1,0,0:0:0:0:
159,173,276335,1,0,0:0:0:0:
137,225,276410,1,0,0:0:0:0:
161,275,276485,6,0,L|217:295,1,37.5
376,280,276635,1,0,0:0:0:0:
376,280,276710,1,0,0:0:0:0:
376,280,276785,2,0,L|320:300,1,37.5
229,347,276935,1,0,0:0:0:0:
229,347,277010,1,0,0:0:0:0:
229,347,277085,6,0,L|247:287,1,37.5
287,151,277235,2,0,L|273:202,1,37.5
146,342,277385,6,0,L|164:270,1,37.5
204,109,277535,2,0,L|190:169,1,37.5
54,340,277685,1,0,0:0:0:0:
57,84,277835,5,0,0:0:0:0:
62,113,277910,1,0,0:0:0:0:
67,142,277985,1,0,0:0:0:0:
72,171,278060,1,0,0:0:0:0:
77,200,278135,1,0,0:0:0:0:
172,94,278285,5,0,0:0:0:0:
172,142,278360,1,0,0:0:0:0:
157,188,278435,1,0,0:0:0:0:
127,229,278510,1,0,0:0:0:0:
167,223,278585,1,0,0:0:0:0:
208,224,278660,1,0,0:0:0:0:
247,236,278735,1,0,0:0:0:0:
282,256,278810,1,0,0:0:0:0:
332,241,278885,6,0,L|344:120,1,104.999996795654
202,14,279185,1,0,0:0:0:0:
181,44,279260,1,0,0:0:0:0:
175,80,279335,1,0,0:0:0:0:
161,152,279485,2,0,P|174:207|216:258,1,104.999996795654
392,100,279785,1,0,0:0:0:0:
403,133,279860,1,0,0:0:0:0:
403,170,279935,1,0,0:0:0:0:
387,241,280085,2,0,P|361:291|309:332,1,104.999996795654
191,333,280385,5,0,0:0:0:0:
202,298,280460,1,0,0:0:0:0:
213,263,280535,1,0,0:0:0:0:
276,225,280685,2,0,L|244:124,1,104.999996795654
417,41,280985,5,0,0:0:0:0:
406,76,281060,1,0,0:0:0:0:
395,111,281135,1,0,0:0:0:0:
332,149,281285,2,0,L|364:250,1,104.999996795654
393,361,281585,1,0,0:0:0:0:
365,346,281660,1,0,0:0:0:0:
337,329,281735,1,0,0:0:0:0:
253,284,281885,2,0,L|162:233,1,104.999996795654
229,168,282185,5,0,0:0:0:0:
236,215,282260,1,0,0:0:0:0:
242,259,282335,2,0,B|323:235|329:159|294:113|233:90|184:109|152:158|140:188|140:188|138:187|87:151|100:92|100:92|142:70|185:32,1,524.999983978272
374,60,283385,6,0,L|304:96,1,52.4999983978272
189,153,283535,2,0,L|279:107,1,52.4999983978272
234,14,283685,2,0,L|277:91,1,52.4999983978272
337,189,283835,1,0,0:0:0:0:
239,279,283985,6,0,L|187:326,1,52.4999983978272
37,274,284135,2,0,L|88:232,1,52.4999983978272
345,190,284285,6,0,L|293:237,1,52.4999983978272
143,185,284435,2,0,L|194:143,1,52.4999983978272
441,102,284585,6,0,L|389:149,1,52.4999983978272
239,97,284735,2,0,L|290:55,1,52.4999983978272
400,35,284885,2,0,L|389:108,1,52.4999983978272
360,275,285035,2,0,L|373:199,1,52.4999983978272
254,135,285185,2,0,L|340:153,1,52.4999983978272
497,184,285335,2,0,L|430:171,1,52.4999983978272
424,170,285485,5,0,0:0:0:0:
408,167,285560,1,0,0:0:0:0:
392,163,285635,1,0,0:0:0:0:
376,160,285710,1,0,0:0:0:0:
360,158,285785,1,0,0:0:0:0:
344,154,285860,1,0,0:0:0:0:
328,151,285935,1,0,0:0:0:0:
312,147,286010,1,0,0:0:0:0:
281,219,286085,6,0,L|172:207,1,104.999996795654
79,279,286310,1,0,0:0:0:0:
79,279,286385,1,0,0:0:0:0:
79,279,286460,1,0,0:0:0:0:
66,261,286535,1,0,0:0:0:0:
61,240,286610,1,0,0:0:0:0:
68,214,286685,1,0,0:0:0:0:
82,186,286760,1,0,0:0:0:0:
93,150,286835,5,0,0:0:0:0:
97,113,286910,1,0,0:0:0:0:
83,78,286985,1,0,0:0:0:0:
70,37,287060,1,0,0:0:0:0:
56,76,287135,1,0,0:0:0:0:
69,115,287210,1,0,0:0:0:0:
104,137,287285,1,0,0:0:0:0:
148,137,287360,1,0,0:0:0:0:
189,129,287435,5,0,0:0:0:0:
223,105,287510,1,0,0:0:0:0:
258,81,287585,1,0,0:0:0:0:
298,70,287660,1,0,0:0:0:0:
338,80,287735,1,0,0:0:0:0:
370,106,287810,1,0,0:0:0:0:
383,145,287885,1,0,0:0:0:0:
341,149,287960,1,0,0:0:0:0:
299,149,288035,6,0,L|295:227,1,52.4999983978272
292,358,288185,2,0,L|295:286,1,52.4999983978272
166,245,288335,2,0,L|241:250,1,52.4999983978272
361,254,288485,2,0,B|367:199|446:167|446:167|378:120|377:58,1,262.499991989136
348,16,288935,2,0,P|345:134|258:198,1,225
189,122,289460,1,0,0:0:0:0:
189,122,289535,2,0,P|161:235|249:308,1,225
314,262,290060,5,0,0:0:0:0:
343,238,290135,1,0,0:0:0:0:
378,225,290210,1,0,0:0:0:0:
415,229,290285,2,0,P|443:175|297:123,1,262.5
256,171,290885,1,0,0:0:0:0:
162,230,291035,1,0,0:0:0:0:
86,155,291185,1,0,0:0:0:0:
327,255,291335,6,0,L|430:287,1,75
244,346,291635,2,0,L|141:314,1,75
44,244,291935,2,0,L|137:222,1,75
256,250,292235,1,0,0:0:0:0:
281,265,292310,1,0,0:0:0:0:
296,290,292385,1,0,0:0:0:0:
303,319,292460,1,0,0:0:0:0:
298,352,292535,2,0,P|334:310|337:255,1,112.5
293,190,292835,2,0,P|254:123|142:111,1,187.5
92,230,293285,6,0,L|150:205,2,37.5
227,163,293510,1,0,0:0:0:0:
251,134,293585,1,0,0:0:0:0:
258,89,293660,5,0,0:0:0:0:
275,47,293735,1,0,0:0:0:0:
319,43,293810,1,0,0:0:0:0:
354,71,293885,1,0,0:0:0:0:
347,115,293960,1,0,0:0:0:0:
309,140,294035,1,0,0:0:0:0:
270,155,294110,1,0,0:0:0:0:
260,191,294185,1,0,0:0:0:0:
270,223,294260,5,0,0:0:0:0:
303,247,294335,1,0,0:0:0:0:
343,240,294410,1,0,0:0:0:0:
367,206,294485,1,0,0:0:0:0:
382,167,294560,1,0,0:0:0:0:
403,201,294635,1,0,0:0:0:0:
409,241,294710,1,0,0:0:0:0:
400,281,294785,1,0,0:0:0:0:
369,309,294860,5,0,0:0:0:0:
324,317,294935,1,0,0:0:0:0:
280,305,295010,1,0,0:0:0:0:
247,274,295085,1,0,0:0:0:0:
214,238,295160,1,0,0:0:0:0:
170,215,295235,1,0,0:0:0:0:
121,212,295310,1,0,0:0:0:0:
77,234,295385,1,0,0:0:0:0:
65,281,295460,5,0,0:0:0:0:
89,322,295535,1,0,0:0:0:0:
137,330,295610,1,0,0:0:0:0:
170,294,295685,1,0,0:0:0:0:
177,245,295760,1,0,0:0:0:0:
186,197,295835,1,0,0:0:0:0:
192,148,295910,1,0,0:0:0:0:
200,99,295985,6,0,L|239:81,1,37.5
340,39,296135,2,0,L|301:57,1,37.5
231,168,296285,2,0,L|270:150,1,37.5
371,108,296435,2,0,L|332:126,1,37.5
262,234,296585,2,0,L|301:216,1,37.5
402,174,296735,2,0,L|363:192,1,37.5
260,353,296885,5,0,0:0:0:0:
260,353,296960,1,0,0:0:0:0:
260,353,297035,1,0,0:0:0:0:
159,278,297185,2,0,L|230:289,1,37.5
324,251,297335,2,0,L|259:284,1,37.5
97,187,297485,2,0,L|167:192,1,37.5
355,146,297635,2,0,L|289:172,1,37.5
34,100,297785,2,0,L|107:94,1,37.5
388,44,297935,2,0,L|316:61,1,37.5
28,143,298085,5,0,0:0:0:0:
152,125,298235,1,0,0:0:0:0:
95,250,298385,1,0,0:0:0:0:
95,250,298460,1,0,0:0:0:0:
95,250,298535,2,0,L|201:257,1,75
318,183,298835,1,0,0:0:0:0:
426,204,298985,1,0,0:0:0:0:
437,231,299060,1,0,0:0:0:0:
436,260,299135,1,0,0:0:0:0:
378,349,299285,6,0,L|345:274,1,75
258,138,299585,1,0,0:0:0:0:
228,144,299660,1,0,0:0:0:0:
206,164,299735,1,0,0:0:0:0:
119,173,299885,2,0,L|114:261,1,75
37,297,300185,1,0,0:0:0:0:
57,318,300260,1,0,0:0:0:0:
86,325,300335,1,0,0:0:0:0:
190,312,300485,6,0,L|266:267,1,75
402,269,300785,1,0,0:0:0:0:
408,239,300860,1,0,0:0:0:0:
404,209,300935,1,0,0:0:0:0:
288,166,301085,2,0,P|315:118|347:89,1,75
466,63,301385,1,0,0:0:0:0:
464,100,301460,1,0,0:0:0:0:
445,132,301535,1,0,0:0:0:0:
318,210,301685,6,0,P|281:217|235:212,1,75
146,104,301985,1,0,0:0:0:0:
128,137,302060,1,0,0:0:0:0:
122,174,302135,1,0,0:0:0:0:
222,218,302285,2,0,P|224:266|217:306,1,75
72,334,302585,1,0,0:0:0:0:
84,298,302660,1,0,0:0:0:0:
112,273,302735,1,0,0:0:0:0:
288,202,302885,6,0,P|304:157|308:103,1,75
218,40,303185,1,0,0:0:0:0:
255,35,303260,1,0,0:0:0:0:
292,40,303335,1,0,0:0:0:0:
386,121,303485,2,0,P|394:166|387:210,1,75
294,337,303785,1,0,0:0:0:0:
331,341,303860,1,0,0:0:0:0:
367,332,303935,1,0,0:0:0:0:
464,338,304085,6,0,L|473:251,1,75
407,178,304385,1,0,0:0:0:0:
413,141,304460,1,0,0:0:0:0:
434,110,304535,1,0,0:0:0:0:
504,36,304685,2,0,P|454:13|415:7,1,75
277,33,304985,5,0,0:0:0:0:
279,66,305060,1,0,0:0:0:0:
279,99,305135,1,0,0:0:0:0:
279,132,305210,1,0,0:0:0:0:
279,165,305285,2,0,P|271:222|250:258,1,75
71,184,305585,5,0,0:0:0:0:
101,162,305660,1,0,0:0:0:0:
138,156,305735,1,0,0:0:0:0:
234,179,305885,2,0,P|286:191|317:189,1,75
419,111,306185,1,0,0:0:0:0:
388,89,306260,1,0,0:0:0:0:
351,81,306335,1,0,0:0:0:0:
248,98,306485,6,0,P|234:144|239:182,1,75
280,287,306785,1,0,0:0:0:0:
254,314,306860,1,0,0:0:0:0:
217,322,306935,1,0,0:0:0:0:
128,273,307085,5,0,0:0:0:0:
89,250,307160,1,0,0:0:0:0:
45,262,307235,1,0,0:0:0:0:
26,302,307310,1,0,0:0:0:0:
43,343,307385,1,0,0:0:0:0:
86,353,307460,1,0,0:0:0:0:
129,340,307535,1,0,0:0:0:0:
156,304,307610,1,0,0:0:0:0:
153,247,307685,5,0,0:0:0:0:
152,198,307760,1,0,0:0:0:0:
168,152,307835,1,0,0:0:0:0:
207,123,307910,1,0,0:0:0:0:
255,119,307985,2,0,L|320:120,3,37.5
347,188,308285,2,0,L|309:187,3,37.5
245,222,308585,1,0,0:0:0:0:
258,261,308660,1,0,0:0:0:0:
287,289,308735,1,0,0:0:0:0:
326,301,308810,1,0,0:0:0:0:
374,300,308885,5,0,0:0:0:0:
414,273,308960,1,0,0:0:0:0:
424,225,309035,1,0,0:0:0:0:
402,181,309110,1,0,0:0:0:0:
374,140,309185,1,0,0:0:0:0:
355,94,309260,1,0,0:0:0:0:
369,47,309335,1,0,0:0:0:0:
416,35,309410,1,0,0:0:0:0:
459,57,309485,5,0,0:0:0:0:
475,102,309560,1,0,0:0:0:0:
447,146,309635,1,0,0:0:0:0:
396,160,309710,1,0,0:0:0:0:
343,160,309785,1,0,0:0:0:0:
295,138,309860,1,0,0:0:0:0:
244,122,309935,1,0,0:0:0:0:
191,123,310010,1,0,0:0:0:0:
143,145,310085,2,0,P|109:171|76:211,1,75
71,307,310385,5,0,0:0:0:0:
119,311,310460,1,0,0:0:0:0:
164,293,310535,1,0,0:0:0:0:
209,275,310610,1,0,0:0:0:0:
257,281,310685,1,0,0:0:0:0:
300,303,310760,1,0,0:0:0:0:
339,331,310835,1,0,0:0:0:0:
390,327,310910,1,0,0:0:0:0:
426,294,310985,5,0,0:0:0:0:
419,245,311060,1,0,0:0:0:0:
384,210,311135,1,0,0:0:0:0:
355,170,311210,1,0,0:0:0:0:
359,121,311285,2,0,L|403:95,3,37.5
391,21,311585,2,0,L|358:40,3,37.5
276,60,311885,5,0,0:0:0:0:
223,63,311960,1,0,0:0:0:0:
172,49,312035,1,0,0:0:0:0:
128,20,312110,1,0,0:0:0:0:
75,17,312185,1,0,0:0:0:0:
39,55,312260,1,0,0:0:0:0:
50,106,312335,1,0,0:0:0:0:
84,140,312410,1,0,0:0:0:0:
132,143,312485,2,0,P|194:139|231:126,1,75
363,177,312710,5,0,0:0:0:0:
374,232,312785,1,0,0:0:0:0:
356,285,312860,1,0,0:0:0:0:
310,318,312935,1,0,0:0:0:0:
258,340,313010,1,0,0:0:0:0:
204,323,313085,5,0,0:0:0:0:
148,310,313160,1,0,0:0:0:0:
92,319,313235,1,0,0:0:0:0:
47,353,313310,1,0,0:0:0:0:
45,296,313385,1,0,0:0:0:0:
34,240,313460,1,0,0:0:0:0:
34,183,313535,1,0,0:0:0:0:
73,142,313610,1,0,0:0:0:0:
86,188,313685,5,0,0:0:0:0:
119,223,313760,1,0,0:0:0:0:
167,231,313835,1,0,0:0:0:0:
211,210,313910,1,0,0:0:0:0:
231,165,313985,1,0,0:0:0:0:
266,131,314060,1,0,0:0:0:0:
314,137,314135,1,0,0:0:0:0:
353,166,314210,1,0,0:0:0:0:
367,208,314285,5,0,0:0:0:0:
366,252,314360,1,0,0:0:0:0:
335,285,314435,1,0,0:0:0:0:
308,248,314510,1,0,0:0:0:0:
306,203,314585,1,0,0:0:0:0:
325,162,314660,1,0,0:0:0:0:
352,126,314735,1,0,0:0:0:0:
371,85,314810,1,0,0:0:0:0:
370,36,314885,5,0,0:0:0:0:
326,13,314960,1,0,0:0:0:0:
279,28,315035,1,0,0:0:0:0:
264,74,315110,1,0,0:0:0:0:
283,118,315185,1,0,0:0:0:0:
292,165,315260,1,0,0:0:0:0:
268,207,315335,1,0,0:0:0:0:
222,225,315410,1,0,0:0:0:0:
173,223,315485,6,0,L|124:228,3,37.5
70,162,315785,2,0,L|108:159,3,37.5
181,104,316085,5,0,0:0:0:0:
222,122,316160,1,0,0:0:0:0:
243,161,316235,1,0,0:0:0:0:
241,205,316310,1,0,0:0:0:0:
222,249,316385,1,0,0:0:0:0:
259,293,316460,1,0,0:0:0:0:
325,305,316535,1,0,0:0:0:0:
386,278,316610,1,0,0:0:0:0:
419,219,316685,6,0,P|425:161|421:125,1,75
341,142,316985,2,0,P|324:89|276:33,1,104.999996795654
146,46,317285,2,0,P|159:105|229:177,1,150
352,133,318185,1,0,0:0:0:0:
460,219,318485,2,0,P|451:257|429:292,1,75
215,266,319085,1,0,0:0:0:0:
109,128,319385,1,0,0:0:0:0:
255,189,319685,2,0,B|166:170|139:266|139:266|134:185|65:149,1,300
151,358,321485,6,0,P|200:333|230:273,1,104.999996795654
172,161,322085,2,0,B|228:151|268:188|268:188|273:129|316:87,1,209.999993591309
423,162,322985,1,0,0:0:0:0:
317,257,323285,2,0,P|279:270|213:250,1,104.999996795654
176,150,323885,1,0,0:0:0:0:
55,116,324185,1,0,0:0:0:0:
76,242,324485,2,0,P|49:136|101:39,1,225
224,295,325685,1,0,0:0:0:0:
372,175,326285,6,0,P|375:225|357:280,2,104.999996795654
274,51,327185,1,0,0:0:0:0:
405,105,327485,1,0,0:0:0:0:
248,151,327785,1,0,0:0:0:0:
116,44,328085,2,0,P|98:92|105:144,1,104.999996795654
203,217,328685,1,0,0:0:0:0:
111,307,328985,1,0,0:0:0:0:
80,191,329285,2,0,B|121:168|206:184|206:184|168:109|55:114,1,300
135,275,331085,6,0,L|101:246,1,37.5
161,264,331385,2,0,L|137:210,1,52.4999983978272
195,263,331685,2,0,L|192:181,1,75
269,300,332285,2,0,P|307:279|332:243,1,75
277,115,332885,1,0,0:0:0:0:
139,125,333185,2,0,P|149:161|169:193,2,75
232,77,334085,5,0,0:0:0:0:
277,199,334385,1,0,0:0:0:0:
133,172,334685,1,0,0:0:0:0:
372,90,334985,1,0,0:0:0:0:
103,229,335285,5,0,0:0:0:0:
109,244,335360,1,0,0:0:0:0:
118,258,335435,1,0,0:0:0:0:
130,269,335510,1,0,0:0:0:0:
149,279,335585,1,0,0:0:0:0:
171,282,335660,1,0,0:0:0:0:
193,277,335735,1,0,0:0:0:0:
215,277,335810,1,0,0:0:0:0:
241,290,335885,5,0,0:0:0:0:
261,311,335960,1,0,0:0:0:0:
272,338,336035,1,0,0:0:0:0:
266,367,336110,1,0,0:0:0:0:
305,370,336185,1,0,0:0:0:0:
340,354,336260,1,0,0:0:0:0:
362,322,336335,1,0,0:0:0:0:
365,282,336410,1,0,0:0:0:0:
342,240,336485,5,0,0:0:0:0:
303,212,336560,1,0,0:0:0:0:
270,177,336635,1,0,0:0:0:0:
253,133,336710,1,0,0:0:0:0:
254,86,336785,1,0,0:0:0:0:
288,54,336860,1,0,0:0:0:0:
334,52,336935,1,0,0:0:0:0:
373,78,337010,1,0,0:0:0:0:
385,123,337085,5,0,0:0:0:0:
377,169,337160,1,0,0:0:0:0:
336,192,337235,1,0,0:0:0:0:
290,178,337310,1,0,0:0:0:0:
242,170,337385,2,0,P|194:162|121:178,1,104.999996795654
79,317,337685,2,0,P|126:307|189:266,1,104.999996795654
273,326,337985,2,0,P|317:299|369:288,1,104.999996795654
464,133,338285,2,0,P|464:185|448:235,1,104.999996795654
466,339,338585,5,0,0:0:0:0:
375,239,338735,1,0,0:0:0:0:
294,127,338885,5,0,0:0:0:0:
263,119,338960,1,0,0:0:0:0:
231,121,339035,1,0,0:0:0:0:
204,138,339110,1,0,0:0:0:0:
184,162,339185,1,0,0:0:0:0:
178,192,339260,1,0,0:0:0:0:
168,222,339335,1,0,0:0:0:0:
151,248,339410,1,0,0:0:0:0:
105,259,339485,5,0,0:0:0:0:
60,244,339560,1,0,0:0:0:0:
46,198,339635,1,0,0:0:0:0:
54,151,339710,1,0,0:0:0:0:
91,122,339785,1,0,0:0:0:0:
137,113,339860,1,0,0:0:0:0:
180,94,339935,1,0,0:0:0:0:
176,46,340010,1,0,0:0:0:0:
129,38,340085,5,0,0:0:0:0:
107,79,340160,1,0,0:0:0:0:
121,123,340235,1,0,0:0:0:0:
153,156,340310,1,0,0:0:0:0:
184,191,340385,1,0,0:0:0:0:
193,237,340460,1,0,0:0:0:0:
191,284,340535,1,0,0:0:0:0:
163,322,340610,1,0,0:0:0:0:
119,340,340685,6,0,P|177:345|233:336,1,104.999996795654
393,233,340985,2,0,P|335:228|279:237,1,104.999996795654
82,252,341285,5,0,0:0:0:0:
103,229,341360,1,0,0:0:0:0:
132,218,341435,1,0,0:0:0:0:
163,217,341510,1,0,0:0:0:0:
201,234,341585,1,0,0:0:0:0:
241,243,341660,1,0,0:0:0:0:
282,239,341735,1,0,0:0:0:0:
314,212,341810,1,0,0:0:0:0:
314,164,341885,5,0,0:0:0:0:
281,129,341960,1,0,0:0:0:0:
233,131,342035,1,0,0:0:0:0:
190,109,342110,1,0,0:0:0:0:
183,62,342185,2,0,P|152:116|147:164,1,104.999996795654
56,192,342485,2,0,P|87:245|126:274,1,104.999996795654
282,241,342785,5,0,0:0:0:0:
363,345,342935,1,0,0:0:0:0:
416,194,343085,1,0,0:0:0:0:
303,98,343235,1,0,0:0:0:0:
189,171,343385,1,0,0:0:0:0:
52,101,343535,1,0,0:0:0:0:
206,38,343685,5,0,0:0:0:0:
229,72,343760,1,0,0:0:0:0:
239,112,343835,1,0,0:0:0:0:
231,153,343910,1,0,0:0:0:0:
206,187,343985,1,0,0:0:0:0:
201,228,344060,1,0,0:0:0:0:
212,268,344135,1,0,0:0:0:0:
243,295,344210,1,0,0:0:0:0:
201,293,344285,5,0,0:0:0:0:
159,300,344360,1,0,0:0:0:0:
122,321,344435,1,0,0:0:0:0:
80,324,344510,1,0,0:0:0:0:
42,305,344585,1,0,0:0:0:0:
32,264,344660,1,0,0:0:0:0:
45,224,344735,1,0,0:0:0:0:
80,201,344810,1,0,0:0:0:0:
120,212,344885,5,0,0:0:0:0:
161,217,344960,1,0,0:0:0:0:
202,208,345035,1,0,0:0:0:0:
241,193,345110,1,0,0:0:0:0:
276,171,345185,6,0,P|328:162|387:170,1,104.999996795654
425,47,345485,2,0,P|449:93|460:152,1,104.999996795654
392,330,345785,2,0,P|367:283|356:224,1,104.999996795654
313,120,346085,5,0,0:0:0:0:
292,89,346160,1,0,0:0:0:0:
261,68,346235,1,0,0:0:0:0:
224,65,346310,1,0,0:0:0:0:
189,76,346385,1,0,0:0:0:0:
153,86,346460,1,0,0:0:0:0:
116,84,346535,1,0,0:0:0:0:
85,64,346610,1,0,0:0:0:0:
100,77,346685,5,0,0:0:0:0:
120,107,346760,1,0,0:0:0:0:
118,143,346835,1,0,0:0:0:0:
105,177,346910,1,0,0:0:0:0:
91,211,346985,2,0,P|77:274|84:325,1,104.999996795654
190,347,347285,1,0,0:0:0:0:
197,310,347360,1,0,0:0:0:0:
194,277,347435,1,0,0:0:0:0:
64,174,347585,6,0,P|115:151|170:157,1,104.999996795654
264,251,347885,2,0,P|315:253|362:231,1,104.999996795654
366,69,348185,1,0,0:0:0:0:
435,209,348335,1,0,0:0:0:0:
375,345,348485,5,0,0:0:0:0:
338,351,348560,1,0,0:0:0:0:
301,347,348635,1,0,0:0:0:0:
270,326,348710,1,0,0:0:0:0:
241,302,348785,1,0,0:0:0:0:
205,291,348860,1,0,0:0:0:0:
168,288,348935,1,0,0:0:0:0:
133,300,349010,1,0,0:0:0:0:
102,328,349085,5,0,0:0:0:0:
83,290,349160,1,0,0:0:0:0:
75,248,349235,1,0,0:0:0:0:
85,207,349310,1,0,0:0:0:0:
110,173,349385,1,0,0:0:0:0:
147,154,349460,1,0,0:0:0:0:
184,134,349535,1,0,0:0:0:0:
204,97,349610,1,0,0:0:0:0:
181,61,349685,5,0,0:0:0:0:
139,69,349760,1,0,0:0:0:0:
128,109,349835,1,0,0:0:0:0:
157,138,349910,1,0,0:0:0:0:
196,151,349985,1,0,0:0:0:0:
237,148,350060,1,0,0:0:0:0:
277,137,350135,1,0,0:0:0:0:
310,112,350210,1,0,0:0:0:0:
317,70,350285,6,0,P|327:142|313:200,1,104.999996795654
200,235,350585,2,0,P|243:264|296:273,1,104.999996795654
436,199,350885,1,0,0:0:0:0:
399,177,350960,1,0,0:0:0:0:
358,167,351035,1,0,0:0:0:0:
316,169,351110,1,0,0:0:0:0:
275,179,351185,2,0,P|216:166|156:133,1,104.999996795654
86,39,351485,5,0,0:0:0:0:
237,58,351635,1,0,0:0:0:0:
132,190,351785,1,0,0:0:0:0:
293,230,351935,1,0,0:0:0:0:
437,137,352085,2,0,P|448:206|430:279,1,104.999996795654
340,352,352385,2,0,P|329:283|347:209,1,104.999996795654
397,106,352685,1,0,0:0:0:0:
239,139,352835,1,0,0:0:0:0:
100,219,352985,2,0,P|103:166|123:118,1,104.999996795654
226,234,353285,5,0,0:0:0:0:
240,262,353360,1,0,0:0:0:0:
265,281,353435,1,0,0:0:0:0:
297,283,353510,1,0,0:0:0:0:
326,270,353585,1,0,0:0:0:0:
356,257,353660,1,0,0:0:0:0:
388,255,353735,1,0,0:0:0:0:
414,273,353810,1,0,0:0:0:0:
437,231,353885,5,0,0:0:0:0:
437,183,353960,1,0,0:0:0:0:
414,142,354035,1,0,0:0:0:0:
377,113,354110,1,0,0:0:0:0:
354,72,354185,1,0,0:0:0:0:
356,24,354260,1,0,0:0:0:0:
402,12,354335,1,0,0:0:0:0:
434,47,354410,1,0,0:0:0:0:
421,92,354485,5,0,0:0:0:0:
382,105,354560,1,0,0:0:0:0:
341,109,354635,1,0,0:0:0:0:
309,136,354710,1,0,0:0:0:0:
293,186,354785,1,0,0:0:0:0:
311,234,354860,1,0,0:0:0:0:
284,279,354935,1,0,0:0:0:0:
235,297,355010,1,0,0:0:0:0:
186,264,355085,5,0,0:0:0:0:
101,75,355385,5,0,0:0:0:0:
432,93,355685,6,0,P|444:175|418:269,1,150
334,265,356135,1,0,0:0:0:0:
148,288,356285,1,0,0:0:0:0:
298,346,356435,1,0,0:0:0:0:
181,205,356585,1,0,0:0:0:0:
204,362,356735,1,0,0:0:0:0:
277,190,356885,6,0,P|279:143|255:102,1,75
182,47,357185,1,0,0:0:0:0:
151,147,357335,1,0,0:0:0:0:
70,69,357485,1,0,0:0:0:0:
47,181,357635,1,0,0:0:0:0:
132,250,357785,1,0,0:0:0:0:
247,216,357935,1,0,0:0:0:0:
252,96,358085,2,0,P|315:94|354:113,1,75
439,62,358385,5,0,0:0:0:0:
453,104,358460,1,0,0:0:0:0:
451,148,358535,1,0,0:0:0:0:
377,226,358685,1,0,0:0:0:0:
269,191,358835,1,0,0:0:0:0:
173,250,358985,1,0,0:0:0:0:
84,180,359135,1,0,0:0:0:0:
39,76,359285,5,0,0:0:0:0:
28,107,359360,1,0,0:0:0:0:
27,140,359435,1,0,0:0:0:0:
40,171,359510,1,0,0:0:0:0:
64,204,359585,1,0,0:0:0:0:
82,240,359660,1,0,0:0:0:0:
89,280,359735,1,0,0:0:0:0:
68,316,359810,1,0,0:0:0:0:
28,326,359885,5,0,0:0:0:0:
56,355,359960,1,0,0:0:0:0:
96,364,360035,1,0,0:0:0:0:
137,360,360110,1,0,0:0:0:0:
172,338,360185,1,0,0:0:0:0:
198,306,360260,1,0,0:0:0:0:
235,289,360335,1,0,0:0:0:0:
275,298,360410,1,0,0:0:0:0:
308,321,360485,6,0,P|335:288|349:246,1,75
433,195,360785,1,0,0:0:0:0:
422,158,360860,1,0,0:0:0:0:
397,129,360935,1,0,0:0:0:0:
273,186,361085,1,0,0:0:0:0:
171,51,361235,1,0,0:0:0:0:
326,103,361385,1,0,0:0:0:0:
162,154,361535,1,0,0:0:0:0:
269,20,361685,2,0,P|298:73|305:109,1,75
299,213,361985,5,0,0:0:0:0:
170,245,362135,1,0,0:0:0:0:
76,129,362285,1,0,0:0:0:0:
214,153,362435,1,0,0:0:0:0:
316,72,362585,1,0,0:0:0:0:
423,155,362735,1,0,0:0:0:0:
361,266,362885,2,0,P|323:242|294:204,1,75
302,113,363185,5,0,0:0:0:0:
265,105,363260,1,0,0:0:0:0:
228,113,363335,1,0,0:0:0:0:
197,269,363485,1,0,0:0:0:0:
54,129,363635,1,0,0:0:0:0:
246,162,363785,1,0,0:0:0:0:
59,243,363935,1,0,0:0:0:0:
163,74,364085,5,0,0:0:0:0:
196,69,364160,1,0,0:0:0:0:
228,79,364235,1,0,0:0:0:0:
259,90,364310,1,0,0:0:0:0:
299,99,364385,1,0,0:0:0:0:
340,97,364460,1,0,0:0:0:0:
379,83,364535,1,0,0:0:0:0:
409,55,364610,1,0,0:0:0:0:
422,12,364685,5,0,0:0:0:0:
446,50,364760,1,0,0:0:0:0:
457,93,364835,1,0,0:0:0:0:
450,137,364910,1,0,0:0:0:0:
420,170,364985,1,0,0:0:0:0:
398,209,365060,1,0,0:0:0:0:
395,253,365135,1,0,0:0:0:0:
410,295,365210,1,0,0:0:0:0:
440,327,365285,6,0,P|384:326|336:310,1,75
196,340,365585,5,0,0:0:0:0:
179,298,365660,1,0,0:0:0:0:
176,253,365735,1,0,0:0:0:0:
240,99,365885,1,0,0:0:0:0:
264,136,365960,1,0,0:0:0:0:
264,180,366035,1,0,0:0:0:0:
120,265,366185,1,0,0:0:0:0:
76,254,366260,1,0,0:0:0:0:
46,220,366335,1,0,0:0:0:0:
155,39,366485,6,0,L|138:113,1,75
187,223,366785,2,0,L|175:285,2,37.5
297,160,367085,2,0,L|304:123,2,37.5
362,267,367385,2,0,L|350:330,2,37.5
461,161,367685,2,0,P|430:119|385:89,1,75
286,88,367985,5,0,0:0:0:0:
180,182,368135,1,0,0:0:0:0:
317,216,368285,1,0,0:0:0:0:
291,45,368435,1,0,0:0:0:0:
108,210,368585,1,0,0:0:0:0:
382,311,368735,1,0,0:0:0:0:
433,73,368885,5,0,0:0:0:0:
446,108,368960,1,0,0:0:0:0:
452,144,369035,1,0,0:0:0:0:
431,179,369110,1,0,0:0:0:0:
394,196,369185,1,0,0:0:0:0:
356,196,369260,1,0,0:0:0:0:
324,176,369335,1,0,0:0:0:0:
309,141,369410,1,0,0:0:0:0:
278,179,369485,5,0,0:0:0:0:
232,197,369560,1,0,0:0:0:0:
183,189,369635,1,0,0:0:0:0:
141,163,369710,1,0,0:0:0:0:
120,114,369785,1,0,0:0:0:0:
131,62,369860,1,0,0:0:0:0:
172,30,369935,1,0,0:0:0:0:
223,21,370010,1,0,0:0:0:0:
268,47,370085,6,0,P|292:119|267:204,1,150
164,258,370535,1,0,0:0:0:0:
276,270,370685,1,0,0:0:0:0:
255,305,370760,1,0,0:0:0:0:
221,328,370835,1,0,0:0:0:0:
69,250,370985,1,0,0:0:0:0:
95,218,371060,1,0,0:0:0:0:
136,204,371135,1,0,0:0:0:0:
335,314,371285,6,0,L|361:237,1,75
464,166,371585,2,0,L|452:201,2,37.5
389,105,371885,2,0,L|401:70,2,37.5
297,143,372185,2,0,L|285:178,2,37.5
195,28,372485,2,0,L|169:98,1,75
62,184,372785,5,0,0:0:0:0:
164,271,372935,1,0,0:0:0:0:
287,216,373085,1,0,0:0:0:0:
404,282,373235,1,0,0:0:0:0:
474,166,373385,1,0,0:0:0:0:
369,80,373535,1,0,0:0:0:0:
356,214,373685,5,0,0:0:0:0:
350,251,373760,1,0,0:0:0:0:
329,282,373835,1,0,0:0:0:0:
293,295,373910,1,0,0:0:0:0:
244,288,373985,1,0,0:0:0:0:
204,260,374060,1,0,0:0:0:0:
163,232,374135,1,0,0:0:0:0:
115,242,374210,1,0,0:0:0:0:
79,273,374285,5,0,0:0:0:0:
48,230,374360,1,0,0:0:0:0:
45,177,374435,1,0,0:0:0:0:
69,126,374510,1,0,0:0:0:0:
123,100,374585,5,0,0:0:0:0:
190,107,374660,1,0,0:0:0:0:
248,147,374735,1,0,0:0:0:0:
318,158,374810,1,0,0:0:0:0:
386,127,374885,5,0,0:0:0:0:
184,26,375185,5,0,0:0:0:0:
168,235,375485,5,0,0:0:0:0:
388,57,375785,5,0,0:0:0:0:
39,157,376085,5,0,0:0:0:0:
303,358,376385,5,0,0:0:0:0:
320,128,376685,5,0,0:0:0:0:
192,256,376985,5,0,0:0:0:0:
256,192,377285,5,0,0:0:0:0:
256,192,377360,12,0,378260,0:0:0:0:
