osu file format v14

[General]
AudioFilename: audio.mp3
AudioLeadIn: 0
PreviewTime: -1
Countdown: 1
SampleSet: Soft
StackLeniency: 0.7
Mode: 0
LetterboxInBreaks: 0
WidescreenStoryboard: 0

[Editor]
Bookmarks: 211649,221249
DistanceSpacing: 0.8
BeatDivisor: 4
GridSize: 8
TimelineZoom: 1

[Metadata]
Title:Midnight Madness
TitleUnicode:Midnight Madness
Artist:DragonForce
ArtistUnicode:DragonForce
Creator:Kyshiro
Version:Master
Source:
Tags:reaching into infinity power metal guitar stream herman li marc hudson
BeatmapID:1303384
BeatmapSetID:618293

[Difficulty]
HPDrainRate:5
CircleSize:4.1
OverallDifficulty:9
ApproachRate:9.5
SliderMultiplier:1.7
SliderTickRate:1

[Events]
//Background and Video events
0,0,"wallhaven-77364_1366x768.png",0,0
//Break Periods
2,211849,220724
//Storyboard Layer 0 (Background)
//Storyboard Layer 1 (Fail)
//Storyboard Layer 2 (Pass)
//Storyboard Layer 3 (Foreground)
//Storyboard Sound Samples

[TimingPoints]
449,300,4,2,0,5,1,0
2849,-100,4,1,1,60,0,0
24149,-133.333333333333,4,1,1,60,0,0
24374,-100,4,2,0,5,0,0
24449,-100,4,1,1,60,0,0
53249,-400,4,1,0,45,0,0
54299,-400,4,2,0,5,0,0
54449,-400,4,1,0,45,0,0
55499,-400,4,2,0,5,0,0
55649,-400,4,1,0,45,0,0
56699,-400,4,2,0,5,0,0
56849,-400,4,1,0,45,0,0
57899,-400,4,2,0,5,0,0
58049,-400,4,1,0,45,0,0
59099,-400,4,2,0,5,0,0
59249,-400,4,1,0,45,0,0
60299,-400,4,2,0,5,0,0
60449,-400,4,1,0,45,0,0
60899,-400,4,1,0,30,0,0
61349,-400,4,1,0,15,0,0
61499,-400,4,1,0,60,0,0
62699,-400,4,2,0,5,0,0
62849,-400,4,1,0,45,0,0
63899,-400,4,2,0,5,0,0
64049,-400,4,1,0,45,0,0
65099,-400,4,2,0,5,0,0
65249,-400,4,1,0,45,0,0
66299,-400,4,2,0,5,0,0
66449,-400,4,1,0,45,0,0
67499,-400,4,2,0,5,0,0
67649,-400,4,1,0,45,0,0
68099,-400,4,1,0,30,0,0
68549,-400,4,2,0,5,0,0
68699,-400,4,1,0,45,0,0
69899,-400,4,2,0,5,0,0
70049,-200,4,1,1,60,0,0
70649,-133.333333333333,4,1,1,60,0,0
72449,-86.9565217391304,4,1,1,60,0,1
91649,-100,4,1,1,60,0,0
139649,-400,4,1,0,45,0,0
140699,-400,4,2,0,5,0,0
140849,-400,4,1,0,45,0,0
141899,-400,4,2,0,5,0,0
142049,-400,4,1,0,45,0,0
143099,-400,4,2,0,5,0,0
143249,-400,4,1,0,45,0,0
144299,-400,4,2,0,5,0,0
144449,-400,4,1,0,45,0,0
145499,-400,4,2,0,5,0,0
145649,-400,4,1,0,45,0,0
146699,-400,4,2,0,5,0,0
146849,-400,4,1,0,45,0,0
147299,-400,4,1,0,30,0,0
147749,-400,4,1,0,15,0,0
147899,-400,4,1,0,60,0,0
149099,-400,4,2,0,5,0,0
149249,-400,4,1,0,45,0,0
150299,-400,4,2,0,5,0,0
150449,-400,4,1,0,45,0,0
151499,-400,4,2,0,5,0,0
151649,-400,4,1,0,45,0,0
152699,-400,4,2,0,5,0,0
152849,-400,4,1,0,45,0,0
153899,-400,4,2,0,5,0,0
154049,-400,4,1,0,45,0,0
154499,-400,4,1,0,30,0,0
154949,-400,4,2,0,5,0,0
155099,-400,4,1,0,45,0,0
156299,-400,4,2,0,5,0,0
156449,-400,4,1,1,45,0,0
157649,-100,4,1,1,45,0,0
158849,-86.9565217391304,4,1,1,60,0,1
178049,-86.9565217391304,4,1,1,60,0,0
187649,-71.4285714285714,4,1,1,60,0,1
211649,-71.4285714285714,4,1,1,60,0,0
221249,-270.27027027027,4,1,1,60,0,0
230249,-133.333333333333,4,1,1,60,0,0
230849,-71.4285714285714,4,1,1,60,0,1
240374,-71.4285714285714,4,2,0,5,0,1
240449,-83.3333333333333,4,1,1,60,0,1
245249,-71.4285714285714,4,1,1,60,0,1
248549,-83.3333333333333,4,1,1,60,0,1
249449,-100,4,1,1,60,0,1
250049,-83.3333333333333,4,1,1,60,0,0
259649,-71.4285714285714,4,1,1,60,0,1
278849,-71.4285714285714,4,1,1,60,0,0
336449,-71.4285714285714,4,1,1,60,0,1
355049,-71.4285714285714,4,1,1,60,0,0
355649,-71.4285714285714,4,1,1,60,0,1
377249,-71.4285714285714,4,1,1,60,0,0

[Colours]
Combo1 : 243,227,163
Combo2 : 224,197,233
Combo3 : 252,150,152

[HitObjects]
256,192,449,12,0,2699,0:0:0:0:
91,127,2849,5,0,0:0:0:0:
167,56,2999,2,0,B|193:108|193:108|184:160|184:160|205:215,1,170
368,163,3449,2,0,B|329:147|329:147|283:152,1,85
25,238,3749,2,0,B|67:242|67:242|106:226,1,85
332,269,4049,6,0,P|292:251|178:313,1,170
273,351,4499,1,0,0:0:0:0:
311,145,4649,1,0,0:0:0:0:
223,232,4799,1,0,0:0:0:0:
362,266,4949,2,0,L|461:256,1,85
311,145,5249,6,0,B|227:113|227:176|144:145,1,170
187,57,5699,1,0,0:0:0:0:
267,232,5849,2,0,P|273:284|262:325,1,85
82,263,6149,2,0,P|134:257|175:268,1,85
371,316,6449,5,0,0:0:0:0:
380,292,6524,1,0,0:0:0:0:
389,268,6599,1,0,0:0:0:0:
398,244,6674,1,0,0:0:0:0:
378,214,6749,1,0,0:0:0:0:
374,188,6824,1,0,0:0:0:0:
370,162,6899,1,0,0:0:0:0:
366,136,6974,1,0,0:0:0:0:
390,101,7049,2,0,L|440:90,3,42.5
306,56,7349,2,0,L|264:46,3,42.5
189,140,7649,6,0,P|251:130|339:189,1,170
238,245,8099,1,0,0:0:0:0:
423,222,8249,1,0,0:0:0:0:
283,101,8399,1,0,0:0:0:0:
217,258,8549,2,0,L|209:352,1,85
125,233,8849,6,0,L|305:218,1,170
338,325,9299,1,0,0:0:0:0:
109,332,9449,2,0,L|11:321,1,85
119,132,9749,2,0,L|108:230,1,85
59,46,10049,6,0,P|141:30|218:93,1,170
270,184,10499,1,0,0:0:0:0:
331,43,10649,1,0,0:0:0:0:
154,175,10799,1,0,0:0:0:0:
349,242,10949,2,0,L|468:233,1,85
274,335,11249,5,0,0:0:0:0:
239,303,11324,1,0,0:0:0:0:
194,289,11399,1,0,0:0:0:0:
147,294,11474,1,0,0:0:0:0:
106,317,11549,1,0,0:0:0:0:
59,314,11624,1,0,0:0:0:0:
23,283,11699,1,0,0:0:0:0:
15,236,11774,1,0,0:0:0:0:
43,198,11849,1,0,0:0:0:0:
78,212,11924,1,0,0:0:0:0:
115,216,11999,1,0,0:0:0:0:
153,212,12074,1,0,0:0:0:0:
188,197,12149,1,0,0:0:0:0:
217,172,12224,1,0,0:0:0:0:
238,140,12299,1,0,0:0:0:0:
251,104,12374,1,0,0:0:0:0:
260,66,12449,6,0,P|280:120|300:152,1,85
161,302,12749,2,0,P|181:264|194:224,1,85
127,117,13049,1,0,0:0:0:0:
294,237,13199,1,0,0:0:0:0:
86,234,13349,2,0,L|-5:222,1,85
81,43,13649,6,0,P|170:39|217:100,1,170
236,219,14099,1,0,0:0:0:0:
417,153,14249,2,0,B|377:137|377:137|329:139,1,85
64,185,14549,2,0,B|105:186|105:186|145:170,1,85
248,49,14849,6,0,L|235:228,1,170
312,309,15299,1,0,0:0:0:0:
337,164,15449,1,0,0:0:0:0:
143,196,15599,1,0,0:0:0:0:
386,249,15749,2,0,L|470:241,1,85
384,91,16049,5,0,0:0:0:0:
351,71,16124,1,0,0:0:0:0:
312,68,16199,1,0,0:0:0:0:
275,80,16274,1,0,0:0:0:0:
250,109,16349,1,0,0:0:0:0:
215,124,16424,1,0,0:0:0:0:
176,124,16499,1,0,0:0:0:0:
141,108,16574,1,0,0:0:0:0:
117,78,16649,1,0,0:0:0:0:
132,112,16724,1,0,0:0:0:0:
134,150,16799,1,0,0:0:0:0:
126,187,16874,1,0,0:0:0:0:
112,222,16949,2,0,L|51:215,3,42.5
178,284,17249,6,0,B|259:253|259:315|343:284,1,170
298,177,17699,1,0,0:0:0:0:
446,257,17849,2,0,L|431:370,1,85
282,169,18149,2,0,L|270:84,1,85
511,113,18449,6,0,B|470:106|430:132|430:132|421:90|379:62,1,170
478,18,18899,1,0,0:0:0:0:
340,148,19049,1,0,0:0:0:0:
492,201,19199,1,0,0:0:0:0:
367,40,19349,2,0,L|273:51,1,85
97,122,19649,6,0,P|171:120|252:181,1,170
105,257,20099,1,0,0:0:0:0:
9,166,20249,2,0,B|-5:126|-5:126|2:80,1,85
123,270,20549,2,0,B|129:312|129:312|115:352,1,85
147,139,20849,5,0,0:0:0:0:
188,117,20924,1,0,0:0:0:0:
234,118,20999,1,0,0:0:0:0:
273,142,21074,1,0,0:0:0:0:
292,184,21149,1,0,0:0:0:0:
322,219,21224,1,0,0:0:0:0:
367,228,21299,1,0,0:0:0:0:
408,206,21374,1,0,0:0:0:0:
422,161,21449,1,0,0:0:0:0:
399,119,21524,1,0,0:0:0:0:
353,110,21599,1,0,0:0:0:0:
311,130,21674,1,0,0:0:0:0:
295,174,21749,1,0,0:0:0:0:
304,219,21824,1,0,0:0:0:0:
324,261,21899,1,0,0:0:0:0:
321,307,21974,1,0,0:0:0:0:
298,348,22049,6,0,L|245:343,3,42.5
161,276,22349,2,0,L|214:271,3,42.5
321,227,22649,2,0,L|268:222,3,42.5
184,155,22949,2,0,L|237:150,3,42.5
303,93,23249,5,0,0:0:0:0:
86,175,23549,1,0,0:0:0:0:
439,240,23849,1,0,0:0:0:0:
211,339,23999,1,0,0:0:0:0:
211,339,24074,1,0,0:0:0:0:
211,339,24149,2,0,L|200:240,1,95.6250036478044
196,211,24449,5,0,0:0:0:0:
313,291,24599,1,0,0:0:0:0:
85,254,24749,2,0,P|77:195|91:157,1,85
229,37,25049,1,0,0:0:0:0:
235,66,25124,1,0,0:0:0:0:
241,94,25199,1,0,0:0:0:0:
247,122,25274,1,0,0:0:0:0:
254,150,25349,2,0,L|236:237,1,85
128,152,25649,5,0,0:0:0:0:
332,93,25799,1,0,0:0:0:0:
147,265,25949,2,0,L|54:253,1,85
293,316,26249,2,0,L|386:304,1,85
477,216,26549,1,0,0:0:0:0:
300,155,26699,1,0,0:0:0:0:
408,24,26849,6,0,P|418:76|412:122,1,85
208,108,27149,1,0,0:0:0:0:
208,108,27224,1,0,0:0:0:0:
208,108,27299,1,0,0:0:0:0:
355,179,27449,1,0,0:0:0:0:
272,22,27599,1,0,0:0:0:0:
156,179,27749,1,0,0:0:0:0:
158,208,27824,1,0,0:0:0:0:
160,237,27899,1,0,0:0:0:0:
163,266,27974,1,0,0:0:0:0:
166,295,28049,6,0,L|77:283,1,85
158,78,28349,2,0,L|146:162,1,85
387,193,28649,2,0,P|325:174|231:220,1,170
324,292,29099,1,0,0:0:0:0:
472,237,29249,5,0,0:0:0:0:
287,137,29399,1,0,0:0:0:0:
422,34,29549,2,0,L|428:120,1,85
178,87,29849,2,0,B|259:56|259:119|343:87,1,170
218,183,30299,1,0,0:0:0:0:
80,126,30449,6,0,P|74:58|86:31,1,85
236,198,30749,2,0,P|244:239|235:280,1,85
87,356,31049,1,0,0:0:0:0:
74,333,31124,1,0,0:0:0:0:
65,309,31199,1,0,0:0:0:0:
60,283,31274,1,0,0:0:0:0:
59,257,31349,2,0,P|65:217|69:207,1,42.5
240,310,31499,2,0,P|245:330|246:351,1,42.5
186,204,31649,6,0,P|251:192|340:249,1,170
512,137,32099,2,0,B|435:175|435:175|357:138,1,170
418,0,32549,2,0,L|437:106,1,85
357,250,32849,5,0,0:0:0:0:
277,148,32999,1,0,0:0:0:0:
472,234,33149,1,0,0:0:0:0:
277,320,33299,1,0,0:0:0:0:
497,223,33449,1,0,0:0:0:0:
228,227,33599,1,0,0:0:0:0:
431,323,33749,2,0,L|479:315,1,42.5
352,234,33899,2,0,L|345:192,1,42.5
207,229,34049,6,0,L|200:324,1,85
111,143,34349,2,0,L|104:58,1,85
364,57,34649,1,0,0:0:0:0:
348,77,34724,1,0,0:0:0:0:
332,97,34799,1,0,0:0:0:0:
316,117,34874,1,0,0:0:0:0:
300,137,34949,2,0,P|245:135|206:118,1,85
421,142,35249,5,0,0:0:0:0:
273,37,35399,1,0,0:0:0:0:
284,224,35549,2,0,L|289:319,1,85
140,251,35849,1,0,0:0:0:0:
128,228,35924,1,0,0:0:0:0:
118,204,35999,1,0,0:0:0:0:
111,179,36074,1,0,0:0:0:0:
106,153,36149,2,0,P|101:116|101:98,1,42.5
235,28,36299,2,0,P|233:49|229:70,1,42.5
142,35,36449,5,0,0:0:0:0:
333,88,36599,1,0,0:0:0:0:
211,158,36749,2,0,L|220:262,1,85
475,207,37049,2,0,P|413:166|321:187,1,170
329,365,37499,1,0,0:0:0:0:
345,351,37574,1,0,0:0:0:0:
362,338,37649,6,0,P|389:283|390:245,1,85
210,169,37949,2,0,P|217:210|239:246,1,85
342,59,38249,1,0,0:0:0:0:
317,42,38324,1,0,0:0:0:0:
288,33,38399,1,0,0:0:0:0:
258,33,38474,1,0,0:0:0:0:
230,45,38549,1,0,0:0:0:0:
205,62,38624,1,0,0:0:0:0:
176,69,38699,1,0,0:0:0:0:
146,64,38774,1,0,0:0:0:0:
120,48,38849,1,0,0:0:0:0:
276,130,38999,5,0,0:0:0:0:
108,157,39149,2,0,L|96:253,1,85
307,223,39449,2,0,L|211:211,1,85
252,331,39749,1,0,0:0:0:0:
423,277,39899,1,0,0:0:0:0:
423,277,39974,1,0,0:0:0:0:
423,277,40049,6,0,P|437:227|430:183,1,85
240,99,40349,2,0,P|276:136|317:152,1,85
484,39,40649,2,0,P|433:51|399:79,1,85
302,254,40949,1,0,0:0:0:0:
278,235,41024,1,0,0:0:0:0:
249,225,41099,1,0,0:0:0:0:
219,223,41174,1,0,0:0:0:0:
190,231,41249,6,0,B|131:251|131:251|11:203,1,170
88,68,41699,2,0,P|144:47|133:133,1,170
302,226,42149,2,0,P|272:185|268:145,1,85
406,49,42449,5,0,0:0:0:0:
427,69,42524,1,0,0:0:0:0:
444,93,42599,1,0,0:0:0:0:
455,120,42674,1,0,0:0:0:0:
463,148,42749,1,0,0:0:0:0:
465,177,42824,1,0,0:0:0:0:
463,206,42899,1,0,0:0:0:0:
453,234,42974,1,0,0:0:0:0:
438,260,43049,1,0,0:0:0:0:
330,187,43199,1,0,0:0:0:0:
241,265,43349,2,0,L|236:318,1,42.5
329,165,43499,2,0,L|325:122,1,42.5
129,134,43649,6,0,B|167:153|167:153|217:147,1,85
47,233,43949,1,0,0:0:0:0:
241,265,44099,2,0,P|188:278|159:299,1,85
316,359,44399,1,0,0:0:0:0:
399,233,44549,2,0,L|410:147,1,85
217,22,44849,6,0,L|227:106,1,85
105,81,45149,1,0,0:0:0:0:
337,48,45299,2,0,P|384:53|421:72,1,85
347,160,45599,1,0,0:0:0:0:
468,264,45749,2,0,L|479:167,1,85
240,172,46049,6,0,L|324:181,1,85
215,69,46349,1,0,0:0:0:0:
126,226,46499,2,0,P|123:285|135:327,1,85
258,287,46799,1,0,0:0:0:0:
106,106,46949,2,0,P|55:93|17:95,1,85
261,155,47249,6,0,L|353:143,1,85
146,212,47549,1,0,0:0:0:0:
404,262,47699,2,0,P|364:246|312:239,1,85
222,317,47999,1,0,0:0:0:0:
490,319,48149,2,0,L|501:225,1,85
421,79,48449,6,0,L|426:127,1,42.5
350,180,48599,1,0,0:0:0:0:
312,189,48674,1,0,0:0:0:0:
273,186,48749,1,0,0:0:0:0:
237,171,48824,1,0,0:0:0:0:
211,142,48899,2,0,P|196:106|194:90,1,42.5
100,27,49049,1,0,0:0:0:0:
113,62,49124,1,0,0:0:0:0:
118,99,49199,1,0,0:0:0:0:
113,136,49274,1,0,0:0:0:0:
96,170,49349,2,0,L|43:163,1,42.5
115,274,49499,1,0,0:0:0:0:
152,267,49574,1,0,0:0:0:0:
189,261,49649,6,0,L|242:271,1,42.5
307,335,49799,1,0,0:0:0:0:
344,341,49874,1,0,0:0:0:0:
381,333,49949,1,0,0:0:0:0:
413,312,50024,1,0,0:0:0:0:
435,281,50099,2,0,P|445:251|447:230,1,42.5
366,172,50249,1,0,0:0:0:0:
328,164,50324,1,0,0:0:0:0:
295,144,50399,1,0,0:0:0:0:
268,116,50474,1,0,0:0:0:0:
255,79,50549,2,0,P|249:39|251:27,1,42.5
419,23,50699,1,0,0:0:0:0:
411,60,50774,1,0,0:0:0:0:
402,97,50849,6,0,L|344:86,3,42.5
453,170,51149,2,0,L|511:159,3,42.5
377,240,51449,1,0,0:0:0:0:
339,211,51524,1,0,0:0:0:0:
292,202,51599,1,0,0:0:0:0:
248,218,51674,1,0,0:0:0:0:
220,255,51749,1,0,0:0:0:0:
175,269,51824,1,0,0:0:0:0:
128,261,51899,1,0,0:0:0:0:
92,230,51974,1,0,0:0:0:0:
83,183,52049,6,0,L|77:138,3,42.5
130,67,52349,1,0,0:0:0:0:
174,51,52424,1,0,0:0:0:0:
218,64,52499,1,0,0:0:0:0:
243,103,52574,1,0,0:0:0:0:
232,148,52649,1,0,0:0:0:0:
243,193,52724,1,0,0:0:0:0:
282,218,52799,1,0,0:0:0:0:
328,218,52874,1,0,0:0:0:0:
365,189,52949,1,0,0:0:0:0:
375,143,53024,1,0,0:0:0:0:
354,101,53099,1,0,0:0:0:0:
311,82,53174,1,0,0:0:0:0:
264,91,53249,6,0,L|250:246,1,148.75
195,317,54449,2,0,P|141:325|64:275,1,148.75
153,220,55649,6,0,B|180:146|125:146|153:73,1,148.75
242,108,56849,2,0,P|284:90|286:164,1,148.75
210,210,58049,6,0,B|254:253|254:253|348:248,1,148.75
433,207,59249,2,0,P|453:165|441:62,1,148.75
344,32,60449,6,0,L|273:37,2,63.75
300,133,61649,2,0,L|146:117,1,148.75
50,137,62849,6,0,P|33:172|36:282,1,148.75
122,322,64049,2,0,B|153:318|171:303|171:303|203:334|262:340,1,148.75
320,268,65249,6,0,P|267:220|189:219,1,148.75
96,234,66449,2,0,B|57:200|57:200|71:98,1,148.75
156,45,67649,6,0,L|222:37,2,63.75
208,128,68849,2,0,P|255:117|352:156,1,148.75
407,232,70049,6,0,L|468:226,1,42.5
318,274,70349,2,0,L|257:268,1,42.5
421,225,70649,6,0,L|502:217,1,63.7500024318696
303,280,70949,2,0,L|222:272,1,63.7500024318696
101,330,71249,5,0,0:0:0:0:
78,302,71324,1,0,0:0:0:0:
63,269,71399,1,0,0:0:0:0:
61,233,71474,1,0,0:0:0:0:
70,199,71549,1,0,0:0:0:0:
90,170,71624,1,0,0:0:0:0:
105,138,71699,1,0,0:0:0:0:
107,103,71774,1,0,0:0:0:0:
99,68,71849,6,0,L|46:55,1,31.8750012159348
194,127,71999,2,0,L|247:114,1,31.8750012159348
281,39,72149,1,0,0:0:0:0:
323,24,72224,1,0,0:0:0:0:
367,27,72299,1,0,0:0:0:0:
406,48,72374,1,0,0:0:0:0:
434,84,72449,6,0,L|439:189,1,97.7500018644333
216,147,72749,2,0,L|321:142,1,97.7500018644333
276,253,73049,1,0,0:0:0:0:
127,175,73199,1,0,0:0:0:0:
266,59,73349,1,0,0:0:0:0:
153,285,73499,6,0,P|102:285|60:265,1,97.7500018644333
168,82,73799,1,0,0:0:0:0:
297,259,73949,2,0,L|287:362,1,97.7500018644333
451,229,74249,2,0,L|441:131,1,97.7500018644333
329,20,74549,1,0,0:0:0:0:
267,188,74699,1,0,0:0:0:0:
355,129,74849,5,0,0:0:0:0:
319,102,74924,1,0,0:0:0:0:
276,90,74999,1,0,0:0:0:0:
232,98,75074,1,0,0:0:0:0:
197,125,75149,1,0,0:0:0:0:
156,141,75224,1,0,0:0:0:0:
113,129,75299,1,0,0:0:0:0:
89,91,75374,1,0,0:0:0:0:
101,48,75449,1,0,0:0:0:0:
139,26,75524,1,0,0:0:0:0:
182,32,75599,1,0,0:0:0:0:
208,67,75674,1,0,0:0:0:0:
200,110,75749,1,0,0:0:0:0:
179,149,75824,1,0,0:0:0:0:
173,192,75899,1,0,0:0:0:0:
182,234,75974,1,0,0:0:0:0:
207,269,76049,6,0,L|267:265,3,48.8750009322167
377,209,76349,2,0,L|317:205,3,48.8750009322167
269,132,76649,1,0,0:0:0:0:
230,153,76724,1,0,0:0:0:0:
186,158,76799,1,0,0:0:0:0:
142,151,76874,1,0,0:0:0:0:
105,126,76949,1,0,0:0:0:0:
110,169,77024,1,0,0:0:0:0:
101,212,77099,1,0,0:0:0:0:
80,250,77174,1,0,0:0:0:0:
48,280,77249,6,0,P|25:232|21:182,1,97.7500018644333
154,24,77549,2,0,L|142:134,1,97.7500018644333
368,93,77849,2,0,L|270:82,1,97.7500018644333
303,210,78149,1,0,0:0:0:0:
461,162,78299,1,0,0:0:0:0:
461,162,78374,1,0,0:0:0:0:
461,162,78449,1,0,0:0:0:0:
287,220,78599,5,0,0:0:0:0:
386,65,78749,1,0,0:0:0:0:
430,251,78899,1,0,0:0:0:0:
213,143,79049,1,0,0:0:0:0:
366,157,79199,1,0,0:0:0:0:
211,296,79349,1,0,0:0:0:0:
200,118,79499,1,0,0:0:0:0:
334,279,79649,5,0,0:0:0:0:
299,306,79724,1,0,0:0:0:0:
258,322,79799,1,0,0:0:0:0:
214,323,79874,1,0,0:0:0:0:
171,313,79949,1,0,0:0:0:0:
138,283,80024,1,0,0:0:0:0:
121,242,80099,1,0,0:0:0:0:
126,198,80174,1,0,0:0:0:0:
129,154,80249,1,0,0:0:0:0:
118,111,80324,1,0,0:0:0:0:
92,74,80399,1,0,0:0:0:0:
52,55,80474,1,0,0:0:0:0:
8,60,80549,2,0,L|1:112,3,48.8750009322167
45,187,80849,5,0,0:0:0:0:
81,162,80924,1,0,0:0:0:0:
124,157,80999,1,0,0:0:0:0:
165,171,81074,1,0,0:0:0:0:
198,199,81149,2,0,L|206:262,1,48.8750009322167
296,146,81299,2,0,L|302:97,1,48.8750009322167
373,237,81449,2,0,P|408:243|443:239,1,48.8750009322167
502,126,81599,2,0,P|477:126|453:131,1,48.8750009322167
284,246,81749,1,0,0:0:0:0:
286,269,81824,1,0,0:0:0:0:
288,292,81899,1,0,0:0:0:0:
291,316,81974,1,0,0:0:0:0:
293,337,82049,6,0,L|184:322,1,97.7500018644333
60,225,82349,2,0,L|169:210,1,97.7500018644333
270,131,82649,1,0,0:0:0:0:
96,95,82799,1,0,0:0:0:0:
96,95,82874,1,0,0:0:0:0:
96,95,82949,1,0,0:0:0:0:
259,239,83099,1,0,0:0:0:0:
324,45,83249,6,0,P|272:33|221:45,1,97.7500018644333
264,255,83549,2,0,L|273:151,1,97.7500018644333
401,145,83849,1,0,0:0:0:0:
345,307,83999,1,0,0:0:0:0:
183,181,84149,1,0,0:0:0:0:
350,219,84299,1,0,0:0:0:0:
200,312,84449,5,0,0:0:0:0:
371,212,84599,1,0,0:0:0:0:
162,175,84749,1,0,0:0:0:0:
276,256,84899,1,0,0:0:0:0:
213,78,85049,1,0,0:0:0:0:
148,275,85199,1,0,0:0:0:0:
279,159,85349,1,0,0:0:0:0:
106,84,85499,1,0,0:0:0:0:
241,253,85649,5,0,0:0:0:0:
89,66,85799,1,0,0:0:0:0:
259,150,85949,1,0,0:0:0:0:
127,206,86099,1,0,0:0:0:0:
211,34,86249,1,0,0:0:0:0:
318,239,86399,1,0,0:0:0:0:
168,120,86549,1,0,0:0:0:0:
376,113,86699,1,0,0:0:0:0:
192,244,86849,5,0,0:0:0:0:
161,258,86924,1,0,0:0:0:0:
126,258,86999,1,0,0:0:0:0:
94,245,87074,1,0,0:0:0:0:
66,225,87149,1,0,0:0:0:0:
49,194,87224,1,0,0:0:0:0:
42,160,87299,1,0,0:0:0:0:
49,126,87374,1,0,0:0:0:0:
69,98,87449,1,0,0:0:0:0:
97,78,87524,1,0,0:0:0:0:
130,70,87599,1,0,0:0:0:0:
163,74,87674,1,0,0:0:0:0:
195,85,87749,1,0,0:0:0:0:
224,101,87824,1,0,0:0:0:0:
257,106,87899,1,0,0:0:0:0:
291,103,87974,1,0,0:0:0:0:
324,83,88049,5,0,0:0:0:0:
304,122,88124,1,0,0:0:0:0:
303,165,88199,1,0,0:0:0:0:
319,205,88274,1,0,0:0:0:0:
353,232,88349,2,0,L|422:222,3,48.8750009322167
290,302,88649,2,0,L|221:292,3,48.8750009322167
192,215,88949,1,0,0:0:0:0:
157,197,89024,1,0,0:0:0:0:
118,192,89099,1,0,0:0:0:0:
80,202,89174,1,0,0:0:0:0:
49,225,89249,6,0,L|39:288,5,48.8750009322167
136,289,89699,6,0,L|146:352,5,48.8750009322167
235,231,90149,6,0,L|225:294,3,48.8750009322167
299,344,90449,5,0,0:0:0:0:
337,348,90524,1,0,0:0:0:0:
373,335,90599,1,0,0:0:0:0:
401,308,90674,1,0,0:0:0:0:
414,271,90749,1,0,0:0:0:0:
411,231,90824,1,0,0:0:0:0:
390,197,90899,1,0,0:0:0:0:
356,176,90974,1,0,0:0:0:0:
317,168,91049,1,0,0:0:0:0:
280,153,91124,1,0,0:0:0:0:
257,121,91199,1,0,0:0:0:0:
248,82,91274,1,0,0:0:0:0:
259,44,91349,1,0,0:0:0:0:
285,15,91424,1,0,0:0:0:0:
322,2,91499,1,0,0:0:0:0:
360,5,91574,1,0,0:0:0:0:
391,25,91649,5,0,0:0:0:0:
338,93,91799,1,0,0:0:0:0:
176,29,91949,1,0,0:0:0:0:
426,109,92099,1,0,0:0:0:0:
199,107,92249,1,0,0:0:0:0:
272,160,92399,1,0,0:0:0:0:
120,157,92549,1,0,0:0:0:0:
338,93,92699,1,0,0:0:0:0:
93,163,92849,6,0,L|79:263,1,85
29,88,93149,1,0,0:0:0:0:
189,228,93299,2,0,L|203:328,1,85
250,143,93599,1,0,0:0:0:0:
109,319,93749,1,0,0:0:0:0:
330,234,93899,1,0,0:0:0:0:
90,205,94049,6,0,P|34:199|-9:200,1,85
205,272,94349,1,0,0:0:0:0:
250,143,94499,2,0,P|252:65|247:40,1,85
132,97,94799,1,0,0:0:0:0:
351,159,94949,1,0,0:0:0:0:
201,242,95099,1,0,0:0:0:0:
272,39,95249,5,0,0:0:0:0:
310,21,95324,1,0,0:0:0:0:
352,16,95399,1,0,0:0:0:0:
393,23,95474,1,0,0:0:0:0:
430,43,95549,1,0,0:0:0:0:
350,138,95699,1,0,0:0:0:0:
490,197,95849,1,0,0:0:0:0:
296,236,95999,1,0,0:0:0:0:
295,52,96149,1,0,0:0:0:0:
405,257,96299,1,0,0:0:0:0:
223,145,96449,6,0,L|207:50,1,85
364,135,96749,1,0,0:0:0:0:
247,258,96899,2,0,L|152:242,1,85
67,303,97199,1,0,0:0:0:0:
227,168,97349,1,0,0:0:0:0:
89,170,97499,1,0,0:0:0:0:
250,346,97649,6,0,P|299:339|336:317,1,85
353,172,97949,1,0,0:0:0:0:
192,73,98099,2,0,L|202:165,1,85
76,114,98399,1,0,0:0:0:0:
319,175,98549,2,0,L|309:267,1,85
404,116,98849,5,0,0:0:0:0:
214,246,98999,1,0,0:0:0:0:
406,242,99149,1,0,0:0:0:0:
214,121,99299,2,0,L|103:110,1,85
201,271,99599,1,0,0:0:0:0:
323,172,99749,2,0,L|334:61,1,85
497,257,100049,5,0,0:0:0:0:
461,233,100124,1,0,0:0:0:0:
418,228,100199,1,0,0:0:0:0:
377,241,100274,1,0,0:0:0:0:
353,276,100349,1,0,0:0:0:0:
317,299,100424,1,0,0:0:0:0:
274,299,100499,1,0,0:0:0:0:
235,280,100574,1,0,0:0:0:0:
209,246,100649,2,0,P|203:211|202:192,1,42.5
134,96,100799,2,0,P|131:117|127:137,1,42.5
43,204,100949,1,0,0:0:0:0:
17,169,101024,1,0,0:0:0:0:
6,127,101099,1,0,0:0:0:0:
7,84,101174,1,0,0:0:0:0:
18,43,101249,6,0,L|112:26,1,85
265,97,101549,1,0,0:0:0:0:
169,213,101699,2,0,P|146:152|147:116,1,85
291,204,101999,1,0,0:0:0:0:
76,248,102149,1,0,0:0:0:0:
212,328,102299,1,0,0:0:0:0:
51,237,102449,6,0,L|41:331,1,85
145,132,102749,1,0,0:0:0:0:
264,262,102899,2,0,L|170:252,1,85
344,337,103199,1,0,0:0:0:0:
300,161,103349,1,0,0:0:0:0:
227,368,103499,1,0,0:0:0:0:
393,238,103649,6,0,L|415:142,1,85
330,29,103949,1,0,0:0:0:0:
202,175,104099,2,0,P|274:174|301:160,1,85
140,92,104399,1,0,0:0:0:0:
180,267,104549,1,0,0:0:0:0:
243,30,104699,1,0,0:0:0:0:
51,139,104849,5,0,0:0:0:0:
41,180,104924,1,0,0:0:0:0:
38,222,104999,1,0,0:0:0:0:
43,264,105074,1,0,0:0:0:0:
52,305,105149,1,0,0:0:0:0:
185,234,105299,1,0,0:0:0:0:
283,327,105449,2,0,L|280:375,1,42.5
175,257,105599,2,0,L|127:254,1,42.5
259,154,105749,2,0,L|262:106,1,42.5
367,224,105899,2,0,L|415:227,1,42.5
491,166,106049,6,0,P|501:106|491:67,1,85
292,102,106349,1,0,0:0:0:0:
292,102,106424,1,0,0:0:0:0:
292,102,106499,2,0,L|386:114,1,85
207,18,106799,1,0,0:0:0:0:
93,123,106949,1,0,0:0:0:0:
93,123,107024,1,0,0:0:0:0:
93,123,107099,1,0,0:0:0:0:
201,209,107249,6,0,P|211:150|202:98,1,85
74,228,107549,1,0,0:0:0:0:
64,241,107624,1,0,0:0:0:0:
54,255,107699,2,0,L|68:352,1,85
187,258,107999,1,0,0:0:0:0:
266,365,108149,1,0,0:0:0:0:
266,365,108224,1,0,0:0:0:0:
266,365,108299,1,0,0:0:0:0:
417,251,108449,6,0,P|354:253|322:266,1,85
168,164,108749,1,0,0:0:0:0:
168,164,108824,1,0,0:0:0:0:
168,164,108899,2,0,P|208:174|251:173,1,85
350,111,109199,1,0,0:0:0:0:
112,58,109349,2,0,L|58:65,1,42.5
241,62,109499,2,0,L|234:8,1,42.5
168,164,109649,6,0,P|160:192|155:224,2,56.6666666666667
248,239,109949,2,0,P|259:265|276:293,2,56.6666666666667
341,230,110249,1,0,0:0:0:0:
381,209,110349,1,0,0:0:0:0:
424,196,110449,1,0,0:0:0:0:
469,192,110549,2,0,L|461:254,2,56.6666666666667
348,130,110849,6,0,P|280:116|252:101,1,85
130,218,111149,2,0,P|169:202|211:197,1,85
50,307,111449,2,0,B|10:260|10:260|23:135,1,170
127,33,111899,1,0,0:0:0:0:
171,167,112049,5,0,0:0:0:0:
26,59,112199,1,0,0:0:0:0:
260,118,112349,1,0,0:0:0:0:
260,118,112424,1,0,0:0:0:0:
260,118,112499,1,0,0:0:0:0:
166,259,112649,1,0,0:0:0:0:
226,31,112799,1,0,0:0:0:0:
299,214,112949,1,0,0:0:0:0:
299,214,113024,1,0,0:0:0:0:
299,214,113099,1,0,0:0:0:0:
103,161,113249,6,0,B|148:156|148:156|193:174,1,85
426,124,113549,2,0,B|389:138|389:138|344:133,1,85
220,291,113849,2,0,B|251:257|291:245|291:245|335:252|374:282,1,170
305,365,114299,1,0,0:0:0:0:
132,355,114449,6,0,P|112:301|115:266,1,85
202,104,114749,2,0,P|200:146|183:184,1,85
121,35,115049,1,0,0:0:0:0:
296,142,115199,1,0,0:0:0:0:
93,251,115349,1,0,0:0:0:0:
83,231,115424,1,0,0:0:0:0:
73,211,115499,1,0,0:0:0:0:
64,191,115574,1,0,0:0:0:0:
54,171,115649,6,0,L|140:159,1,85
324,250,115949,2,0,L|238:238,1,85
429,333,116249,2,0,B|468:283|468:283|442:164,1,170
330,111,116699,1,0,0:0:0:0:
310,258,116849,5,0,0:0:0:0:
434,78,116999,1,0,0:0:0:0:
225,91,117149,1,0,0:0:0:0:
225,91,117224,1,0,0:0:0:0:
225,91,117299,1,0,0:0:0:0:
334,232,117449,1,0,0:0:0:0:
325,18,117599,1,0,0:0:0:0:
219,200,117749,1,0,0:0:0:0:
214,220,117824,1,0,0:0:0:0:
209,240,117899,1,0,0:0:0:0:
204,260,117974,1,0,0:0:0:0:
200,280,118049,6,0,L|110:264,1,85
290,335,118349,1,0,0:0:0:0:
377,186,118499,2,0,L|467:170,1,85
287,241,118799,1,0,0:0:0:0:
143,76,118949,2,0,B|171:22|256:27|273:61|277:94|284:125|342:118|361:93,1,255
206,118,119549,5,0,0:0:0:0:
202,138,119624,1,0,0:0:0:0:
198,158,119699,1,0,0:0:0:0:
98,246,119849,2,0,L|46:232,1,42.5
237,317,119999,2,0,L|289:303,1,42.5
207,184,120149,2,0,L|193:236,1,42.5
321,213,120299,1,0,0:0:0:0:
332,194,120374,1,0,0:0:0:0:
343,175,120449,6,0,P|347:119|336:80,1,85
118,153,120749,2,0,P|159:160|201:155,1,85
455,225,121049,2,0,P|363:209|293:262,1,170
392,321,121499,1,0,0:0:0:0:
422,130,121649,5,0,0:0:0:0:
284,269,121799,1,0,0:0:0:0:
487,244,121949,1,0,0:0:0:0:
487,244,122024,1,0,0:0:0:0:
487,244,122099,1,0,0:0:0:0:
304,151,122249,2,0,L|206:164,1,85
41,57,122549,1,0,0:0:0:0:
61,62,122624,1,0,0:0:0:0:
81,67,122699,1,0,0:0:0:0:
101,72,122774,1,0,0:0:0:0:
121,77,122849,6,0,P|178:75|208:61,1,85
411,170,123149,2,0,P|371:155|328:157,1,85
178,338,123449,2,0,B|207:283|207:283|190:232|190:232|213:179,1,170
309,240,123899,1,0,0:0:0:0:
108,275,124049,5,0,0:0:0:0:
132,147,124199,1,0,0:0:0:0:
225,323,124349,1,0,0:0:0:0:
32,196,124499,1,0,0:0:0:0:
234,99,124649,1,0,0:0:0:0:
133,257,124799,1,0,0:0:0:0:
145,44,124949,1,0,0:0:0:0:
324,157,125099,1,0,0:0:0:0:
43,119,125249,6,0,P|18:73|16:33,1,85
200,151,125549,1,0,0:0:0:0:
208,170,125624,1,0,0:0:0:0:
216,189,125699,1,0,0:0:0:0:
225,208,125774,1,0,0:0:0:0:
233,227,125849,2,0,P|227:268|205:304,1,85
130,63,126149,1,0,0:0:0:0:
154,46,126224,1,0,0:0:0:0:
183,39,126299,1,0,0:0:0:0:
212,41,126374,1,0,0:0:0:0:
240,50,126449,6,0,L|334:33,1,85
459,141,126749,2,0,L|365:124,1,85
385,323,127049,2,0,L|402:229,1,85
246,122,127349,1,0,0:0:0:0:
226,149,127424,1,0,0:0:0:0:
218,182,127499,1,0,0:0:0:0:
216,215,127574,1,0,0:0:0:0:
220,248,127649,6,0,P|148:245|114:227,1,85
331,199,127949,1,0,0:0:0:0:
349,217,128024,1,0,0:0:0:0:
364,232,128099,2,0,L|356:327,1,85
246,360,128399,1,0,0:0:0:0:
175,105,128549,2,0,B|227:121|247:169|247:169|273:123|322:96|381:103,1,255
153,199,129149,5,0,0:0:0:0:
123,194,129224,1,0,0:0:0:0:
94,184,129299,1,0,0:0:0:0:
68,168,129374,1,0,0:0:0:0:
47,146,129449,1,0,0:0:0:0:
58,182,129524,1,0,0:0:0:0:
60,220,129599,1,0,0:0:0:0:
54,257,129674,1,0,0:0:0:0:
40,292,129749,1,0,0:0:0:0:
84,278,129824,1,0,0:0:0:0:
130,279,129899,1,0,0:0:0:0:
174,294,129974,1,0,0:0:0:0:
212,320,130049,6,0,L|313:298,1,85
407,269,130349,1,0,0:0:0:0:
221,226,130499,2,0,L|120:204,1,85
26,175,130799,1,0,0:0:0:0:
225,31,130949,2,0,L|203:132,1,85
285,162,131174,5,0,0:0:0:0:
285,162,131249,2,0,P|333:152|375:125,1,85
431,52,131549,1,0,0:0:0:0:
290,270,131699,2,0,P|242:260|200:233,1,85
144,160,131999,1,0,0:0:0:0:
385,228,132149,1,0,0:0:0:0:
411,248,132224,1,0,0:0:0:0:
435,272,132299,1,0,0:0:0:0:
452,300,132374,1,0,0:0:0:0:
467,330,132449,6,0,P|482:263|499:235,1,85
350,350,132749,1,0,0:0:0:0:
328,139,132899,2,0,P|344:177|350:219,1,85
237,286,133199,1,0,0:0:0:0:
99,165,133349,2,0,L|202:174,1,85
238,102,133574,5,0,0:0:0:0:
238,102,133649,2,0,P|240:48|227:12,1,85
116,65,133949,1,0,0:0:0:0:
348,149,134099,2,0,L|449:138,1,85
341,40,134399,1,0,0:0:0:0:
244,201,134549,1,0,0:0:0:0:
232,232,134624,1,0,0:0:0:0:
223,264,134699,1,0,0:0:0:0:
216,297,134774,1,0,0:0:0:0:
210,330,134849,6,0,L|254:337,3,42.5
129,364,135149,2,0,L|109:322,1,42.5
44,265,135299,1,0,0:0:0:0:
72,233,135374,1,0,0:0:0:0:
82,191,135449,1,0,0:0:0:0:
73,149,135524,1,0,0:0:0:0:
51,112,135599,1,0,0:0:0:0:
52,69,135674,1,0,0:0:0:0:
80,37,135749,1,0,0:0:0:0:
121,28,135824,1,0,0:0:0:0:
159,45,135899,1,0,0:0:0:0:
178,82,135974,1,0,0:0:0:0:
214,104,136049,6,0,L|266:90,3,42.5
343,40,136349,2,0,L|373:77,1,42.5
470,113,136499,1,0,0:0:0:0:
443,146,136574,1,0,0:0:0:0:
430,186,136649,1,0,0:0:0:0:
431,228,136724,1,0,0:0:0:0:
445,268,136799,1,0,0:0:0:0:
435,309,136874,1,0,0:0:0:0:
400,334,136949,1,0,0:0:0:0:
357,331,137024,1,0,0:0:0:0:
326,300,137099,1,0,0:0:0:0:
323,257,137174,1,0,0:0:0:0:
292,297,137249,5,0,0:0:0:0:
244,315,137324,1,0,0:0:0:0:
194,303,137399,1,0,0:0:0:0:
158,266,137474,1,0,0:0:0:0:
155,215,137549,1,0,0:0:0:0:
177,169,137624,1,0,0:0:0:0:
222,146,137699,1,0,0:0:0:0:
272,153,137774,1,0,0:0:0:0:
312,183,137849,1,0,0:0:0:0:
360,199,137924,1,0,0:0:0:0:
408,184,137999,1,0,0:0:0:0:
442,146,138074,1,0,0:0:0:0:
444,95,138149,2,0,L|434:51,3,42.5
347,17,138449,5,0,0:0:0:0:
313,55,138524,1,0,0:0:0:0:
266,76,138599,1,0,0:0:0:0:
216,88,138674,1,0,0:0:0:0:
165,82,138749,2,0,P|124:68|101:52,3,42.5
19,165,139049,1,0,0:0:0:0:
67,150,139124,1,0,0:0:0:0:
117,153,139199,1,0,0:0:0:0:
163,173,139274,1,0,0:0:0:0:
198,210,139349,1,0,0:0:0:0:
240,237,139424,1,0,0:0:0:0:
290,242,139499,1,0,0:0:0:0:
339,230,139574,1,0,0:0:0:0:
380,200,139649,6,0,P|330:172|233:174,1,148.75
178,248,140849,2,0,B|126:260|126:260|30:228,1,148.75
33,131,142049,6,0,B|69:132|94:151|94:151|127:121|173:119,1,148.75
247,182,143249,2,0,P|304:184|385:134,1,148.75
425,64,144449,6,0,L|424:219,1,148.75
464,299,145649,2,0,B|391:326|391:272|320:299,1,148.75
218,294,146849,6,0,P|205:275|192:230,2,63.75
279,216,148049,2,0,L|284:67,1,148.75
194,27,149249,6,0,P|161:19|57:74,1,148.75
133,136,150449,2,0,B|151:182|151:182|117:281,1,148.75
72,186,151649,6,0,L|228:200,1,148.75
272,286,152849,2,0,P|311:288|406:224,1,148.75
354,120,154049,6,0,P|341:157|341:183,2,63.75
427,77,155249,2,0,P|486:94|454:161,1,148.75
347,202,156449,5,0,0:0:0:0:
342,115,156599,1,0,0:0:0:0:
425,238,156749,1,0,0:0:0:0:
273,242,156899,1,0,0:0:0:0:
371,117,157049,5,0,0:0:0:0:
353,287,157199,1,0,0:0:0:0:
244,153,157349,1,0,0:0:0:0:
408,211,157499,1,0,0:0:0:0:
191,249,157649,5,0,0:0:0:0:
161,247,157724,1,0,0:0:0:0:
131,242,157799,1,0,0:0:0:0:
102,232,157874,1,0,0:0:0:0:
76,217,157949,2,0,L|64:172,3,42.5
106,92,158249,1,0,0:0:0:0:
145,75,158324,1,0,0:0:0:0:
187,74,158399,1,0,0:0:0:0:
225,91,158474,1,0,0:0:0:0:
253,122,158549,1,0,0:0:0:0:
288,145,158624,1,0,0:0:0:0:
329,154,158699,1,0,0:0:0:0:
370,145,158774,1,0,0:0:0:0:
407,113,158849,6,0,P|428:62|425:15,1,97.7500018644333
160,102,159149,2,0,P|208:101|252:121,1,97.7500018644333
332,246,159449,1,0,0:0:0:0:
181,217,159599,1,0,0:0:0:0:
330,83,159749,1,0,0:0:0:0:
243,317,159899,6,0,B|180:337|180:337|61:286,1,195.500003728867
164,124,160349,2,0,B|186:168|186:168|180:219,1,97.7500018644333
46,180,160649,1,0,0:0:0:0:
262,108,160799,1,0,0:0:0:0:
120,52,160949,1,0,0:0:0:0:
183,239,161099,1,0,0:0:0:0:
290,85,161249,5,0,0:0:0:0:
330,68,161324,1,0,0:0:0:0:
373,70,161399,1,0,0:0:0:0:
414,85,161474,1,0,0:0:0:0:
442,118,161549,1,0,0:0:0:0:
452,160,161624,1,0,0:0:0:0:
447,203,161699,1,0,0:0:0:0:
424,240,161774,1,0,0:0:0:0:
389,266,161849,2,0,L|323:259,3,48.8750009322167
294,183,162149,2,0,L|228:190,3,48.8750009322167
181,113,162449,5,0,0:0:0:0:
140,95,162524,1,0,0:0:0:0:
96,98,162599,1,0,0:0:0:0:
62,126,162674,1,0,0:0:0:0:
49,168,162749,1,0,0:0:0:0:
61,210,162824,1,0,0:0:0:0:
90,242,162899,1,0,0:0:0:0:
102,284,162974,1,0,0:0:0:0:
92,326,163049,2,0,L|29:318,1,48.8750009322167
172,205,163199,2,0,L|235:197,1,48.8750009322167
216,362,163349,2,0,L|208:299,1,48.8750009322167
315,137,163499,1,0,0:0:0:0:
315,137,163574,1,0,0:0:0:0:
315,137,163649,6,0,P|335:191|332:250,1,97.7500018644333
451,130,163949,2,0,P|453:81|471:36,1,97.7500018644333
189,109,164249,2,0,P|278:121|366:45,1,195.500003728867
93,43,164699,1,0,0:0:0:0:
93,43,164774,1,0,0:0:0:0:
93,43,164849,6,0,B|66:85|66:85|73:147,1,97.7500018644333
172,297,165149,2,0,B|177:249|177:249|150:207,1,97.7500018644333
51,281,165449,1,0,0:0:0:0:
244,175,165599,1,0,0:0:0:0:
32,289,165749,2,0,L|11:190,1,97.7500018644333
110,47,166049,5,0,0:0:0:0:
148,26,166124,1,0,0:0:0:0:
191,27,166199,1,0,0:0:0:0:
226,52,166274,1,0,0:0:0:0:
249,89,166349,1,0,0:0:0:0:
285,113,166424,1,0,0:0:0:0:
328,118,166499,1,0,0:0:0:0:
368,101,166574,1,0,0:0:0:0:
392,64,166649,2,0,P|399:27|397:12,3,48.8750009322167
484,91,166949,1,0,0:0:0:0:
462,129,167024,1,0,0:0:0:0:
445,169,167099,1,0,0:0:0:0:
434,211,167174,1,0,0:0:0:0:
428,254,167249,5,0,0:0:0:0:
392,227,167324,1,0,0:0:0:0:
348,217,167399,1,0,0:0:0:0:
306,231,167474,1,0,0:0:0:0:
278,264,167549,1,0,0:0:0:0:
243,291,167624,1,0,0:0:0:0:
199,293,167699,1,0,0:0:0:0:
158,276,167774,1,0,0:0:0:0:
132,240,167849,2,0,L|123:191,1,48.8750009322167
235,97,167999,2,0,L|226:146,1,48.8750009322167
63,93,168149,2,0,L|112:84,1,48.8750009322167
326,148,168299,1,0,0:0:0:0:
326,148,168374,1,0,0:0:0:0:
326,148,168449,6,0,L|334:257,1,97.7500018644333
462,131,168749,2,0,L|469:33,1,97.7500018644333
261,73,169049,1,0,0:0:0:0:
354,266,169199,1,0,0:0:0:0:
354,266,169274,1,0,0:0:0:0:
354,266,169349,2,0,L|416:259,1,48.8750009322167
282,178,169499,6,0,B|186:141|186:213|91:178,1,195.500003728867
99,12,169949,2,0,P|131:61|142:103,1,97.7500018644333
189,343,170249,2,0,P|203:296|231:256,1,97.7500018644333
325,356,170549,1,0,0:0:0:0:
102,271,170699,1,0,0:0:0:0:
102,271,170774,1,0,0:0:0:0:
102,271,170849,6,0,L|85:165,1,97.7500018644333
329,186,171149,2,0,L|232:201,1,97.7500018644333
280,53,171449,2,0,P|368:48|448:113,1,195.500003728867
351,279,171899,1,0,0:0:0:0:
351,279,171974,1,0,0:0:0:0:
351,279,172049,6,0,P|329:217|330:175,1,97.7500018644333
201,50,172349,2,0,P|197:98|178:143,1,97.7500018644333
52,249,172649,2,0,L|26:202,3,48.8750009322167
132,309,172949,2,0,L|108:351,3,48.8750009322167
142,214,173249,5,0,0:0:0:0:
183,198,173324,1,0,0:0:0:0:
226,199,173399,1,0,0:0:0:0:
266,216,173474,1,0,0:0:0:0:
297,246,173549,1,0,0:0:0:0:
337,263,173624,1,0,0:0:0:0:
380,261,173699,2,0,P|409:246|425:231,3,48.8750009322167
409,101,173999,1,0,0:0:0:0:
386,110,174074,1,0,0:0:0:0:
363,120,174149,2,0,L|353:178,3,48.8750009322167
265,113,174449,5,0,0:0:0:0:
232,83,174524,1,0,0:0:0:0:
189,73,174599,1,0,0:0:0:0:
145,81,174674,1,0,0:0:0:0:
109,106,174749,1,0,0:0:0:0:
88,144,174824,1,0,0:0:0:0:
84,187,174899,1,0,0:0:0:0:
98,228,174974,1,0,0:0:0:0:
128,259,175049,2,0,L|186:251,1,48.8750009322167
318,210,175199,2,0,L|260:202,1,48.8750009322167
252,355,175349,2,0,L|258:306,1,48.8750009322167
178,108,175499,2,0,L|184:156,1,48.8750009322167
359,304,175649,5,0,0:0:0:0:
271,120,175799,1,0,0:0:0:0:
197,250,175949,1,0,0:0:0:0:
400,175,176099,2,0,L|415:71,1,97.7500018644333
422,45,176324,1,0,0:0:0:0:
422,45,176399,1,0,0:0:0:0:
271,120,176549,1,0,0:0:0:0:
490,212,176699,6,0,L|496:269,1,48.8750009322167
351,325,176849,2,0,L|356:276,1,48.8750009322167
382,115,176999,2,0,L|388:172,1,48.8750009322167
259,223,177149,2,0,P|181:210|151:189,1,97.7500018644333
67,127,177449,1,0,0:0:0:0:
431,55,177749,1,0,0:0:0:0:
292,313,178049,5,0,0:0:0:0:
476,191,179249,5,0,0:0:0:0:
96,99,179849,5,0,0:0:0:0:
282,156,180149,1,0,0:0:0:0:
32,195,180449,1,0,0:0:0:0:
397,300,181649,5,0,0:0:0:0:
49,317,182249,5,0,0:0:0:0:
246,229,182549,1,0,0:0:0:0:
141,46,182849,1,0,0:0:0:0:
52,303,184049,5,0,0:0:0:0:
396,180,184649,1,0,0:0:0:0:
215,88,184949,1,0,0:0:0:0:
490,96,185249,1,0,0:0:0:0:
120,186,185849,5,0,0:0:0:0:
424,234,186449,5,0,0:0:0:0:
427,258,186524,1,0,0:0:0:0:
430,282,186599,1,0,0:0:0:0:
433,306,186674,1,0,0:0:0:0:
436,330,186749,1,0,0:0:0:0:
273,136,187049,5,0,0:0:0:0:
270,160,187124,1,0,0:0:0:0:
267,184,187199,1,0,0:0:0:0:
264,208,187274,1,0,0:0:0:0:
261,232,187349,1,0,0:0:0:0:
62,75,187649,5,0,0:0:0:0:
103,52,187724,1,0,0:0:0:0:
150,50,187799,1,0,0:0:0:0:
195,63,187874,1,0,0:0:0:0:
227,97,187949,1,0,0:0:0:0:
263,127,188024,1,0,0:0:0:0:
309,136,188099,1,0,0:0:0:0:
356,132,188174,1,0,0:0:0:0:
396,107,188249,6,0,P|418:71|422:48,1,59.4999981842042
275,206,188399,2,0,P|283:234|300:258,1,59.4999981842042
462,223,188549,2,0,L|396:211,1,59.4999981842042
283,349,188699,2,0,L|349:337,1,59.4999981842042
180,222,188849,5,0,0:0:0:0:
134,208,188924,1,0,0:0:0:0:
86,213,188999,1,0,0:0:0:0:
46,238,189074,1,0,0:0:0:0:
23,279,189149,2,0,L|12:345,3,59.4999981842042
113,328,189449,5,0,0:0:0:0:
136,322,189524,1,0,0:0:0:0:
159,316,189599,1,0,0:0:0:0:
182,310,189674,1,0,0:0:0:0:
211,290,189749,1,0,0:0:0:0:
234,296,189824,1,0,0:0:0:0:
257,302,189899,1,0,0:0:0:0:
280,308,189974,1,0,0:0:0:0:
318,297,190049,6,0,P|341:258|345:234,1,59.4999981842042
234,123,190199,2,0,P|242:151|260:175,1,59.4999981842042
364,137,190349,1,0,0:0:0:0:
358,95,190424,1,0,0:0:0:0:
336,59,190499,1,0,0:0:0:0:
305,31,190574,1,0,0:0:0:0:
264,21,190649,6,0,L|205:27,3,59.4999981842042
91,88,190949,2,0,L|150:94,3,59.4999981842042
239,144,191249,5,0,0:0:0:0:
259,180,191324,1,0,0:0:0:0:
263,221,191399,1,0,0:0:0:0:
247,259,191474,1,0,0:0:0:0:
215,286,191549,1,0,0:0:0:0:
173,291,191624,1,0,0:0:0:0:
142,262,191699,1,0,0:0:0:0:
144,220,191774,1,0,0:0:0:0:
178,197,191849,5,0,0:0:0:0:
217,208,191924,1,0,0:0:0:0:
236,244,191999,1,0,0:0:0:0:
270,266,192074,1,0,0:0:0:0:
310,273,192149,1,0,0:0:0:0:
350,263,192224,1,0,0:0:0:0:
381,235,192299,1,0,0:0:0:0:
399,197,192374,1,0,0:0:0:0:
404,155,192449,6,0,L|393:92,3,59.4999981842042
310,40,192749,2,0,L|299:98,3,59.4999981842042
222,158,193049,5,0,0:0:0:0:
183,185,193124,1,0,0:0:0:0:
136,192,193199,1,0,0:0:0:0:
88,185,193274,1,0,0:0:0:0:
48,159,193349,2,0,P|30:125|25:99,1,59.4999981842042
137,231,193499,2,0,P|129:259|114:285,1,59.4999981842042
28,336,193649,5,0,0:0:0:0:
71,317,193724,1,0,0:0:0:0:
118,312,193799,1,0,0:0:0:0:
164,322,193874,1,0,0:0:0:0:
202,350,193949,1,0,0:0:0:0:
249,357,194024,1,0,0:0:0:0:
296,351,194099,1,0,0:0:0:0:
336,325,194174,1,0,0:0:0:0:
365,287,194249,6,0,P|376:246|376:217,3,59.4999981842042
319,149,194549,1,0,0:0:0:0:
296,156,194624,1,0,0:0:0:0:
273,163,194699,1,0,0:0:0:0:
250,170,194774,1,0,0:0:0:0:
227,177,194849,6,0,L|214:117,3,59.4999981842042
288,73,195149,2,0,L|301:15,3,59.4999981842042
401,28,195449,5,0,0:0:0:0:
429,66,195524,1,0,0:0:0:0:
439,112,195599,1,0,0:0:0:0:
428,158,195674,1,0,0:0:0:0:
396,193,195749,2,0,L|321:185,1,59.4999981842042
285,282,195899,2,0,L|210:290,1,59.4999981842042
164,199,196049,5,0,0:0:0:0:
121,166,196124,1,0,0:0:0:0:
67,169,196199,1,0,0:0:0:0:
28,205,196274,1,0,0:0:0:0:
22,258,196349,1,0,0:0:0:0:
52,302,196424,1,0,0:0:0:0:
102,318,196499,1,0,0:0:0:0:
151,298,196574,1,0,0:0:0:0:
199,274,196649,5,0,0:0:0:0:
245,301,196724,1,0,0:0:0:0:
229,352,196799,1,0,0:0:0:0:
176,360,196874,1,0,0:0:0:0:
153,311,196949,1,0,0:0:0:0:
173,261,197024,1,0,0:0:0:0:
171,207,197099,1,0,0:0:0:0:
147,158,197174,1,0,0:0:0:0:
103,126,197249,6,0,L|36:131,3,59.4999981842042
164,53,197549,2,0,L|223:57,3,59.4999981842042
277,140,197849,5,0,0:0:0:0:
306,133,197924,1,0,0:0:0:0:
335,127,197999,1,0,0:0:0:0:
364,121,198074,1,0,0:0:0:0:
406,140,198149,1,0,0:0:0:0:
412,169,198224,1,0,0:0:0:0:
418,198,198299,1,0,0:0:0:0:
425,227,198374,1,0,0:0:0:0:
461,253,198449,6,0,P|490:246|516:234,1,59.4999981842042
310,231,198599,2,0,P|281:238|255:250,1,59.4999981842042
342,348,198749,1,0,0:0:0:0:
373,312,198824,1,0,0:0:0:0:
386,266,198899,1,0,0:0:0:0:
387,218,198974,1,0,0:0:0:0:
370,173,199049,6,0,L|384:109,3,59.4999981842042
280,39,199349,2,0,L|292:97,3,59.4999981842042
231,172,199649,5,0,0:0:0:0:
190,196,199724,1,0,0:0:0:0:
142,200,199799,1,0,0:0:0:0:
95,188,199874,1,0,0:0:0:0:
59,156,199949,1,0,0:0:0:0:
79,198,200024,1,0,0:0:0:0:
87,244,200099,1,0,0:0:0:0:
81,291,200174,1,0,0:0:0:0:
65,336,200249,6,0,L|4:324,3,59.4999981842042
166,300,200549,2,0,L|227:288,3,59.4999981842042
288,355,200849,5,0,0:0:0:0:
335,355,200924,1,0,0:0:0:0:
379,338,200999,1,0,0:0:0:0:
417,310,201074,1,0,0:0:0:0:
447,273,201149,2,0,P|460:244|467:212,1,59.4999981842042
373,91,201299,2,0,P|380:119|392:146,1,59.4999981842042
327,225,201449,5,0,0:0:0:0:
291,193,201524,1,0,0:0:0:0:
244,181,201599,1,0,0:0:0:0:
196,187,201674,1,0,0:0:0:0:
156,213,201749,1,0,0:0:0:0:
110,226,201824,1,0,0:0:0:0:
62,218,201899,1,0,0:0:0:0:
22,190,201974,1,0,0:0:0:0:
5,145,202049,6,0,L|-2:86,3,59.4999981842042
94,86,202349,2,0,L|101:27,3,59.4999981842042
193,74,202649,5,0,0:0:0:0:
217,90,202724,1,0,0:0:0:0:
245,99,202799,1,0,0:0:0:0:
274,103,202874,1,0,0:0:0:0:
303,102,202949,1,0,0:0:0:0:
331,94,203024,1,0,0:0:0:0:
358,81,203099,1,0,0:0:0:0:
381,62,203174,1,0,0:0:0:0:
400,39,203249,6,0,L|411:103,3,59.4999981842042
490,133,203549,2,0,L|479:197,3,59.4999981842042
411,254,203849,5,0,0:0:0:0:
382,247,203924,1,0,0:0:0:0:
353,240,203999,1,0,0:0:0:0:
324,233,204074,1,0,0:0:0:0:
297,200,204149,1,0,0:0:0:0:
268,207,204224,1,0,0:0:0:0:
239,214,204299,1,0,0:0:0:0:
210,221,204374,1,0,0:0:0:0:
167,204,204449,6,0,P|147:167|144:145,1,59.4999981842042
70,59,204599,2,0,P|63:87|47:112,1,59.4999981842042
0,230,204749,1,0,0:0:0:0:
41,229,204824,1,0,0:0:0:0:
81,240,204899,1,0,0:0:0:0:
115,262,204974,1,0,0:0:0:0:
141,293,205049,2,0,L|150:357,3,59.4999981842042
240,286,205349,2,0,L|248:227,3,59.4999981842042
308,133,205649,5,0,0:0:0:0:
358,115,205724,1,0,0:0:0:0:
408,131,205799,1,0,0:0:0:0:
431,179,205874,1,0,0:0:0:0:
415,230,205949,1,0,0:0:0:0:
368,255,206024,1,0,0:0:0:0:
315,246,206099,1,0,0:0:0:0:
276,209,206174,1,0,0:0:0:0:
224,194,206249,5,0,0:0:0:0:
170,200,206324,1,0,0:0:0:0:
132,237,206399,1,0,0:0:0:0:
122,289,206474,1,0,0:0:0:0:
143,338,206549,1,0,0:0:0:0:
192,358,206624,1,0,0:0:0:0:
245,354,206699,1,0,0:0:0:0:
285,318,206774,1,0,0:0:0:0:
300,266,206849,6,0,L|296:196,1,59.4999981842042
382,96,206999,2,0,L|378:155,1,59.4999981842042
195,222,207149,2,0,L|191:152,1,59.4999981842042
277,52,207299,2,0,L|273:111,1,59.4999981842042
87,186,207449,6,0,L|83:116,1,59.4999981842042
169,16,207599,2,0,L|165:75,1,59.4999981842042
310,35,207749,1,0,0:0:0:0:
362,24,207824,1,0,0:0:0:0:
414,33,207899,1,0,0:0:0:0:
456,65,207974,1,0,0:0:0:0:
473,115,208049,6,0,P|477:167|468:199,1,59.4999981842042
374,294,208199,2,0,P|371:264|376:235,1,59.4999981842042
270,152,208349,2,0,L|196:145,1,59.4999981842042
129,265,208499,2,0,L|203:258,1,59.4999981842042
145,72,208649,5,0,0:0:0:0:
92,61,208724,1,0,0:0:0:0:
41,79,208799,1,0,0:0:0:0:
19,127,208874,1,0,0:0:0:0:
32,178,208949,1,0,0:0:0:0:
77,206,209024,1,0,0:0:0:0:
129,197,209099,1,0,0:0:0:0:
181,188,209174,1,0,0:0:0:0:
233,200,209249,6,0,P|258:239|263:269,1,59.4999981842042
336,143,209399,2,0,P|346:115|364:91,1,59.4999981842042
356,241,209549,2,0,L|344:311,1,59.4999981842042
249,113,209699,2,0,L|238:54,1,59.4999981842042
471,180,209849,6,0,P|420:177|387:165,1,59.4999981842042
186,221,209999,2,0,P|215:215|244:215,1,59.4999981842042
121,328,210149,1,0,0:0:0:0:
76,298,210224,1,0,0:0:0:0:
53,249,210299,1,0,0:0:0:0:
60,195,210374,1,0,0:0:0:0:
88,149,210449,6,0,L|76:84,3,59.4999981842042
191,149,210749,2,0,L|180:207,1,59.4999981842042
294,117,210899,2,0,L|283:58,1,59.4999981842042
397,19,211049,5,0,0:0:0:0:
450,16,211124,1,0,0:0:0:0:
488,52,211199,1,0,0:0:0:0:
482,105,211274,1,0,0:0:0:0:
439,137,211349,1,0,0:0:0:0:
387,123,211424,1,0,0:0:0:0:
334,131,211499,1,0,0:0:0:0:
294,167,211574,1,0,0:0:0:0:
292,220,211649,1,0,0:0:0:0:
56,104,221249,6,0,P|110:77|219:143,1,188.700004606934
162,255,222449,2,0,B|130:221|130:221|124:164,2,94.3500023034669
263,220,223649,6,0,L|454:207,1,188.700004606934
503,105,224849,2,0,P|444:93|407:102,2,94.3500023034669
347,273,226049,6,0,B|293:223|293:223|281:101,1,188.700004606934
205,216,227249,2,0,B|209:265|209:265|190:314,2,94.3500023034669
131,137,228449,5,0,0:0:0:0:
131,137,228749,1,0,0:0:0:0:
251,109,228899,1,0,0:0:0:0:
60,79,229049,1,0,0:0:0:0:
211,192,229199,1,0,0:0:0:0:
172,42,229349,1,0,0:0:0:0:
116,233,229499,1,0,0:0:0:0:
306,188,229649,5,0,0:0:0:0:
131,137,229799,1,0,0:0:0:0:
289,280,229949,1,0,0:0:0:0:
306,277,230024,1,0,0:0:0:0:
323,274,230099,1,0,0:0:0:0:
340,271,230174,1,0,0:0:0:0:
357,269,230249,2,0,L|396:281,3,31.8750012159348
452,228,230549,2,0,L|491:216,3,31.8750012159348
407,130,230849,5,0,0:0:0:0:
369,101,230924,1,0,0:0:0:0:
323,88,230999,1,0,0:0:0:0:
275,89,231074,1,0,0:0:0:0:
229,102,231149,1,0,0:0:0:0:
192,132,231224,1,0,0:0:0:0:
166,172,231299,2,0,P|163:215|168:246,1,59.4999981842042
276,360,231449,5,0,0:0:0:0:
308,325,231524,1,0,0:0:0:0:
325,280,231599,1,0,0:0:0:0:
327,232,231674,1,0,0:0:0:0:
314,186,231749,1,0,0:0:0:0:
288,145,231824,1,0,0:0:0:0:
246,121,231899,2,0,P|202:110|175:111,1,59.4999981842042
87,232,232049,5,0,0:0:0:0:
126,257,232124,1,0,0:0:0:0:
172,268,232199,1,0,0:0:0:0:
219,262,232274,1,0,0:0:0:0:
262,242,232349,1,0,0:0:0:0:
297,210,232424,1,0,0:0:0:0:
316,166,232499,2,0,P|325:128|325:103,1,59.4999981842042
443,21,232649,5,0,0:0:0:0:
413,58,232724,1,0,0:0:0:0:
399,103,232799,1,0,0:0:0:0:
394,150,232874,1,0,0:0:0:0:
398,197,232949,1,0,0:0:0:0:
413,241,233024,1,0,0:0:0:0:
443,277,233099,2,0,P|475:296|503:303,1,59.4999981842042
349,318,233249,5,0,0:0:0:0:
320,308,233324,1,0,0:0:0:0:
291,298,233399,1,0,0:0:0:0:
262,288,233474,1,0,0:0:0:0:
233,278,233549,2,0,L|165:296,1,59.4999981842042
80,203,233699,2,0,L|148:221,1,59.4999981842042
293,194,233849,5,0,0:0:0:0:
304,166,233924,1,0,0:0:0:0:
309,136,233999,1,0,0:0:0:0:
309,106,234074,1,0,0:0:0:0:
304,76,234149,2,0,L|289:8,1,59.4999981842042
414,90,234299,2,0,L|401:148,1,59.4999981842042
215,145,234449,6,0,P|156:128|109:83,1,118.999996368408
95,56,234674,2,0,L|79:200,1,118.999996368408
65,203,234899,1,0,0:0:0:0:
135,297,235049,2,0,B|207:253|207:253|353:302,1,237.999992736817
220,358,235499,1,0,0:0:0:0:
440,329,235649,5,0,0:0:0:0:
455,297,235724,1,0,0:0:0:0:
462,262,235799,1,0,0:0:0:0:
459,226,235874,1,0,0:0:0:0:
446,192,235949,2,0,L|368:168,1,59.4999981842042
277,110,236099,2,0,L|355:86,1,59.4999981842042
245,202,236249,5,0,0:0:0:0:
209,208,236324,1,0,0:0:0:0:
173,203,236399,1,0,0:0:0:0:
140,188,236474,1,0,0:0:0:0:
116,161,236549,2,0,L|105:98,1,59.4999981842042
36,222,236699,2,0,L|25:280,1,59.4999981842042
118,341,236849,5,0,0:0:0:0:
150,325,236924,1,0,0:0:0:0:
183,313,236999,1,0,0:0:0:0:
218,307,237074,1,0,0:0:0:0:
253,302,237149,2,0,L|323:313,1,59.4999981842042
410,231,237299,2,0,L|340:242,1,59.4999981842042
239,186,237449,5,0,0:0:0:0:
222,154,237524,1,0,0:0:0:0:
216,118,237599,1,0,0:0:0:0:
220,82,237674,1,0,0:0:0:0:
236,50,237749,2,0,L|302:55,1,59.4999981842042
145,106,237899,2,0,L|79:111,1,59.4999981842042
11,219,238049,5,0,0:0:0:0:
56,203,238124,1,0,0:0:0:0:
103,208,238199,1,0,0:0:0:0:
145,229,238274,1,0,0:0:0:0:
170,268,238349,2,0,L|173:348,3,59.4999981842042
264,277,238649,5,0,0:0:0:0:
303,302,238724,1,0,0:0:0:0:
350,302,238799,1,0,0:0:0:0:
392,280,238874,1,0,0:0:0:0:
417,240,238949,1,0,0:0:0:0:
413,192,239024,1,0,0:0:0:0:
427,146,239099,1,0,0:0:0:0:
461,112,239174,1,0,0:0:0:0:
256,192,239249,12,0,240374,0:0:0:0:
136,169,240449,6,0,P|75:156|40:131,1,101.999996887207
208,95,240749,1,0,0:0:0:0:
22,223,240899,1,0,0:0:0:0:
143,298,241049,2,0,L|155:188,1,101.999996887207
290,28,241349,2,0,L|301:129,1,101.999996887207
427,294,241649,6,0,P|463:243|478:196,1,101.999996887207
481,172,241874,1,0,0:0:0:0:
481,172,241949,1,0,0:0:0:0:
353,192,242099,2,0,B|253:229|253:154|154:192,1,203.999993774414
207,275,242549,1,0,0:0:0:0:
301,107,242699,1,0,0:0:0:0:
99,133,242849,6,0,P|147:157|208:161,1,101.999996887207
203,47,243149,1,0,0:0:0:0:
377,153,243299,1,0,0:0:0:0:
286,233,243449,1,0,0:0:0:0:
328,45,243599,1,0,0:0:0:0:
481,126,243749,2,0,L|462:241,1,101.999996887207
215,148,244049,6,0,P|276:125|325:132,1,101.999996887207
350,140,244274,1,0,0:0:0:0:
350,140,244349,1,0,0:0:0:0:
287,262,244499,2,0,B|213:284|213:284|79:231,1,203.999993774414
35,74,244949,1,0,0:0:0:0:
73,60,245024,1,0,0:0:0:0:
113,61,245099,1,0,0:0:0:0:
151,74,245174,1,0,0:0:0:0:
181,101,245249,5,0,0:0:0:0:
222,78,245324,1,0,0:0:0:0:
269,75,245399,1,0,0:0:0:0:
314,90,245474,1,0,0:0:0:0:
348,122,245549,2,0,P|363:174|361:204,1,59.4999981842042
214,270,245699,2,0,P|251:231|278:217,1,59.4999981842042
407,303,245849,2,0,P|354:289|329:273,1,59.4999981842042
251,153,245999,5,0,0:0:0:0:
278,141,246074,1,0,0:0:0:0:
307,135,246149,1,0,0:0:0:0:
336,132,246224,1,0,0:0:0:0:
365,133,246299,1,0,0:0:0:0:
394,138,246374,1,0,0:0:0:0:
421,148,246449,5,0,0:0:0:0:
406,193,246524,1,0,0:0:0:0:
369,223,246599,1,0,0:0:0:0:
324,240,246674,1,0,0:0:0:0:
276,244,246749,2,0,L|212:237,1,59.4999981842042
117,143,246899,2,0,L|181:136,1,59.4999981842042
78,254,247049,2,0,L|14:247,1,59.4999981842042
155,342,247199,5,0,0:0:0:0:
197,319,247274,1,0,0:0:0:0:
244,314,247349,1,0,0:0:0:0:
288,330,247424,1,0,0:0:0:0:
331,348,247499,1,0,0:0:0:0:
378,343,247574,1,0,0:0:0:0:
417,316,247649,6,0,L|435:197,1,118.999996368408
444,165,247874,1,0,0:0:0:0:
444,165,247949,1,0,0:0:0:0:
243,236,248099,2,0,L|225:117,1,118.999996368408
216,85,248324,1,0,0:0:0:0:
216,85,248399,1,0,0:0:0:0:
60,185,248549,6,0,B|37:263|89:330|197:333|234:241|234:241|251:197|268:158|331:151|379:197|353:256,1,509.999984436036
271,343,249449,6,0,B|196:286|196:286|194:104,1,255
