osu file format v14

[General]
AudioFilename: audio.mp3
AudioLeadIn: 0
PreviewTime: 97465
Countdown: 0
SampleSet: Normal
StackLeniency: 0.7
Mode: 0
LetterboxInBreaks: 0
WidescreenStoryboard: 0

[Editor]
Bookmarks: 685,19885,39085,47140,59140,97540,116740,127540,146740,177940,191140,222340,284736,348736,352736
DistanceSpacing: 0.3
BeatDivisor: 4
GridSize: 32
TimelineZoom: 2.6

[Metadata]
Title:Judgement Day
TitleUnicode:Judgement Day
Artist:DragonForce
ArtistUnicode:DragonForce
Creator:Zonthem
Version:Legend
Source:
Tags:Reaching into infinity power metal herman li
BeatmapID:1257780
BeatmapSetID:594680

[Difficulty]
HPDrainRate:6
CircleSize:5
OverallDifficulty:8.5
ApproachRate:9.4
SliderMultiplier:1.96
SliderTickRate:1

[Events]
//Background and Video events
0,0,"bg.jpg",0,0
//Break Periods
2,182940,187000
2,187740,189940
2,286736,296196
//Storyboard Layer 0 (Background)
//Storyboard Layer 1 (Fail)
//Storyboard Layer 2 (Pass)
//Storyboard Layer 3 (Foreground)
//Storyboard Sound Samples

[TimingPoints]
685,600,4,2,1,40,1,0
9685,-100,4,2,1,5,0,0
10285,-133.333333333333,4,2,1,10,0,0
11485,-200,4,2,1,15,0,0
12685,-133.333333333333,4,2,1,20,0,0
13885,-200,4,2,1,25,0,0
15085,-133.333333333333,4,2,1,30,0,0
16285,-200,4,2,1,35,0,0
17485,-133.333333333333,4,2,1,40,0,0
46885,-133.333333333333,4,2,1,5,0,0
47140,300,4,1,1,70,1,1
58540,-66.6666666666667,4,1,1,70,0,1
59140,-100,4,1,1,70,0,0
67540,-100,4,1,1,60,0,0
68140,-100,4,1,1,70,0,0
75940,-100,4,1,1,60,0,0
76540,-100,4,1,1,70,0,0
86740,-100,4,1,1,60,0,0
87340,-100,4,1,1,70,0,0
95140,-83.3333333333333,4,1,1,60,0,0
95740,-83.3333333333333,4,1,1,70,0,0
97540,-71.4285714285714,4,1,1,80,0,1
105940,-71.4285714285714,4,1,1,60,0,1
106540,-71.4285714285714,4,1,1,80,0,1
114340,-71.4285714285714,4,1,1,60,0,1
114940,-71.4285714285714,4,1,1,80,0,1
116740,-71.4285714285714,4,1,1,80,0,1
118540,-100,4,1,1,80,0,1
119140,-71.4285714285714,4,1,1,80,0,1
125140,-71.4285714285714,4,1,1,60,0,1
125740,-71.4285714285714,4,1,1,80,0,1
126340,-71.4285714285714,4,1,1,70,0,0
127540,-100,4,1,1,70,0,0
135940,-100,4,1,1,60,0,0
136540,-100,4,1,1,70,0,0
144340,-100,4,1,1,60,0,0
144940,-100,4,1,1,70,0,0
145540,-133.333333333333,4,1,1,70,0,0
146740,-71.4285714285714,4,1,1,80,0,1
155740,-71.4285714285714,4,1,1,60,0,1
156040,-71.4285714285714,4,1,1,80,0,1
163540,-71.4285714285714,4,1,1,60,0,1
164140,-71.4285714285714,4,1,1,90,0,1
164740,-71.4285714285714,4,1,1,80,0,1
173440,-83.3333333333333,4,1,1,80,0,1
173740,-100,4,1,1,80,0,1
174340,-71.4285714285714,4,1,1,80,0,1
174790,-83.3333333333333,4,1,1,80,0,1
175090,-100,4,1,1,80,0,1
175240,-83.3333333333333,4,1,1,80,0,1
175540,-71.4285714285714,4,1,1,60,0,1
176140,-71.4285714285714,4,1,1,80,0,1
176740,-71.4285714285714,4,1,1,60,0,1
177340,-71.4285714285714,4,1,1,80,0,1
177940,-100,4,1,1,70,0,0
182740,-100,4,1,1,5,0,0
187540,-100,4,1,1,75,0,0
191140,-133.333333333333,4,1,1,70,0,0
222340,-111.111111111111,4,1,1,70,0,0
231940,-83.3333333333333,4,1,1,70,0,1
233740,-66.6666666666667,4,1,1,70,0,1
234040,-83.3333333333333,4,1,1,70,0,1
250540,-66.6666666666667,4,1,1,70,0,0
251140,-83.3333333333333,4,1,1,70,0,1
255490,-66.6666666666667,4,1,1,70,0,0
255940,-83.3333333333333,4,1,1,70,0,0
259540,-83.3333333333333,4,1,1,50,0,0
260140,-83.3333333333333,4,1,1,70,0,0
260740,-100,4,1,1,70,0,0
269140,-100,4,1,1,50,0,0
269740,-100,4,1,1,70,0,0
270340,-100,4,1,1,70,0,1
283540,-100,4,1,1,50,0,1
284140,-100,4,1,1,70,0,1
284736,500,4,1,1,70,1,0
296736,-100,4,1,1,40,0,0
297736,-100,4,1,1,45,0,0
298736,-100,4,1,1,50,0,0
299736,-100,4,1,1,55,0,0
300736,-100,4,1,1,60,0,0
302236,-100,4,1,1,60,0,0
302486,-100,4,1,1,60,0,0
332736,-111.111111111111,4,1,1,60,0,0
334736,-111.111111111111,4,1,1,50,0,0
344736,-111.111111111111,4,1,1,40,0,0
346736,-111.111111111111,4,1,1,30,0,0
347736,-111.111111111111,4,1,1,60,0,0
352736,-111.111111111111,4,1,1,50,0,0

[Colours]
Combo1 : 105,114,118
Combo2 : 230,234,160
Combo3 : 91,140,138
Combo4 : 252,203,38

[HitObjects]
256,192,7885,12,0,9685,0:0:0:0:
281,119,10285,5,2,0:0:0:0:
376,157,10585,2,0,L|416:228,1,73.5000028038026,2|0,0:0|0:0,0:0:0:0:
271,145,11185,1,2,0:0:0:0:
366,183,11485,2,0,L|414:268,1,98,2|0,0:0|0:0,0:0:0:0:
115,197,12685,5,2,0:0:0:0:
153,292,12985,2,0,L|224:332,1,73.5000028038026,2|0,0:0|0:0,0:0:0:0:
141,187,13585,1,2,0:0:0:0:
179,282,13885,2,0,L|264:330,1,98,2|0,0:0|0:0,0:0:0:0:
242,17,15085,5,2,0:0:0:0:
282,111,15385,2,0,L|260:189,1,73.5000028038026,2|0,0:0|0:0,0:0:0:0:
216,28,15985,1,2,0:0:0:0:
256,122,16285,2,0,L|229:216,1,98,2|0,0:0|0:0,0:0:0:0:
456,53,17485,5,2,0:0:0:0:
354,37,17785,2,0,L|276:62,1,73.5000028038026,2|0,0:0|0:0,0:0:0:0:
394,122,18385,1,2,0:0:0:0:
227,14,18685,2,0,B|211:46|211:46|222:99,1,73.5000028038026,2|0,0:0|0:0,0:0:0:0:
315,146,19285,2,0,B|322:182|322:182|306:214,1,73.5000028038026,2|0,0:0|0:0,0:0:0:0:
75,180,19885,6,0,P|66:224|70:255,1,73.5000028038026,2|0,0:0|0:0,0:0:0:0:
164,337,20485,1,2,0:0:0:0:
69,252,20785,1,2,0:0:0:0:
207,226,21085,2,0,P|244:250|263:275,1,73.5000028038026,2|0,0:0|0:0,0:0:0:0:
163,323,21685,5,2,0:0:0:0:
86,254,21985,1,2,0:0:0:0:
144,171,22285,2,0,P|183:150|214:147,1,73.5000028038026,2|0,0:0|0:0,0:0:0:0:
261,272,22885,5,2,0:0:0:0:
377,321,23185,1,2,0:0:0:0:
352,202,23485,2,0,P|327:174|295:157,1,73.5000028038026,2|0,0:0|0:0,0:0:0:0:
273,271,24085,5,2,0:0:0:0:
372,312,24385,1,2,0:0:0:0:
420,233,24685,2,0,P|427:187|415:153,2,73.5000028038026,2|0|0,0:0|0:0|0:0,0:0:0:0:
352,202,25585,1,2,0:0:0:0:
352,202,25885,1,2,0:0:0:0:
485,89,27085,2,0,B|446:111|377:106|377:106|317:100|254:134,1,220.500008411408,2|0,0:0|0:0,0:0:0:0:
350,249,28285,5,2,0:0:0:0:
214,37,28885,1,2,0:0:0:0:
81,233,29485,6,0,P|104:259|157:264,1,73.5000028038026,2|0,0:0|0:0,0:0:0:0:
270,125,30085,1,2,0:0:0:0:
271,280,30385,1,2,0:0:0:0:
345,206,30685,2,0,P|381:216|407:244,1,73.5000028038026,2|0,0:0|0:0,0:0:0:0:
344,277,31285,5,2,0:0:0:0:
308,148,31585,2,0,B|283:158|266:202|283:236|283:236|269:259|272:285,1,147.000005607605
406,321,32485,5,2,0:0:0:0:
308,148,32785,1,2,0:0:0:0:
323,341,33085,2,0,B|288:326|288:326|239:332,1,73.5000028038026,2|0,0:0|0:0,0:0:0:0:
178,360,33685,5,2,0:0:0:0:
337,271,33985,2,0,B|301:256|301:256|193:266,1,147.000005607605,2|0,0:0|0:0,0:0:0:0:
178,360,35185,5,2,0:0:0:0:
178,360,35485,1,2,0:0:0:0:
306,149,36685,2,0,B|266:163|233:153|233:153|167:181|167:181|132:172|79:181,1,220.500008411408,2|0,0:0|0:0,0:0:0:0:
94,92,37885,5,2,0:0:0:0:
274,248,38485,1,2,0:0:0:0:
93,178,39085,1,6,0:0:0:0:
256,192,39235,12,0,46885,0:0:0:0:
339,146,47140,6,0,L|291:138,3,49,6|8|0|8,0:0|0:0|0:0|0:0,0:0:0:0:
172,192,47440,2,0,L|221:184,3,49,2|8|0|8,0:0|0:0|0:0|0:0,0:0:0:0:
293,71,47740,1,2,0:0:0:0:
293,71,47815,1,8,0:0:0:0:
293,71,47890,2,0,L|358:83,1,49,0|8,0:0|0:0,0:0:0:0:
185,125,48040,1,2,0:0:0:0:
185,125,48115,1,8,0:0:0:0:
185,125,48190,2,0,L|120:137,1,49,0|8,0:0|0:0,0:0:0:0:
246,20,48340,5,2,0:0:0:0:
282,4,48415,1,8,0:0:0:0:
321,6,48490,1,0,0:0:0:0:
359,13,48565,1,8,0:0:0:0:
393,31,48640,1,2,0:0:0:0:
422,56,48715,1,8,0:0:0:0:
442,89,48790,1,0,0:0:0:0:
450,127,48865,1,8,0:0:0:0:
451,166,48940,2,0,P|448:191|440:215,3,49,2|8|0|8,0:0|0:0|0:0|0:0,0:0:0:0:
344,264,49240,2,0,P|347:239|355:215,3,49,2|8|0|8,0:0|0:0|0:0|0:0,0:0:0:0:
389,158,49540,5,2,0:0:0:0:
370,123,49615,1,8,0:0:0:0:
337,100,49690,1,0,0:0:0:0:
301,84,49765,1,8,0:0:0:0:
261,81,49840,2,0,P|233:82|197:88,3,49,2|8|0|8,0:0|0:0|0:0|0:0,0:0:0:0:
201,184,50140,2,0,P|176:187|152:187,3,49,2|8|0|8,0:0|0:0|0:0|0:0,0:0:0:0:
60,95,50440,1,2,0:0:0:0:
62,56,50515,1,8,0:0:0:0:
92,31,50590,1,0,0:0:0:0:
131,36,50665,1,8,0:0:0:0:
147,72,50740,6,0,L|136:132,3,49,2|8|0|8,0:0|0:0|0:0|0:0,0:0:0:0:
66,207,51040,2,0,L|58:159,3,49,2|8|0|8,0:0|0:0|0:0|0:0,0:0:0:0:
147,327,51340,2,0,L|138:375,3,49,2|8|0|8,0:0|0:0|0:0|0:0,0:0:0:0:
48,323,51640,2,0,L|39:274,3,49,2|8|0|8,0:0|0:0|0:0|0:0,0:0:0:0:
113,259,51940,5,6,0:0:0:0:
151,253,52015,1,8,0:0:0:0:
188,263,52090,1,0,0:0:0:0:
213,292,52165,1,8,0:0:0:0:
236,323,52240,1,2,0:0:0:0:
270,341,52315,1,8,0:0:0:0:
309,341,52390,1,0,0:0:0:0:
342,320,52465,1,8,0:0:0:0:
359,284,52540,2,0,P|365:256|365:229,3,49,2|8|0|8,0:0|0:0|0:0|0:0,0:0:0:0:
272,171,52840,2,0,P|266:199|266:226,3,49,2|8|0|8,0:0|0:0|0:0|0:0,0:0:0:0:
361,124,53140,5,2,0:0:0:0:
361,124,53215,1,8,0:0:0:0:
361,124,53290,2,0,P|346:97|321:77,1,49,0|8,0:0|0:0,0:0:0:0:
221,73,53440,1,2,0:0:0:0:
221,73,53515,1,8,0:0:0:0:
221,73,53590,2,0,P|232:100|261:123,1,49,0|8,0:0|0:0,0:0:0:0:
421,97,53740,1,2,0:0:0:0:
421,97,53815,1,8,0:0:0:0:
421,97,53890,2,0,P|412:74|397:55,1,49,0|8,0:0|0:0,0:0:0:0:
388,201,54040,1,2,0:0:0:0:
388,201,54115,1,8,0:0:0:0:
388,201,54190,2,0,P|399:228|428:251,1,49,0|8,0:0|0:0,0:0:0:0:
466,159,54340,5,2,0:0:0:0:
434,135,54415,1,8,0:0:0:0:
397,125,54490,1,0,0:0:0:0:
358,128,54565,1,8,0:0:0:0:
323,145,54640,1,2,0:0:0:0:
297,174,54715,1,8,0:0:0:0:
282,210,54790,1,0,0:0:0:0:
282,249,54865,1,8,0:0:0:0:
303,282,54940,2,0,P|322:296|344:308,3,49,2|8|0|8,0:0|0:0|0:0|0:0,0:0:0:0:
208,288,55240,2,0,P|200:310|193:333,3,49,2|8|0|8,0:0|0:0|0:0|0:0,0:0:0:0:
175,208,55540,5,2,0:0:0:0:
161,172,55615,1,8,0:0:0:0:
161,133,55690,1,0,0:0:0:0:
178,98,55765,1,8,0:0:0:0:
208,72,55840,1,2,0:0:0:0:
246,60,55915,1,8,0:0:0:0:
286,64,55990,1,0,0:0:0:0:
322,82,56065,1,8,0:0:0:0:
349,104,56140,2,0,P|368:137|373:161,3,49,2|8|0|8,0:0|0:0|0:0|0:0,0:0:0:0:
312,195,56440,2,0,P|320:218|333:238,3,49,2|8|0|8,0:0|0:0|0:0|0:0,0:0:0:0:
451,139,56740,6,0,P|458:169|458:191,1,49,12|0,0:0|0:0,0:0:0:0:
402,265,56890,2,0,P|395:235|395:213,1,49,8|0,0:0|0:0,0:0:0:0:
476,118,57040,2,0,P|483:148|483:170,1,49,8|0,0:0|0:0,0:0:0:0:
374,249,57190,2,0,P|367:219|367:197,1,49,8|0,0:0|0:0,0:0:0:0:
417,84,57340,6,0,P|404:114|380:135,1,49,8|0,0:0|0:0,0:0:0:0:
287,199,57490,2,0,P|300:169|324:148,1,49,8|0,0:0|0:0,0:0:0:0:
399,49,57640,2,0,P|386:79|362:100,1,49,8|0,0:0|0:0,0:0:0:0:
248,202,57790,2,0,P|261:172|285:151,1,49,8|0,0:0|0:0,0:0:0:0:
469,190,57940,5,8,0:0:0:0:
478,213,58015,1,8,0:0:0:0:
479,238,58090,1,8,0:0:0:0:
472,267,58165,1,8,0:0:0:0:
450,294,58240,1,8,0:3:0:0:
413,307,58315,1,8,0:3:0:0:
365,315,58390,1,4,0:3:0:0:
317,320,58465,1,4,0:3:0:0:
270,326,58540,6,0,B|227:330|192:335|192:335|169:295|130:277|130:277|147:196|144:106|20:72|-45:140|-20:253|64:214,1,514.500019626618
48,219,59140,5,4,0:0:0:0:
190,55,59290,1,8,0:0:0:0:
170,131,59440,1,0,0:0:0:0:
109,78,59590,1,8,0:0:0:0:
246,114,59740,1,0,0:0:0:0:
101,177,59890,2,0,P|135:206|202:208,1,98,8|0,0:0|0:0,0:0:0:0:
368,67,60190,6,0,L|369:180,1,98,8|0,0:0|0:0,0:0:0:0:
295,302,60490,1,8,0:0:0:0:
319,223,60640,1,0,0:0:0:0:
438,302,60790,1,8,0:0:0:0:
405,223,60940,1,0,0:0:0:0:
369,363,61090,1,8,0:0:0:0:
230,360,61240,1,0,0:0:0:0:
196,367,61315,1,0,0:0:0:0:
165,351,61390,1,8,0:0:0:0:
147,323,61465,1,0,0:0:0:0:
147,288,61540,6,0,L|67:223,1,98,4|8,0:0|0:0,0:0:0:0:
141,91,61840,2,0,L|196:90,1,49
219,157,61990,2,0,L|170:156,1,49,8|0,0:0|0:0,0:0:0:0:
202,22,62140,2,0,P|244:45|261:89,1,98,0|8,0:0|0:0,0:0:0:0:
353,188,62440,2,0,L|392:216,1,49
456,181,62590,2,0,L|416:152,1,49,8|0,0:0|0:0,0:0:0:0:
312,243,62740,5,0,0:0:0:0:
352,120,62890,2,0,P|307:136|283:177,1,98,8|0,0:0|0:0,0:0:0:0:
473,248,63190,2,0,P|448:289|403:305,1,98,8|0,0:0|0:0,0:0:0:0:
170,123,63490,1,8,0:0:0:0:
223,321,63640,2,0,P|261:291|276:245,1,98,0|8,0:0|0:0,0:0:0:0:
170,123,63940,5,4,0:0:0:0:
321,313,64090,1,8,0:0:0:0:
356,243,64240,1,0,0:0:0:0:
277,246,64390,1,8,0:0:0:0:
403,306,64540,1,0,0:0:0:0:
223,321,64690,2,0,P|278:312|333:314,1,98,8|0,0:0|0:0,0:0:0:0:
491,362,64990,2,0,P|475:302|480:245,1,98,8|0,0:0|0:0,0:0:0:0:
510,135,65290,5,8,0:0:0:0:
433,178,65440,1,0,0:0:0:0:
368,117,65590,1,8,0:0:0:0:
254,179,65740,1,0,0:0:0:0:
277,74,65890,1,8,0:0:0:0:
350,201,66040,2,0,P|329:246|281:274,1,98,0|8,0:0|0:0,0:0:0:0:
125,131,66340,6,0,P|126:168|145:241,1,98,4|8,0:0|0:0,0:0:0:0:
451,227,66640,2,0,L|418:181,1,49
350,201,66790,2,0,L|378:240,1,49,8|0,0:0|0:0,0:0:0:0:
472,142,66940,2,0,P|428:121|381:133,1,98,0|8,0:0|0:0,0:0:0:0:
156,239,67240,2,0,L|211:247,1,49
245,185,67390,2,0,L|196:177,1,49,8|0,0:0|0:0,0:0:0:0:
125,131,67540,6,0,P|126:155|130:179,3,49,8|8|8|8,0:0|0:0|0:0|0:0,0:0:0:0:
282,122,67840,2,8,P|280:97|276:73,3,49
132,28,68140,1,8,0:3:0:0:
110,39,68215,1,8,0:3:0:0:
90,54,68290,1,8,0:3:0:0:
75,74,68365,1,8,0:3:0:0:
63,95,68440,2,0,P|54:135|52:163,1,49,4|4,0:3|0:3,0:0:0:0:
139,227,68590,2,0,P|136:202|129:178,1,49,4|4,0:3|0:3,0:0:0:0:
66,270,68740,5,4,0:0:0:0:
285,177,68890,1,8,0:0:0:0:
260,251,69040,1,0,0:0:0:0:
208,191,69190,1,8,0:0:0:0:
335,237,69340,1,0,0:0:0:0:
382,133,69490,1,8,0:0:0:0:
314,309,69640,1,0,0:0:0:0:
236,120,69790,1,8,0:0:0:0:
419,210,69940,6,0,B|426:257|426:257|416:308,1,98,0|8,0:0|0:0,0:0:0:0:
236,120,70240,2,0,B|229:167|229:167|239:218,1,98,0|8,0:0|0:0,0:0:0:0:
384,36,70540,2,0,B|391:83|391:83|381:134,1,98,0|8,0:0|0:0,0:0:0:0:
238,216,70840,1,0,0:0:0:0:
419,210,70990,1,8,0:0:0:0:
406,188,71065,1,0,0:0:0:0:
394,166,71140,1,4,0:0:0:0:
306,22,71290,5,8,0:0:0:0:
384,36,71440,1,0,0:0:0:0:
334,97,71590,1,8,0:0:0:0:
464,48,71740,1,0,0:0:0:0:
255,87,71890,1,8,0:0:0:0:
410,103,72040,1,0,0:0:0:0:
229,24,72190,1,8,0:0:0:0:
369,158,72340,6,0,B|353:206|353:206|309:241,1,98,0|8,0:0|0:0,0:0:0:0:
138,89,72640,2,0,B|154:137|154:137|198:172,1,98,0|8,0:0|0:0,0:0:0:0:
308,9,72940,2,0,B|292:57|292:57|248:92,1,98,0|8,0:0|0:0,0:0:0:0:
77,186,73240,2,0,P|53:190|24:186,2,49,0|0|8,0:0|0:0|0:0,0:0:0:0:
155,321,73540,6,0,L|186:217,1,98,4|8,0:0|0:0,0:0:0:0:
315,167,73840,1,0,0:0:0:0:
191,166,73990,1,8,0:0:0:0:
296,228,74140,2,0,L|265:332,1,98,0|8,0:0|0:0,0:0:0:0:
168,275,74440,1,0,0:0:0:0:
175,251,74515,1,0,0:0:0:0:
182,227,74590,1,8,0:0:0:0:
262,69,74740,6,0,P|217:68|161:50,1,98,0|8,0:0|0:0,0:0:0:0:
67,12,75040,2,0,P|90:55|100:102,1,98,0|8,0:0|0:0,0:0:0:0:
116,210,75340,2,0,P|141:168|177:135,1,98,0|8,0:0|0:0,0:0:0:0:
262,69,75640,1,0,0:0:0:0:
67,12,75790,1,8,0:0:0:0:
15,100,75940,5,12,0:0:0:0:
29,125,76015,1,8,0:0:0:0:
35,153,76090,1,8,0:0:0:0:
31,182,76165,1,8,0:0:0:0:
21,209,76240,1,8,0:0:0:0:
18,238,76315,1,8,0:0:0:0:
27,265,76390,1,8,0:0:0:0:
49,284,76465,1,8,0:0:0:0:
86,296,76540,5,8,0:3:0:0:
125,294,76615,1,8,0:3:0:0:
157,271,76690,1,8,0:3:0:0:
193,256,76765,1,8,0:3:0:0:
231,262,76840,1,4,0:3:0:0:
267,286,76915,1,4,0:3:0:0:
306,306,76990,2,0,P|337:305|366:297,1,49,4|4,0:3|0:3,0:0:0:0:
375,181,77140,5,8,0:0:0:0:
278,175,77290,1,8,0:0:0:0:
411,253,77440,1,8,0:0:0:0:
411,253,77740,5,8,0:0:0:0:
434,132,77890,1,8,0:0:0:0:
278,175,78040,1,8,0:0:0:0:
278,175,78340,5,4,0:0:0:0:
100,131,78490,1,8,0:0:0:0:
178,121,78640,1,0,0:0:0:0:
145,194,78790,1,8,0:0:0:0:
128,56,78940,2,0,P|73:55|27:94,1,98,0|8,0:0|0:0,0:0:0:0:
17,111,79165,1,0,0:0:0:0:
17,111,79240,1,0,0:0:0:0:
273,56,79390,2,0,P|313:82|330:152,1,98,8|0,0:0|0:0,0:0:0:0:
204,191,79690,5,8,0:0:0:0:
254,131,79840,1,0,0:0:0:0:
285,202,79990,1,8,0:0:0:0:
178,121,80140,1,0,0:0:0:0:
238,268,80290,1,8,0:0:0:0:
331,127,80440,1,0,0:0:0:0:
364,106,80515,1,0,0:0:0:0:
402,97,80590,1,8,0:0:0:0:
440,106,80665,1,0,0:0:0:0:
473,126,80740,6,0,P|486:171|492:233,1,98,4|8,0:0|0:0,0:0:0:0:
238,268,81040,2,0,L|270:222,1,49
325,271,81190,2,0,L|296:310,1,49,8|0,0:0|0:0,0:0:0:0:
184,220,81340,2,0,P|164:266|190:322,1,98,0|8,0:0|0:0,0:0:0:0:
484,337,81640,2,0,L|451:291,1,49
383,311,81790,2,0,L|411:350,1,49,8|0,0:0|0:0,0:0:0:0:
503,249,81940,5,0,0:0:0:0:
325,271,82090,2,0,P|363:244|415:249,1,98,8|0,0:0|0:0,0:0:0:0:
377,56,82390,1,8,0:0:0:0:
398,169,82540,1,0,0:0:0:0:
369,177,82615,1,0,0:0:0:0:
339,172,82690,1,8,0:0:0:0:
317,159,82765,1,0,0:0:0:0:
302,139,82840,2,0,P|291:117|283:93,1,49
358,10,82990,2,0,P|368:31|376:55,1,49,8|0,0:0|0:0,0:0:0:0:
398,169,83140,5,4,0:0:0:0:
206,253,83290,1,8,0:0:0:0:
278,223,83440,1,0,0:0:0:0:
215,176,83590,1,8,0:0:0:0:
273,298,83815,1,0,0:0:0:0:
317,159,83890,2,0,B|316:107|316:107|296:60,1,98,8|0,0:0|0:0,0:0:0:0:
124,157,84190,2,0,P|149:174|220:174,1,98,8|0,0:0|0:0,0:0:0:0:
486,28,84490,5,8,0:0:0:0:
408,88,84640,1,0,0:0:0:0:
493,141,84790,1,8,0:0:0:0:
382,2,84940,1,0,0:0:0:0:
297,64,85090,1,8,0:0:0:0:
486,28,85240,1,0,0:0:0:0:
494,56,85315,1,0,0:0:0:0:
499,84,85390,1,8,0:0:0:0:
500,113,85465,1,0,0:0:0:0:
493,141,85540,6,0,L|418:214,1,98,4|8,0:0|0:0,0:0:0:0:
243,296,85840,2,0,L|216:337,1,49
288,350,85990,2,0,L|317:311,1,49,8|0,0:0|0:0,0:0:0:0:
195,252,86140,2,0,P|238:231|285:243,1,98,0|8,0:0|0:0,0:0:0:0:
476,360,86440,2,0,L|517:322,1,49
453,288,86590,2,0,L|490:256,1,49,8|0,0:0|0:0,0:0:0:0:
390,247,86740,6,0,L|430:210,3,49,8|8|8|8,0:0|0:0|0:0|0:0,0:0:0:0:
242,167,87040,2,0,L|202:130,3,49,8|8|8|8,0:0|0:0|0:0|0:0,0:0:0:0:
383,147,87340,1,8,0:3:0:0:
379,108,87415,1,8,0:3:0:0:
343,91,87490,1,8,0:3:0:0:
307,107,87565,1,8,0:3:0:0:
304,146,87640,1,4,0:3:0:0:
323,180,87715,1,4,0:3:0:0:
323,224,87790,1,4,0:3:0:0:
297,260,87865,1,4,0:3:0:0:
255,274,87940,5,4,0:0:0:0:
74,127,88090,1,8,0:0:0:0:
144,220,88240,1,0,0:0:0:0:
186,110,88390,1,8,0:0:0:0:
36,226,88540,1,0,0:0:0:0:
121,35,88690,1,8,0:0:0:0:
252,204,88840,1,0,0:0:0:0:
74,127,88990,1,8,0:0:0:0:
114,315,89140,6,0,B|159:333|159:333|219:326,1,98,0|8,0:0|0:0,0:0:0:0:
316,165,89440,2,0,B|365:159|365:159|410:177,1,98,0|8,0:0|0:0,0:0:0:0:
447,315,89740,2,0,B|402:333|402:333|342:326,1,98,0|8,0:0|0:0,0:0:0:0:
241,217,90040,1,0,0:0:0:0:
270,331,90190,1,8,0:0:0:0:
270,331,90265,1,0,0:0:0:0:
270,331,90340,5,4,0:0:0:0:
316,165,90490,1,8,0:0:0:0:
361,228,90640,1,0,0:0:0:0:
384,112,90790,1,8,0:0:0:0:
286,231,90940,1,0,0:0:0:0:
434,180,91090,1,8,0:0:0:0:
242,170,91240,1,0,0:0:0:0:
445,257,91390,1,8,0:0:0:0:
308,93,91540,6,0,B|263:84|263:84|212:89,1,98,0|8,0:0|0:0,0:0:0:0:
190,227,91840,2,0,B|235:236|235:236|286:231,1,98,0|8,0:0|0:0,0:0:0:0:
480,115,92140,2,0,B|435:106|435:106|384:111,1,98,0|8,0:0|0:0,0:0:0:0:
397,247,92440,2,0,P|423:254|461:256,2,49,0|0|8,0:0|0:0|0:0,0:0:0:0:
308,93,92740,5,4,0:0:0:0:
251,157,92890,1,8,0:0:0:0:
251,157,92965,1,0,0:0:0:0:
251,157,93040,1,0,0:0:0:0:
329,173,93190,1,8,0:0:0:0:
122,28,93340,5,4,0:0:0:0:
129,156,93490,1,8,0:0:0:0:
129,156,93565,1,0,0:0:0:0:
129,156,93640,1,0,0:0:0:0:
229,90,93790,1,8,0:0:0:0:
24,210,93940,5,4,0:0:0:0:
60,384,94090,1,8,0:0:0:0:
60,384,94165,1,0,0:0:0:0:
60,384,94240,1,0,0:0:0:0:
203,256,94390,1,8,0:0:0:0:
30,307,94540,5,4,0:0:0:0:
63,312,94615,1,0,0:0:0:0:
96,318,94690,1,8,0:0:0:0:
129,323,94765,1,0,0:0:0:0:
163,327,94840,2,0,L|280:342,1,98,0|8,0:0|0:0,0:0:0:0:
427,233,95140,5,12,0:0:0:0:
420,186,95215,1,8,0:0:0:0:
393,147,95290,1,8,0:0:0:0:
349,128,95365,1,8,0:0:0:0:
301,128,95440,1,8,0:0:0:0:
257,146,95515,1,8,0:0:0:0:
222,178,95590,1,8,0:0:0:0:
179,197,95665,1,8,0:0:0:0:
132,190,95740,5,8,0:3:0:0:
98,156,95815,1,8,0:3:0:0:
86,110,95890,1,8,0:3:0:0:
99,64,95965,1,8,0:3:0:0:
138,39,96040,1,4,0:3:0:0:
184,34,96115,1,4,0:3:0:0:
230,41,96190,2,0,P|256:48|288:64,1,58.7999982055665,4|4,0:3|0:3,0:0:0:0:
349,128,96340,5,8,0:0:0:0:
402,42,96490,1,8,0:0:0:0:
366,209,96640,1,8,0:0:0:0:
366,209,96940,5,8,0:0:0:0:
257,146,97090,1,8,0:0:0:0:
293,313,97240,1,8,0:0:0:0:
293,313,97540,6,0,L|328:181,1,137.199995812988,12|0,0:0|0:0,0:0:0:0:
366,209,97765,1,0,0:0:0:0:
366,209,97840,1,10,0:0:0:0:
490,74,97990,1,0,0:0:0:0:
349,128,98140,1,10,0:0:0:0:
447,305,98290,1,0,0:0:0:0:
284,215,98440,1,10,0:0:0:0:
260,200,98515,1,0,0:0:0:0:
235,187,98590,1,0,0:0:0:0:
210,174,98665,1,0,0:0:0:0:
185,161,98740,6,0,L|70:86,1,137.199995812988,12|0,0:0|0:0,0:0:0:0:
237,22,99040,1,10,0:0:0:0:
306,121,99190,1,0,0:0:0:0:
441,8,99340,1,10,0:0:0:0:
226,102,99490,1,0,0:0:0:0:
356,253,99640,1,10,0:0:0:0:
175,214,99790,1,0,0:0:0:0:
152,230,99865,1,0,0:0:0:0:
138,253,99940,6,0,P|139:295|194:372,1,137.199995812988,14|0,0:0|0:0,0:0:0:0:
272,218,100240,1,10,0:0:0:0:
372,329,100390,1,0,0:0:0:0:
469,197,100540,1,10,0:0:0:0:
458,356,100690,1,0,0:0:0:0:
405,140,100840,1,10,0:0:0:0:
289,303,100990,1,0,0:0:0:0:
324,142,101140,6,0,B|346:109|342:77|342:77|337:46|359:12,1,137.199995812988,14|0,0:0|0:0,0:0:0:0:
489,118,101440,1,10,0:0:0:0:
356,253,101590,1,0,0:0:0:0:
324,142,101740,1,10,0:0:0:0:
229,215,101890,1,0,0:0:0:0:
417,225,102040,5,8,0:3:0:0:
427,250,102115,1,8,0:3:0:0:
426,277,102190,1,4,0:3:0:0:
414,301,102265,1,4,0:3:0:0:
391,317,102340,2,0,P|358:257|293:203,1,137.199995812988,6|0,0:0|0:0,0:0:0:0:
90,109,102640,5,10,0:0:0:0:
124,85,102715,1,0,0:0:0:0:
163,72,102790,1,0,0:0:0:0:
319,166,102940,1,10,0:0:0:0:
360,169,103015,1,0,0:0:0:0:
399,154,103090,1,0,0:0:0:0:
290,20,103240,1,10,0:0:0:0:
258,45,103315,1,0,0:0:0:0:
238,80,103390,1,0,0:0:0:0:
216,286,103540,6,0,P|156:283|125:206,1,137.199995812988,14|0,0:0|0:0,0:0:0:0:
319,166,103840,1,10,0:0:0:0:
344,198,103915,1,0,0:0:0:0:
352,238,103990,1,0,0:0:0:0:
191,225,104140,5,10,0:0:0:0:
356,308,104290,1,0,0:0:0:0:
156,165,104440,1,10,0:0:0:0:
294,322,104590,1,0,0:0:0:0:
122,221,104740,6,0,B|86:197|89:159|89:159|69:131|30:120,1,137.199995812988,14|0,0:0|0:0,0:0:0:0:
44,261,105040,1,10,0:0:0:0:
107,75,105190,2,0,B|163:51|240:88|240:88|303:117|386:84,1,274.399991625977,4|0,0:0|0:0,0:0:0:0:
285,8,105640,1,14,0:0:0:0:
350,184,105790,1,0,0:0:0:0:
477,32,105940,5,8,0:0:0:0:
485,72,106015,1,8,0:0:0:0:
483,113,106090,1,12,0:0:0:0:
474,153,106165,1,8,0:0:0:0:
461,192,106240,1,8,0:0:0:0:
458,233,106315,1,8,0:0:0:0:
469,272,106390,1,8,0:0:0:0:
487,309,106465,1,8,0:0:0:0:
485,350,106540,5,10,0:3:0:0:
445,323,106615,1,8,0:3:0:0:
399,307,106690,1,8,0:3:0:0:
351,300,106765,1,8,0:3:0:0:
303,304,106840,1,4,0:3:0:0:
257,318,106915,1,4,0:3:0:0:
211,334,106990,2,0,P|162:341|123:341,1,68.5999979064942,4|4,0:3|0:3,0:0:0:0:
56,257,107140,5,12,0:0:0:0:
284,89,107440,1,10,0:0:0:0:
227,153,107590,1,0,0:0:0:0:
260,12,107740,1,10,0:0:0:0:
311,168,107890,1,0,0:0:0:0:
201,75,108040,1,10,0:0:0:0:
366,105,108190,1,0,0:0:0:0:
144,138,108340,6,0,L|5:160,1,137.199995812988,14|0,0:0|0:0,0:0:0:0:
112,62,108640,1,10,0:0:0:0:
170,209,108790,1,0,0:0:0:0:
284,89,108940,1,10,0:0:0:0:
347,195,109090,1,0,0:0:0:0:
424,44,109240,1,10,0:0:0:0:
463,214,109390,1,0,0:0:0:0:
346,58,109540,6,0,P|292:20|212:42,1,137.199995812988,14|0,0:0|0:0,0:0:0:0:
171,222,109840,1,10,0:0:0:0:
347,195,109990,1,0,0:0:0:0:
222,321,110140,1,10,0:0:0:0:
249,144,110290,1,0,0:0:0:0:
330,303,110440,1,10,0:0:0:0:
358,322,110515,1,0,0:0:0:0:
391,328,110590,1,0,0:0:0:0:
424,322,110665,1,0,0:0:0:0:
453,304,110740,6,0,P|477:262|477:151,1,137.199995812988,14|0,0:0|0:0,0:0:0:0:
380,34,111040,1,10,0:0:0:0:
288,160,111190,1,0,0:0:0:0:
436,112,111340,1,10,0:0:0:0:
288,64,111490,1,0,0:0:0:0:
380,190,111640,5,8,0:3:0:0:
380,190,111715,1,8,0:3:0:0:
380,190,111790,1,4,0:3:0:0:
380,190,111865,1,4,0:3:0:0:
380,190,111940,1,12,0:0:0:0:
131,88,112240,5,10,0:0:0:0:
121,134,112315,1,0,0:0:0:0:
125,181,112390,1,0,0:0:0:0:
300,218,112540,1,10,0:0:0:0:
316,173,112615,1,0,0:0:0:0:
317,125,112690,1,0,0:0:0:0:
137,325,112840,1,10,0:0:0:0:
178,349,112915,1,0,0:0:0:0:
224,361,112990,1,0,0:0:0:0:
426,293,113140,6,0,P|383:269|304:298,1,137.199995812988,14|0,0:0|0:0,0:0:0:0:
365,349,113440,1,10,0:0:0:0:
400,187,113590,2,0,P|328:187|256:227,1,137.199995812988,0|10,0:0|0:0,0:0:0:0:
230,280,113890,5,0,0:0:0:0:
426,293,114040,1,10,0:0:0:0:
270,214,114190,1,0,0:0:0:0:
435,223,114340,5,12,0:0:0:0:
468,198,114415,1,8,0:0:0:0:
477,158,114490,1,8,0:0:0:0:
463,120,114565,1,8,0:0:0:0:
428,100,114640,1,8,0:0:0:0:
388,96,114715,1,8,0:0:0:0:
351,113,114790,1,8,0:0:0:0:
316,145,114865,1,8,0:0:0:0:
266,169,114940,1,8,0:0:0:0:
211,175,115015,1,8,0:0:0:0:
159,155,115090,6,0,P|129:136|105:93,1,68.5999979064942,8|8,0:3|0:3,0:0:0:0:
310,115,115240,2,0,P|277:125|228:117,1,68.5999979064942,4|4,0:3|0:3,0:0:0:0:
175,83,115390,2,0,P|162:51|168:1,1,68.5999979064942,4|4,0:3|0:3,0:0:0:0:
255,42,115540,5,12,0:0:0:0:
135,186,115840,1,8,0:0:0:0:
406,55,116140,1,8,0:0:0:0:
65,109,116440,1,8,0:0:0:0:
425,212,116740,6,0,P|402:250|377:273,3,68.5999979064942,14|0|8|0,0:0|0:0|0:0|0:0,0:0:0:0:
297,237,117040,2,0,P|274:262|257:292,3,68.5999979064942,10|0|8|0,0:0|0:0|0:0|0:0,0:0:0:0:
291,358,117340,1,10,0:0:0:0:
250,365,117415,1,0,0:0:0:0:
211,349,117490,1,8,0:0:0:0:
188,314,117565,1,0,0:0:0:0:
164,279,117640,1,10,0:0:0:0:
131,254,117715,1,0,0:0:0:0:
90,245,117790,1,8,0:0:0:0:
56,221,117865,1,0,0:0:0:0:
49,180,117940,6,0,L|103:132,1,68.5999979064942,14|0,0:0|0:0,0:0:0:0:
167,183,118090,2,0,L|221:135,1,68.5999979064942,8|0,0:0|0:0,0:0:0:0:
168,80,118240,2,0,L|222:32,1,68.5999979064942,10|0,0:0|0:0,0:0:0:0:
293,133,118390,2,0,L|347:85,1,68.5999979064942,8|0,0:0|0:0,0:0:0:0:
310,8,118540,6,0,P|376:0|464:15,1,147,14|0,0:0|0:0,0:0:0:0:
512,79,118840,2,0,P|519:145|504:233,1,147,14|0,0:0|0:0,0:0:0:0:
473,334,119140,5,14,0:0:0:0:
447,301,119215,1,0,0:0:0:0:
408,285,119290,1,8,0:0:0:0:
367,280,119365,1,0,0:0:0:0:
326,274,119440,1,10,0:0:0:0:
294,247,119515,1,0,0:0:0:0:
279,208,119590,1,8,0:0:0:0:
297,171,119665,1,0,0:0:0:0:
330,146,119740,2,0,P|364:137|401:141,3,68.5999979064942,10|0|8|0,0:0|0:0|0:0|0:0,0:0:0:0:
384,214,120040,2,0,P|418:216|450:207,3,68.5999979064942,10|0|8|0,0:0|0:0|0:0|0:0,0:0:0:0:
479,112,120340,6,0,B|399:28|263:99|263:99|181:23|90:82,1,411.599987438965,14|0,0:0|0:0,0:0:0:0:
135,199,120940,2,0,P|207:163|125:171,1,205.799993719483,14|0,0:0|0:0,0:0:0:0:
59,211,121240,2,0,P|126:277|233:262,1,205.799993719483,14|0,0:0|0:0,0:0:0:0:
265,100,121540,5,14,0:0:0:0:
273,217,121690,1,8,0:0:0:0:
279,100,121840,1,10,0:0:0:0:
256,215,121990,1,8,0:0:0:0:
340,135,122140,2,0,P|357:102|381:75,1,68.5999979064942,10|0,0:0|0:0,0:0:0:0:
459,79,122290,2,0,P|442:112|418:139,1,68.5999979064942,8|0,0:0|0:0,0:0:0:0:
337,90,122440,2,0,P|354:57|378:30,1,68.5999979064942,10|0,0:0|0:0,0:0:0:0:
464,125,122590,2,0,P|447:158|423:185,1,68.5999979064942,8|0,0:0|0:0,0:0:0:0:
340,135,122740,6,0,P|300:121|188:121,1,137.199995812988,14|8,0:0|0:0,0:0:0:0:
39,129,123040,1,10,0:0:0:0:
39,129,123190,1,8,0:0:0:0:
145,262,123340,1,10,0:0:0:0:
145,262,123490,1,8,0:0:0:0:
127,88,123640,1,10,0:0:0:0:
127,88,123790,1,8,0:0:0:0:
278,157,123940,5,14,0:0:0:0:
165,158,124090,2,0,P|120:171|50:230,1,137.199995812988,8|10,0:0|0:0,0:0:0:0:
279,283,124390,1,8,0:0:0:0:
279,283,124465,1,0,0:0:0:0:
279,283,124540,1,10,0:0:0:0:
293,193,124690,1,8,0:0:0:0:
199,228,124840,1,10,0:0:0:0:
368,250,124990,1,8,0:0:0:0:
178,312,125140,5,12,0:0:0:0:
133,329,125215,1,8,0:0:0:0:
87,319,125290,1,8,0:0:0:0:
55,284,125365,1,8,0:0:0:0:
53,237,125440,1,8,0:0:0:0:
70,207,125515,1,8,0:0:0:0:
97,185,125590,1,8,0:0:0:0:
130,178,125665,1,8,0:0:0:0:
160,193,125740,5,8,0:3:0:0:
199,228,125815,1,8,0:3:0:0:
245,238,125890,1,8,0:3:0:0:
292,230,125965,1,8,0:3:0:0:
330,201,126040,1,4,0:3:0:0:
375,184,126115,1,4,0:3:0:0:
422,177,126190,2,0,P|437:139|438:100,1,68.5999979064942,4|4,0:3|0:3,0:0:0:0:
371,16,126340,5,12,0:0:0:0:
368,120,126490,1,8,0:0:0:0:
268,17,126640,1,8,0:0:0:0:
268,17,126940,5,8,0:0:0:0:
253,143,127090,1,8,0:0:0:0:
137,0,127240,1,8,0:0:0:0:
137,0,127540,5,4,0:0:0:0:
253,143,127690,1,8,0:0:0:0:
209,23,127840,1,0,0:0:0:0:
170,142,127990,1,8,0:0:0:0:
286,70,128140,1,0,0:0:0:0:
146,72,128290,2,0,P|105:104|96:153,1,98,8|0,0:0|0:0,0:0:0:0:
116,323,128590,2,0,L|161:214,1,98,8|0,0:0|0:0,0:0:0:0:
286,70,128890,5,8,0:0:0:0:
334,140,129040,1,0,0:0:0:0:
365,71,129190,1,8,0:0:0:0:
253,143,129340,1,0,0:0:0:0:
375,202,129490,1,8,0:0:0:0:
251,255,129640,1,0,0:0:0:0:
251,255,129715,1,0,0:0:0:0:
251,255,129790,1,8,0:0:0:0:
410,268,129940,6,0,P|442:232|445:184,1,98,12|8,0:0|0:0,0:0:0:0:
307,54,130240,2,0,L|253:71,1,49
253,143,130390,2,0,L|299:128,1,49,8|0,0:0|0:0,0:0:0:0:
230,5,130540,2,0,P|197:40|194:88,1,98,0|8,0:0|0:0,0:0:0:0:
213,270,130840,2,0,L|177:238,1,49
243,208,130990,2,0,L|280:241,1,49,8|0,0:0|0:0,0:0:0:0:
134,293,131140,5,0,0:0:0:0:
178,170,131290,2,0,P|132:186|108:227,1,98,8|0,0:0|0:0,0:0:0:0:
355,255,131590,2,0,P|330:296|285:312,1,98,8|0,0:0|0:0,0:0:0:0:
277,156,131890,1,8,0:0:0:0:
411,181,132040,2,0,P|441:218|445:266,1,98,0|8,0:0|0:0,0:0:0:0:
340,358,132340,5,4,0:0:0:0:
221,207,132490,1,8,0:0:0:0:
244,281,132640,1,0,0:0:0:0:
298,224,132790,1,8,0:0:0:0:
197,338,132940,1,0,0:0:0:0:
277,156,133090,2,0,B|321:129|321:129|355:77,1,98,8|0,0:0|0:0,0:0:0:0:
138,36,133390,2,0,L|137:151,1,98,8|0,0:0|0:0,0:0:0:0:
260,79,133690,5,8,0:0:0:0:
141,196,133840,1,0,0:0:0:0:
203,41,133990,1,8,0:0:0:0:
197,234,134140,1,0,0:0:0:0:
137,57,134290,1,8,0:0:0:0:
212,157,134440,1,0,0:0:0:0:
212,157,134515,1,0,0:0:0:0:
212,157,134590,1,8,0:0:0:0:
321,129,134740,6,0,P|356:135|430:170,1,98,4|8,0:0|0:0,0:0:0:0:
430,314,135040,2,0,L|383:299,1,49
375,227,135190,2,0,L|421:241,1,49,8|0,0:0|0:0,0:0:0:0:
490,345,135340,2,0,P|455:377|391:367,1,98,0|8,0:0|0:0,0:0:0:0:
198,175,135640,2,0,L|151:189,1,49
143,262,135790,2,0,L|189:247,1,49,8|0,0:0|0:0,0:0:0:0:
255,127,135940,6,0,P|297:142|319:154,3,49,8|8|8|8,0:0|0:0|0:0|0:0,0:0:0:0:
143,262,136240,2,0,P|101:247|79:235,3,49,8|8|8|8,0:0|0:0|0:0|0:0,0:0:0:0:
123,141,136540,1,8,0:3:0:0:
157,142,136615,1,8,0:3:0:0:
187,158,136690,1,8,0:3:0:0:
210,182,136765,1,8,0:3:0:0:
235,204,136840,2,0,P|262:218|297:228,1,49,4|4,0:3|0:3,0:0:0:0:
345,205,136990,2,0,P|367:213|389:225,1,49,4|4,0:3|0:3,0:0:0:0:
406,290,137140,5,4,0:0:0:0:
377,108,137290,1,8,0:0:0:0:
300,152,137440,1,0,0:0:0:0:
340,44,137590,1,8,0:0:0:0:
345,205,137740,1,0,0:0:0:0:
253,72,137890,1,8,0:0:0:0:
424,176,138040,1,0,0:0:0:0:
224,139,138190,1,8,0:0:0:0:
275,284,138340,6,0,B|295:326|295:326|349:357,1,98,0|8,0:0|0:0,0:0:0:0:
163,236,138640,2,0,B|143:278|143:278|89:309,1,98,0|8,0:0|0:0,0:0:0:0:
253,72,138940,2,0,B|273:114|273:114|327:145,1,98,0|8,0:0|0:0,0:0:0:0:
165,158,139240,1,0,0:0:0:0:
334,60,139390,1,8,0:0:0:0:
376,73,139465,1,0,0:0:0:0:
413,95,139540,5,4,0:0:0:0:
348,239,139690,1,8,0:0:0:0:
435,226,139840,1,0,0:0:0:0:
377,159,139990,1,8,0:0:0:0:
407,295,140140,1,0,0:0:0:0:
457,150,140290,1,8,0:0:0:0:
304,176,140440,1,0,0:0:0:0:
503,256,140590,1,8,0:0:0:0:
282,260,140740,6,0,P|244:260|185:272,1,98,0|8,0:0|0:0,0:0:0:0:
37,202,141040,2,0,P|75:202|134:190,1,98,0|8,0:0|0:0,0:0:0:0:
320,112,141340,2,0,P|272:122|223:123,1,98,0|8,0:0|0:0,0:0:0:0:
185,271,141640,2,0,P|232:260|281:259,1,98,0|8,0:0|0:0,0:0:0:0:
443,306,141940,6,0,P|432:250|404:199,1,98,4|8,0:0|0:0,0:0:0:0:
234,53,142240,1,0,0:0:0:0:
192,64,142315,1,0,0:0:0:0:
151,79,142390,1,8,0:0:0:0:
115,103,142465,1,0,0:0:0:0:
82,132,142540,2,0,P|50:179|34:235,1,98,4|8,0:0|0:0,0:0:0:0:
286,192,142840,5,0,0:0:0:0:
329,188,142915,1,0,0:0:0:0:
367,211,142990,1,8,0:0:0:0:
383,252,143065,1,0,0:0:0:0:
376,297,143140,2,0,P|356:331|311:378,1,98,4|8,0:0|0:0,0:0:0:0:
299,60,143440,5,0,0:0:0:0:
286,192,143590,1,8,0:0:0:0:
183,72,143740,1,4,0:0:0:0:
141,218,143890,1,8,0:0:0:0:
307,125,144040,1,0,0:0:0:0:
83,127,144190,1,8,0:0:0:0:
226,226,144340,5,12,0:0:0:0:
263,249,144415,1,8,0:0:0:0:
305,260,144490,1,8,0:0:0:0:
348,253,144565,1,8,0:0:0:0:
374,217,144640,1,8,0:0:0:0:
370,173,144715,1,8,0:0:0:0:
377,129,144790,1,8,0:0:0:0:
411,102,144865,1,8,0:0:0:0:
454,105,144940,5,8,0:3:0:0:
489,131,145015,1,8,0:3:0:0:
493,174,145090,1,8,0:3:0:0:
472,213,145165,1,8,0:3:0:0:
446,248,145240,1,4,0:3:0:0:
437,291,145315,1,4,0:3:0:0:
440,334,145390,1,4,0:3:0:0:
414,370,145465,1,4,0:3:0:0:
370,375,145540,6,0,P|324:362|235:357,2,122.500004673004,4|0|0,0:0|0:0|0:0,0:0:0:0:
171,372,146290,1,0,0:0:0:0:
150,130,146740,5,12,0:0:0:0:
262,92,146890,1,0,0:0:0:0:
269,111,146965,1,0,0:0:0:0:
276,129,147040,1,10,0:0:0:0:
180,46,147190,1,0,0:0:0:0:
232,205,147340,1,10,0:0:0:0:
332,38,147490,1,0,0:0:0:0:
343,183,147640,1,10,0:0:0:0:
258,17,147790,1,0,0:0:0:0:
150,130,147940,6,0,P|121:193|135:263,1,137.199995812988,14|0,0:0|0:0,0:0:0:0:
333,316,148240,1,10,0:0:0:0:
232,205,148390,1,0,0:0:0:0:
42,301,148540,1,10,0:0:0:0:
26,133,148690,1,0,0:0:0:0:
223,291,148840,1,10,0:0:0:0:
223,291,148915,1,0,0:0:0:0:
223,291,148990,1,0,0:0:0:0:
297,122,149140,6,0,P|344:135|433:120,1,137.199995812988,14|0,0:0|0:0,0:0:0:0:
219,26,149440,1,10,0:0:0:0:
356,38,149590,1,0,0:0:0:0:
181,140,149740,1,10,0:0:0:0:
319,214,149890,1,0,0:0:0:0:
119,262,150040,1,10,0:0:0:0:
136,291,150115,1,0,0:0:0:0:
163,311,150190,1,0,0:0:0:0:
193,326,150265,1,0,0:0:0:0:
227,328,150340,6,0,P|286:322|366:331,1,137.199995812988,14|0,0:0|0:0,0:0:0:0:
501,368,150640,2,0,P|472:317|468:229,1,137.199995812988,10|0,0:0|0:0,0:0:0:0:
376,15,150940,2,0,P|405:66|409:154,1,137.199995812988,10|0,0:0|0:0,0:0:0:0:
284,174,151240,5,8,0:3:0:0:
268,204,151315,1,8,0:3:0:0:
262,237,151390,1,4,0:3:0:0:
266,271,151465,1,4,0:3:0:0:
281,301,151540,2,0,P|258:323|144:342,1,137.199995812988,12|0,0:0|0:0,0:0:0:0:
94,255,151840,5,10,0:0:0:0:
93,213,151915,1,0,0:0:0:0:
112,176,151990,1,0,0:0:0:0:
327,25,152140,1,10,0:0:0:0:
334,64,152215,1,0,0:0:0:0:
336,105,152290,1,0,0:0:0:0:
151,95,152440,1,10,0:0:0:0:
130,59,152515,1,0,0:0:0:0:
125,18,152590,1,0,0:0:0:0:
295,190,152740,6,0,P|259:225|180:198,1,137.199995812988,14|0,0:0|0:0,0:0:0:0:
396,175,153040,1,10,0:0:0:0:
390,214,153115,1,0,0:0:0:0:
371,251,153190,1,0,0:0:0:0:
240,302,153340,2,0,P|190:295|116:234,1,137.199995812988,10|0,0:0|0:0,0:0:0:0:
236,165,153640,1,10,0:0:0:0:
301,320,153790,1,0,0:0:0:0:
314,151,153940,6,0,P|306:118|359:25,1,137.199995812988,14|0,0:0|0:0,0:0:0:0:
389,213,154240,1,10,0:0:0:0:
448,97,154390,2,0,B|392:73|315:110|315:110|252:139|169:106,1,274.399991625977,4|0,0:0|0:0,0:0:0:0:
70,28,154840,5,14,0:0:0:0:
175,27,154990,1,0,0:0:0:0:
118,126,155140,1,10,0:0:0:0:
251,50,155290,1,4,0:0:0:0:
243,192,155440,1,10,0:0:0:0:
327,80,155590,1,0,0:0:0:0:
349,211,155740,5,12,0:0:0:0:
386,227,155815,1,8,0:0:0:0:
414,256,155890,1,8,0:0:0:0:
427,294,155965,1,8,0:0:0:0:
425,335,156040,2,0,P|393:344|343:351,1,68.5999979064942,4|4,0:3|0:3,0:0:0:0:
283,289,156190,2,0,P|249:294|216:303,1,68.5999979064942,4|4,0:3|0:3,0:0:0:0:
175,380,156340,5,12,0:0:0:0:
201,117,156640,1,10,0:0:0:0:
124,195,156790,1,0,0:0:0:0:
232,213,156940,1,10,0:0:0:0:
103,104,157090,1,0,0:0:0:0:
170,271,157240,1,10,0:0:0:0:
299,134,157390,1,0,0:0:0:0:
342,288,157540,6,0,P|393:286|472:235,1,137.199995812988,14|0,0:0|0:0,0:0:0:0:
475,75,157840,1,10,0:0:0:0:
392,146,157990,1,0,0:0:0:0:
494,184,158140,1,10,0:0:0:0:
373,53,158290,1,0,0:0:0:0:
268,192,158440,1,10,0:0:0:0:
431,222,158590,1,0,0:0:0:0:
411,249,158665,1,0,0:0:0:0:
382,268,158740,6,0,P|326:295|243:301,1,137.199995812988,14|0,0:0|0:0,0:0:0:0:
79,168,159040,1,10,0:0:0:0:
123,273,159190,1,0,0:0:0:0:
181,111,159340,1,10,0:0:0:0:
268,192,159490,1,0,0:0:0:0:
51,244,159640,1,10,0:0:0:0:
46,278,159715,1,0,0:0:0:0:
55,312,159790,1,0,0:0:0:0:
78,338,159865,1,0,0:0:0:0:
111,350,159941,6,0,P|179:353|247:343,1,137.199995812988,14|0,0:0|0:0,0:0:0:0:
397,190,160240,1,10,0:0:0:0:
268,192,160390,1,0,0:0:0:0:
382,268,160540,1,10,0:0:0:0:
328,141,160690,1,0,0:0:0:0:
296,266,160840,1,10,0:3:0:0:
301,299,160915,1,8,0:3:0:0:
315,330,160990,1,4,0:3:0:0:
343,349,161065,1,4,0:3:0:0:
376,357,161140,1,4,0:0:0:0:
161,127,161440,5,10,0:0:0:0:
178,171,161515,1,0,0:0:0:0:
213,203,161590,1,0,0:0:0:0:
445,202,161740,1,10,0:0:0:0:
428,156,161815,1,0,0:0:0:0:
393,122,161890,1,0,0:0:0:0:
310,314,162040,1,10,0:0:0:0:
348,343,162115,1,0,0:0:0:0:
394,353,162190,1,0,0:0:0:0:
350,241,162340,6,0,P|289:233|228:305,1,137.199995812988,14|0,0:0|0:0,0:0:0:0:
310,314,162640,1,10,0:0:0:0:
297,167,162790,2,0,B|207:175|170:256|170:256|127:206|53:201,1,274.399991625977
67,309,163240,1,10,0:0:0:0:
137,123,163390,1,0,0:0:0:0:
234,279,163540,5,12,0:0:0:0:
267,303,163615,1,8,0:0:0:0:
307,307,163690,1,8,0:0:0:0:
347,300,163765,1,8,0:0:0:0:
376,270,163840,2,0,P|396:228|403:194,3,68.5999979064942,8|8|8|8,0:0|0:0|0:0|0:0,0:0:0:0:
368,129,164140,1,8,0:3:0:0:
461,245,164290,1,8,0:3:0:0:
417,66,164440,1,4,0:3:0:0:
315,209,164590,1,4,0:3:0:0:
499,120,164740,5,12,0:0:0:0:
154,73,165040,1,8,0:0:0:0:
412,238,165340,1,8,0:0:0:0:
68,164,165640,1,8,0:0:0:0:
341,124,165940,6,0,P|332:166|315:193,3,68.5999979064942,14|0|8|0,0:0|0:0|0:0|0:0,0:0:0:0:
233,160,166240,2,0,P|216:190|211:223,3,68.5999979064942,10|0|8|0,0:0|0:0|0:0|0:0,0:0:0:0:
275,288,166540,1,10,0:0:0:0:
240,310,166615,1,0,0:0:0:0:
198,312,166690,1,8,0:0:0:0:
159,296,166765,1,0,0:0:0:0:
131,265,166840,1,10,0:0:0:0:
121,217,166915,1,0,0:0:0:0:
109,170,166990,1,8,0:0:0:0:
78,132,167065,1,0,0:0:0:0:
30,125,167140,5,14,0:0:0:0:
29,179,167215,1,0,0:0:0:0:
66,219,167290,1,8,0:0:0:0:
121,217,167365,1,0,0:0:0:0:
165,184,167440,1,10,0:0:0:0:
212,156,167515,1,0,0:0:0:0:
266,148,167590,1,8,0:0:0:0:
320,157,167665,1,0,0:0:0:0:
366,185,167740,2,0,P|388:211|406:253,3,68.5999979064942,10|0|8|0,0:0|0:0|0:0|0:0,0:0:0:0:
356,329,168040,2,0,P|333:302|319:272,3,68.5999979064942,10|0|8|0,0:0|0:0|0:0|0:0,0:0:0:0:
512,234,168340,6,0,P|497:267|452:291,1,68.5999979064942,14|0,0:0|0:0,0:0:0:0:
396,268,168490,2,0,P|411:235|456:211,1,68.5999979064942,8|0,0:0|0:0,0:0:0:0:
512,285,168640,2,0,P|484:309|434:312,1,68.5999979064942,10|0,0:0|0:0,0:0:0:0:
383,222,168790,2,0,P|410:197|460:194,1,68.5999979064942,8|0,0:0|0:0,0:0:0:0:
481,344,168940,5,10,0:0:0:0:
461,350,169015,1,0,0:0:0:0:
440,352,169090,1,8,0:0:0:0:
419,348,169165,1,0,0:0:0:0:
399,340,169240,1,10,0:0:0:0:
381,328,169315,1,0,0:0:0:0:
362,319,169390,2,0,L|302:282,1,68.5999979064942,8|0,0:0|0:0,0:0:0:0:
199,292,169540,6,0,B|201:211|277:184|277:184|290:100,1,205.799993719483,14|0,0:0|0:0,0:0:0:0:
237,33,169840,2,0,P|248:82|378:44,1,205.799993719483,14|0,0:0|0:0,0:0:0:0:
303,34,170140,1,14,0:0:0:0:
186,129,170290,1,8,0:0:0:0:
313,46,170440,1,14,0:0:0:0:
177,106,170590,1,8,0:0:0:0:
300,218,170740,5,14,0:0:0:0:
340,230,170815,1,0,0:0:0:0:
382,233,170890,1,8,0:0:0:0:
423,228,170965,1,0,0:0:0:0:
456,216,171040,1,10,0:0:0:0:
480,192,171115,1,0,0:0:0:0:
496,161,171190,2,0,P|495:134|478:93,1,68.5999979064942,8|0,0:0|0:0,0:0:0:0:
408,43,171340,5,10,0:0:0:0:
410,84,171415,1,0,0:0:0:0:
391,120,171490,1,8,0:0:0:0:
352,135,171565,1,0,0:0:0:0:
311,128,171640,1,10,0:0:0:0:
277,103,171715,1,0,0:0:0:0:
236,96,171790,1,8,0:0:0:0:
195,104,171865,1,0,0:0:0:0:
159,123,171940,6,0,P|123:158|104:194,3,68.5999979064942,14|0|8|0,0:0|0:0|0:0|0:0,0:0:0:0:
62,294,172240,2,0,P|15:276|-17:251,3,68.5999979064942,10|0|8|0,0:0|0:0|0:0|0:0,0:0:0:0:
61,120,172540,2,0,P|14:138|-18:163,3,68.5999979064942,10|0|8|0,0:0|0:0|0:0|0:0,0:0:0:0:
114,242,172840,2,0,P|81:231|52:214,3,68.5999979064942,10|0|8|0,0:0|0:0|0:0|0:0,0:0:0:0:
192,198,173140,6,0,P|221:227|241:259,1,68.5999979064942,14|0,0:0|0:0,0:0:0:0:
237,384,173290,2,0,P|266:354|286:322,1,68.5999979064942,8|0,0:0|0:0,0:0:0:0:
290,195,173440,2,0,P|310:230|321:267,1,58.7999982055665,10|0,0:0|0:0,0:0:0:0:
352,361,173590,2,0,P|372:325|383:288,1,58.7999982055665,8|0,0:0|0:0,0:0:0:0:
378,195,173740,2,0,P|389:234|390:272,1,49,10|0,0:0|0:0,0:0:0:0:
442,345,173890,2,0,P|453:305|453:267,1,49,8|0,0:0|0:0,0:0:0:0:
442,189,174040,2,0,P|450:229|449:267,1,49,10|0,0:0|0:0,0:0:0:0:
512,262,174190,2,0,P|512:220|503:183,1,49,8|0,0:0|0:0,0:0:0:0:
479,116,174340,5,14,0:0:0:0:
445,120,174415,1,0,0:0:0:0:
410,118,174490,2,0,P|374:114|328:95,1,68.5999979064942
264,46,174640,5,10,0:0:0:0:
260,73,174715,1,0,0:0:0:0:
251,99,174790,2,0,P|241:125|221:162,1,58.7999982055665
131,181,174940,5,10,0:0:0:0:
147,185,175015,1,0,0:0:0:0:
161,189,175090,2,0,P|184:201|205:218,1,49
258,261,175240,2,0,P|206:288|151:266,1,117.599996411133,10|8,0:0|0:0,0:0:0:0:
181,83,175540,6,0,P|212:80|248:85,3,68.5999979064942,12|8|8|8,0:0|0:0|0:0|0:0,0:0:0:0:
284,146,175840,2,0,P|317:151|351:148,3,68.5999979064942,8|8|8|8,0:0|0:0|0:0|0:0,0:0:0:0:
397,72,176140,1,8,0:3:0:0:
445,73,176215,1,8,0:3:0:0:
484,100,176290,1,8,0:3:0:0:
495,146,176365,1,8,0:3:0:0:
479,191,176440,5,4,0:3:0:0:
424,192,176515,1,4,0:3:0:0:
375,218,176590,1,4,0:3:0:0:
334,255,176665,1,4,0:3:0:0:
324,309,176740,5,12,0:0:0:0:
271,293,176815,1,8,0:0:0:0:
216,296,176890,1,8,0:0:0:0:
165,316,176965,1,8,0:0:0:0:
123,351,177040,5,8,0:0:0:0:
78,333,177115,1,8,0:0:0:0:
49,294,177190,1,8,0:0:0:0:
42,246,177265,1,8,0:0:0:0:
54,199,177340,5,8,0:3:0:0:
94,190,177415,1,8,0:3:0:0:
132,176,177490,1,8,0:3:0:0:
165,152,177565,1,8,0:3:0:0:
182,130,177640,5,4,0:3:0:0:
192,104,177715,1,4,0:3:0:0:
192,83,177790,1,4,0:3:0:0:
186,70,177865,1,4,0:3:0:0:
178,63,177940,1,4,0:0:0:0:
256,192,178015,12,0,182740,0:0:0:0:
189,128,187540,5,4,0:0:0:0:
189,128,191140,5,8,0:0:0:0:
232,253,191290,1,8,0:0:0:0:
267,103,191590,5,8,0:0:0:0:
307,216,191740,1,8,0:0:0:0:
351,80,192040,5,8,0:0:0:0:
384,161,192190,1,8,0:0:0:0:
436,66,192340,6,0,P|488:124|489:205,1,147.000005607605,4|0,0:0|0:0,0:0:0:0:
450,291,192790,2,0,P|415:266|306:277,1,147.000005607605
242,376,193240,2,0,B|257:340|244:304|244:304|230:268|250:228,1,147.000005607605
340,162,193690,2,0,P|304:122|190:90,1,147.000005607605
105,181,194140,6,0,L|200:176,1,73.5000028038026,8|0,0:0|0:0,0:0:0:0:
247,232,194440,1,0,0:0:0:0:
218,89,194590,2,0,L|313:84,1,73.5000028038026
356,135,194890,1,0,0:0:0:0:
406,18,195040,6,0,L|501:13,1,73.5000028038026
356,135,195340,2,0,L|282:138,1,73.5000028038026,8|0,0:0|0:0,0:0:0:0:
399,235,195640,2,0,P|417:275|445:305,1,73.5000028038026
488,224,195940,5,0,0:0:0:0:
436,171,196090,1,0,0:0:0:0:
399,235,196240,1,0,0:0:0:0:
346,183,196390,1,0,0:0:0:0:
159,118,196690,5,8,0:0:0:0:
233,148,196840,1,8,0:0:0:0:
111,181,196990,2,0,L|26:206,1,73.5000028038026,8|0,0:0|0:0,0:0:0:0:
217,56,197290,5,0,0:0:0:0:
288,38,197440,1,0,0:0:0:0:
340,89,197590,1,0,0:0:0:0:
315,158,197740,1,8,0:0:0:0:
168,249,198040,5,0,0:0:0:0:
201,314,198190,2,0,L|286:319,1,73.5000028038026,0|0,0:0|0:0,0:0:0:0:
315,158,198490,1,0,0:0:0:0:
348,223,198640,2,0,L|433:228,1,73.5000028038026,0|0,0:0|0:0,0:0:0:0:
512,119,198940,1,8,0:0:0:0:
479,54,199090,2,0,L|394:49,1,73.5000028038026
373,65,199315,5,0,0:0:0:0:
335,88,199390,1,0,0:0:0:0:
292,95,199465,1,0,0:0:0:0:
247,93,199540,1,0,0:0:0:0:
204,85,199615,1,0,0:0:0:0:
163,70,199690,1,0,0:0:0:0:
130,41,199765,1,0,0:0:0:0:
104,8,199840,5,0,0:0:0:0:
88,49,199915,1,0,0:0:0:0:
78,84,199990,1,0,0:0:0:0:
58,114,200065,1,0,0:0:0:0:
45,144,200140,2,0,P|39:186|55:224,1,73.5000028038026,8|0,0:0|0:0,0:0:0:0:
133,238,200440,2,0,L|171:237,5,24.5000009346009
184,202,200740,5,8,0:0:0:0:
244,295,200890,2,0,L|331:294,1,73.5000028038026,8|0,0:0|0:0,0:0:0:0:
237,142,201190,1,8,0:0:0:0:
328,204,201340,2,0,L|415:205,1,73.5000028038026,8|0,0:0|0:0,0:0:0:0:
299,91,201640,1,8,0:0:0:0:
374,119,201790,1,8,0:0:0:0:
252,11,201940,6,0,P|215:27|169:32,1,73.5000028038026
75,154,202240,1,0,0:0:0:0:
185,276,202390,2,0,P|243:263|354:275,1,147.000005607605,0|0,0:0|0:0,0:0:0:0:
423,306,202840,2,0,B|417:287|422:269|422:269|427:250|421:230,1,73.5000028038026
329,172,203140,1,0,0:0:0:0:
441,98,203290,2,0,P|409:116|373:118,1,73.5000028038026
258,115,203590,1,0,0:0:0:0:
342,243,203740,6,0,P|306:241|275:223,1,73.5000028038026,8|0,0:0|0:0,0:0:0:0:
373,118,204040,1,0,0:0:0:0:
422,233,204190,1,0,0:0:0:0:
329,172,204340,1,0,0:0:0:0:
263,297,204490,1,0,0:0:0:0:
155,175,204640,2,0,P|123:193|103:223,1,73.5000028038026
186,257,204940,5,8,0:0:0:0:
52,124,205090,1,0,0:0:0:0:
122,14,205240,2,0,P|140:46|170:66,1,73.5000028038026
304,49,205540,6,0,B|313:110|277:150|277:150|297:168|303:191,2,147.000005607605
171,67,206440,2,0,P|145:117|155:204,1,147.000005607605,0|0,0:0|0:0,0:0:0:0:
277,262,206890,5,2,0:0:0:0:
203,263,207040,1,0,0:0:0:0:
239,198,207190,1,0,0:0:0:0:
239,329,207340,1,10,0:0:0:0:
328,138,207640,5,0,0:0:0:0:
375,264,207790,1,2,0:0:0:0:
460,61,208090,5,2,0:0:0:0:
445,186,208240,1,2,0:0:0:0:
200,49,208540,5,8,0:0:0:0:
258,168,208690,1,0,0:0:0:0:
282,84,208840,1,0,0:0:0:0:
187,164,208990,1,2,0:0:0:0:
335,140,209140,5,0,0:0:0:0:
350,169,209215,1,0,0:0:0:0:
358,201,209290,1,2,0:0:0:0:
359,234,209365,1,0,0:0:0:0:
348,265,209440,1,0,0:0:0:0:
322,286,209515,1,0,0:0:0:0:
289,291,209590,1,0,0:0:0:0:
257,280,209665,1,0,0:0:0:0:
224,272,209740,2,0,P|190:269|170:273,3,36.7500014019013,8|0|0|0,0:0|0:0|0:0|0:0,0:0:0:0:
140,332,210040,2,0,P|121:332|103:329,3,36.7500014019013,8|8|8|8,0:3|0:3|0:3|0:3,0:0:0:0:
40,282,210340,5,4,0:3:0:0:
78,256,210415,1,4,0:3:0:0:
87,211,210490,1,4,0:3:0:0:
70,167,210565,1,4,0:3:0:0:
37,135,210640,1,4,0:3:0:0:
31,88,210715,1,4,0:3:0:0:
52,47,210790,2,0,P|69:31|89:20,1,36.7500014019013,4|4,0:3|0:3,0:0:0:0:
164,0,210940,5,8,0:0:0:0:
180,39,211015,1,0,0:0:0:0:
212,70,211090,1,8,0:3:0:0:
248,96,211165,1,0,0:0:0:0:
289,107,211240,2,0,P|327:114|372:108,1,73.5000028038026,4|4,0:3|0:3,0:0:0:0:
456,59,211540,5,4,0:0:0:0:
400,167,211690,1,0,0:0:0:0:
376,40,211840,1,0,0:0:0:0:
495,160,211990,2,0,L|501:252,1,73.5000028038026,0|10,0:0|0:0,0:0:0:0:
400,167,212290,1,0,0:0:0:0:
342,234,212440,2,0,L|336:326,1,73.5000028038026
451,338,212740,6,0,B|400:315|342:331|342:331|279:351|229:332,1,220.500008411408,2|0,0:0|0:0,0:0:0:0:
193,233,213340,1,10,0:0:0:0:
66,327,213490,1,0,0:0:0:0:
55,180,213640,1,2,0:0:0:0:
130,279,213790,2,0,P|158:301|209:308,1,73.5000028038026,8|0,0:0|0:0,0:0:0:0:
225,127,214090,5,8,0:0:0:0:
260,208,214240,1,2,0:0:0:0:
285,70,214390,2,0,P|255:50|204:46,1,73.5000028038026,0|8,0:0|0:0,0:0:0:0:
169,194,214690,5,0,0:0:0:0:
310,140,214840,1,2,0:0:0:0:
141,117,214990,1,8,0:0:0:0:
330,200,215140,5,2,0:0:0:0:
366,200,215215,1,0,0:0:0:0:
405,194,215290,1,0,0:0:0:0:
437,169,215365,1,0,0:0:0:0:
451,131,215440,1,2,0:0:0:0:
467,168,215515,1,0,0:0:0:0:
472,208,215590,1,0,0:0:0:0:
471,244,215665,1,0,0:0:0:0:
450,274,215740,2,0,P|421:294|397:302,3,36.7500014019013,8|0|0|0,0:0|0:0|0:0|0:0,0:0:0:0:
356,268,216040,2,0,P|339:276|325:288,3,36.7500014019013,2|0|0|0,0:0|0:0|0:0|0:0,0:0:0:0:
357,362,216340,6,0,P|299:353|245:353,1,110.250004205704,6|0,0:0|0:0,0:0:0:0:
188,368,216640,1,2,0:0:0:0:
152,359,216715,1,0,0:0:0:0:
123,335,216790,1,0,0:0:0:0:
113,299,216865,1,0,0:0:0:0:
125,264,216940,5,10,0:0:0:0:
127,227,217015,1,0,0:0:0:0:
115,192,217090,1,0,0:0:0:0:
117,155,217165,1,0,0:0:0:0:
140,127,217240,2,0,P|172:105|216:91,1,73.5000028038026,2|0,0:0|0:0,0:0:0:0:
308,186,217540,6,0,P|334:186|359:179,3,36.7500014019013,2|0|0|0,0:0|0:0|0:0|0:0,0:0:0:0:
338,100,217840,2,0,P|364:100|389:107,3,36.7500014019013,2|0|0|0,0:0|0:0|0:0|0:0,0:0:0:0:
424,146,218140,1,10,0:0:0:0:
204,93,218290,1,0,0:0:0:0:
266,234,218440,2,0,P|314:247|354:244,1,73.5000028038026,2|0,0:0|0:0,0:0:0:0:
338,100,218740,5,10,0:0:0:0:
446,221,218890,1,8,0:0:0:0:
424,146,219040,1,0,0:0:0:0:
337,246,219190,1,8,0:0:0:0:
211,257,219340,2,0,P|162:225|141:201,1,73.5000028038026,8|8,0:0|0:3,0:0:0:0:
204,93,219640,5,8,0:3:0:0:
113,269,219790,1,4,0:3:0:0:
143,134,219940,1,4,0:3:0:0:
211,257,220090,1,4,0:3:0:0:
323,321,220240,2,0,P|358:308|395:280,1,73.5000028038026,8|4,0:0|0:3,0:0:0:0:
408,151,220540,5,8,0:0:0:0:
338,236,220690,1,8,0:3:0:0:
446,254,220840,1,4,0:3:0:0:
446,254,220990,1,4,0:3:0:0:
321,165,221140,5,12,0:0:0:0:
123,162,221440,1,8,0:0:0:0:
305,65,221740,2,0,L|323:96,3,36.7500014019013,8|8|8|8,0:0|0:0|0:0|0:0,0:0:0:0:
321,165,222040,2,0,L|302:196,3,36.7500014019013,8|8|8|8,0:0|0:0|0:0|0:0,0:0:0:0:
192,173,222340,5,4,0:0:0:0:
149,184,222415,1,0,0:0:0:0:
119,215,222490,1,8,0:0:0:0:
107,257,222565,1,0,0:0:0:0:
118,299,222640,1,0,0:0:0:0:
148,330,222715,1,0,0:0:0:0:
190,342,222790,1,8,0:0:0:0:
233,332,222865,1,0,0:0:0:0:
264,309,222940,2,0,B|302:283|348:288|348:288|390:293|428:258,1,176.399994616699
431,232,223315,1,0,0:0:0:0:
431,232,223390,1,8,0:0:0:0:
512,107,223540,5,0,0:0:0:0:
512,107,223615,1,0,0:0:0:0:
512,107,223690,2,0,P|464:111|444:106,1,44.0999986541748,8|0,0:0|0:0,0:0:0:0:
369,49,223840,1,0,0:0:0:0:
369,49,223915,1,0,0:0:0:0:
369,49,223990,2,0,P|346:48|326:53,1,44.0999986541748,8|0,0:0|0:0,0:0:0:0:
267,179,224140,5,0,0:0:0:0:
223,188,224215,1,0,0:0:0:0:
179,182,224290,1,8,0:0:0:0:
143,155,224365,1,0,0:0:0:0:
127,113,224440,2,0,P|167:120|220:115,1,88.1999973083497,0|8,0:0|0:0,0:0:0:0:
172,3,224740,5,0,0:0:0:0:
63,153,224890,1,8,0:0:0:0:
67,187,224965,1,0,0:0:0:0:
83,217,225040,1,0,0:0:0:0:
114,232,225115,1,0,0:0:0:0:
149,231,225190,1,8,0:0:0:0:
183,239,225265,1,0,0:0:0:0:
210,260,225340,2,0,P|228:288|237:311,3,44.0999986541748,0|0|8|0,0:0|0:0|0:0|0:0,0:0:0:0:
185,349,225640,2,0,P|226:343|281:351,1,88.1999973083497,0|8,0:0|0:0,0:0:0:0:
467,376,225940,6,0,L|444:320,1,44.0999986541748
409,249,226090,1,8,0:0:0:0:
381,352,226240,1,0,0:0:0:0:
485,218,226390,1,8,0:0:0:0:
324,284,226540,2,0,P|284:289|220:277,1,88.1999973083497,0|8,0:0|0:0,0:0:0:0:
78,212,226840,2,0,P|118:217|182:205,1,88.1999973083497,0|8,0:0|0:0,0:0:0:0:
290,142,227140,5,4,0:0:0:0:
259,142,227215,1,0,0:0:0:0:
228,136,227290,1,8,0:0:0:0:
199,123,227365,1,0,0:0:0:0:
183,96,227440,2,0,P|176:71|175:51,3,44.0999986541748,0|0|8|0,0:0|0:0|0:0|0:0,0:0:0:0:
290,142,227740,2,0,P|288:163|282:185,3,44.0999986541748,0|0|8|0,0:0|0:0|0:0|0:0,0:0:0:0:
152,168,228040,6,0,P|124:169|94:176,1,44.0999986541748,0|0,0:0|0:0,0:0:0:0:
130,253,228190,2,0,P|110:273|94:299,1,44.0999986541748,8|0,0:0|0:0,0:0:0:0:
188,317,228340,1,0,0:0:0:0:
203,343,228415,1,0,0:0:0:0:
231,354,228490,1,8,0:0:0:0:
260,345,228565,1,0,0:0:0:0:
280,321,228640,1,0,0:0:0:0:
305,303,228715,1,0,0:0:0:0:
333,290,228790,1,8,0:0:0:0:
363,286,228865,1,0,0:0:0:0:
393,286,228940,2,0,P|411:289|440:302,3,44.0999986541748,0|0|8|0,0:0|0:0|0:0|0:0,0:0:0:0:
435,201,229240,2,0,P|449:212|467:238,3,44.0999986541748,8|8|8|8,0:3|0:3|0:3|0:3,0:0:0:0:
470,124,229540,5,8,0:0:0:0:
435,104,229615,1,4,0:3:0:0:
396,92,229690,1,4,0:3:0:0:
356,91,229765,1,4,0:3:0:0:
325,108,229840,1,8,0:0:0:0:
292,120,229915,1,4,0:3:0:0:
256,121,229990,1,4,0:3:0:0:
221,113,230065,1,4,0:3:0:0:
192,91,230140,6,0,L|136:46,2,58.7999982055665,8|8|8,0:0|0:3|0:3,0:0:0:0:
203,172,230440,2,0,L|259:217,2,58.7999982055665,8|4|4,0:0|0:3|0:3,0:0:0:0:
104,158,230740,5,8,0:0:0:0:
65,167,230815,1,8,0:3:0:0:
34,192,230890,1,8,0:3:0:0:
15,227,230965,1,8,0:3:0:0:
13,267,231040,1,8,0:0:0:0:
28,304,231115,1,4,0:3:0:0:
56,332,231190,1,4,0:3:0:0:
94,346,231265,1,4,0:3:0:0:
133,342,231340,6,0,L|231:307,1,88.1999973083497,8|8,0:0|0:0,0:0:0:0:
328,200,231640,1,8,0:0:0:0:
194,248,231790,1,8,0:0:0:0:
399,328,231940,2,0,B|418:289|418:289|394:251|394:251|421:211|401:160|401:160|416:107,1,235.199992822266,4|0,0:0|0:0,0:0:0:0:
415,110,232390,1,8,0:0:0:0:
243,147,232540,5,0,0:0:0:0:
410,210,232690,1,8,0:0:0:0:
316,72,232840,1,0,0:0:0:0:
328,200,232990,1,8,0:0:0:0:
224,65,233140,5,0,0:0:0:0:
191,52,233215,1,0,0:0:0:0:
155,48,233290,2,0,P|124:48|87:55,1,58.7999982055665,8|0,0:0|0:0,0:0:0:0:
56,147,233440,1,0,0:0:0:0:
240,7,233590,1,8,0:0:0:0:
145,191,233740,6,0,B|171:195|191:169|191:169|223:201|223:201|279:142|339:212,1,220.500008411408
321,275,234040,1,0,0:0:0:0:
321,275,234115,2,0,P|356:277|392:256,1,58.7999982055665,0|8,0:0|0:0,0:0:0:0:
356,103,234340,6,0,P|421:60|321:53,1,235.199992822266,4|0,0:0|0:0,0:0:0:0:
323,39,234790,1,8,0:0:0:0:
428,180,234940,1,0,0:0:0:0:
263,108,235090,1,8,0:0:0:0:
334,204,235240,1,0,0:0:0:0:
323,39,235390,1,8,0:0:0:0:
224,200,235540,5,0,0:0:0:0:
137,26,235690,1,8,0:0:0:0:
78,204,235840,2,0,P|77:233|66:274,1,58.7999982055665,0|0,0:0|0:0,0:0:0:0:
0,112,235990,2,0,P|1:80|10:42,1,58.7999982055665,8|0,0:0|0:0,0:0:0:0:
153,235,236140,5,0,0:0:0:0:
68,42,236290,1,8,0:0:0:0:
8,271,236440,1,0,0:0:0:0:
208,145,236590,1,8,0:0:0:0:
254,138,236665,1,0,0:0:0:0:
300,141,236740,6,0,B|366:149|385:204|385:204|480:202|502:299|452:339|416:339|386:292|401:262,1,352.799989233399,4|8,0:0|0:0,0:0:0:0:
428,143,237340,2,0,P|367:94|257:79,2,176.399994616699
313,204,237940,2,0,B|256:204|256:204|212:233|172:204|172:204|80:204,1,235.199992822266
165,282,238390,1,8,0:0:0:0:
214,152,238540,2,0,B|221:118|240:86|240:86|187:88|151:61|151:61|116:79|76:70,1,235.199992822266
83,71,238990,1,8,0:0:0:0:
143,207,239140,5,8,0:0:0:0:
182,218,239215,1,0,0:0:0:0:
223,215,239290,1,0,0:0:0:0:
264,209,239365,1,0,0:0:0:0:
305,207,239440,1,8,0:0:0:0:
333,217,239515,1,0,0:0:0:0:
359,228,239590,1,0,0:0:0:0:
385,239,239665,1,0,0:0:0:0:
411,251,239740,5,8,0:0:0:0:
421,211,239815,1,8,0:3:0:0:
436,173,239890,1,8,0:3:0:0:
459,138,239965,1,8,0:3:0:0:
489,110,240040,5,8,0:0:0:0:
442,101,240115,1,4,0:3:0:0:
396,88,240190,1,4,0:3:0:0:
361,55,240265,1,4,0:3:0:0:
330,19,240340,6,0,P|308:18|259:23,3,58.7999982055665,8|8|8|8,0:0|0:3|0:3|0:3,0:0:0:0:
249,112,240640,2,0,P|219:114|190:113,3,58.7999982055665,8|4|4|4,0:0|0:3|0:3|0:3,0:0:0:0:
155,37,240940,5,8,0:0:0:0:
115,49,241015,1,8,0:3:0:0:
81,73,241090,1,8,0:3:0:0:
67,112,241165,1,8,0:3:0:0:
69,153,241240,1,8,0:0:0:0:
89,188,241315,1,4,0:3:0:0:
125,207,241390,1,4,0:3:0:0:
154,235,241465,1,4,0:3:0:0:
163,275,241540,6,0,P|165:306|162:335,1,58.7999982055665,4|0,0:0|0:0,0:0:0:0:
88,275,241690,1,8,0:0:0:0:
288,182,241840,1,0,0:0:0:0:
236,303,241990,2,0,P|234:334|237:363,1,58.7999982055665,8|0,0:0|0:0,0:0:0:0:
343,305,242140,1,0,0:0:0:0:
95,365,242290,1,8,0:0:0:0:
343,305,242440,5,0,0:0:0:0:
343,305,242515,1,0,0:0:0:0:
343,305,242590,1,8,0:0:0:0:
128,253,242740,1,0,0:0:0:0:
322,211,242890,1,8,0:0:0:0:
322,211,242965,1,0,0:0:0:0:
322,211,243040,1,0,0:0:0:0:
199,164,243190,1,8,0:0:0:0:
415,141,243340,6,0,P|415:165|406:202,1,58.7999982055665,0|0,0:0|0:0,0:0:0:0:
295,304,243490,2,0,P|295:280|304:243,1,58.7999982055665,8|0,0:0|0:0,0:0:0:0:
446,180,243640,1,0,0:0:0:0:
264,273,243790,1,8,0:0:0:0:
504,275,243940,6,0,P|448:289|389:261,1,117.599996411133,4|8,0:0|0:0,0:0:0:0:
259,133,244240,2,0,P|261:191|246:250,1,117.599996411133,0|8,0:0|0:0,0:0:0:0:
15,268,244540,1,0,0:0:0:0:
40,292,244615,1,0,0:0:0:0:
75,292,244690,1,8,0:0:0:0:
105,275,244765,1,0,0:0:0:0:
121,243,244840,2,0,P|122:301|108:358,1,117.599996411133,0|8,0:0|0:0,0:0:0:0:
221,325,245140,5,0,0:0:0:0:
251,297,245215,1,0,0:0:0:0:
289,282,245290,1,8,0:0:0:0:
329,286,245365,1,0,0:0:0:0:
369,293,245440,1,0,0:0:0:0:
360,252,245515,1,0,0:0:0:0:
371,212,245590,1,8,0:0:0:0:
449,124,245740,5,0,0:0:0:0:
409,134,245815,1,0,0:0:0:0:
368,126,245890,1,8,0:0:0:0:
335,101,245965,1,0,0:0:0:0:
318,63,246040,1,0,0:0:0:0:
290,93,246115,1,0,0:0:0:0:
250,104,246190,1,8,0:0:0:0:
115,55,246340,6,0,P|141:125|110:279,1,235.199992822266,4|0,0:0|0:0,0:0:0:0:
46,195,246790,1,8,0:0:0:0:
51,374,246940,1,0,0:0:0:0:
110,278,247090,1,8,0:0:0:0:
163,377,247240,1,0,0:0:0:0:
216,185,247390,6,0,P|202:253|181:302,1,117.599996411133,8|0,0:0|0:0,0:0:0:0:
13,82,247690,2,0,P|27:150|48:199,1,117.599996411133,8|0,0:0|0:0,0:0:0:0:
168,62,247990,2,0,B|172:85|162:129|162:129|214:88|271:126,1,176.399994616699,8|0,0:0|0:0,0:0:0:0:
288,154,248290,1,8,0:0:0:0:
406,109,248440,1,0,0:0:0:0:
411,210,248590,1,8,0:0:0:0:
288,154,248740,5,12,0:0:0:0:
237,171,248815,1,0,0:0:0:0:
184,168,248890,1,0,0:0:0:0:
135,186,248965,1,0,0:0:0:0:
106,230,249040,1,8,0:0:0:0:
111,282,249115,1,0,0:0:0:0:
156,309,249190,1,0,0:0:0:0:
208,304,249265,1,0,0:0:0:0:
254,278,249340,5,8,0:0:0:0:
300,268,249415,1,8,0:3:0:0:
345,278,249490,1,8,0:3:0:0:
378,301,249565,1,8,0:3:0:0:
415,318,249640,1,8,0:0:0:0:
448,307,249715,1,4,0:3:0:0:
468,278,249790,1,4,0:3:0:0:
481,251,249865,1,4,0:3:0:0:
481,221,249940,6,0,P|482:191|477:160,3,58.7999982055665,8|8|8|8,0:0|0:3|0:3|0:3,0:0:0:0:
391,158,250240,2,0,P|392:188|387:219,3,58.7999982055665,8|4|4|4,0:0|0:3|0:3|0:3,0:0:0:0:
309,227,250540,2,0,B|265:184|255:96|273:21|369:30|369:30|391:127|292:137|175:121,1,514.500019626618,8|0,0:0|0:0,0:0:0:0:
137,78,251140,6,0,P|104:77|58:81,3,58.7999982055665,4|0|10|0,0:0|0:0|0:0|0:0,0:0:0:0:
191,123,251440,2,0,P|228:123|268:113,1,58.7999982055665,0|0,0:0|0:0,0:0:0:0:
123,151,251590,2,0,P|98:173|69:208,3,58.7999982055665,10|0|0|0,0:0|0:0|0:0|0:0,0:0:0:0:
162,209,251890,2,0,P|189:183|210:147,1,58.7999982055665,10|0,0:0|0:0,0:0:0:0:
114,252,252040,2,0,P|113:285|117:331,3,58.7999982055665,0|0|10|0,0:0|0:0|0:0|0:0,0:0:0:0:
211,288,252340,5,0,0:0:0:0:
242,271,252415,1,0,0:0:0:0:
275,261,252490,1,10,0:0:0:0:
310,262,252565,1,0,0:0:0:0:
345,260,252640,1,0,0:0:0:0:
379,237,252715,1,0,0:0:0:0:
397,200,252790,5,10,0:0:0:0:
400,153,252865,1,0,0:0:0:0:
387,107,252940,1,0,0:0:0:0:
350,77,253015,1,0,0:0:0:0:
303,81,253090,1,10,0:0:0:0:
268,113,253165,1,0,0:0:0:0:
269,160,253240,5,0,0:0:0:0:
241,122,253315,1,0,0:0:0:0:
199,99,253390,1,10,0:0:0:0:
152,92,253465,1,0,0:0:0:0:
108,110,253540,6,0,P|79:124|53:144,3,58.7999982055665,4|0|10|0,0:0|0:0|0:0|0:0,0:0:0:0:
128,182,253840,2,0,P|157:168|183:148,1,58.7999982055665,0|0,0:0|0:0,0:0:0:0:
65,213,253990,2,0,P|71:245|88:273,3,58.7999982055665,10|0|0|0,0:0|0:0|0:0|0:0,0:0:0:0:
144,304,254290,2,0,P|155:275|151:247,1,58.7999982055665,10|0,0:0|0:0,0:0:0:0:
50,324,254440,1,0,0:0:0:0:
84,348,254515,1,0,0:0:0:0:
123,364,254590,1,10,0:0:0:0:
165,365,254665,1,0,0:0:0:0:
205,355,254740,6,0,P|231:342|253:323,1,58.7999982055665
249,218,254889,2,0,P|254:189|251:159,1,58.7999982055665,10|0,0:0|0:0,0:0:0:0:
194,88,255039,2,0,P|172:67|147:53,1,58.7999982055665
56,44,255189,2,0,P|27:49|0:62,1,58.7999982055665,10|0,0:0|0:0,0:0:0:0:
22,173,255340,2,0,P|49:203|86:220,1,58.7999982055665
189,153,255490,6,0,B|248:118|322:173|322:173|382:215|467:154,1,294.00001121521,10|0,0:0|0:0,0:0:0:0:
452,26,255940,5,4,0:0:0:0:
411,22,256015,1,0,0:0:0:0:
370,29,256090,2,0,P|345:33|313:47,1,58.7999982055665,8|0,0:0|0:0,0:0:0:0:
238,78,256240,6,0,P|216:51|192:0,2,78.399997607422
189,153,256540,2,0,P|164:130|132:84,2,78.399997607422
325,167,256840,6,0,P|346:140|370:89,2,78.399997607422
360,252,257140,2,0,P|385:229|417:183,2,78.399997607422
144,209,257440,6,0,P|122:235|98:286,2,78.399997607422
203,298,257740,2,0,P|228:275|260:229,2,78.399997607422
194,132,258040,5,8,0:0:0:0:
194,132,258115,1,8,0:0:0:0:
194,132,258190,2,0,P|162:119|132:117,1,58.7999982055665,8|0,0:0|0:0,0:0:0:0:
40,191,258340,5,8,0:0:0:0:
68,220,258415,1,0,0:0:0:0:
104,238,258490,1,8,0:0:0:0:
145,241,258565,1,0,0:0:0:0:
185,233,258640,1,0,0:0:0:0:
223,206,258715,1,0,0:0:0:0:
249,167,258790,1,8,0:0:0:0:
259,121,258865,1,0,0:0:0:0:
250,74,258940,5,8,0:0:0:0:
280,31,259015,1,0,0:0:0:0:
331,17,259090,1,0,0:0:0:0:
381,33,259165,1,0,0:0:0:0:
426,59,259240,2,0,B|450:74|468:100|468:100|463:160|496:226,1,176.399994616699,8|0,0:0|0:0,0:0:0:0:
454,257,259540,5,8,0:0:0:0:
426,267,259615,1,8,0:0:0:0:
396,265,259690,1,8,0:0:0:0:
370,241,259765,1,8,0:0:0:0:
338,225,259840,5,8,0:0:0:0:
296,228,259915,1,8,0:0:0:0:
254,249,259990,1,8,0:0:0:0:
217,278,260065,1,8,0:0:0:0:
165,292,260140,5,8,0:3:0:0:
114,277,260215,1,8,0:3:0:0:
101,225,260290,1,8,0:3:0:0:
129,180,260365,1,8,0:3:0:0:
179,164,260440,5,4,0:3:0:0:
234,184,260515,1,4,0:3:0:0:
258,237,260590,1,4,0:3:0:0:
238,292,260665,1,4,0:3:0:0:
218,337,260740,6,0,B|170:361|121:350|121:350|77:338|25:355,1,196,4|0,0:0|0:0,0:0:0:0:
26,354,261190,1,8,0:0:0:0:
117,284,261340,1,0,0:0:0:0:
20,200,261490,1,8,0:0:0:0:
20,200,261565,1,0,0:0:0:0:
20,200,261640,1,0,0:0:0:0:
0,285,261790,1,8,0:0:0:0:
115,198,261940,2,0,P|165:187|227:197,1,98,0|8,0:0|0:0,0:0:0:0:
304,286,262240,5,0,0:0:0:0:
171,247,262390,1,8,0:0:0:0:
171,247,262465,1,0,0:0:0:0:
171,247,262540,1,0,0:0:0:0:
290,186,262690,1,8,0:0:0:0:
208,321,262840,1,0,0:0:0:0:
352,226,262990,1,8,0:0:0:0:
171,247,263140,6,0,P|121:177|201:108,1,196,4|0,0:0|0:0,0:0:0:0:
290,186,263590,1,8,0:0:0:0:
297,74,263740,1,0,0:0:0:0:
185,107,263890,1,8,0:0:0:0:
203,181,264040,1,0,0:0:0:0:
226,30,264190,6,0,P|177:20|126:43,1,98,8|0,0:0|0:0,0:0:0:0:
110,187,264490,2,0,P|159:197|210:174,1,98,8|0,0:0|0:0,0:0:0:0:
297,74,264790,2,0,P|346:64|397:87,1,98,8|0,0:0|0:0,0:0:0:0:
443,196,265090,1,8,0:0:0:0:
339,141,265240,1,0,0:0:0:0:
258,218,265390,1,8,0:0:0:0:
166,311,265540,5,4,0:0:0:0:
122,332,265615,1,0,0:0:0:0:
78,313,265690,1,8,0:0:0:0:
71,265,265765,1,0,0:0:0:0:
105,229,265840,1,0,0:0:0:0:
154,221,265915,1,0,0:0:0:0:
197,245,265990,1,8,0:0:0:0:
227,285,266065,1,0,0:0:0:0:
273,302,266140,6,0,P|305:293|340:277,3,49,0|0|8|0,0:0|0:0|0:0|0:0,0:0:0:0:
396,210,266440,2,0,P|418:201|442:195,3,49,0|0|8|0,0:0|0:0|0:0|0:0,0:0:0:0:
405,331,266740,5,4,0:0:0:0:
357,319,266815,1,0,0:0:0:0:
319,287,266890,1,8,0:0:0:0:
302,240,266965,1,0,0:0:0:0:
310,191,267040,2,0,P|318:159|332:127,1,49
413,129,267190,2,0,P|405:97|391:65,1,49,8|0,0:0|0:0,0:0:0:0:
241,78,267340,5,0,0:0:0:0:
264,93,267415,1,0,0:0:0:0:
291,80,267490,1,8,0:0:0:0:
290,45,267565,1,0,0:0:0:0:
251,23,267640,1,0,0:0:0:0:
211,52,267715,1,0,0:0:0:0:
200,99,267790,1,8,0:0:0:0:
214,145,267865,1,0,0:0:0:0:
246,181,267940,6,0,P|171:173|89:273,1,196,4|0,0:0|0:0,0:0:0:0:
217,278,268390,1,8,0:0:0:0:
255,272,268465,1,0,0:0:0:0:
293,266,268540,2,0,P|339:257|401:252,1,98,0|8,0:0|0:0,0:0:0:0:
471,245,268840,5,0,0:0:0:0:
386,165,268990,1,8,0:0:0:0:
441,303,269140,6,0,P|458:339|462:370,1,49,8|8,0:0|0:0,0:0:0:0:
380,324,269290,2,0,P|366:361|347:386,1,49,8|8,0:0|0:0,0:0:0:0:
316,306,269440,2,0,P|279:322|249:326,1,49,8|8,0:0|0:0,0:0:0:0:
295,244,269590,2,0,P|257:230|232:211,1,49,8|8,0:0|0:0,0:0:0:0:
325,186,269740,5,8,0:3:0:0:
386,165,269890,1,8,0:3:0:0:
450,183,270040,1,4,0:3:0:0:
471,245,270190,1,4,0:3:0:0:
384,306,270340,5,4,0:0:0:0:
351,271,270415,1,0,0:0:0:0:
307,251,270490,1,8,0:0:0:0:
259,248,270565,1,0,0:0:0:0:
217,273,270640,1,0,0:0:0:0:
170,287,270715,1,0,0:0:0:0:
122,280,270790,1,8,0:0:0:0:
83,252,270865,1,0,0:0:0:0:
59,209,270940,5,0,0:0:0:0:
59,160,271015,1,0,0:0:0:0:
88,120,271090,1,8,0:0:0:0:
132,98,271165,1,0,0:0:0:0:
181,89,271240,1,0,0:0:0:0:
230,98,271315,1,0,0:0:0:0:
272,122,271390,1,8,0:0:0:0:
319,132,271465,1,0,0:0:0:0:
367,122,271540,6,0,P|402:113|426:98,1,49
302,44,271690,2,0,P|267:53|243:68,1,49,8|0,0:0|0:0,0:0:0:0:
417,139,271840,2,0,P|442:113|456:88,1,49,0|0,0:0|0:0,0:0:0:0:
259,34,271990,2,0,P|233:59|219:84,1,49,8|0,0:0|0:0,0:0:0:0:
413,107,272140,2,0,P|422:72|421:43,3,49,0|0|8|0,0:0|0:0|0:0|0:0,0:0:0:0:
274,73,272440,2,0,P|264:107|265:136,3,49,0|0|8|0,0:0|0:0|0:0|0:0,0:0:0:0:
348,40,272740,5,4,0:0:0:0:
296,15,272815,1,0,0:0:0:0:
238,14,272890,1,8,0:0:0:0:
183,34,272965,1,0,0:0:0:0:
140,74,273040,1,0,0:0:0:0:
106,122,273115,1,0,0:0:0:0:
47,120,273190,1,8,0:0:0:0:
17,69,273265,1,0,0:0:0:0:
51,21,273340,5,0,0:0:0:0:
109,24,273415,1,0,0:0:0:0:
140,74,273490,1,8,0:0:0:0:
169,124,273565,1,0,0:0:0:0:
213,162,273640,1,0,0:0:0:0:
270,175,273715,1,0,0:0:0:0:
328,171,273790,1,8,0:0:0:0:
382,149,273865,1,0,0:0:0:0:
440,148,273940,6,0,P|468:172|484:200,1,49
398,322,274090,2,0,P|370:298|354:270,1,49,8|0,0:0|0:0,0:0:0:0:
478,146,274240,2,0,P|506:170|522:198,1,49,0|0,0:0|0:0,0:0:0:0:
363,328,274390,2,0,P|335:304|319:276,1,49,8|0,0:0|0:0,0:0:0:0:
382,149,274540,2,0,P|405:139|436:139,3,49,0|0|8|0,0:0|0:0|0:0|0:0,0:0:0:0:
494,272,274840,2,0,P|470:299|442:316,1,49
333,326,274990,2,0,P|313:311|298:292,1,49,8|0,0:0|0:0,0:0:0:0:
238,212,275140,6,0,P|193:215|139:240,1,98,4|8,0:0|0:0,0:0:0:0:
144,235,275440,1,0,0:0:0:0:
278,131,275590,2,0,P|221:127|165:136,1,98,8|0,0:0|0:0,0:0:0:0:
214,297,275890,1,8,0:0:0:0:
180,132,276040,1,0,0:0:0:0:
325,206,276190,1,8,0:0:0:0:
385,119,276340,6,0,L|427:223,1,98,4|8,0:0|0:0,0:0:0:0:
512,249,276640,1,0,0:0:0:0:
361,296,276790,2,0,L|324:205,1,98,8|0,0:0|0:0,0:0:0:0:
254,48,277090,2,0,B|237:86|214:109|214:109|211:150|182:177,1,147,8|0,0:0|0:0,0:0:0:0:
184,174,277390,1,8,0:0:0:0:
104,98,277540,5,12,0:0:0:0:
65,104,277615,1,0,0:0:0:0:
37,132,277690,1,0,0:0:0:0:
35,171,277765,1,0,0:0:0:0:
55,204,277840,1,8,0:0:0:0:
91,217,277915,1,0,0:0:0:0:
124,236,277990,1,8,0:0:0:0:
154,260,278065,1,0,0:0:0:0:
177,291,278140,5,0,0:0:0:0:
209,268,278215,1,0,0:0:0:0:
248,268,278290,1,8,0:0:0:0:
283,283,278365,1,0,0:0:0:0:
308,312,278440,1,8,0:0:0:0:
327,278,278515,1,0,0:0:0:0:
355,250,278590,1,0,0:0:0:0:
391,236,278665,1,0,0:0:0:0:
430,236,278740,6,0,P|463:254|478:271,3,49,8|0|0|0,0:0|0:0|0:0|0:0,0:0:0:0:
381,323,279040,2,0,P|367:354|351:372,1,49,8|0,0:0|0:0,0:0:0:0:
270,209,279190,2,0,P|237:226|222:243,3,49,8|0|0|0,0:0|0:0|0:0|0:0,0:0:0:0:
170,358,279490,2,0,P|138:344|120:328,1,49,8|0,0:0|0:0,0:0:0:0:
125,244,279640,5,8,0:0:0:0:
108,254,279715,1,0,0:0:0:0:
92,265,279790,1,0,0:0:0:0:
78,279,279865,1,0,0:0:0:0:
67,295,279940,5,4,0:0:0:0:
40,259,280015,1,0,0:0:0:0:
38,214,280090,1,10,0:0:0:0:
65,179,280165,1,0,0:0:0:0:
103,157,280240,1,0,0:0:0:0:
118,115,280315,1,0,0:0:0:0:
105,72,280390,1,10,0:0:0:0:
76,38,280465,1,0,0:0:0:0:
35,20,280540,5,0,0:0:0:0:
44,63,280615,1,0,0:0:0:0:
83,81,280690,1,10,0:0:0:0:
126,74,280765,1,0,0:0:0:0:
166,56,280840,2,0,P|201:53|220:53,3,49,0|0|10|0,0:0|0:0|0:0|0:0,0:0:0:0:
288,144,281140,5,0,0:0:0:0:
324,129,281215,1,0,0:0:0:0:
363,130,281290,1,10,0:0:0:0:
396,151,281365,1,0,0:0:0:0:
417,183,281440,2,0,P|428:219|432:240,1,49,0|0,0:0|0:0,0:0:0:0:
350,250,281590,2,0,P|343:284|333:309,3,49,10|0|0|0,0:0|0:0|0:0|0:0,0:0:0:0:
246,267,281890,2,0,P|220:294|204:308,1,49,10|0,0:0|0:0,0:0:0:0:
149,221,282040,5,0,0:0:0:0:
122,194,282115,1,0,0:0:0:0:
105,160,282190,1,10,0:0:0:0:
100,122,282265,1,0,0:0:0:0:
108,84,282340,5,4,0:0:0:0:
151,123,282415,1,0,0:0:0:0:
207,139,282490,1,10,0:0:0:0:
265,145,282565,1,0,0:0:0:0:
323,140,282640,1,0,0:0:0:0:
369,103,282715,1,0,0:0:0:0:
359,45,282790,1,10,0:0:0:0:
306,18,282865,1,0,0:0:0:0:
254,55,282940,5,0,0:0:0:0:
265,117,283015,1,0,0:0:0:0:
318,151,283090,1,10,0:0:0:0:
372,183,283165,1,0,0:0:0:0:
402,238,283240,2,0,P|408:269|406:299,3,49,0|0|10|0,0:0|0:0|0:0|0:0,0:0:0:0:
270,329,283540,5,12,0:0:0:0:
229,311,283615,1,8,0:0:0:0:
203,275,283690,1,8,0:0:0:0:
194,231,283765,1,8,0:0:0:0:
211,185,283840,1,8,0:0:0:0:
251,157,283915,1,8,0:0:0:0:
299,153,283990,1,8,0:0:0:0:
344,134,284065,1,8,0:0:0:0:
361,88,284140,5,8,0:3:0:0:
340,32,284215,1,8,0:3:0:0:
282,4,284290,1,8,0:3:0:0:
219,17,284365,1,8,0:3:0:0:
184,70,284440,1,4,0:3:0:0:
179,138,284515,1,4,0:3:0:0:
225,188,284590,1,4,0:3:0:0:
284,221,284665,1,4,0:3:0:0:
347,253,284736,1,12,0:0:0:0:
180,249,296736,5,8,0:0:0:0:
325,271,296986,1,8,0:0:0:0:
348,126,297236,1,8,0:0:0:0:
202,103,297486,1,8,0:0:0:0:
215,306,297736,5,8,0:0:0:0:
388,227,297986,1,8,0:0:0:0:
311,52,298236,1,8,0:0:0:0:
135,131,298486,1,8,0:0:0:0:
328,298,298736,6,0,P|375:306|428:293,1,98,8|8,0:0|0:0,0:0:0:0:
247,126,299236,2,0,P|230:80|192:41,1,98,8|8,0:0|0:0,0:0:0:0:
139,283,299736,2,0,P|107:320|92:372,1,98,8|8,0:0|0:0,0:0:0:0:
325,271,300236,1,8,0:0:0:0:
135,131,300486,1,8,0:0:0:0:
248,346,300736,6,0,B|321:305|391:344|391:344|441:313,1,196,4|2,0:0|0:0,0:0:0:0:
457,157,301486,1,0,0:0:0:0:
457,157,301736,2,0,P|425:173|303:160,2,147,8|0|0,0:0|0:0|0:0,0:0:0:0:
359,31,302736,6,0,B|348:55|356:104|356:104|288:73|246:135,1,196,4|2,0:0|0:0,0:0:0:0:
316,167,303486,1,0,0:0:0:0:
179,112,303736,2,0,B|141:122|121:162|121:162|90:172|90:172|70:204,2,147,8|0|0,0:0|0:0|0:0,0:0:0:0:
194,258,304736,5,4,0:0:0:0:
359,31,305486,5,0,0:0:0:0:
253,133,305736,2,0,P|316:129|406:159,1,147,8|0,0:0|0:0,0:0:0:0:
461,303,306486,1,0,0:0:0:0:
266,202,306736,6,0,P|230:211|176:254,1,98,6|0,0:0|0:0,0:0:0:0:
269,289,307236,2,0,P|259:324|269:393,1,98,2|0,0:0|0:0,0:0:0:0:
405,292,307736,1,8,0:0:0:0:
349,340,307986,1,8,0:0:0:0:
499,328,308236,1,8,0:3:0:0:
403,209,308486,1,4,0:3:0:0:
403,209,308736,6,0,B|353:198|353:198|311:214|197:209,1,196,4|2,0:0|0:0,0:0:0:0:
71,242,309486,5,0,0:0:0:0:
147,279,309736,2,0,P|197:286|305:268,2,147,8|0|0,0:0|0:0|0:0,0:0:0:0:
30,147,310736,6,0,B|52:182|71:243|71:243|97:190|164:194,1,196,4|2,0:0|0:0,0:0:0:0:
216,57,311486,1,0,0:0:0:0:
165,128,311736,2,0,P|229:147|296:93,1,147,8|0,0:0|0:0,0:0:0:0:
301,14,312486,1,0,0:0:0:0:
368,155,312736,6,0,B|363:193|376:232|376:232|363:263|363:263|379:305|376:355,1,196,4|2,0:0|0:0,0:0:0:0:
286,313,313486,1,0,0:0:0:0:
448,328,313736,2,0,B|435:284|455:228|455:228|445:202|441:171,2,147,8|0|0,0:0|0:0|0:0,0:0:0:0:
333,233,314736,6,0,P|287:222|237:237,1,98,4|8,0:0|0:0,0:0:0:0:
150,352,315236,2,0,P|103:365|56:354,1,98
37,233,315736,1,12,0:0:0:0:
102,280,315986,1,0,0:0:0:0:
64,83,316236,1,8,0:3:0:0:
117,192,316486,1,4,0:3:0:0:
208,16,316736,6,0,B|191:82|191:82|213:139|213:139|198:204,1,196,4|2,0:0|0:0,0:0:0:0:
307,104,317486,1,0,0:0:0:0:
354,38,317736,2,0,B|381:58|387:90|387:90|468:130,2,147,8|0|0,0:0|0:0|0:0,0:0:0:0:
307,104,318736,6,0,P|317:198|232:273,1,196,4|2,0:0|0:0,0:0:0:0:
226,167,319486,1,0,0:0:0:0:
334,298,319736,2,0,P|290:330|186:331,2,147,8|0|0,0:0|0:0|0:0,0:0:0:0:
347,139,320736,6,0,B|383:159|411:211|411:211|430:160|477:131,1,196,4|2,0:0|0:0,0:0:0:0:
482,288,321486,1,0,0:0:0:0:
482,288,321736,2,0,P|409:311|334:299,1,147,8|0,0:0|0:0,0:0:0:0:
198,219,322486,1,0,0:0:0:0:
219,344,322736,6,0,P|169:347|120:320,1,98,4|0,0:0|0:0,0:0:0:0:
61,217,323236,2,0,P|54:167|85:118,1,98,2|0,0:0|0:0,0:0:0:0:
118,99,323611,1,0,0:0:0:0:
118,99,323736,1,8,0:0:0:0:
135,183,323986,1,8,0:0:0:0:
263,57,324236,1,8,0:3:0:0:
230,214,324486,1,4,0:3:0:0:
343,18,324736,6,0,B|355:72|331:113|331:113|309:150|323:214,1,196,4|2,0:0|0:0,0:0:0:0:
321,208,325486,1,0,0:0:0:0:
259,297,325736,2,0,P|308:282|417:303,2,147,8|0|0,0:0|0:0|0:0,0:0:0:0:
176,366,326736,6,0,P|127:381|-7:331,1,196,4|2,0:0|0:0,0:0:0:0:
55,192,327486,1,0,0:0:0:0:
84,283,327736,2,0,P|129:252|141:154,1,147,8|0,0:0|0:0,0:0:0:0:
46,62,328486,1,0,0:0:0:0:
46,62,328736,6,0,B|85:85|140:73|140:73|194:61|241:97,1,196,4|2,0:0|0:0,0:0:0:0:
290,206,329486,1,0,0:0:0:0:
318,81,329736,1,8,0:0:0:0:
358,258,330111,1,0,0:0:0:0:
400,132,330486,1,0,0:0:0:0:
449,214,330736,6,0,L|466:318,1,98,4|8,0:0|0:3,0:0:0:0:
358,258,331236,2,0,L|341:362,1,98,2|4,0:0|0:3,0:0:0:0:
248,202,331736,2,0,L|265:306,1,98,8|0,0:0|0:0,0:0:0:0:
156,256,332236,1,8,0:3:0:0:
156,256,332486,1,4,0:3:0:0:
156,256,332736,6,0,B|139:354|139:354|98:368|52:357,1,176.399994616699,4|2,0:0|0:0,0:0:0:0:
43,254,333486,1,0,0:0:0:0:
43,254,333736,2,0,B|32:182|81:132|81:132|128:157|169:168|169:168|194:157|218:153,1,264.599991925049,8|0,0:0|0:0,0:0:0:0:
264,58,334736,6,0,P|254:112|361:160,1,176.399994616699,4|2,0:0|0:0,0:0:0:0:
476,119,335486,1,0,0:0:0:0:
476,119,335736,2,0,B|432:132|415:229|415:229|352:274|354:356,1,264.599991925049,8|0,0:0|0:0,0:0:0:0:
468,332,336736,1,4,0:0:0:0:
286,177,337486,5,0,0:0:0:0:
286,177,337736,2,0,P|267:224|205:297,2,132.299995962525,8|0|0,0:0|0:0|0:0,0:0:0:0:
184,75,338736,6,0,P|172:113|127:154,1,88.1999973083497,4|8,0:0|0:0,0:0:0:0:
44,83,339236,2,0,P|13:114|0:155,1,88.1999973083497
101,207,339736,2,0,P|119:242|116:303,1,88.1999973083497,8|0,0:0|0:0,0:0:0:0:
13,332,340236,1,8,0:3:0:0:
122,366,340486,1,4,0:3:0:0:
232,337,340736,6,0,B|286:321|353:322|353:322|352:266|430:247|414:187,1,264.599991925049,4|0,0:0|0:0,0:0:0:0:
338,100,341736,2,0,P|390:129|483:109,2,132.299995962525,8|0|0,0:0|0:0|0:0,0:0:0:0:
184,118,342736,1,4,0:0:0:0:
417,109,343236,5,0,0:0:0:0:
417,109,343486,1,0,0:0:0:0:
417,109,343736,2,0,B|436:162|410:203|381:240,2,132.299995962525,8|0|0,0:0|0:0|0:0,0:0:0:0:
284,182,344736,6,0,P|281:273|357:349,1,176.399994616699,4|0,0:0|0:0,0:0:0:0:
387,231,345486,5,0,0:0:0:0:
387,231,345736,1,0,0:0:0:0:
284,182,346111,1,0,0:0:0:0:
305,289,346486,1,0,0:0:0:0:
351,154,346736,6,0,P|318:118|262:112,1,88.1999973083497,4|0,0:0|0:0,0:0:0:0:
198,156,347236,2,0,P|156:144|127:111,1,88.1999973083497,2|0,0:0|0:0,0:0:0:0:
134,15,347736,5,10,0:0:0:0:
203,74,347986,1,0,0:0:0:0:
48,123,348236,1,8,0:3:0:0:
62,43,348486,1,4,0:3:0:0:
127,111,348736,1,4,0:0:0:0:
256,192,348861,12,4,352736,0:0:0:0:
