osu file format v14

[General]
AudioFilename: audio.mp3
AudioLeadIn: 0
PreviewTime: 146695
Countdown: 0
SampleSet: None
StackLeniency: 0.7
Mode: 0
LetterboxInBreaks: 0
WidescreenStoryboard: 0

[Editor]
Bookmarks: 59170,68770,78370,87970,97570,103270,107170,116770,126370,127570,137170,146770,156370,165970,177970,187570,191170,192370,201970,222370,241570,251170,260770,270370,279970,284770,296770,300770,348770,356770,364770
DistanceSpacing: 0.9
BeatDivisor: 4
GridSize: 32
TimelineZoom: 1.3

[Metadata]
Title:Judgement Day
TitleUnicode:Judgement Day
Artist:DragonForce
ArtistUnicode:DragonForce
Creator:Alvieee
Version:Infinity
Source:
Tags:judgment dragon reaching into metal marathon
BeatmapID:1921377
BeatmapSetID:920008

[Difficulty]
HPDrainRate:5.5
CircleSize:4.3
OverallDifficulty:9.8
ApproachRate:9.7
SliderMultiplier:2.5
SliderTickRate:1

[Events]
//Background and Video events
0,0,"bgggggggggg.jpg",0,0
//Break Periods
2,284970,294770
//Storyboard Layer 0 (Background)
//Storyboard Layer 1 (Fail)
//Storyboard Layer 2 (Pass)
//Storyboard Layer 3 (Foreground)
//Storyboard Sound Samples

[TimingPoints]
670,300,4,3,1,5,1,0
47170,300,4,3,1,50,1,1
59170,-133.333333333333,4,3,1,50,0,0
86845,-133.333333333333,4,3,1,30,0,0
86920,-133.333333333333,4,3,1,50,0,0
96370,-133.333333333333,4,3,1,50,0,0
96407,-133.333333333333,4,3,1,5,0,0
96520,-133.333333333333,4,3,1,50,0,0
96557,-133.333333333333,4,3,1,5,0,0
96670,-133.333333333333,4,3,1,50,0,0
96707,-133.333333333333,4,3,1,5,0,0
96970,-133.333333333333,4,3,1,50,0,0
97007,-133.333333333333,4,3,1,5,0,0
97120,-133.333333333333,4,3,1,50,0,0
97157,-133.333333333333,4,3,1,5,0,0
97270,-133.333333333333,4,3,1,50,0,0
97307,-133.333333333333,4,3,1,5,0,0
97570,-100,4,3,1,50,0,1
115570,-133.333333333333,4,3,1,50,0,0
116770,-100,4,3,1,50,0,1
126370,-133.333333333333,4,3,1,50,0,0
126520,-133.333333333333,4,3,1,50,0,0
126557,-133.333333333333,4,3,1,5,0,0
126670,-133.333333333333,4,3,1,50,0,0
126707,-133.333333333333,4,3,1,5,0,0
126970,-133.333333333333,4,3,1,50,0,0
136045,-133.333333333333,4,3,1,30,0,0
136120,-133.333333333333,4,3,1,50,0,0
144745,-100,4,3,1,50,0,0
146770,-100,4,3,1,50,0,1
164770,-133.333333333333,4,3,1,50,0,0
165970,-100,4,3,1,50,0,1
177970,-133.333333333333,4,3,1,50,0,0
178120,-133.333333333333,4,3,1,5,0,0
187570,-133.333333333333,4,3,1,50,0,0
187720,-133.333333333333,4,3,1,5,0,0
191170,-200,4,3,1,30,0,0
191545,-200,4,3,1,5,0,0
191620,-200,4,3,1,30,0,0
191995,-200,4,3,1,5,0,0
192070,-200,4,3,1,35,0,0
192370,-333.333333333333,4,3,1,35,0,0
200470,-333.333333333333,4,3,1,25,0,0
201670,-200,4,3,1,50,0,0
202270,-153.846153846154,4,3,1,50,0,0
208795,-153.846153846154,4,3,1,5,0,0
208870,-153.846153846154,4,3,1,50,0,0
211270,-100,4,3,1,50,0,0
211495,-100,4,3,1,5,0,0
211570,-142.857142857143,4,3,1,50,0,0
218770,-142.857142857143,4,3,1,50,0,1
222070,-166.666666666667,4,3,1,50,0,0
222370,-142.857142857143,4,3,1,50,0,0
222970,-111.111111111111,4,3,1,50,0,0
223570,-142.857142857143,4,3,1,50,0,0
224695,-142.857142857143,4,3,1,5,0,0
224770,-142.857142857143,4,3,1,50,0,0
226195,-142.857142857143,4,3,1,5,0,0
226270,-142.857142857143,4,3,1,50,0,0
226420,-142.857142857143,4,3,1,50,0,0
226495,-142.857142857143,4,3,1,5,0,0
226570,-111.111111111111,4,3,1,50,0,0
227095,-111.111111111111,4,3,1,5,0,0
227170,-111.111111111111,4,3,1,50,0,0
237295,-111.111111111111,4,3,1,15,0,0
237370,-111.111111111111,4,3,1,50,0,0
237520,-111.111111111111,4,3,1,30,0,0
237595,-111.111111111111,4,3,1,50,0,0
237745,-111.111111111111,4,3,1,30,0,0
237820,-111.111111111111,4,3,1,50,0,0
237970,-111.111111111111,4,3,1,30,0,0
238020,-111.111111111111,4,3,1,50,0,0
238420,-111.111111111111,4,3,1,30,0,0
238495,-111.111111111111,4,3,1,50,0,0
239170,-111.111111111111,4,3,1,50,0,0
244870,-100,4,3,1,50,0,0
246370,-111.111111111111,4,3,1,50,0,0
246595,-111.111111111111,4,3,1,5,0,0
246670,-111.111111111111,4,3,1,50,0,0
259495,-111.111111111111,4,3,1,5,0,0
259570,-111.111111111111,4,3,1,50,0,0
270370,-111.111111111111,4,3,1,50,0,1
275170,-111.111111111111,4,3,1,50,0,0
279970,-100,4,3,1,50,0,1
283420,-111.111111111111,4,3,1,50,0,1
283495,-111.111111111111,4,3,1,30,0,1
283570,-100,4,3,1,50,0,1
284770,500,4,3,1,50,1,0
284770,-166.666666666667,4,3,1,50,0,0
296770,-166.666666666667,4,3,1,30,0,0
297770,-166.666666666667,4,3,1,35,0,0
298770,-166.666666666667,4,3,1,40,0,0
299770,-166.666666666667,4,3,1,45,0,0
300770,-166.666666666667,4,3,1,50,0,1
301645,-166.666666666667,4,3,1,5,0,1
301770,-166.666666666667,4,3,1,50,0,1
303645,-166.666666666667,4,3,1,5,0,1
303770,-166.666666666667,4,3,1,50,0,1
305645,-166.666666666667,4,3,1,5,0,1
305770,-166.666666666667,4,3,1,50,0,1
309645,-166.666666666667,4,3,1,5,0,1
309770,-166.666666666667,4,3,1,50,0,1
311645,-166.666666666667,4,3,1,5,0,1
311770,-166.666666666667,4,3,1,50,0,1
313645,-166.666666666667,4,3,1,5,0,1
313770,-166.666666666667,4,3,1,50,0,1
317645,-166.666666666667,4,3,1,5,0,1
317770,-166.666666666667,4,3,1,50,0,1
319645,-166.666666666667,4,3,1,5,0,1
319770,-166.666666666667,4,3,1,50,0,1
321645,-166.666666666667,4,3,1,5,0,1
321770,-166.666666666667,4,3,1,50,0,1
325645,-166.666666666667,4,3,1,5,0,1
325770,-166.666666666667,4,3,1,50,0,1
327645,-166.666666666667,4,3,1,5,0,1
327770,-166.666666666667,4,3,1,50,0,1
329645,-166.666666666667,4,3,1,5,0,1
329770,-166.666666666667,4,3,1,50,0,1
348770,-166.666666666667,4,3,1,45,0,0
350770,-166.666666666667,4,3,1,40,0,0
352770,-166.666666666667,4,3,1,35,0,0
353770,-166.666666666667,4,3,1,30,0,0
354770,-166.666666666667,4,3,1,25,0,0
355770,-166.666666666667,4,3,1,20,0,0
356770,-166.666666666667,4,3,1,5,0,0

[Colours]
Combo1 : 254,58,1
Combo2 : 128,128,128
Combo3 : 192,192,192
Combo4 : 255,0,0

[HitObjects]
89,97,47170,37,10,0:0:0:0:
35,128,47245,1,0,0:0:0:0:
12,186,47320,1,10,0:0:0:0:
24,247,47395,1,0,0:0:0:0:
71,297,47470,5,10,0:0:0:0:
139,301,47545,1,0,0:0:0:0:
196,262,47620,1,10,0:0:0:0:
215,196,47695,1,0,0:0:0:0:
246,141,47770,37,10,0:0:0:0:
305,123,47845,1,0,0:0:0:0:
364,140,47920,1,10,0:0:0:0:
402,189,47995,1,0,0:0:0:0:
402,245,48070,5,10,0:0:0:0:
375,294,48145,1,0,0:0:0:0:
322,314,48220,1,10,0:0:0:0:
265,309,48295,1,0,0:0:0:0:
222,282,48370,37,10,0:0:0:0:
252,242,48445,1,0,0:0:0:0:
299,227,48520,1,10,0:0:0:0:
348,232,48595,1,0,0:0:0:0:
398,256,48670,5,10,0:0:0:0:
454,257,48745,1,0,0:0:0:0:
498,222,48820,1,10,0:0:0:0:
510,167,48895,1,0,0:0:0:0:
492,120,48970,37,10,0:0:0:0:
448,95,49045,1,0,0:0:0:0:
398,100,49120,1,10,0:0:0:0:
362,135,49195,1,0,0:0:0:0:
325,159,49270,5,10,0:0:0:0:
281,163,49345,1,0,0:0:0:0:
238,150,49420,1,10,0:0:0:0:
207,119,49495,1,0,0:0:0:0:
193,70,49570,37,10,0:0:0:0:
241,58,49645,1,0,0:0:0:0:
289,70,49720,1,10,0:0:0:0:
326,103,49795,1,0,0:0:0:0:
338,157,49870,5,10,0:0:0:0:
325,211,49945,1,0,0:0:0:0:
283,249,50020,1,10,0:0:0:0:
227,255,50095,1,0,0:0:0:0:
180,236,50170,37,10,0:0:0:0:
149,196,50245,1,0,0:0:0:0:
101,180,50320,1,10,0:0:0:0:
52,190,50395,1,0,0:0:0:0:
21,221,50470,5,10,0:0:0:0:
12,263,50545,1,0,0:0:0:0:
23,305,50620,1,10,0:0:0:0:
51,338,50695,1,0,0:0:0:0:
105,353,50770,37,10,0:0:0:0:
127,301,50845,1,0,0:0:0:0:
110,247,50920,1,10,0:0:0:0:
66,210,50995,1,0,0:0:0:0:
49,149,51070,5,10,0:0:0:0:
63,88,51145,1,0,0:0:0:0:
111,49,51220,1,10,0:0:0:0:
173,44,51295,1,0,0:0:0:0:
220,74,51370,37,10,0:0:0:0:
251,120,51445,1,0,0:0:0:0:
302,142,51520,1,10,0:0:0:0:
357,132,51595,1,0,0:0:0:0:
386,91,51670,5,10,0:0:0:0:
383,41,51745,1,0,0:0:0:0:
343,10,51820,1,10,0:0:0:0:
294,21,51895,1,0,0:0:0:0:
274,80,51970,37,10,0:0:0:0:
333,100,52045,1,0,0:0:0:0:
391,77,52120,1,10,0:0:0:0:
453,69,52195,1,0,0:0:0:0:
511,105,52270,5,10,0:0:0:0:
504,173,52345,1,0,0:0:0:0:
443,206,52420,1,10,0:0:0:0:
381,174,52495,1,0,0:0:0:0:
319,164,52570,37,10,0:0:0:0:
266,198,52645,1,0,0:0:0:0:
245,257,52720,1,10,0:0:0:0:
272,313,52795,1,0,0:0:0:0:
323,335,52870,5,10,0:0:0:0:
378,327,52945,1,0,0:0:0:0:
414,284,53020,1,10,0:0:0:0:
418,227,53095,1,0,0:0:0:0:
387,179,53170,37,10,0:0:0:0:
350,213,53245,1,0,0:0:0:0:
335,260,53320,1,10,0:0:0:0:
345,308,53395,1,0,0:0:0:0:
389,342,53470,5,10,0:0:0:0:
445,344,53545,1,0,0:0:0:0:
491,311,53620,1,10,0:0:0:0:
499,255,53695,1,0,0:0:0:0:
471,213,53770,37,10,0:0:0:0:
424,195,53845,1,0,0:0:0:0:
392,156,53920,1,10,0:0:0:0:
388,106,53995,1,0,0:0:0:0:
407,66,54070,5,10,0:0:0:0:
449,54,54145,1,0,0:0:0:0:
489,71,54220,1,10,0:0:0:0:
504,111,54295,1,0,0:0:0:0:
483,156,54370,37,10,0:0:0:0:
439,130,54445,1,0,0:0:0:0:
389,130,54520,1,10,0:0:0:0:
348,158,54595,1,0,0:0:0:0:
322,208,54670,5,10,0:0:0:0:
277,242,54745,1,0,0:0:0:0:
221,248,54820,1,10,0:0:0:0:
167,228,54895,1,0,0:0:0:0:
138,186,54970,37,10,0:0:0:0:
129,136,55045,1,0,0:0:0:0:
155,93,55120,1,10,0:0:0:0:
203,80,55195,1,0,0:0:0:0:
242,99,55270,5,10,0:0:0:0:
256,140,55345,1,0,0:0:0:0:
244,182,55420,1,10,0:0:0:0:
211,211,55495,1,0,0:0:0:0:
155,217,55570,37,10,0:0:0:0:
159,160,55645,1,0,0:0:0:0:
198,120,55720,1,10,0:0:0:0:
253,113,55795,1,0,0:0:0:0:
308,141,55870,5,10,0:0:0:0:
344,192,55945,1,0,0:0:0:0:
403,210,56020,1,10,0:0:0:0:
462,190,56095,1,0,0:0:0:0:
488,140,56170,37,10,0:0:0:0:
479,84,56245,1,0,0:0:0:0:
433,50,56320,1,10,0:0:0:0:
376,54,56395,1,0,0:0:0:0:
344,92,56470,5,10,0:0:0:0:
344,142,56545,1,0,0:0:0:0:
374,181,56620,1,10,0:0:0:0:
423,188,56695,1,0,0:0:0:0:
464,160,56770,38,0,P|460:123|450:96,1,62.5,8|0,0:0|0:0,0:0:0:0:
199,242,56920,2,0,P|203:279|213:306,1,62.5
473,195,57070,2,0,P|489:161|496:133,1,62.5
190,205,57220,2,0,P|173:238|166:266,1,62.5,8|0,0:0|0:0,0:0:0:0:
469,280,57370,6,0,P|502:275|526:261,1,62.5
388,293,57520,2,0,P|418:306|446:308,1,62.5
316,262,57670,2,0,P|333:290|356:306,1,62.5
271,198,57820,2,0,P|270:231|280:257,1,62.5
433,139,57970,37,8,0:0:0:0:
402,146,58045,1,0,0:0:0:0:
372,155,58120,1,0,0:0:0:0:
341,162,58195,1,0,0:0:0:0:
320,183,58270,5,4,0:0:0:0:
290,175,58345,1,4,0:0:0:0:
260,168,58420,1,4,0:0:0:0:
230,160,58495,1,4,0:0:0:0:
208,137,58570,37,4,0:0:0:0:
180,143,58645,1,4,0:0:0:0:
153,149,58720,1,4,0:0:0:0:
125,156,58795,1,4,0:0:0:0:
102,180,58870,5,4,0:0:0:0:
76,174,58945,1,4,0:0:0:0:
50,168,59020,1,4,0:0:0:0:
24,164,59095,1,4,0:0:0:0:
0,158,59170,6,0,L|5:101,1,46.8750017881394,4|0,0:0|0:0,0:0:0:0:
185,67,59320,2,0,L|190:124,1,46.8750017881394,10|0,0:0|0:0,0:0:0:0:
50,256,59470,1,4,0:0:0:0:
50,256,59545,1,4,0:0:0:0:
50,256,59620,2,0,L|44:316,1,46.8750017881394,10|0,0:0|0:0,0:0:0:0:
191,384,59770,6,0,L|186:329,1,46.8750017881394,4|0,0:0|0:0,0:0:0:0:
91,171,59920,2,0,L|97:100,1,46.8750017881394,10|0,0:0|0:0,0:0:0:0:
307,253,60070,1,4,0:0:0:0:
307,253,60145,1,4,0:0:0:0:
307,253,60220,38,0,L|191:264,1,93.7500035762788,10|4,0:0|0:0,0:0:0:0:
338,361,60520,2,0,L|385:366,1,46.8750017881394,10|0,0:0|0:0,0:0:0:0:
365,170,60670,2,0,L|309:176,1,46.8750017881394,4|4,0:0|0:0,0:0:0:0:
341,338,60820,2,0,L|394:344,1,46.8750017881394,10|0,0:0|0:0,0:0:0:0:
507,197,60970,6,0,L|512:244,1,46.8750017881394,4|0,0:0|0:0,0:0:0:0:
307,84,61120,2,0,L|302:146,1,46.8750017881394,10|0,0:0|0:0,0:0:0:0:
490,214,61270,2,0,L|487:261,1,46.8750017881394,4|4,0:0|0:0,0:0:0:0:
385,42,61420,1,10,0:0:0:0:
472,231,61570,37,4,0:0:0:0:
436,238,61645,1,0,0:0:0:0:
400,229,61720,1,10,0:0:0:0:
383,219,61795,1,0,0:0:0:0:
365,212,61870,1,4,0:0:0:0:
346,208,61945,1,4,0:0:0:0:
327,208,62020,1,10,0:0:0:0:
308,209,62095,1,0,0:0:0:0:
290,216,62170,5,4,0:0:0:0:
272,221,62245,1,0,0:0:0:0:
253,223,62320,1,10,0:0:0:0:
234,221,62395,1,0,0:0:0:0:
215,216,62470,1,4,0:0:0:0:
198,207,62545,1,4,0:0:0:0:
184,194,62620,1,10,0:0:0:0:
172,179,62695,1,0,0:0:0:0:
166,161,62770,38,0,P|203:148|231:148,1,46.8750017881394,4|0,0:0|0:0,0:0:0:0:
141,320,62920,2,0,P|110:273|100:219,1,93.7500035762788,10|4,0:0|0:0,0:0:0:0:
175,6,63220,1,10,0:0:0:0:
193,41,63295,1,0,0:0:0:0:
197,81,63370,6,0,P|196:122|192:140,1,46.8750017881394,4|0,0:0|0:0,0:0:0:0:
0,138,63520,2,0,P|27:118|52:109,1,46.8750017881394,10|0,0:0|0:0,0:0:0:0:
256,172,63670,2,0,B|291:193|329:179|329:179|366:165|401:178,1,140.625005364418,4|0,0:0|0:0,0:0:0:0:
464,239,63970,37,4,0:0:0:0:
287,310,64120,2,0,L|280:260,1,46.8750017881394,10|0,0:0|0:0,0:0:0:0:
472,169,64270,2,0,L|467:218,1,46.8750017881394,4|4,0:0|0:0,0:0:0:0:
392,376,64420,2,0,L|328:368,1,46.8750017881394,10|0,0:0|0:0,0:0:0:0:
469,148,64570,5,4,0:0:0:0:
469,148,64645,1,0,0:0:0:0:
469,148,64720,2,0,L|481:252,1,93.7500035762788,10|4,0:0|0:0,0:0:0:0:
228,89,65020,2,0,L|238:36,1,46.8750017881394,10|0,0:0|0:0,0:0:0:0:
377,196,65170,37,4,0:0:0:0:
377,196,65245,1,0,0:0:0:0:
377,196,65320,2,0,L|370:261,1,46.8750017881394,10|0,0:0|0:0,0:0:0:0:
317,20,65470,2,4,L|376:13,1,46.8750017881394
287,226,65620,1,10,0:0:0:0:
460,111,65770,6,0,L|455:164,1,46.8750017881394,4|0,0:0|0:0,0:0:0:0:
209,264,65920,2,0,L|146:266,1,46.8750017881394,10|0,0:0|0:0,0:0:0:0:
380,384,66070,1,4,0:0:0:0:
264,201,66220,1,10,0:0:0:0:
358,371,66370,37,4,0:0:0:0:
357,332,66445,1,0,0:0:0:0:
379,302,66520,1,10,0:0:0:0:
385,284,66595,1,0,0:0:0:0:
387,265,66670,1,4,0:0:0:0:
387,246,66745,1,4,0:0:0:0:
382,227,66820,1,10,0:0:0:0:
373,210,66895,1,0,0:0:0:0:
360,195,66970,1,4,0:0:0:0:
350,178,67045,1,0,0:0:0:0:
345,159,67120,1,10,0:0:0:0:
343,140,67195,1,0,0:0:0:0:
345,121,67270,1,4,0:0:0:0:
352,103,67345,1,4,0:0:0:0:
362,87,67420,5,10,0:0:0:0:
376,74,67495,1,0,0:0:0:0:
407,66,67570,1,12,0:0:0:0:
426,98,67645,1,8,0:0:0:0:
432,134,67720,1,8,0:0:0:0:
427,171,67795,1,8,0:0:0:0:
407,202,67870,1,8,0:0:0:0:
375,224,67945,1,8,0:0:0:0:
339,236,68020,1,8,0:0:0:0:
308,256,68095,1,8,0:0:0:0:
290,290,68170,37,12,0:0:0:0:
320,276,68245,1,4,0:0:0:0:
352,275,68320,1,4,0:0:0:0:
384,279,68395,1,4,0:0:0:0:
420,307,68470,1,4,0:0:0:0:
374,297,68545,1,4,0:0:0:0:
328,306,68620,1,4,0:0:0:0:
294,338,68695,1,4,0:0:0:0:
279,382,68770,5,6,0:0:0:0:
413,200,68920,1,10,0:0:0:0:
198,52,69070,2,4,P|202:120|211:138,1,46.8750017881394
290,242,69220,1,10,0:0:0:0:
323,0,69370,37,4,0:0:0:0:
73,111,69520,1,10,0:0:0:0:
302,154,69670,2,4,P|252:117|229:111,1,46.8750017881394
0,148,69820,1,10,0:0:0:0:
246,34,69970,6,0,P|193:77|172:130,1,93.7500035762788,4|10,0:0|0:0,0:0:0:0:
133,290,70270,2,4,P|117:230|114:224,1,46.8750017881394
0,62,70420,1,10,0:0:0:0:
50,325,70570,38,0,P|102:371|150:378,1,93.7500035762788,4|10,0:0|0:0,0:0:0:0:
88,90,70870,2,4,P|55:133|49:152,1,46.8750017881394
133,290,71020,1,10,0:0:0:0:
177,69,71170,5,4,0:0:0:0:
0,252,71320,1,10,0:0:0:0:
266,221,71470,2,4,P|271:277|267:296,1,46.8750017881394
7,229,71620,1,10,0:0:0:0:
291,295,71770,37,4,0:0:0:0:
14,207,71920,1,10,0:0:0:0:
357,343,72070,2,4,P|326:375|305:384,1,46.8750017881394
69,145,72220,1,10,0:0:0:0:
227,384,72370,6,0,P|242:329|228:262,1,93.7500035762788,4|10,0:0|0:0,0:0:0:0:
0,297,72670,2,4,P|43:325|55:327,1,46.8750017881394
226,269,72820,1,10,0:0:0:0:
0,132,72970,38,0,P|-3:192|17:236,1,93.7500035762788,4|10,0:0|0:0,0:0:0:0:
249,131,73270,2,4,P|192:130|172:137,1,46.8750017881394
80,169,73420,1,10,0:0:0:0:
197,0,73570,5,4,0:0:0:0:
208,20,73645,1,0,0:0:0:0:
216,41,73720,1,10,0:0:0:0:
219,64,73795,1,0,0:0:0:0:
217,87,73870,1,4,0:0:0:0:
212,110,73945,1,0,0:0:0:0:
198,134,74020,1,10,0:0:0:0:
181,156,74095,1,0,0:0:0:0:
170,182,74170,1,4,0:0:0:0:
167,210,74245,1,0,0:0:0:0:
172,237,74320,1,10,0:0:0:0:
184,261,74395,1,0,0:0:0:0:
201,283,74470,1,4,0:0:0:0:
211,308,74545,1,0,0:0:0:0:
211,336,74620,1,10,0:0:0:0:
201,362,74695,1,0,0:0:0:0:
178,379,74770,37,4,0:0:0:0:
150,383,74845,1,0,0:0:0:0:
123,372,74920,1,10,0:0:0:0:
106,348,74995,1,0,0:0:0:0:
101,320,75070,1,4,0:0:0:0:
107,292,75145,1,0,0:0:0:0:
123,269,75220,1,10,0:0:0:0:
143,249,75295,1,0,0:0:0:0:
155,223,75370,1,4,0:0:0:0:
153,194,75445,1,0,0:0:0:0:
140,168,75520,1,10,0:0:0:0:
115,154,75595,1,0,0:0:0:0:
86,154,75670,5,4,0:0:0:0:
82,172,75745,1,0,0:0:0:0:
79,190,75820,1,10,0:0:0:0:
76,208,75895,1,0,0:0:0:0:
73,226,75970,37,8,0:0:0:0:
28,209,76045,1,8,0:0:0:0:
5,168,76120,1,8,0:0:0:0:
6,121,76195,1,8,0:0:0:0:
24,77,76270,1,8,0:0:0:0:
63,51,76345,1,8,0:0:0:0:
114,47,76420,1,8,0:0:0:0:
159,70,76495,1,8,0:0:0:0:
190,110,76570,1,4,0:0:0:0:
237,129,76645,1,4,0:0:0:0:
288,125,76720,1,4,0:0:0:0:
329,94,76795,1,4,0:0:0:0:
351,47,76870,1,4,0:0:0:0:
396,23,76945,1,4,0:0:0:0:
447,25,77020,1,4,0:0:0:0:
492,48,77095,1,4,0:0:0:0:
512,96,77170,5,12,0:0:0:0:
274,28,77320,1,8,0:0:0:0:
507,117,77470,1,8,0:0:0:0:
393,73,77770,37,8,0:0:0:0:
182,186,77920,1,8,0:0:0:0:
370,76,78070,1,8,0:0:0:0:
370,76,78370,5,4,0:0:0:0:
379,280,78520,1,10,0:0:0:0:
297,121,78670,1,4,0:0:0:0:
297,121,78745,1,4,0:0:0:0:
297,121,78820,1,10,0:0:0:0:
419,352,78970,38,0,L|525:341,1,93.7500035762788,4|10,0:0|0:0,0:0:0:0:
288,209,79270,1,4,0:0:0:0:
288,209,79345,1,4,0:0:0:0:
288,209,79420,6,0,L|276:313,1,93.7500035762788,10|4,0:0|0:0,0:0:0:0:
471,123,79720,1,10,0:0:0:0:
287,38,79870,1,4,0:0:0:0:
287,38,79945,1,4,0:0:0:0:
287,38,80020,1,10,0:0:0:0:
467,39,80170,37,4,0:0:0:0:
433,251,80320,2,0,L|429:319,1,46.8750017881394,10|0,0:0|0:0,0:0:0:0:
285,138,80470,2,4,L|287:190,1,46.8750017881394
442,51,80620,2,0,L|444:-1,1,46.8750017881394,10|0,0:0|0:0,0:0:0:0:
308,124,80770,5,4,0:0:0:0:
315,164,80845,1,0,0:0:0:0:
341,194,80920,1,10,0:0:0:0:
361,205,80995,1,0,0:0:0:0:
375,223,81070,1,4,0:0:0:0:
385,244,81145,1,4,0:0:0:0:
389,267,81220,1,10,0:0:0:0:
387,290,81295,1,0,0:0:0:0:
380,312,81370,37,4,0:0:0:0:
367,331,81445,1,0,0:0:0:0:
349,346,81520,1,10,0:0:0:0:
326,353,81595,1,0,0:0:0:0:
302,354,81670,1,4,0:0:0:0:
279,347,81745,1,4,0:0:0:0:
259,334,81820,1,10,0:0:0:0:
237,325,81895,1,0,0:0:0:0:
213,323,81970,6,0,P|185:328|156:344,1,46.8750017881394,4|0,0:0|0:0,0:0:0:0:
309,271,82120,2,0,P|273:206|238:187,1,93.7500035762788,10|4,0:0|0:0,0:0:0:0:
73,166,82420,1,10,0:0:0:0:
98,193,82495,1,0,0:0:0:0:
132,207,82570,38,0,P|185:202|192:198,1,46.8750017881394,4|0,0:0|0:0,0:0:0:0:
171,34,82720,2,0,P|148:63|141:87,1,46.8750017881394,10|0,0:0|0:0,0:0:0:0:
224,296,82870,1,4,0:0:0:0:
256,269,82945,1,4,0:0:0:0:
276,232,83020,1,10,0:0:0:0:
282,191,83095,1,0,0:0:0:0:
271,150,83170,5,6,0:0:0:0:
379,263,83320,1,10,0:0:0:0:
415,67,83470,1,4,0:0:0:0:
415,67,83545,1,4,0:0:0:0:
415,67,83620,1,10,0:0:0:0:
197,182,83770,37,4,0:0:0:0:
118,0,83920,1,10,0:0:0:0:
251,302,84070,1,4,0:0:0:0:
251,302,84145,1,4,0:0:0:0:
251,302,84220,6,0,L|369:315,1,93.7500035762788,10|4,0:0|0:0,0:0:0:0:
227,175,84520,1,10,0:0:0:0:
114,364,84670,1,4,0:0:0:0:
114,364,84745,1,4,0:0:0:0:
114,364,84820,1,10,0:0:0:0:
0,175,84970,37,4,0:0:0:0:
215,265,85120,2,0,L|209:326,1,46.8750017881394,10|0,0:0|0:0,0:0:0:0:
23,186,85270,2,4,L|17:125,1,46.8750017881394
227,175,85420,2,0,L|274:170,1,46.8750017881394,10|0,0:0|0:0,0:0:0:0:
50,196,85570,5,4,0:0:0:0:
88,185,85645,1,0,0:0:0:0:
114,158,85720,1,10,0:0:0:0:
125,137,85795,1,0,0:0:0:0:
127,113,85870,1,4,0:0:0:0:
136,91,85945,1,4,0:0:0:0:
152,73,86020,1,10,0:0:0:0:
173,63,86095,1,0,0:0:0:0:
197,63,86170,1,4,0:0:0:0:
219,70,86245,1,0,0:0:0:0:
238,82,86320,1,10,0:0:0:0:
251,101,86395,1,0,0:0:0:0:
266,117,86470,1,4,0:0:0:0:
287,128,86545,1,4,0:0:0:0:
311,130,86620,1,10,0:0:0:0:
333,124,86695,1,0,0:0:0:0:
351,109,86770,2,0,P|370:83|376:64,1,46.8750017881394,6|0,0:0|0:0,0:0:0:0:
252,0,86920,37,8,0:0:0:0:
219,19,86995,1,8,0:0:0:0:
197,49,87070,1,12,0:0:0:0:
190,85,87145,1,8,0:0:0:0:
203,120,87220,1,8,0:0:0:0:
227,147,87295,1,8,0:0:0:0:
245,174,87370,1,12,0:0:0:0:
254,205,87445,1,8,0:0:0:0:
251,233,87520,1,8,0:0:0:0:
239,258,87595,1,8,0:0:0:0:
221,273,87670,1,12,0:0:0:0:
204,282,87745,1,4,0:0:0:0:
185,286,87820,1,4,0:0:0:0:
169,285,87895,1,4,0:0:0:0:
156,281,87970,6,0,P|119:253|112:235,1,46.8750017881394,4|0,0:0|0:0,0:0:0:0:
318,271,88120,2,0,P|292:317|274:330,1,46.8750017881394,8|0,0:0|0:0,0:0:0:0:
177,202,88270,2,0,P|219:174|252:176,1,46.8750017881394,4|0,0:0|0:0,0:0:0:0:
349,365,88420,2,0,P|321:382|275:378,1,46.8750017881394,8|0,0:0|0:0,0:0:0:0:
289,136,88570,38,0,P|297:189|294:198,1,46.8750017881394,4|0,0:0|0:0,0:0:0:0:
428,291,88720,2,0,P|420:344|423:353,1,46.8750017881394,8|0,0:0|0:0,0:0:0:0:
275,155,88870,2,0,P|273:185|259:213,1,46.8750017881394,4|0,0:0|0:0,0:0:0:0:
442,310,89020,2,0,P|444:340|458:368,1,46.8750017881394,8|0,0:0|0:0,0:0:0:0:
242,336,89170,6,0,P|240:366|226:394,3,46.8750017881394,4|0|8|0,0:0|0:0|0:0|0:0,0:0:0:0:
76,273,89470,2,0,P|78:303|92:331,3,46.8750017881394,4|0|8|0,0:0|0:0|0:0|0:0,0:0:0:0:
203,155,89770,37,4,0:0:0:0:
216,125,89845,1,0,0:0:0:0:
221,92,89920,1,8,0:0:0:0:
210,60,89995,1,0,0:0:0:0:
187,36,90070,1,4,0:0:0:0:
154,32,90145,1,0,0:0:0:0:
123,44,90220,1,8,0:0:0:0:
108,73,90295,1,0,0:0:0:0:
111,105,90370,6,0,P|120:127|139:146,1,46.8750017881394,4|0,0:0|0:0,0:0:0:0:
285,51,90520,2,0,P|260:1|241:-12,1,46.8750017881394,8|0,0:0|0:0,0:0:0:0:
177,200,90670,2,0,P|216:195|241:177,1,46.8750017881394,4|0,0:0|0:0,0:0:0:0:
181,11,90820,2,0,P|158:4|135:3,1,46.8750017881394,8|0,0:0|0:0,0:0:0:0:
97,226,90970,38,0,P|120:260|142:274,1,46.8750017881394,4|0,0:0|0:0,0:0:0:0:
311,189,91120,2,0,P|348:166|360:151,1,46.8750017881394,8|0,0:0|0:0,0:0:0:0:
71,220,91270,2,0,P|85:258|104:276,1,46.8750017881394,4|0,0:0|0:0,0:0:0:0:
308,211,91420,2,0,P|350:197|365:185,1,46.8750017881394,8|0,0:0|0:0,0:0:0:0:
40,148,91570,6,0,P|1:180|-8:199,3,46.8750017881394,4|0|8|0,0:0|0:0|0:0|0:0,0:0:0:0:
165,274,91870,2,0,P|204:242|213:223,3,46.8750017881394,4|0|8|0,0:0|0:0|0:0|0:0,0:0:0:0:
254,104,92170,38,0,P|224:128|218:142,3,46.8750017881394,4|0|8|0,0:0|0:0|0:0|0:0,0:0:0:0:
347,198,92470,2,0,P|376:173|383:159,3,46.8750017881394,4|0|8|0,0:0|0:0|0:0|0:0,0:0:0:0:
418,31,92770,5,4,0:0:0:0:
445,38,92845,1,0,0:0:0:0:
467,54,92920,1,8,0:0:0:0:
485,75,92995,1,0,0:0:0:0:
495,101,93070,1,4,0:0:0:0:
499,128,93145,1,0,0:0:0:0:
495,155,93220,1,8,0:0:0:0:
484,181,93295,1,0,0:0:0:0:
459,209,93370,1,4,0:0:0:0:
424,224,93445,1,0,0:0:0:0:
393,245,93520,1,8,0:0:0:0:
376,278,93595,1,0,0:0:0:0:
374,315,93670,1,4,0:0:0:0:
387,349,93745,1,0,0:0:0:0:
419,367,93820,1,8,0:0:0:0:
456,366,93895,1,0,0:0:0:0:
485,329,93970,37,4,0:0:0:0:
449,298,94045,1,0,0:0:0:0:
402,290,94120,1,8,0:0:0:0:
358,306,94195,1,0,0:0:0:0:
323,337,94270,1,4,0:0:0:0:
281,358,94345,1,0,0:0:0:0:
234,364,94420,1,8,0:0:0:0:
188,352,94495,1,0,0:0:0:0:
153,314,94570,1,4,0:0:0:0:
140,263,94645,1,0,0:0:0:0:
147,211,94720,1,8,0:0:0:0:
171,165,94795,1,0,0:0:0:0:
171,113,94870,1,4,0:0:0:0:
149,66,94945,1,0,0:0:0:0:
98,40,95020,1,8,0:0:0:0:
42,49,95095,1,0,0:0:0:0:
2,101,95170,5,8,0:0:0:0:
50,145,95245,1,4,0:0:0:0:
115,145,95320,1,4,0:0:0:0:
161,99,95395,1,4,0:0:0:0:
195,37,95470,1,0,0:0:0:0:
256,3,95545,1,4,0:0:0:0:
326,2,95620,1,4,0:0:0:0:
390,28,95695,1,4,0:0:0:0:
421,96,95770,1,0,0:0:0:0:
414,170,95845,1,4,0:0:0:0:
359,221,95920,1,4,0:0:0:0:
284,226,95995,1,4,0:0:0:0:
223,182,96070,1,0,0:0:0:0:
149,167,96145,1,4,0:0:0:0:
83,212,96220,1,4,0:0:0:0:
90,302,96295,1,4,0:0:0:0:
162,345,96370,38,0,L|159:312,1,23.4375008940697,4|4,0:0|0:0,0:0:0:0:
45,154,96520,2,0,L|42:187,1,23.4375008940697
144,363,96670,2,0,L|141:330,1,23.4375008940697
20,340,96970,6,0,L|23:307,1,23.4375008940697
178,157,97120,2,0,L|181:190,1,23.4375008940697
41,357,97270,2,0,L|44:324,1,23.4375008940697
41,357,97570,5,4,0:0:0:0:
75,320,97645,1,0,0:0:0:0:
119,298,97720,1,0,0:0:0:0:
168,298,97795,1,0,0:0:0:0:
215,314,97870,6,0,P|252:346|263:373,1,62.5,14|0,0:0|0:0,0:0:0:0:
238,298,98020,2,0,P|258:360|258:366,1,62.5
106,186,98170,38,0,P|69:218|58:245,1,62.5,14|0,0:0|0:0,0:0:0:0:
83,170,98320,2,0,P|63:232|63:238,1,62.5
330,243,98470,6,0,P|322:309|319:314,1,62.5,14|0,0:0|0:0,0:0:0:0:
26,373,98620,2,0,P|14:345|14:303,1,62.5,2|0,0:0|0:0,0:0:0:0:
356,234,98770,37,14,0:0:0:0:
365,283,98845,1,0,0:0:0:0:
354,331,98920,1,0,0:0:0:0:
324,371,98995,1,0,0:0:0:0:
272,383,99070,6,0,P|215:377|189:361,1,62.5,14|0,0:0|0:0,0:0:0:0:
270,358,99220,2,0,P|231:375|199:373,1,62.5
452,302,99370,38,0,P|509:296|535:280,1,62.5,14|0,0:0|0:0,0:0:0:0:
454,277,99520,2,0,P|493:294|525:292,1,62.5
270,185,99670,6,0,P|231:202|199:200,1,62.5,14|0,0:0|0:0,0:0:0:0:
493,89,99820,2,0,P|510:127|510:169,1,62.5,2|0,0:0|0:0,0:0:0:0:
212,297,99970,37,14,0:0:0:0:
165,279,100045,1,0,0:0:0:0:
134,240,100120,1,0,0:0:0:0:
122,192,100195,1,0,0:0:0:0:
134,144,100270,6,0,P|156:110|188:90,1,62.5,14|0,0:0|0:0,0:0:0:0:
118,123,100420,2,0,P|160:100|183:96,1,62.5
348,23,100570,38,0,P|382:40|420:44,1,62.5,14|0,0:0|0:0,0:0:0:0:
343,46,100720,2,0,P|391:48|413:42,1,62.5
164,19,100870,6,0,P|200:25|243:58,1,62.5,14|0,0:0|0:0,0:0:0:0:
398,119,101020,2,0,P|443:106|466:87,1,62.5,2|0,0:0|0:0,0:0:0:0:
84,43,101170,37,14,0:0:0:0:
51,81,101245,1,0,0:0:0:0:
37,129,101320,1,0,0:0:0:0:
42,178,101395,1,0,0:0:0:0:
72,217,101470,6,0,P|135:242|145:241,1,62.5,14|0,0:0|0:0,0:0:0:0:
234,47,101620,2,0,P|177:97|173:111,1,62.5,2|0,0:0|0:0,0:0:0:0:
296,254,101770,38,0,L|288:174,1,62.5,14|0,0:0|0:0,0:0:0:0:
27,320,101920,2,0,L|19:400,1,62.5,2|0,0:0|0:0,0:0:0:0:
224,137,102070,5,14,0:0:0:0:
242,139,102145,1,0,0:0:0:0:
260,142,102220,1,0,0:0:0:0:
278,146,102295,1,0,0:0:0:0:
296,149,102370,37,14,0:0:0:0:
246,157,102445,1,0,0:0:0:0:
196,165,102520,2,0,L|123:177,1,62.5
415,303,102670,5,14,0:0:0:0:
407,253,102745,1,0,0:0:0:0:
399,203,102820,2,0,L|387:130,1,62.5
133,0,102970,37,14,0:0:0:0:
126,43,103045,1,0,0:0:0:0:
119,86,103120,2,0,L|107:159,1,62.5
325,259,103270,5,14,0:0:0:0:
318,222,103345,1,0,0:0:0:0:
310,185,103420,2,0,L|298:112,1,62.5
59,357,103570,37,14,0:0:0:0:
114,365,103645,1,0,0:0:0:0:
169,374,103720,2,0,L|242:386,1,62.5
162,34,103870,5,14,0:0:0:0:
112,42,103945,1,0,0:0:0:0:
62,50,104020,2,0,L|-11:62,1,62.5
45,271,104170,37,14,0:0:0:0:
88,278,104245,1,0,0:0:0:0:
131,284,104320,2,0,L|204:296,1,62.5
190,113,104470,5,14,0:0:0:0:
152,118,104545,1,0,0:0:0:0:
115,125,104620,2,0,L|42:137,1,62.5
287,313,104770,37,14,0:0:0:0:
296,263,104845,1,0,0:0:0:0:
304,213,104920,1,0,0:0:0:0:
312,163,104995,1,0,0:0:0:0:
321,113,105070,1,14,0:0:0:0:
356,77,105145,1,0,0:0:0:0:
398,68,105220,5,0,0:0:0:0:
440,77,105295,1,0,0:0:0:0:
471,107,105370,1,14,0:0:0:0:
484,148,105445,1,0,0:0:0:0:
475,191,105520,1,0,0:0:0:0:
450,227,105595,1,0,0:0:0:0:
402,242,105670,37,14,0:0:0:0:
354,227,105745,1,0,0:0:0:0:
323,187,105820,1,0,0:0:0:0:
281,159,105895,1,0,0:0:0:0:
231,159,105970,1,14,0:0:0:0:
187,184,106045,1,0,0:0:0:0:
168,223,106120,5,0,0:0:0:0:
167,266,106195,1,0,0:0:0:0:
191,302,106270,1,14,0:0:0:0:
229,321,106345,1,0,0:0:0:0:
272,314,106420,1,0,0:0:0:0:
299,279,106495,1,0,0:0:0:0:
298,235,106570,37,14,0:0:0:0:
264,206,106645,1,0,0:0:0:0:
220,208,106720,1,0,0:0:0:0:
193,242,106795,1,0,0:0:0:0:
199,291,106870,5,14,0:0:0:0:
178,336,106945,1,0,0:0:0:0:
132,356,107020,1,0,0:0:0:0:
82,349,107095,1,0,0:0:0:0:
45,314,107170,37,14,0:0:0:0:
39,263,107245,1,0,0:0:0:0:
32,213,107320,1,0,0:0:0:0:
26,163,107395,1,0,0:0:0:0:
22,113,107470,6,0,P|36:67|58:42,1,62.5,14|0,0:0|0:0,0:0:0:0:
1,98,107620,2,0,P|26:67|51:54,1,62.5
155,197,107770,38,0,P|141:243|119:268,1,62.5,14|0,0:0|0:0,0:0:0:0:
176,212,107920,2,0,P|151:243|126:256,1,62.5
128,0,108070,6,0,P|179:14|199:30,1,62.5,14|0,0:0|0:0,0:0:0:0:
44,249,108220,2,0,P|9:215|0:185,1,62.5,2|0,0:0|0:0,0:0:0:0:
261,82,108370,37,14,0:0:0:0:
243,128,108445,1,0,0:0:0:0:
243,178,108520,1,0,0:0:0:0:
265,222,108595,1,0,0:0:0:0:
307,248,108670,6,0,P|371:260|388:255,1,62.5,14|0,0:0|0:0,0:0:0:0:
307,275,108820,2,0,P|351:269|375:254,1,62.5
512,146,108970,38,0,P|448:134|431:139,1,62.5,14|0,0:0|0:0,0:0:0:0:
512,119,109120,2,0,P|468:125|444:140,1,62.5
444,277,109270,6,0,P|502:315|516:318,1,62.5,14|0,0:0|0:0,0:0:0:0:
372,120,109420,2,0,P|314:82|300:79,1,62.5,2|0,0:0|0:0,0:0:0:0:
376,328,109570,37,14,0:0:0:0:
340,363,109645,1,0,0:0:0:0:
292,377,109720,1,0,0:0:0:0:
242,373,109795,1,0,0:0:0:0:
197,349,109870,6,0,P|155:299|150:281,1,62.5,14|0,0:0|0:0,0:0:0:0:
212,328,110020,2,0,P|152:299|136:278,1,62.5
302,173,110170,38,0,P|260:223|255:241,1,62.5,14|0,0:0|0:0,0:0:0:0:
317,194,110320,2,0,P|257:223|241:244,1,62.5
396,350,110470,6,0,P|416:281|412:265,1,62.5,14|0,0:0|0:0,0:0:0:0:
202,165,110620,2,0,P|182:234|186:250,1,62.5,2|0,0:0|0:0,0:0:0:0:
498,273,110770,37,14,0:0:0:0:
474,228,110845,1,0,0:0:0:0:
432,199,110920,1,0,0:0:0:0:
382,190,110995,1,0,0:0:0:0:
333,201,111070,6,0,P|298:224|279:262,1,62.5,14|0,0:0|0:0,0:0:0:0:
491,134,111220,2,0,P|481:71|472:57,1,62.5,2|0,0:0|0:0,0:0:0:0:
354,306,111370,38,0,L|430:311,1,62.5,14|0,0:0|0:0,0:0:0:0:
397,49,111520,2,0,L|321:54,1,62.5,2|0,0:0|0:0,0:0:0:0:
234,227,111670,5,4,0:0:0:0:
252,228,111745,1,4,0:0:0:0:
270,229,111820,1,4,0:0:0:0:
288,230,111895,1,4,0:0:0:0:
306,231,111970,37,10,0:0:0:0:
347,203,112045,1,0,0:0:0:0:
357,154,112120,1,0,0:0:0:0:
338,107,112195,1,0,0:0:0:0:
291,88,112270,1,14,0:0:0:0:
242,101,112345,1,0,0:0:0:0:
213,142,112420,1,0,0:0:0:0:
166,161,112495,1,0,0:0:0:0:
116,155,112570,5,14,0:0:0:0:
76,123,112645,1,0,0:0:0:0:
61,75,112720,1,0,0:0:0:0:
80,29,112795,1,0,0:0:0:0:
126,10,112870,1,14,0:0:0:0:
169,34,112945,1,0,0:0:0:0:
182,82,113020,1,0,0:0:0:0:
166,129,113095,1,0,0:0:0:0:
126,160,113170,37,14,0:0:0:0:
114,215,113245,1,0,0:0:0:0:
141,264,113320,1,0,0:0:0:0:
195,279,113395,1,0,0:0:0:0:
246,256,113470,2,0,P|270:208|262:174,1,62.5,14|0,0:0|0:0,0:0:0:0:
56,289,113620,5,0,0:0:0:0:
80,332,113695,1,0,0:0:0:0:
121,360,113770,1,14,0:0:0:0:
169,370,113845,1,0,0:0:0:0:
218,368,113920,2,0,P|262:344|281:318,1,62.5
317,149,114070,37,14,0:0:0:0:
319,167,114145,1,0,0:0:0:0:
321,185,114220,1,0,0:0:0:0:
324,203,114295,1,0,0:0:0:0:
327,221,114370,5,6,0:0:0:0:
386,254,114445,1,4,0:0:0:0:
454,252,114520,1,12,0:0:0:0:
502,203,114595,1,12,0:0:0:0:
510,134,114670,1,8,0:0:0:0:
474,74,114745,1,12,0:0:0:0:
406,58,114820,1,4,0:0:0:0:
344,88,114895,1,4,0:0:0:0:
317,149,114970,1,0,0:0:0:0:
251,168,115045,1,4,0:0:0:0:
188,138,115120,38,0,P|165:107|160:74,1,62.5,4|0,0:0|0:0,0:0:0:0:
403,151,115270,2,0,P|399:182|384:212,1,62.5
201,18,115420,2,0,P|236:12|285:21,1,62.5
164,250,115570,21,6,0:0:0:0:
512,0,115870,1,6,0:0:0:0:
173,127,116170,5,6,0:0:0:0:
499,112,116470,1,6,0:0:0:0:
80,130,116770,5,12,0:0:0:0:
28,175,116845,1,0,0:0:0:0:
24,243,116920,1,8,0:0:0:0:
65,297,116995,1,0,0:0:0:0:
133,304,117070,1,12,0:0:0:0:
189,264,117145,1,0,0:0:0:0:
255,247,117220,1,8,0:0:0:0:
321,265,117295,1,0,0:0:0:0:
365,317,117370,1,12,0:0:0:0:
427,346,117445,1,0,0:0:0:0:
492,324,117520,1,8,0:0:0:0:
511,258,117595,1,0,0:0:0:0:
475,199,117670,1,12,0:0:0:0:
406,199,117745,1,0,0:0:0:0:
366,255,117820,1,8,0:0:0:0:
393,318,117895,1,0,0:0:0:0:
460,330,117970,6,0,P|491:316|514:277,1,62.5,12|0,0:0|0:0,0:0:0:0:
333,155,118120,2,0,P|310:185|302:216,1,62.5,8|0,0:0|0:0,0:0:0:0:
349,349,118270,2,0,P|369:372|397:384,1,62.5,12|0,0:0|0:0,0:0:0:0:
397,116,118420,2,0,P|376:92|348:80,1,62.5,8|0,0:0|0:0,0:0:0:0:
274,314,118570,37,12,0:0:0:0:
246,340,118645,1,0,0:0:0:0:
210,353,118720,1,8,0:0:0:0:
166,351,118795,1,0,0:0:0:0:
125,333,118870,1,12,0:0:0:0:
96,292,118945,1,0,0:0:0:0:
93,242,119020,1,8,0:0:0:0:
112,189,119095,1,0,0:0:0:0:
98,134,119170,5,12,0:0:0:0:
42,174,119245,1,0,0:0:0:0:
25,240,119320,1,8,0:0:0:0:
50,303,119395,1,0,0:0:0:0:
103,334,119470,1,12,0:0:0:0:
165,330,119545,1,0,0:0:0:0:
213,290,119620,1,8,0:0:0:0:
234,231,119695,1,0,0:0:0:0:
267,185,119770,1,12,0:0:0:0:
319,165,119845,1,0,0:0:0:0:
374,176,119920,1,8,0:0:0:0:
415,214,119995,1,0,0:0:0:0:
422,263,120070,1,12,0:0:0:0:
409,311,120145,1,0,0:0:0:0:
363,332,120220,1,8,0:0:0:0:
317,311,120295,1,0,0:0:0:0:
311,248,120370,37,12,0:0:0:0:
290,307,120445,1,0,0:0:0:0:
320,361,120520,1,8,0:0:0:0:
377,366,120595,1,0,0:0:0:0:
421,332,120670,1,12,0:0:0:0:
423,280,120745,1,0,0:0:0:0:
401,238,120820,1,8,0:0:0:0:
402,194,120895,1,0,0:0:0:0:
448,152,120970,5,12,0:0:0:0:
487,200,121045,1,0,0:0:0:0:
486,262,121120,1,8,0:0:0:0:
449,312,121195,1,0,0:0:0:0:
383,317,121270,1,12,0:0:0:0:
327,280,121345,1,0,0:0:0:0:
311,215,121420,1,8,0:0:0:0:
267,158,121495,1,0,0:0:0:0:
198,139,121570,38,0,P|145:157|123:183,1,62.5,12|0,0:0|0:0,0:0:0:0:
406,233,121720,2,0,P|377:176|356:160,1,62.5,8|0,0:0|0:0,0:0:0:0:
114,232,121870,2,0,P|149:281|176:298,1,62.5,12|0,0:0|0:0,0:0:0:0:
380,104,122020,2,0,P|349:108|323:126,1,62.5,8|0,0:0|0:0,0:0:0:0:
242,318,122170,5,12,0:0:0:0:
276,258,122245,1,0,0:0:0:0:
270,189,122320,1,8,0:0:0:0:
221,139,122395,1,0,0:0:0:0:
152,130,122470,1,12,0:0:0:0:
90,160,122545,1,0,0:0:0:0:
23,142,122620,1,8,0:0:0:0:
0,76,122695,1,0,0:0:0:0:
31,7,122770,37,12,0:0:0:0:
82,41,122845,1,0,0:0:0:0:
101,100,122920,1,8,0:0:0:0:
78,158,122995,1,0,0:0:0:0:
30,207,123070,5,12,0:0:0:0:
93,181,123145,1,0,0:0:0:0:
159,198,123220,1,8,0:0:0:0:
206,248,123295,1,0,0:0:0:0:
207,316,123370,37,12,0:0:0:0:
170,272,123445,1,0,0:0:0:0:
118,249,123520,1,8,0:0:0:0:
61,253,123595,1,0,0:0:0:0:
14,284,123670,5,12,0:0:0:0:
57,275,123745,1,0,0:0:0:0:
98,287,123820,1,8,0:0:0:0:
135,308,123895,1,0,0:0:0:0:
156,345,123970,38,0,P|188:358|228:354,1,62.5,12|0,0:0|0:0,0:0:0:0:
272,154,124120,2,0,P|223:126|190:125,1,62.5,8|0,0:0|0:0,0:0:0:0:
294,349,124270,1,12,0:0:0:0:
330,325,124345,1,0,0:0:0:0:
352,289,124420,2,0,P|372:241|372:212,1,62.5,8|0,0:0|0:0,0:0:0:0:
148,92,124570,6,0,P|155:168|162:178,1,62.5,12|0,0:0|0:0,0:0:0:0:
450,211,124720,2,0,P|432:180|401:157,1,62.5,8|0,0:0|0:0,0:0:0:0:
201,212,124870,2,0,P|238:224|279:218,1,62.5,12|0,0:0|0:0,0:0:0:0:
371,96,125020,2,0,P|337:142|334:178,1,62.5,8|0,0:0|0:0,0:0:0:0:
201,212,125170,37,12,0:0:0:0:
178,160,125245,1,8,0:0:0:0:
181,103,125320,1,8,0:0:0:0:
214,57,125395,1,8,0:0:0:0:
266,37,125470,5,12,0:0:0:0:
266,93,125545,1,0,0:0:0:0:
232,145,125620,1,0,0:0:0:0:
163,152,125695,1,0,0:0:0:0:
104,129,125770,1,4,0:0:0:0:
47,133,125845,1,0,0:0:0:0:
9,165,125920,1,4,0:0:0:0:
5,208,125995,1,4,0:0:0:0:
26,252,126070,1,4,0:0:0:0:
77,274,126145,1,0,0:0:0:0:
135,251,126220,1,4,0:0:0:0:
203,257,126295,1,4,0:0:0:0:
245,312,126370,5,12,0:0:0:0:
324,102,126520,2,0,L|326:139,1,23.4375008940697,8|0,0:0|0:0,0:0:0:0:
268,321,126670,2,0,L|265:290,1,23.4375008940697,8|0,0:0|0:0,0:0:0:0:
379,275,126970,5,8,0:0:0:0:
212,130,127120,1,8,0:0:0:0:
365,293,127270,1,8,0:0:0:0:
365,293,127570,37,6,0:0:0:0:
211,153,127720,1,10,0:0:0:0:
58,353,127870,1,4,0:0:0:0:
58,353,127945,1,4,0:0:0:0:
58,353,128020,1,10,0:0:0:0:
39,172,128170,6,0,L|47:284,1,93.7500035762788,4|10,0:0|0:0,0:0:0:0:
266,149,128470,1,4,0:0:0:0:
266,149,128545,1,4,0:0:0:0:
266,149,128620,38,0,L|276:41,1,93.7500035762788,10|4,0:0|0:0,0:0:0:0:
33,87,128920,1,10,0:0:0:0:
259,238,129070,1,4,0:0:0:0:
259,238,129145,1,4,0:0:0:0:
259,238,129220,1,10,0:0:0:0:
45,345,129370,5,4,0:0:0:0:
71,129,129520,2,0,L|73:82,1,46.8750017881394,10|0,0:0|0:0,0:0:0:0:
227,246,129670,2,0,L|225:194,1,46.8750017881394,4|0,0:0|0:0,0:0:0:0:
70,333,129820,2,0,L|68:385,1,46.8750017881394,10|0,0:0|0:0,0:0:0:0:
204,260,129970,37,4,0:0:0:0:
197,220,130045,1,0,0:0:0:0:
171,190,130120,1,10,0:0:0:0:
151,179,130195,1,0,0:0:0:0:
137,161,130270,1,4,0:0:0:0:
127,140,130345,1,4,0:0:0:0:
123,117,130420,1,10,0:0:0:0:
125,94,130495,1,0,0:0:0:0:
132,72,130570,5,4,0:0:0:0:
145,53,130645,1,0,0:0:0:0:
163,38,130720,1,10,0:0:0:0:
186,31,130795,1,0,0:0:0:0:
210,30,130870,1,4,0:0:0:0:
233,37,130945,1,4,0:0:0:0:
253,50,131020,1,10,0:0:0:0:
275,59,131095,1,0,0:0:0:0:
299,61,131170,38,0,P|327:56|356:40,1,46.8750017881394,4|0,0:0|0:0,0:0:0:0:
203,113,131320,2,0,P|239:178|274:197,1,93.7500035762788,10|4,0:0|0:0,0:0:0:0:
439,218,131620,1,10,0:0:0:0:
414,191,131695,1,0,0:0:0:0:
380,177,131770,6,0,P|327:182|320:186,1,46.8750017881394,4|0,0:0|0:0,0:0:0:0:
341,350,131920,2,0,P|364:321|371:297,1,46.8750017881394,10|0,0:0|0:0,0:0:0:0:
286,93,132070,2,0,P|241:145|259:239,1,140.625005364418,4|0,0:0|0:0,0:0:0:0:
288,288,132370,37,4,0:0:0:0:
145,170,132520,1,10,0:0:0:0:
375,68,132670,1,4,0:0:0:0:
375,68,132745,1,4,0:0:0:0:
375,68,132820,1,10,0:0:0:0:
218,253,132970,5,4,0:0:0:0:
500,271,133120,1,10,0:0:0:0:
231,62,133270,1,4,0:0:0:0:
231,62,133345,1,4,0:0:0:0:
231,62,133420,38,0,L|222:156,1,93.7500035762788,10|4,0:0|0:0,0:0:0:0:
412,187,133720,1,10,0:0:0:0:
398,20,133870,1,4,0:0:0:0:
398,20,133945,1,0,0:0:0:0:
398,20,134020,1,10,0:0:0:0:
512,209,134170,5,4,0:0:0:0:
297,119,134320,2,0,L|303:58,1,46.8750017881394,10|0,0:0|0:0,0:0:0:0:
489,198,134470,2,0,L|495:259,1,46.8750017881394,4|4,0:0|0:0,0:0:0:0:
286,245,134620,2,0,L|292:194,1,46.8750017881394,10|0,0:0|0:0,0:0:0:0:
462,185,134770,37,4,0:0:0:0:
429,207,134845,1,0,0:0:0:0:
412,241,134920,1,10,0:0:0:0:
408,264,134995,1,0,0:0:0:0:
414,287,135070,1,4,0:0:0:0:
412,311,135145,1,4,0:0:0:0:
402,333,135220,1,10,0:0:0:0:
385,349,135295,1,0,0:0:0:0:
363,357,135370,5,4,0:0:0:0:
340,357,135445,1,0,0:0:0:0:
318,351,135520,1,10,0:0:0:0:
300,337,135595,1,0,0:0:0:0:
280,327,135670,1,4,0:0:0:0:
257,323,135745,1,4,0:0:0:0:
234,328,135820,1,10,0:0:0:0:
213,339,135895,1,0,0:0:0:0:
197,354,135970,2,0,P|220:375|246:384,1,46.8750017881394,6|0,0:0|0:0,0:0:0:0:
331,242,136120,37,8,0:0:0:0:
310,210,136195,1,8,0:0:0:0:
277,190,136270,1,12,0:0:0:0:
239,184,136345,1,8,0:0:0:0:
208,190,136420,1,8,0:0:0:0:
182,208,136495,1,8,0:0:0:0:
152,219,136570,1,12,0:0:0:0:
120,220,136645,5,8,0:0:0:0:
87,201,136720,1,8,0:0:0:0:
71,166,136795,1,8,0:0:0:0:
76,122,136870,1,12,0:0:0:0:
111,96,136945,1,4,0:0:0:0:
160,96,137020,1,4,0:0:0:0:
196,130,137095,1,4,0:0:0:0:
197,179,137170,38,0,P|189:215|161:246,1,46.8750017881394
0,109,137320,2,0,P|26:63|44:50,1,46.8750017881394,10|0,0:0|0:0,0:0:0:0:
228,281,137470,2,0,P|186:309|153:307,1,46.8750017881394,4|0,0:0|0:0,0:0:0:0:
76,122,137620,2,0,P|104:105|150:109,1,46.8750017881394,10|0,0:0|0:0,0:0:0:0:
124,340,137770,6,0,P|116:287|119:278,1,46.8750017881394,4|0,0:0|0:0,0:0:0:0:
187,139,137920,2,0,P|195:86|192:77,1,46.8750017881394,10|0,0:0|0:0,0:0:0:0:
94,333,138070,2,0,P|96:303|110:275,1,46.8750017881394,4|0,0:0|0:0,0:0:0:0:
216,135,138220,2,0,P|214:105|200:77,1,46.8750017881394,10|0,0:0|0:0,0:0:0:0:
0,135,138370,38,0,P|2:105|16:77,3,46.8750017881394,4|0|10|0,0:0|0:0|0:0|0:0,0:0:0:0:
171,229,138670,2,0,P|177:258|172:288,3,46.8750017881394,4|0|10|0,0:0|0:0|0:0|0:0,0:0:0:0:
309,229,138970,5,4,0:0:0:0:
296,259,139045,1,0,0:0:0:0:
291,292,139120,1,10,0:0:0:0:
302,324,139195,1,0,0:0:0:0:
325,348,139270,1,4,0:0:0:0:
358,352,139345,1,0,0:0:0:0:
389,340,139420,1,10,0:0:0:0:
404,311,139495,1,0,0:0:0:0:
401,279,139570,38,0,P|392:257|373:238,1,46.8750017881394,4|0,0:0|0:0,0:0:0:0:
227,333,139720,2,0,P|252:383|271:396,1,46.8750017881394,10|0,0:0|0:0,0:0:0:0:
335,184,139870,2,0,P|296:189|271:207,1,46.8750017881394,4|0,0:0|0:0,0:0:0:0:
331,373,140020,2,0,P|354:380|377:381,1,46.8750017881394,10|0,0:0|0:0,0:0:0:0:
415,158,140170,6,0,P|392:124|370:110,1,46.8750017881394,4|0,0:0|0:0,0:0:0:0:
224,308,140320,2,0,P|192:337|183:354,1,46.8750017881394,10|0,0:0|0:0,0:0:0:0:
441,164,140470,2,0,P|427:126|408:108,1,46.8750017881394,4|0,0:0|0:0,0:0:0:0:
221,285,140620,2,0,P|183:307|171:322,1,46.8750017881394,10|0,0:0|0:0,0:0:0:0:
472,236,140770,38,0,P|511:204|520:185,3,46.8750017881394,4|0|10|0,0:0|0:0|0:0|0:0,0:0:0:0:
347,110,141070,2,0,P|308:142|299:161,3,46.8750017881394,4|0|10|0,0:0|0:0|0:0|0:0,0:0:0:0:
180,174,141370,6,0,P|175:204|184:231,3,46.8750017881394,4|0|10|0,0:0|0:0|0:0|0:0,0:0:0:0:
205,322,141670,2,0,P|234:321|257:313,3,46.8750017881394,4|0|10|0,0:0|0:0|0:0|0:0,0:0:0:0:
94,353,141970,37,4,0:0:0:0:
67,346,142045,1,0,0:0:0:0:
45,330,142120,1,10,0:0:0:0:
27,309,142195,1,0,0:0:0:0:
17,283,142270,1,4,0:0:0:0:
13,256,142345,1,0,0:0:0:0:
17,229,142420,1,10,0:0:0:0:
28,203,142495,1,0,0:0:0:0:
53,175,142570,5,4,0:0:0:0:
88,160,142645,1,0,0:0:0:0:
119,139,142720,1,10,0:0:0:0:
136,106,142795,1,0,0:0:0:0:
138,69,142870,1,4,0:0:0:0:
125,35,142945,1,0,0:0:0:0:
93,17,143020,1,10,0:0:0:0:
56,18,143095,1,0,0:0:0:0:
27,55,143170,37,4,0:0:0:0:
63,86,143245,1,0,0:0:0:0:
110,94,143320,1,10,0:0:0:0:
154,78,143395,1,0,0:0:0:0:
189,47,143470,1,4,0:0:0:0:
231,26,143545,1,0,0:0:0:0:
278,20,143620,1,10,0:0:0:0:
324,32,143695,1,0,0:0:0:0:
359,70,143770,5,4,0:0:0:0:
372,121,143845,1,0,0:0:0:0:
365,173,143920,1,10,0:0:0:0:
341,219,143995,1,0,0:0:0:0:
341,271,144070,1,4,0:0:0:0:
363,318,144145,1,0,0:0:0:0:
414,344,144220,1,10,0:0:0:0:
469,334,144295,1,0,0:0:0:0:
502,288,144370,38,8,P|496:249|479:224,2,62.5,12|8|8,0:0|0:0|0:0,0:0:0:0:
391,175,144632,1,4,0:0:0:0:
391,175,144745,2,0,B|351:138|363:95|363:95|354:45|300:35|300:35|273:75|214:83|214:83|212:136|257:163|257:163|225:154|188:159,1,437.5,4|4,0:0|0:0,0:0:0:0:
106,177,145420,5,4,0:0:0:0:
221,237,145620,37,4,0:0:0:0:
337,195,145832,5,4,0:0:0:0:
479,256,146057,37,4,0:0:0:0:
468,40,146770,21,14,0:0:0:0:
434,77,146845,1,0,0:0:0:0:
390,99,146920,1,0,0:0:0:0:
341,99,146995,1,0,0:0:0:0:
294,83,147070,6,0,P|257:51|246:24,1,62.5,14|0,0:0|0:0,0:0:0:0:
271,99,147220,2,0,P|251:37|251:31,1,62.5
384,203,147370,38,0,P|421:171|432:144,1,62.5,14|0,0:0|0:0,0:0:0:0:
407,219,147520,2,0,P|427:157|427:151,1,62.5
182,141,147670,6,0,P|190:75|193:70,1,62.5,14|0,0:0|0:0,0:0:0:0:
408,297,147820,2,0,P|364:313|328:305,1,62.5,2|0,0:0|0:0,0:0:0:0:
156,150,147970,37,14,0:0:0:0:
147,101,148045,1,0,0:0:0:0:
158,53,148120,1,0,0:0:0:0:
188,13,148195,1,0,0:0:0:0:
240,1,148270,6,0,P|297:7|323:23,1,62.5,14|0,0:0|0:0,0:0:0:0:
242,26,148420,2,0,P|281:9|313:11,1,62.5
60,82,148570,38,0,P|3:88|-23:104,1,62.5,14|0,0:0|0:0,0:0:0:0:
58,107,148720,2,0,P|19:90|-13:92,1,62.5
242,199,148870,6,0,P|281:182|313:184,1,62.5,14|0,0:0|0:0,0:0:0:0:
19,295,149020,2,0,P|2:257|2:215,1,62.5,2|0,0:0|0:0,0:0:0:0:
300,87,149170,37,14,0:0:0:0:
347,105,149245,1,0,0:0:0:0:
378,144,149320,1,0,0:0:0:0:
390,192,149395,1,0,0:0:0:0:
378,240,149470,6,0,P|356:274|324:294,1,62.5,14|0,0:0|0:0,0:0:0:0:
394,261,149620,2,0,P|352:284|329:288,1,62.5
159,357,149770,38,0,P|125:335|88:329,1,62.5,14|0,0:0|0:0,0:0:0:0:
165,331,149920,2,0,P|117:326|94:331,1,62.5
348,365,150070,6,0,P|312:359|269:326,1,62.5,14|0,0:0|0:0,0:0:0:0:
112,254,150220,2,0,P|67:267|44:286,1,62.5,2|0,0:0|0:0,0:0:0:0:
428,341,150370,37,14,0:0:0:0:
461,303,150445,1,0,0:0:0:0:
475,255,150520,1,0,0:0:0:0:
470,206,150595,1,0,0:0:0:0:
440,167,150670,6,0,P|377:142|367:143,1,62.5,14|0,0:0|0:0,0:0:0:0:
278,337,150820,2,0,P|335:287|339:273,1,62.5,2|0,0:0|0:0,0:0:0:0:
408,51,150970,38,0,L|331:60,1,62.5,14|0,0:0|0:0,0:0:0:0:
415,300,151120,2,0,L|479:309,1,62.5,2|0,0:0|0:0,0:0:0:0:
244,66,151270,5,14,0:0:0:0:
226,64,151345,1,0,0:0:0:0:
208,61,151420,1,0,0:0:0:0:
190,57,151495,1,0,0:0:0:0:
171,55,151570,37,14,0:0:0:0:
221,47,151645,1,0,0:0:0:0:
271,39,151720,2,0,L|344:27,1,62.5
512,81,151870,5,14,0:0:0:0:
504,131,151945,1,0,0:0:0:0:
496,181,152020,2,0,L|484:254,1,62.5
230,384,152170,37,14,0:0:0:0:
223,340,152245,1,0,0:0:0:0:
216,296,152320,2,0,L|204:223,1,62.5
422,125,152470,5,14,0:0:0:0:
416,162,152545,1,0,0:0:0:0:
410,199,152620,2,0,L|398:272,1,62.5
294,31,152770,37,14,0:0:0:0:
349,21,152845,1,0,0:0:0:0:
404,10,152920,2,0,L|477:-2,1,62.5
458,350,153070,5,14,0:0:0:0:
408,342,153145,1,0,0:0:0:0:
358,334,153220,2,0,L|285:322,1,62.5
279,113,153370,37,14,0:0:0:0:
322,106,153445,1,0,0:0:0:0:
365,99,153520,2,0,L|438:87,1,62.5
486,271,153670,5,14,0:0:0:0:
448,265,153745,1,0,0:0:0:0:
410,259,153820,2,0,L|337:247,1,62.5
225,71,153970,37,14,0:0:0:0:
216,121,154045,1,0,0:0:0:0:
208,171,154120,1,0,0:0:0:0:
200,221,154195,1,0,0:0:0:0:
191,271,154270,1,14,0:0:0:0:
156,307,154345,1,0,0:0:0:0:
114,316,154420,5,0,0:0:0:0:
72,307,154495,1,0,0:0:0:0:
41,277,154570,1,14,0:0:0:0:
28,236,154645,1,0,0:0:0:0:
37,193,154720,1,0,0:0:0:0:
62,157,154795,1,0,0:0:0:0:
110,142,154870,37,14,0:0:0:0:
158,157,154945,1,0,0:0:0:0:
189,197,155020,1,0,0:0:0:0:
231,225,155095,1,0,0:0:0:0:
281,225,155170,1,14,0:0:0:0:
325,200,155245,1,0,0:0:0:0:
344,161,155320,5,0,0:0:0:0:
345,118,155395,1,0,0:0:0:0:
321,82,155470,1,14,0:0:0:0:
283,63,155545,1,0,0:0:0:0:
240,70,155620,1,0,0:0:0:0:
213,105,155695,1,0,0:0:0:0:
214,149,155770,37,14,0:0:0:0:
248,178,155845,1,0,0:0:0:0:
292,176,155920,1,0,0:0:0:0:
319,142,155995,1,0,0:0:0:0:
313,93,156070,5,14,0:0:0:0:
334,48,156145,1,0,0:0:0:0:
380,28,156220,1,0,0:0:0:0:
430,35,156295,1,0,0:0:0:0:
467,70,156370,37,14,0:0:0:0:
473,121,156445,1,0,0:0:0:0:
480,171,156520,1,0,0:0:0:0:
486,221,156595,1,0,0:0:0:0:
490,271,156670,6,0,P|476:317|454:342,1,62.5,14|0,0:0|0:0,0:0:0:0:
511,286,156820,2,0,P|486:317|461:330,1,62.5
357,187,156970,38,0,P|371:141|393:116,1,62.5,14|0,0:0|0:0,0:0:0:0:
336,172,157120,2,0,P|361:141|386:128,1,62.5
384,384,157270,6,0,P|333:370|313:354,1,62.5,14|0,0:0|0:0,0:0:0:0:
468,135,157420,2,0,P|503:169|512:199,1,62.5,2|0,0:0|0:0,0:0:0:0:
251,302,157570,37,14,0:0:0:0:
269,256,157645,1,0,0:0:0:0:
269,206,157720,1,0,0:0:0:0:
247,162,157795,1,0,0:0:0:0:
205,136,157870,6,0,P|141:124|124:129,1,62.5,14|0,0:0|0:0,0:0:0:0:
205,109,158020,2,0,P|161:115|137:130,1,62.5
0,238,158170,38,0,P|64:250|81:245,1,62.5,14|0,0:0|0:0,0:0:0:0:
0,265,158320,2,0,P|44:259|68:244,1,62.5
68,107,158470,6,0,P|10:69|-4:66,1,62.5,14|0,0:0|0:0,0:0:0:0:
140,264,158620,2,0,P|198:302|212:305,1,62.5,2|0,0:0|0:0,0:0:0:0:
136,56,158770,37,14,0:0:0:0:
172,21,158845,1,0,0:0:0:0:
220,7,158920,1,0,0:0:0:0:
270,11,158995,1,0,0:0:0:0:
315,35,159070,6,0,P|357:85|362:103,1,62.5,14|0,0:0|0:0,0:0:0:0:
300,56,159220,2,0,P|360:85|376:106,1,62.5
210,211,159370,38,0,P|252:161|257:143,1,62.5,14|0,0:0|0:0,0:0:0:0:
195,190,159520,2,0,P|255:161|271:140,1,62.5
116,34,159670,6,0,P|96:103|100:119,1,62.5,14|0,0:0|0:0,0:0:0:0:
310,219,159820,2,0,P|330:150|326:134,1,62.5,2|0,0:0|0:0,0:0:0:0:
14,111,159970,37,14,0:0:0:0:
38,156,160045,1,0,0:0:0:0:
80,185,160120,1,0,0:0:0:0:
130,194,160195,1,0,0:0:0:0:
179,183,160270,6,0,P|214:160|233:122,1,62.5,14|0,0:0|0:0,0:0:0:0:
21,250,160420,2,0,P|31:313|40:327,1,62.5,2|0,0:0|0:0,0:0:0:0:
306,262,160570,38,0,L|230:257,1,62.5,14|0,0:0|0:0,0:0:0:0:
0,114,160720,2,0,L|76:109,1,62.5,2|0,0:0|0:0,0:0:0:0:
278,157,160870,5,14,0:0:0:0:
260,156,160945,1,4,0:0:0:0:
242,155,161020,1,4,0:0:0:0:
224,154,161095,1,4,0:0:0:0:
206,153,161170,37,14,0:0:0:0:
165,181,161245,1,0,0:0:0:0:
155,230,161320,1,0,0:0:0:0:
174,277,161395,1,0,0:0:0:0:
221,296,161470,1,14,0:0:0:0:
270,283,161545,1,0,0:0:0:0:
299,242,161620,1,0,0:0:0:0:
346,223,161695,1,0,0:0:0:0:
396,229,161770,5,14,0:0:0:0:
436,261,161845,1,0,0:0:0:0:
451,309,161920,1,0,0:0:0:0:
432,355,161995,1,0,0:0:0:0:
386,374,162070,1,14,0:0:0:0:
343,350,162145,1,0,0:0:0:0:
330,302,162220,1,0,0:0:0:0:
346,255,162295,1,0,0:0:0:0:
386,224,162370,37,14,0:0:0:0:
398,169,162445,1,0,0:0:0:0:
371,120,162520,1,0,0:0:0:0:
317,105,162595,1,0,0:0:0:0:
266,128,162670,2,0,P|242:176|250:210,1,62.5,14|0,0:0|0:0,0:0:0:0:
456,95,162820,5,0,0:0:0:0:
432,52,162895,1,0,0:0:0:0:
391,24,162970,1,14,0:0:0:0:
343,14,163045,1,0,0:0:0:0:
293,17,163120,2,0,P|249:41|226:63,1,62.5
386,224,163270,37,14,0:0:0:0:
191,199,163420,1,0,0:0:0:0:
188,181,163495,1,0,0:0:0:0:
185,163,163570,5,6,0:0:0:0:
126,130,163645,1,4,0:0:0:0:
58,132,163720,1,4,0:0:0:0:
10,181,163795,1,4,0:0:0:0:
2,250,163870,1,4,0:0:0:0:
38,310,163945,1,4,0:0:0:0:
106,326,164020,1,4,0:0:0:0:
168,296,164095,1,4,0:0:0:0:
195,235,164170,1,4,0:0:0:0:
261,216,164245,1,4,0:0:0:0:
324,246,164320,38,0,P|347:277|352:310,1,62.5,4|0,0:0|0:0,0:0:0:0:
109,232,164470,2,0,P|113:201|128:171,1,62.5
311,366,164620,2,0,P|276:372|227:363,1,62.5
348,134,164770,37,6,0:0:0:0:
0,384,165070,1,6,0:0:0:0:
153,92,165370,37,6,0:0:0:0:
193,357,165670,1,6,0:0:0:0:
131,0,165970,21,12,0:0:0:0:
126,8,166045,1,0,0:0:0:0:
119,18,166120,1,8,0:0:0:0:
115,30,166195,1,0,0:0:0:0:
109,49,166270,1,12,0:0:0:0:
105,75,166345,1,0,0:0:0:0:
90,102,166420,1,8,0:0:0:0:
64,129,166495,1,0,0:0:0:0:
50,150,166570,5,12,0:0:0:0:
45,180,166645,1,0,0:0:0:0:
53,216,166720,1,8,0:0:0:0:
80,241,166795,1,0,0:0:0:0:
122,250,166870,1,12,0:0:0:0:
162,234,166945,1,0,0:0:0:0:
186,190,167020,1,8,0:0:0:0:
230,156,167095,1,0,0:0:0:0:
314,133,167170,37,12,0:0:0:0:
390,174,167245,1,0,0:0:0:0:
407,259,167320,1,8,0:0:0:0:
370,338,167395,1,0,0:0:0:0:
284,354,167470,1,12,0:0:0:0:
207,311,167545,1,0,0:0:0:0:
154,241,167620,1,8,0:0:0:0:
69,217,167695,1,0,0:0:0:0:
2,274,167770,1,12,0:0:0:0:
26,358,167845,1,0,0:0:0:0:
109,384,167920,1,8,0:0:0:0:
171,323,167995,1,0,0:0:0:0:
168,235,168070,1,12,0:0:0:0:
112,167,168145,1,0,0:0:0:0:
48,106,168220,1,8,0:0:0:0:
64,20,168295,1,0,0:0:0:0:
146,1,168370,5,12,0:0:0:0:
190,44,168445,1,0,0:0:0:0:
194,100,168520,1,8,0:0:0:0:
175,153,168595,1,0,0:0:0:0:
129,185,168670,1,12,0:0:0:0:
94,221,168745,1,0,0:0:0:0:
87,270,168820,1,8,0:0:0:0:
101,317,168895,1,0,0:0:0:0:
136,343,168970,37,12,0:0:0:0:
179,348,169045,1,0,0:0:0:0:
219,331,169120,1,8,0:0:0:0:
242,294,169195,1,0,0:0:0:0:
247,244,169270,1,12,0:0:0:0:
274,202,169345,1,0,0:0:0:0:
328,187,169420,1,8,0:0:0:0:
378,211,169495,1,0,0:0:0:0:
393,263,169570,6,0,P|390:294|375:322,3,62.5,12|0|8|0,0:0|0:0|0:0|0:0,0:0:0:0:
255,143,169870,2,0,P|258:173|273:201,3,62.5,12|0|8|0,0:0|0:0|0:0|0:0,0:0:0:0:
431,143,170170,38,0,P|461:139|489:124,3,62.5,12|0|8|0,0:0|0:0|0:0|0:0,0:0:0:0:
252,113,170470,2,0,P|237:139|235:170,3,62.5,12|0|8|0,0:0|0:0|0:0|0:0,0:0:0:0:
430,62,170770,5,12,0:0:0:0:
382,78,170845,1,0,0:0:0:0:
357,117,170920,1,8,0:0:0:0:
353,154,170995,1,0,0:0:0:0:
368,188,171070,1,12,0:0:0:0:
405,216,171145,1,0,0:0:0:0:
439,229,171220,1,8,0:0:0:0:
466,254,171295,1,0,0:0:0:0:
487,309,171370,37,12,0:0:0:0:
469,356,171445,1,0,0:0:0:0:
430,380,171520,1,8,0:0:0:0:
388,372,171595,1,0,0:0:0:0:
354,335,171670,1,12,0:0:0:0:
338,293,171745,1,0,0:0:0:0:
312,265,171820,1,8,0:0:0:0:
279,255,171895,1,0,0:0:0:0:
208,263,171970,5,12,0:0:0:0:
181,297,172045,1,0,0:0:0:0:
172,333,172120,1,8,0:0:0:0:
181,369,172195,1,0,0:0:0:0:
252,366,172270,37,12,0:0:0:0:
218,339,172345,1,0,0:0:0:0:
182,330,172420,1,8,0:0:0:0:
146,339,172495,1,0,0:0:0:0:
88,378,172570,5,12,0:0:0:0:
61,344,172645,1,0,0:0:0:0:
52,308,172720,1,8,0:0:0:0:
61,272,172795,1,0,0:0:0:0:
108,218,172870,37,12,0:0:0:0:
124,177,172945,1,0,0:0:0:0:
123,140,173020,1,8,0:0:0:0:
104,108,173095,1,0,0:0:0:0:
61,84,173170,6,0,P|28:134|26:157,1,62.5,12|0,0:0|0:0,0:0:0:0:
215,271,173320,2,0,P|245:251|264:215,1,62.5,8|0,0:0|0:0,0:0:0:0:
50,206,173470,2,0,P|70:258|98:272,1,62.5,12|0,0:0|0:0,0:0:0:0:
234,147,173620,2,0,P|206:116|185:107,1,62.5,8|0,0:0|0:0,0:0:0:0:
155,249,173770,38,0,P|196:243|221:217,1,62.5,12|0,0:0|0:0,0:0:0:0:
114,140,173920,2,0,P|98:192|101:213,1,62.5,8|0,0:0|0:0,0:0:0:0:
163,268,174070,2,0,P|194:250|217:222,1,62.5,12|0,0:0|0:0,0:0:0:0:
89,138,174220,2,0,P|92:184|99:201,1,62.5,8|0,0:0|0:0,0:0:0:0:
271,282,174370,5,12,0:0:0:0:
308,277,174445,1,0,0:0:0:0:
345,272,174520,1,8,0:0:0:0:
382,267,174595,1,0,0:0:0:0:
437,221,174670,37,12,0:0:0:0:
405,218,174745,1,0,0:0:0:0:
373,215,174820,1,8,0:0:0:0:
341,212,174895,1,0,0:0:0:0:
285,169,174970,5,12,0:0:0:0:
309,166,175045,1,0,0:0:0:0:
333,163,175120,1,8,0:0:0:0:
357,161,175195,1,0,0:0:0:0:
420,139,175270,37,12,0:0:0:0:
401,136,175345,1,0,0:0:0:0:
382,133,175420,1,8,0:0:0:0:
363,130,175495,1,0,0:0:0:0:
332,125,175570,5,12,0:0:0:0:
302,113,175645,1,0,0:0:0:0:
278,92,175720,1,8,0:0:0:0:
264,63,175795,1,0,0:0:0:0:
236,37,175870,1,12,0:0:0:0:
194,22,175945,1,8,0:0:0:0:
144,28,176020,1,8,0:0:0:0:
112,58,176095,1,8,0:0:0:0:
99,104,176170,37,12,0:0:0:0:
110,152,176245,1,4,0:0:0:0:
150,186,176320,1,4,0:0:0:0:
176,235,176395,1,4,0:0:0:0:
169,293,176470,1,4,0:0:0:0:
131,343,176545,1,4,0:0:0:0:
83,358,176620,1,4,0:0:0:0:
37,345,176695,1,4,0:0:0:0:
5,291,176770,5,4,0:0:0:0:
59,267,176845,1,4,0:0:0:0:
113,281,176920,1,4,0:0:0:0:
149,318,176995,1,4,0:0:0:0:
175,352,177070,1,4,0:0:0:0:
217,372,177145,1,4,0:0:0:0:
266,368,177220,1,4,0:0:0:0:
303,339,177295,1,4,0:0:0:0:
315,296,177370,37,4,0:0:0:0:
306,257,177445,1,4,0:0:0:0:
280,221,177520,1,4,0:0:0:0:
258,187,177595,1,4,0:0:0:0:
257,143,177670,1,4,0:0:0:0:
277,106,177745,1,4,0:0:0:0:
312,95,177820,1,4,0:0:0:0:
342,105,177895,1,4,0:0:0:0:
369,132,177970,1,4,0:0:0:0:
256,192,178120,12,0,182770,0:0:0:0:
256,192,187570,37,2,0:0:0:0:
256,192,187720,12,0,190870,0:0:0:0:
140,146,191170,38,8,L|138:167,1,15.625
120,334,191320,2,0,L|220:325,1,93.75,6|0,0:0|0:0,0:0:0:0:
244,318,191620,6,8,L|242:297,1,15.625
165,150,191770,2,0,L|265:159,1,93.75,6|0,0:0|0:0,0:0:0:0:
281,161,192070,37,6,0:0:0:0:
443,304,192370,6,0,L|435:221,1,74.9999977111817,6|0,0:0|0:0,0:0:0:0:
348,310,192820,2,0,L|340:393,1,74.9999977111817
435,229,193270,38,0,L|360:221,1,74.9999977111817,0|6,0:0|0:0,0:0:0:0:
438,137,193720,2,0,L|512:129,1,74.9999977111817
434,212,194170,6,0,L|359:204,1,74.9999977111817,6|0,0:0|0:0,0:0:0:0:
274,203,194620,2,0,L|199:210,1,74.9999977111817
113,218,195070,1,0,0:0:0:0:
236,306,195370,38,0,L|161:299,1,74.9999977111817,6|0,0:0|0:0,0:0:0:0:
0,380,195970,6,0,L|46:384,1,37.4999988555909,6|0,0:0|0:0,0:0:0:0:
102,312,196270,2,0,L|56:316,1,37.4999988555909
0,249,196570,37,6,0:0:0:0:
89,98,196870,1,8,0:0:0:0:
89,98,197020,1,8,0:0:0:0:
89,98,197170,6,0,L|85:135,1,37.4999988555909,14|0,0:0|0:0,0:0:0:0:
176,188,197470,2,0,L|172:151,1,37.4999988555909
73,75,197770,38,0,L|63:152,1,74.9999977111817,6|0,0:0|0:0,0:0:0:0:
174,167,198220,2,0,L|164:90,1,74.9999977111817
198,19,198670,2,0,L|245:11,1,37.4999988555909
348,25,198970,6,0,L|405:35,1,56.2499982833863,6|0,0:0|0:0,0:0:0:0:
408,42,199270,1,0,0:0:0:0:
411,50,199345,1,0,0:0:0:0:
412,61,199420,1,0,0:0:0:0:
410,74,199495,1,0,0:0:0:0:
405,88,199570,1,4,0:0:0:0:
395,101,199645,1,0,0:0:0:0:
386,119,199720,1,0,0:0:0:0:
381,141,199795,1,0,0:0:0:0:
385,159,199870,1,0,0:0:0:0:
394,172,199945,1,0,0:0:0:0:
405,181,200020,1,0,0:0:0:0:
417,185,200095,1,0,0:0:0:0:
428,187,200170,1,4,0:0:0:0:
437,185,200245,1,0,0:0:0:0:
447,180,200320,1,0,0:0:0:0:
453,173,200395,1,0,0:0:0:0:
459,163,200470,38,0,L|447:145,1,12.4999996185303
431,125,200570,2,0,L|409:125,1,12.4999996185303
373,124,200670,2,0,L|363:140,1,12.4999996185303
338,178,200770,2,0,L|349:194,1,12.4999996185303,10|0,0:0|0:0,0:0:0:0:
367,223,200870,2,0,L|375:236,1,12.4999996185303,0|4,0:0|0:0,0:0:0:0:
387,262,200970,2,0,L|384:279,1,12.4999996185303
375,308,201070,2,0,L|362:317,1,12.4999996185303
324,336,201170,2,0,L|307:329,1,12.4999996185303,0|4,0:0|0:0,0:0:0:0:
278,313,201270,2,0,L|270:294,1,12.4999996185303
257,261,201370,2,0,L|240:248,1,12.4999996185303,10|0,0:0|0:0,0:0:0:0:
197,215,201470,2,0,L|180:216,1,12.4999996185303
106,218,201570,2,0,L|88:233,1,12.4999996185303
43,288,201670,6,0,L|50:352,2,62.5,0|0|4,0:0|0:0|0:0,0:0:0:0:
28,67,202270,37,4,0:0:0:0:
28,67,202420,2,0,L|112:73,1,81.2499962806703,4|14,0:0|0:0,0:0:0:0:
227,154,202720,5,0,0:0:0:0:
227,154,202870,2,0,L|143:160,1,81.2499962806703,4|4,0:0|0:0,0:0:0:0:
347,153,203170,37,6,0:0:0:0:
227,49,203320,2,0,L|311:55,1,81.2499962806703,8|4,0:0|0:0,0:0:0:0:
465,238,203620,5,4,0:0:0:0:
475,71,203770,2,0,L|469:184,1,81.2499962806703,10|0,0:0|0:0,0:0:0:0:
347,236,204070,37,4,0:0:0:0:
347,236,204220,2,0,L|353:349,1,81.2499962806703,4|6,0:0|0:0,0:0:0:0:
507,384,204520,5,0,0:0:0:0:
507,384,204670,2,0,L|513:271,1,81.2499962806703,4|4,0:0|0:0,0:0:0:0:
361,140,204970,38,0,L|367:253,1,81.2499962806703,10|0,0:0|0:0,0:0:0:0:
266,314,205270,2,0,L|272:201,1,81.2499962806703,4|4,0:0|0:0,0:0:0:0:
381,122,205570,5,6,0:0:0:0:
184,277,205720,2,0,L|190:164,1,81.2499962806703,8|4,0:0|0:0,0:0:0:0:
346,199,206020,37,4,0:0:0:0:
149,44,206170,2,0,L|155:157,1,81.2499962806703,10|4,0:0|0:0,0:0:0:0:
55,232,206470,2,0,L|49:345,1,81.2499962806703,6|4,0:0|0:0,0:0:0:0:
204,384,206770,5,6,0:0:0:0:
204,384,206920,2,0,L|198:271,1,81.2499962806703,2|4,0:0|0:0,0:0:0:0:
187,147,207220,37,4,0:0:0:0:
187,147,207370,2,0,L|300:153,1,81.2499962806703,10|4,0:0|0:0,0:0:0:0:
373,268,207670,5,4,0:0:0:0:
373,268,207820,2,0,L|260:274,1,81.2499962806703,2|4,0:0|0:0,0:0:0:0:
216,347,208120,37,6,0:0:0:0:
216,347,208270,2,0,L|329:353,1,81.2499962806703,4|0,0:0|0:0,0:0:0:0:
386,248,208570,6,0,L|258:257,1,121.874994421006,10|0,0:0|0:0,0:0:0:0:
256,258,208870,1,4,0:0:0:0:
247,258,208945,1,0,0:0:0:0:
238,256,209020,1,2,0:0:0:0:
226,251,209095,1,0,0:0:0:0:
213,240,209170,1,4,0:0:0:0:
202,222,209245,1,0,0:0:0:0:
199,197,209320,1,6,0:0:0:0:
207,169,209395,1,0,0:0:0:0:
222,150,209470,1,4,0:0:0:0:
232,132,209545,1,0,0:0:0:0:
233,115,209620,1,0,0:0:0:0:
229,103,209695,1,0,0:0:0:0:
224,96,209770,1,8,0:0:0:0:
220,93,209845,1,0,0:0:0:0:
216,92,209920,1,0,0:0:0:0:
212,93,209995,1,0,0:0:0:0:
204,96,210070,1,4,0:0:0:0:
198,106,210145,1,0,0:0:0:0:
198,122,210220,1,0,0:0:0:0:
208,139,210295,1,0,0:0:0:0:
228,152,210370,37,4,0:0:0:0:
256,154,210445,1,0,0:0:0:0:
286,141,210520,1,0,0:0:0:0:
313,101,210595,1,0,0:0:0:0:
327,66,210670,1,4,0:0:0:0:
353,43,210745,1,0,0:0:0:0:
386,37,210820,1,8,0:0:0:0:
417,45,210895,1,0,0:0:0:0:
440,61,210970,1,12,0:0:0:0:
457,100,211045,1,4,0:0:0:0:
453,149,211120,1,12,0:0:0:0:
416,189,211195,1,4,0:0:0:0:
359,190,211270,6,0,B|311:194|273:166|273:166|215:152|170:184,1,187.5,12|0,0:0|0:0,0:0:0:0:
162,191,211570,37,6,0:0:0:0:
336,101,211720,1,0,0:0:0:0:
212,259,211870,2,0,L|221:355,1,87.499997329712,4|4,0:0|0:0,0:0:0:0:
284,163,212170,5,14,0:0:0:0:
123,268,212320,1,0,0:0:0:0:
417,384,212470,37,6,0:0:0:0:
332,241,212620,2,0,L|328:344,1,87.499997329712,4|6,0:0|0:0,0:0:0:0:
512,107,212920,5,8,0:0:0:0:
413,296,213070,2,0,L|417:399,1,87.499997329712,6|0,0:0|0:0,0:0:0:0:
308,103,213370,37,14,0:0:0:0:
512,291,213520,1,0,0:0:0:0:
325,120,213670,1,6,0:0:0:0:
327,293,213820,1,4,0:0:0:0:
512,80,213970,5,6,0:0:0:0:
224,296,214120,1,8,0:0:0:0:
187,0,214270,1,6,0:0:0:0:
326,205,214420,1,4,0:0:0:0:
92,104,214570,38,0,L|98:212,1,87.499997329712,14|0,0:0|0:0,0:0:0:0:
351,208,214870,1,6,0:0:0:0:
188,22,215020,1,8,0:0:0:0:
101,275,215170,5,14,0:0:0:0:
111,289,215245,1,0,0:0:0:0:
131,305,215320,1,0,0:0:0:0:
165,313,215395,1,0,0:0:0:0:
203,304,215470,1,6,0:0:0:0:
229,280,215545,1,0,0:0:0:0:
240,251,215620,1,4,0:0:0:0:
260,234,215695,1,0,0:0:0:0:
281,230,215770,1,14,0:0:0:0:
297,234,215845,1,0,0:0:0:0:
307,241,215920,1,0,0:0:0:0:
315,250,215995,1,0,0:0:0:0:
330,281,216070,1,6,0:0:0:0:
352,302,216145,1,0,0:0:0:0:
378,314,216220,1,4,0:0:0:0:
404,314,216295,1,0,0:0:0:0:
436,300,216370,38,0,L|431:257,1,43.749998664856,6|0,0:0|0:0,0:0:0:0:
337,121,216520,2,0,L|332:164,1,43.749998664856,4|0,0:0|0:0,0:0:0:0:
492,202,216670,2,0,L|487:159,1,43.749998664856,6|0,0:0|0:0,0:0:0:0:
321,111,216820,2,0,L|316:154,1,43.749998664856,4|0,0:0|0:0,0:0:0:0:
436,300,216970,6,0,L|431:257,1,43.749998664856,14|0,0:0|0:0,0:0:0:0:
260,199,217120,2,0,L|265:242,1,43.749998664856,4|0,0:0|0:0,0:0:0:0:
405,368,217270,2,0,L|415:263,1,87.499997329712,6|4,0:0|0:0,0:0:0:0:
436,107,217570,37,2,0:0:0:0:
241,212,217720,2,0,L|231:107,1,87.499997329712,8|6,0:0|0:0,0:0:0:0:
424,0,218020,1,4,0:0:0:0:
152,52,218170,6,0,L|142:157,1,87.499997329712,10|0,0:0|0:0,0:0:0:0:
336,17,218470,1,6,0:0:0:0:
125,58,218620,1,4,0:0:0:0:
286,276,218770,6,0,L|292:167,1,87.499997329712,6|0,0:0|0:0,0:0:0:0:
41,0,219070,1,12,0:0:0:0:
449,95,219220,1,12,0:0:0:0:
65,9,219370,5,12,0:0:0:0:
390,0,219520,1,4,0:0:0:0:
69,177,219670,1,4,0:0:0:0:
375,297,219820,1,4,0:0:0:0:
176,0,219970,37,4,0:0:0:0:
360,274,220120,1,4,0:0:0:0:
512,0,220270,1,12,0:0:0:0:
231,259,220420,1,4,0:0:0:0:
490,15,220570,5,12,0:0:0:0:
426,374,220720,1,4,0:0:0:0:
262,68,220870,1,4,0:0:0:0:
461,271,221020,1,4,0:0:0:0:
0,228,221170,37,6,0:0:0:0:
512,116,221470,1,6,0:0:0:0:
84,118,221770,6,0,L|81:60,3,43.749998664856
195,240,222070,2,0,L|193:291,3,37.4999988555909
295,127,222370,5,4,0:0:0:0:
314,144,222445,1,0,0:0:0:0:
326,171,222520,1,10,0:0:0:0:
330,205,222595,1,0,0:0:0:0:
317,242,222670,1,4,0:0:0:0:
289,269,222745,1,4,0:0:0:0:
272,309,222820,1,10,0:0:0:0:
291,353,222895,1,0,0:0:0:0:
341,367,222970,2,0,B|381:352|414:354|414:354|426:312|426:312|484:306|512:254,1,224.999993133545,4|4,0:0|0:0,0:0:0:0:
474,13,223570,5,4,0:0:0:0:
488,63,223645,1,0,0:0:0:0:
484,110,223720,1,14,0:0:0:0:
464,149,223795,1,0,0:0:0:0:
423,174,223870,1,4,0:0:0:0:
379,173,223945,1,4,0:0:0:0:
345,152,224020,1,10,0:0:0:0:
327,116,224095,1,0,0:0:0:0:
334,72,224170,37,4,0:0:0:0:
364,97,224245,1,0,0:0:0:0:
378,128,224320,1,10,0:0:0:0:
380,167,224395,1,0,0:0:0:0:
360,206,224470,2,0,B|336:240|294:251|294:251|265:240|237:215,1,131.249995994568,4|0,0:0|0:0,0:0:0:0:
119,137,224770,5,4,0:0:0:0:
82,161,224845,1,0,0:0:0:0:
63,195,224920,1,10,0:0:0:0:
59,229,224995,1,0,0:0:0:0:
69,266,225070,1,4,0:0:0:0:
97,293,225145,1,4,0:0:0:0:
130,304,225220,1,10,0:0:0:0:
160,302,225295,1,0,0:0:0:0:
192,288,225370,1,4,0:0:0:0:
213,266,225445,1,0,0:0:0:0:
238,249,225520,1,10,0:0:0:0:
263,242,225595,1,0,0:0:0:0:
288,247,225670,1,4,0:0:0:0:
306,258,225745,1,4,0:0:0:0:
320,274,225820,1,10,0:0:0:0:
326,290,225895,1,0,0:0:0:0:
328,316,225970,38,0,P|264:367|209:335,1,131.249995994568,4|0,0:0|0:0,0:0:0:0:
162,208,226270,2,4,P|188:180|212:171,1,43.749998664856
347,245,226420,2,0,P|305:258|278:252,1,43.749998664856,10|0,0:0|0:0,0:0:0:0:
147,111,226570,2,0,B|186:83|239:88|239:88|279:113|332:108|332:108|373:96|410:109|410:109|392:60|336:50|336:50|336:62|346:71,1,393.749987983704
375,186,227170,5,4,0:0:0:0:
402,193,227245,1,0,0:0:0:0:
430,194,227320,1,10,0:0:0:0:
456,186,227395,1,0,0:0:0:0:
479,170,227470,1,4,0:0:0:0:
495,146,227545,1,4,0:0:0:0:
503,120,227620,1,10,0:0:0:0:
503,92,227695,1,0,0:0:0:0:
493,65,227770,37,4,0:0:0:0:
475,44,227845,1,0,0:0:0:0:
451,30,227920,1,10,0:0:0:0:
423,23,227995,1,0,0:0:0:0:
395,23,228070,1,4,0:0:0:0:
368,31,228145,1,4,0:0:0:0:
345,45,228220,1,10,0:0:0:0:
325,65,228295,1,0,0:0:0:0:
307,87,228370,5,4,0:0:0:0:
284,103,228445,1,0,0:0:0:0:
258,113,228520,1,10,0:0:0:0:
230,116,228595,1,0,0:0:0:0:
202,112,228670,1,4,0:0:0:0:
175,104,228745,1,4,0:0:0:0:
149,95,228820,1,10,0:0:0:0:
121,89,228895,1,0,0:0:0:0:
93,90,228970,37,4,0:0:0:0:
66,98,229045,1,0,0:0:0:0:
42,113,229120,1,10,0:0:0:0:
23,132,229195,1,0,0:0:0:0:
6,155,229270,1,4,0:0:0:0:
1,183,229345,1,4,0:0:0:0:
2,211,229420,1,10,0:0:0:0:
10,237,229495,1,0,0:0:0:0:
34,274,229570,5,12,0:0:0:0:
71,249,229645,1,0,0:0:0:0:
90,207,229720,1,0,0:0:0:0:
89,160,229795,1,0,0:0:0:0:
71,115,229870,1,8,0:0:0:0:
79,64,229945,1,0,0:0:0:0:
120,23,230020,1,4,0:0:0:0:
171,17,230095,1,4,0:0:0:0:
216,40,230170,37,12,0:0:0:0:
233,86,230245,1,0,0:0:0:0:
229,133,230320,1,4,0:0:0:0:
239,178,230395,1,4,0:0:0:0:
270,215,230470,1,4,0:0:0:0:
319,228,230545,1,0,0:0:0:0:
366,204,230620,1,8,0:0:0:0:
384,149,230695,1,0,0:0:0:0:
358,103,230770,5,8,0:0:0:0:
302,91,230845,1,8,0:0:0:0:
253,126,230920,1,8,0:0:0:0:
253,189,230995,1,8,0:0:0:0:
300,232,231070,1,4,0:0:0:0:
302,294,231145,1,4,0:0:0:0:
258,345,231220,1,4,0:0:0:0:
190,342,231295,1,4,0:0:0:0:
149,284,231370,38,0,P|151:235|158:221,1,56.2499982833863,4|0,0:0|0:0,0:0:0:0:
403,164,231520,2,0,P|416:193|421:228,1,56.2499982833863
145,364,231670,6,0,P|115:357|85:335,1,56.2499982833863,6|0,0:0|0:0,0:0:0:0:
512,303,231820,2,0,P|501:341|483:363,1,56.2499982833863
66,204,231970,38,0,B|129:232|184:192|184:192|216:187|241:195|241:195|226:217|224:245,1,224.999993133545,4|4,0:0|0:0,0:0:0:0:
119,126,232420,5,10,0:0:0:0:
119,126,232495,1,0,0:0:0:0:
119,126,232570,2,0,L|126:203,1,56.2499982833863,4|0,0:0|0:0,0:0:0:0:
197,315,232720,2,0,L|204:238,1,56.2499982833863,10|0,0:0|0:0,0:0:0:0:
230,65,232870,2,4,L|239:170,1,56.2499982833863
336,322,233020,2,0,L|345:216,1,56.2499982833863,10|0,0:0|0:0,0:0:0:0:
344,0,233170,38,0,L|353:105,3,56.2499982833863,4|0|10|0,0:0|0:0|0:0|0:0,0:0:0:0:
512,78,233470,2,0,L|502:183,3,56.2499982833863,4|4|10|0,0:0|0:0|0:0|0:0,0:0:0:0:
326,13,233770,6,0,L|335:118,3,56.2499982833863,4|0|10|0,0:0|0:0|0:0|0:0,0:0:0:0:
431,141,234070,37,4,0:0:0:0:
425,185,234145,1,4,0:0:0:0:
419,229,234220,1,8,0:0:0:0:
413,273,234295,1,0,0:0:0:0:
407,317,234370,2,0,B|345:286|285:326|285:326|218:370|160:312|160:312|194:295|223:241,1,337.499989700318,4|10,0:0|0:0,0:0:0:0:
216,71,234970,5,4,0:0:0:0:
328,228,235120,1,10,0:0:0:0:
296,44,235270,2,0,P|292:109|287:118,1,56.2499982833863,4|4,0:0|0:0,0:0:0:0:
100,222,235420,1,10,0:0:0:0:
360,151,235570,37,4,0:0:0:0:
141,147,235720,1,10,0:0:0:0:
403,269,235870,2,0,P|356:285|328:281,1,56.2499982833863,4|4,0:0|0:0,0:0:0:0:
65,98,236020,1,10,0:0:0:0:
149,342,236170,5,4,0:0:0:0:
223,122,236320,1,10,0:0:0:0:
64,343,236470,2,0,P|114:319|129:318,1,56.2499982833863,4|4,0:0|0:0,0:0:0:0:
457,367,236620,1,8,0:0:0:0:
124,0,236770,38,0,B|72:57|110:123|110:123|161:204|91:272|91:272|24:245|47:154,1,393.749987983704,6|0,0:0|0:0,0:0:0:0:
53,105,237370,6,0,B|74:84|103:70|103:70|144:80|173:79,1,112.499996566773,0|8,0:0|0:0,0:0:0:0:
241,98,237595,2,0,B|253:132|251:160|251:160|237:187|234:225,1,112.499996566773,0|4,0:0|0:0,0:0:0:0:
145,204,237820,2,0,B|146:171|136:143|136:143|136:109|152:77,1,112.499996566773,0|4,0:0|0:0,0:0:0:0:
175,58,238020,38,0,B|228:36|270:79|270:79|312:126|386:162|457:95,1,299.999990844727
512,16,238495,2,0,B|511:30|507:45|507:45|510:61|510:75,1,56.2499982833863,0|4,0:0|0:0,0:0:0:0:
512,169,238645,6,0,B|466:210|407:221|407:221|444:244|456:292|456:292|484:248|463:192,1,299.999990844727,0|8,0:0|0:0,0:0:0:0:
394,124,239170,37,0,0:0:0:0:
340,107,239245,1,0,0:0:0:0:
289,107,239320,1,8,0:0:0:0:
246,122,239395,1,0,0:0:0:0:
218,150,239470,1,8,0:0:0:0:
208,182,239545,1,8,0:0:0:0:
214,209,239620,1,8,0:0:0:0:
236,230,239695,1,8,0:0:0:0:
281,245,239770,5,12,0:0:0:0:
299,198,239845,1,4,0:0:0:0:
286,149,239920,1,4,0:0:0:0:
251,119,239995,1,4,0:0:0:0:
189,116,240070,1,4,0:0:0:0:
144,150,240145,1,4,0:0:0:0:
128,198,240220,1,4,0:0:0:0:
141,246,240295,1,4,0:0:0:0:
141,307,240370,37,12,0:0:0:0:
100,346,240445,1,8,0:0:0:0:
38,335,240520,1,8,0:0:0:0:
9,285,240595,1,8,0:0:0:0:
18,237,240670,1,12,0:0:0:0:
51,198,240745,1,4,0:0:0:0:
77,154,240820,1,4,0:0:0:0:
78,103,240895,1,4,0:0:0:0:
99,57,240970,5,4,0:0:0:0:
138,34,241045,1,4,0:0:0:0:
176,39,241120,1,4,0:0:0:0:
207,62,241195,1,4,0:0:0:0:
217,93,241270,1,4,0:0:0:0:
214,126,241345,1,4,0:0:0:0:
196,147,241420,1,4,0:0:0:0:
174,152,241495,1,4,0:0:0:0:
158,146,241570,38,0,P|135:121|127:88,1,56.2499982833863,6|0,0:0|0:0,0:0:0:0:
302,95,241720,2,0,P|298:124|284:149,1,56.2499982833863,10|0,0:0|0:0,0:0:0:0:
129,220,241870,5,4,0:0:0:0:
131,270,241945,1,4,0:0:0:0:
165,301,242020,1,10,0:0:0:0:
208,312,242095,1,0,0:0:0:0:
251,301,242170,1,4,0:0:0:0:
283,269,242245,1,0,0:0:0:0:
323,238,242320,37,10,0:0:0:0:
373,231,242395,1,0,0:0:0:0:
416,242,242470,1,4,0:0:0:0:
447,273,242545,1,4,0:0:0:0:
459,316,242620,1,10,0:0:0:0:
447,359,242695,1,0,0:0:0:0:
404,380,242770,5,4,0:0:0:0:
363,355,242845,1,0,0:0:0:0:
356,310,242920,1,10,0:0:0:0:
377,269,242995,1,0,0:0:0:0:
407,235,243070,1,4,0:0:0:0:
420,192,243145,1,4,0:0:0:0:
407,142,243220,37,10,0:0:0:0:
363,116,243295,1,0,0:0:0:0:
318,117,243370,1,4,0:0:0:0:
284,147,243445,1,0,0:0:0:0:
265,188,243520,1,10,0:0:0:0:
228,214,243595,1,0,0:0:0:0:
180,219,243670,5,4,0:0:0:0:
139,194,243745,1,4,0:0:0:0:
117,154,243820,1,8,0:0:0:0:
126,109,243895,1,0,0:0:0:0:
159,82,243970,37,4,0:0:0:0:
192,85,244045,1,0,0:0:0:0:
225,88,244120,1,10,0:0:0:0:
258,91,244195,1,0,0:0:0:0:
291,94,244270,2,0,B|345:109|385:85|385:85|437:84|483:122,1,168.749994850159,4|0,0:0|0:0,0:0:0:0:
512,186,244570,5,4,0:0:0:0:
472,190,244645,1,0,0:0:0:0:
432,194,244720,1,10,0:0:0:0:
392,198,244795,1,0,0:0:0:0:
352,203,244870,2,0,B|301:222|251:196|251:196|195:205|174:260,1,187.5,4|0,0:0|0:0,0:0:0:0:
179,329,245170,37,4,0:0:0:0:
130,361,245245,1,0,0:0:0:0:
72,354,245320,1,10,0:0:0:0:
34,310,245395,1,0,0:0:0:0:
42,252,245470,1,4,0:0:0:0:
87,214,245545,1,4,0:0:0:0:
144,223,245620,1,10,0:0:0:0:
0,129,245770,5,4,0:0:0:0:
1,60,245845,1,0,0:0:0:0:
46,9,245920,1,10,0:0:0:0:
113,0,245995,1,0,0:0:0:0:
164,46,246070,1,4,0:0:0:0:
172,115,246145,1,4,0:0:0:0:
127,164,246220,1,10,0:0:0:0:
299,0,246370,38,0,B|313:46|295:88|295:88|277:130|307:182,1,168.749994850159,4|4,0:0|0:0,0:0:0:0:
344,227,246670,2,0,P|418:224|425:218,1,56.2499982833863,4|4,0:0|0:0,0:0:0:0:
476,124,246820,1,10,0:0:0:0:
485,384,246970,5,4,0:0:0:0:
501,140,247120,1,10,0:0:0:0:
416,333,247270,2,0,P|397:303|393:268,1,56.2499982833863,4|4,0:0|0:0,0:0:0:0:
509,115,247420,38,0,P|505:190|467:235,1,112.499996566773,10|4,0:0|0:0,0:0:0:0:
264,106,247720,2,0,P|347:111|378:134,1,112.499996566773,10|4,0:0|0:0,0:0:0:0:
286,259,248020,6,0,B|240:271|203:246|203:246|165:218|108:231,1,168.749994850159,10|0,0:0|0:0,0:0:0:0:
34,239,248320,1,8,0:0:0:0:
107,71,248470,2,0,P|119:135|115:146,1,56.2499982833863,4|4,0:0|0:0,0:0:0:0:
5,313,248620,1,8,0:0:0:0:
226,164,248770,37,4,0:0:0:0:
234,108,248845,1,0,0:0:0:0:
214,61,248920,1,8,0:0:0:0:
174,38,248995,1,8,0:0:0:0:
134,32,249070,1,8,0:0:0:0:
86,48,249145,1,8,0:0:0:0:
61,85,249220,1,8,0:0:0:0:
68,123,249295,1,0,0:0:0:0:
91,147,249370,1,4,0:0:0:0:
135,156,249445,1,4,0:0:0:0:
170,138,249520,1,4,0:0:0:0:
190,111,249595,1,4,0:0:0:0:
212,94,249670,1,4,0:0:0:0:
250,85,249745,1,4,0:0:0:0:
283,91,249820,1,4,0:0:0:0:
306,106,249895,1,4,0:0:0:0:
316,125,249970,5,12,0:0:0:0:
315,147,250045,1,8,0:0:0:0:
314,169,250120,1,8,0:0:0:0:
313,191,250195,1,8,0:0:0:0:
312,213,250270,37,12,0:0:0:0:
322,186,250345,1,4,0:0:0:0:
332,160,250420,1,4,0:0:0:0:
342,134,250495,1,4,0:0:0:0:
353,108,250570,5,4,0:0:0:0:
360,140,250645,1,4,0:0:0:0:
367,172,250720,1,4,0:0:0:0:
374,204,250795,1,4,0:0:0:0:
381,236,250870,1,4,0:0:0:0:
383,275,250945,1,4,0:0:0:0:
368,317,251020,1,4,0:0:0:0:
326,345,251095,1,4,0:0:0:0:
269,340,251170,38,0,P|234:308|224:273,1,56.2499982833863,6|0,0:0|0:0,0:0:0:0:
347,181,251320,2,0,P|334:238|315:259,1,56.2499982833863,10|0,0:0|0:0,0:0:0:0:
162,336,251470,5,4,0:0:0:0:
143,283,251545,1,4,0:0:0:0:
156,234,251620,1,10,0:0:0:0:
190,196,251695,1,0,0:0:0:0:
239,186,251770,1,4,0:0:0:0:
288,193,251845,1,4,0:0:0:0:
334,173,251920,1,10,0:0:0:0:
359,129,251995,1,0,0:0:0:0:
355,84,252070,1,4,0:0:0:0:
330,46,252145,1,4,0:0:0:0:
287,32,252220,1,10,0:0:0:0:
242,36,252295,1,0,0:0:0:0:
211,60,252370,37,4,0:0:0:0:
234,91,252445,1,4,0:0:0:0:
269,107,252520,1,10,0:0:0:0:
308,108,252595,1,0,0:0:0:0:
342,89,252670,1,4,0:0:0:0:
369,60,252745,1,4,0:0:0:0:
412,47,252820,1,10,0:0:0:0:
455,57,252895,1,0,0:0:0:0:
481,93,252970,1,4,0:0:0:0:
479,137,253045,1,4,0:0:0:0:
452,173,253120,1,10,0:0:0:0:
407,181,253195,1,0,0:0:0:0:
360,161,253270,1,4,0:0:0:0:
309,153,253345,1,4,0:0:0:0:
261,171,253420,1,10,0:0:0:0:
235,214,253495,1,0,0:0:0:0:
244,269,253570,5,4,0:0:0:0:
299,258,253645,1,4,0:0:0:0:
337,217,253720,1,10,0:0:0:0:
342,161,253795,1,0,0:0:0:0:
316,110,253870,1,4,0:0:0:0:
260,91,253945,1,4,0:0:0:0:
202,105,254020,1,10,0:0:0:0:
166,158,254095,1,0,0:0:0:0:
173,223,254170,1,4,0:0:0:0:
168,289,254245,1,4,0:0:0:0:
124,340,254320,1,10,0:0:0:0:
54,337,254395,1,0,0:0:0:0:
4,286,254470,1,4,0:0:0:0:
21,215,254545,1,4,0:0:0:0:
88,187,254620,1,10,0:0:0:0:
155,215,254695,1,0,0:0:0:0:
194,282,254770,37,4,0:0:0:0:
270,301,254845,1,4,0:0:0:0:
342,269,254920,1,10,0:0:0:0:
364,193,254995,1,0,0:0:0:0:
436,161,255070,1,4,0:0:0:0:
501,204,255145,1,4,0:0:0:0:
499,282,255220,1,10,0:0:0:0:
434,331,255295,1,0,0:0:0:0:
356,299,255370,1,4,0:0:0:0:
320,220,255445,1,4,0:0:0:0:
323,134,255520,1,10,0:0:0:0:
379,62,255595,1,0,0:0:0:0:
481,37,255670,2,0,P|501:56|512:81,3,56.2499982833863,4|4|10|0,0:0|0:0|0:0|0:0,0:0:0:0:
416,138,255970,6,0,P|403:188|371:220,2,74.9999977111817,4|0|0,0:0|0:0|0:0,0:0:0:0:
396,290,256270,2,0,P|346:277|314:245,2,74.9999977111817,4|0|0,0:0|0:0|0:0,0:0:0:0:
241,270,256570,38,0,P|254:220|286:188,2,74.9999977111817,4|0|0,0:0|0:0|0:0,0:0:0:0:
265,120,256870,2,0,P|315:133|347:165,2,74.9999977111817,4|0|0,0:0|0:0|0:0,0:0:0:0:
225,26,257170,5,4,0:0:0:0:
136,40,257270,2,0,L|34:58,1,74.9999977111817
0,137,257470,37,4,0:0:0:0:
73,153,257570,2,0,L|175:171,1,74.9999977111817
209,235,257770,5,4,0:0:0:0:
199,294,257870,2,0,L|181:396,1,74.9999977111817
315,377,258070,37,4,0:0:0:0:
307,309,258170,2,0,L|289:207,1,74.9999977111817
265,120,258370,6,0,P|291:152|325:164,1,56.2499982833863,8|0,0:0|0:0,0:0:0:0:
495,153,258520,2,0,P|436:178|426:191,1,56.2499982833863
365,300,258670,2,0,P|377:356|391:375,1,56.2499982833863
512,136,258820,2,0,P|477:114|436:102,1,56.2499982833863,8|0,0:0|0:0,0:0:0:0:
358,276,258970,38,0,P|416:244|420:239,1,56.2499982833863
393,72,259120,2,0,P|389:138|396:153,1,56.2499982833863
512,268,259270,2,0,P|457:334|349:370,1,168.749994850159,8|0,0:0|0:0,0:0:0:0:
305,184,259570,6,0,P|355:196|375:209,1,56.2499982833863,8|0,0:0|0:0,0:0:0:0:
308,371,259720,2,0,P|297:333|298:306,1,56.2499982833863
405,142,259870,2,0,P|433:196|432:213,1,56.2499982833863,8|0,0:0|0:0,0:0:0:0:
222,319,260020,2,0,P|238:269|249:257,1,56.2499982833863,8|0,0:0|0:0,0:0:0:0:
456,263,260170,38,4,P|409:263|381:248,1,56.2499982833863
220,187,260320,2,4,P|164:193|151:201,1,56.2499982833863
449,287,260470,2,4,P|413:270|388:244,1,56.2499982833863
213,165,260620,2,4,P|164:193|154:205,1,56.2499982833863
435,179,260770,6,0,P|433:110|390:64,1,112.499996566773,0|10,0:0|0:0,0:0:0:0:
284,189,261070,2,0,P|327:182|352:165,1,56.2499982833863,4|4,0:0|0:0,0:0:0:0:
404,39,261220,1,10,0:0:0:0:
380,282,261370,37,4,0:0:0:0:
314,63,261520,1,10,0:0:0:0:
371,259,261670,2,4,P|427:253|452:238,1,56.2499982833863
512,140,261820,1,10,0:0:0:0:
303,207,261970,6,0,P|292:291|326:341,1,112.499996566773,4|10,0:0|0:0,0:0:0:0:
477,384,262270,2,4,P|440:354|412:348,1,56.2499982833863
254,384,262420,1,10,0:0:0:0:
386,180,262570,37,4,0:0:0:0:
341,384,262720,1,10,0:0:0:0:
303,163,262870,2,4,P|312:225|319:234,1,56.2499982833863
448,277,263020,1,10,0:0:0:0:
196,318,263170,6,0,P|121:301|83:262,1,112.499996566773,4|10,0:0|0:0,0:0:0:0:
120,85,263470,2,4,P|130:118|129:150,1,56.2499982833863
0,258,263620,1,10,0:0:0:0:
0,19,263770,37,4,0:0:0:0:
148,230,263920,1,10,0:0:0:0:
0,104,264070,2,4,P|56:124|60:124,1,56.2499982833863
215,73,264220,6,0,P|281:51|332:62,1,112.499996566773,10|4,0:0|0:0,0:0:0:0:
335,243,264520,2,0,P|285:177|289:133,1,112.499996566773,10|4,0:0|0:0,0:0:0:0:
471,143,264820,38,0,P|468:200|420:253,1,112.499996566773,10|4,0:0|0:0,0:0:0:0:
270,289,265120,1,10,0:0:0:0:
380,91,265270,2,4,P|346:112|330:115,1,56.2499982833863
160,83,265420,1,10,0:0:0:0:
316,191,265570,5,4,0:0:0:0:
329,221,265645,1,0,0:0:0:0:
331,249,265720,1,10,0:0:0:0:
327,271,265795,1,0,0:0:0:0:
320,286,265870,1,4,0:0:0:0:
306,303,265945,1,4,0:0:0:0:
283,319,266020,1,10,0:0:0:0:
249,325,266095,1,0,0:0:0:0:
213,307,266170,37,4,0:0:0:0:
197,276,266245,1,0,0:0:0:0:
204,248,266320,1,10,0:0:0:0:
227,223,266395,1,0,0:0:0:0:
271,217,266470,5,4,0:0:0:0:
306,233,266545,1,4,0:0:0:0:
339,237,266620,1,10,0:0:0:0:
372,229,266695,1,0,0:0:0:0:
400,202,266770,37,4,0:0:0:0:
409,169,266845,1,0,0:0:0:0:
405,141,266920,1,10,0:0:0:0:
391,116,266995,1,0,0:0:0:0:
357,94,267070,1,4,0:0:0:0:
323,94,267145,1,4,0:0:0:0:
288,112,267220,1,10,0:0:0:0:
272,141,267295,1,0,0:0:0:0:
245,170,267370,1,4,0:0:0:0:
201,179,267445,1,0,0:0:0:0:
153,160,267520,1,10,0:0:0:0:
111,121,267595,1,0,0:0:0:0:
49,110,267670,1,4,0:0:0:0:
1,158,267745,1,4,0:0:0:0:
13,232,267820,1,10,0:0:0:0:
87,251,267895,1,0,0:0:0:0:
143,195,267970,6,0,P|156:131|126:70,1,112.499996566773,4|10,0:0|0:0,0:0:0:0:
0,0,268270,2,4,P|39:14|78:7,1,56.2499982833863
199,0,268420,38,0,P|266:5|321:53,1,112.499996566773,10|4,0:0|0:0,0:0:0:0:
275,168,268720,1,10,0:0:0:0:
376,17,268870,2,4,P|382:65|376:91,1,56.2499982833863
252,165,269020,1,10,0:0:0:0:
512,108,269170,6,0,P|472:152|460:157,1,56.2499982833863,4|0,0:0|0:0,0:0:0:0:
225,93,269320,2,8,P|264:91|296:103,1,56.2499982833863
492,189,269470,2,8,P|444:148|439:137,1,56.2499982833863
413,0,269620,2,8,P|413:46|399:76,1,56.2499982833863
329,173,269770,38,4,P|334:217|350:245,3,56.2499982833863,12|4|4|4,0:0|0:0|0:0|0:0,0:0:0:0:
403,290,270070,2,4,P|398:334|382:362,3,56.2499982833863
492,189,270370,21,4,0:0:0:0:
490,121,270445,1,0,0:0:0:0:
445,63,270520,1,10,0:0:0:0:
372,52,270595,1,0,0:0:0:0:
305,93,270670,1,4,0:0:0:0:
288,170,270745,1,4,0:0:0:0:
325,232,270820,1,14,0:0:0:0:
311,303,270895,1,0,0:0:0:0:
255,340,270970,5,4,0:0:0:0:
187,340,271045,1,0,0:0:0:0:
134,289,271120,1,10,0:0:0:0:
131,215,271195,1,0,0:0:0:0:
180,153,271270,1,4,0:0:0:0:
190,74,271345,1,4,0:0:0:0:
145,16,271420,1,14,0:0:0:0:
71,17,271495,1,0,0:0:0:0:
19,60,271570,37,4,0:0:0:0:
15,127,271645,1,0,0:0:0:0:
61,183,271720,1,10,0:0:0:0:
133,191,271795,1,0,0:0:0:0:
188,135,271870,1,4,0:0:0:0:
263,113,271945,1,4,0:0:0:0:
333,131,272020,1,14,0:0:0:0:
381,185,272095,1,0,0:0:0:0:
392,268,272170,5,4,0:0:0:0:
353,343,272245,1,0,0:0:0:0:
281,355,272320,1,10,0:0:0:0:
219,315,272395,1,0,0:0:0:0:
209,236,272470,1,4,0:0:0:0:
264,179,272545,1,4,0:0:0:0:
331,179,272620,1,14,0:0:0:0:
394,157,272695,1,0,0:0:0:0:
419,88,272770,37,4,0:0:0:0:
347,74,272845,1,0,0:0:0:0:
278,112,272920,1,10,0:0:0:0:
263,189,272995,1,0,0:0:0:0:
307,260,273070,1,4,0:0:0:0:
390,274,273145,1,4,0:0:0:0:
455,229,273220,1,14,0:0:0:0:
466,151,273295,1,0,0:0:0:0:
423,91,273370,5,4,0:0:0:0:
350,80,273445,1,0,0:0:0:0:
285,125,273520,1,10,0:0:0:0:
247,194,273595,1,0,0:0:0:0:
167,222,273670,1,4,0:0:0:0:
82,217,273745,1,4,0:0:0:0:
23,164,273820,1,14,0:0:0:0:
19,85,273895,1,0,0:0:0:0:
63,27,273970,37,4,0:0:0:0:
134,10,274045,1,0,0:0:0:0:
204,45,274120,1,10,0:0:0:0:
230,119,274195,1,0,0:0:0:0:
196,196,274270,1,4,0:0:0:0:
202,280,274345,1,4,0:0:0:0:
255,338,274420,1,14,0:0:0:0:
332,350,274495,1,0,0:0:0:0:
413,310,274570,5,4,0:0:0:0:
425,220,274645,1,0,0:0:0:0:
382,153,274720,1,10,0:0:0:0:
303,143,274795,1,0,0:0:0:0:
236,194,274870,1,4,0:0:0:0:
239,278,274945,1,4,0:0:0:0:
305,320,275020,1,14,0:0:0:0:
381,301,275095,1,0,0:0:0:0:
402,225,275170,6,0,B|387:167|330:139|330:139|267:108|279:29,1,224.999993133545,6|0,0:0|0:0,0:0:0:0:
286,255,275620,6,0,P|242:312|187:327,1,112.499996566773,14|0,0:0|0:0,0:0:0:0:
78,71,275920,1,10,0:0:0:0:
0,327,276070,2,4,P|46:306|56:296,1,56.2499982833863
86,94,276220,1,10,0:0:0:0:
141,358,276370,37,6,0:0:0:0:
93,115,276520,1,10,0:0:0:0:
16,312,276670,2,4,P|54:262|56:250,1,56.2499982833863
10,60,276820,6,0,P|65:97|146:83,1,112.499996566773,10|4,0:0|0:0,0:0:0:0:
260,23,277120,2,0,B|323:-2|380:28|380:28|438:58|501:25,1,224.999993133545,10|10,0:0|0:0,0:0:0:0:
379,138,277570,38,8,L|385:205,5,56.2499982833863,4|0|12|8|12|8,0:0|0:0|0:0|0:0|0:0|0:0,0:0:0:0:
512,222,278020,6,0,L|506:289,5,56.2499982833863,4|0|12|8|12|8,0:0|0:0|0:0|0:0|0:0|0:0,0:0:0:0:
437,83,278470,38,8,P|400:65|363:62,1,56.2499982833863
353,259,278620,2,8,P|386:203|387:188,1,56.2499982833863
292,96,278770,6,8,L|285:34,3,56.2499982833863,8|8|8|8,0:0|0:0|0:0|0:0,0:0:0:0:
188,128,279070,2,8,L|181:190,1,56.2499982833863
168,291,279220,38,8,L|161:353,3,56.2499982833863
64,259,279520,2,8,L|57:197,1,56.2499982833863
42,98,279670,6,8,L|35:36,3,56.2499982833863
202,0,279970,5,4,0:0:0:0:
196,49,280045,1,0,0:0:0:0:
190,98,280120,1,10,0:0:0:0:
184,147,280195,1,0,0:0:0:0:
179,196,280270,1,4,0:0:0:0:
181,245,280345,1,0,0:0:0:0:
204,289,280420,1,10,0:0:0:0:
249,309,280495,1,0,0:0:0:0:
298,304,280570,5,4,0:0:0:0:
331,267,280645,1,0,0:0:0:0:
334,217,280720,1,10,0:0:0:0:
304,176,280795,1,0,0:0:0:0:
248,170,280870,1,4,0:0:0:0:
197,193,280945,1,0,0:0:0:0:
163,238,281020,1,10,0:0:0:0:
110,259,281095,1,0,0:0:0:0:
60,259,281170,37,4,0:0:0:0:
18,231,281245,1,0,0:0:0:0:
4,182,281320,1,10,0:0:0:0:
24,136,281395,1,0,0:0:0:0:
71,120,281470,1,4,0:0:0:0:
117,138,281545,1,0,0:0:0:0:
147,178,281620,1,10,0:0:0:0:
192,198,281695,1,0,0:0:0:0:
241,190,281770,5,4,0:0:0:0:
277,156,281845,1,0,0:0:0:0:
282,106,281920,1,10,0:0:0:0:
304,61,281995,1,0,0:0:0:0:
346,34,282070,1,4,0:0:0:0:
396,34,282145,1,0,0:0:0:0:
437,62,282220,1,10,0:0:0:0:
449,113,282295,1,0,0:0:0:0:
431,166,282370,37,6,0:0:0:0:
386,200,282445,1,0,0:0:0:0:
368,253,282520,1,10,0:0:0:0:
378,308,282595,1,0,0:0:0:0:
414,351,282670,1,4,0:0:0:0:
469,357,282745,1,0,0:0:0:0:
510,318,282820,1,10,0:0:0:0:
511,261,282895,1,0,0:0:0:0:
468,223,282970,5,4,0:0:0:0:
406,233,283045,1,0,0:0:0:0:
369,283,283120,1,10,0:0:0:0:
352,348,283195,1,0,0:0:0:0:
294,384,283270,1,4,0:0:0:0:
222,380,283345,1,0,0:0:0:0:
159,339,283420,2,0,P|135:297|133:273,1,56.2499982833863,8|0,0:0|0:0,0:0:0:0:
200,161,283570,37,4,0:0:0:0:
238,179,283645,1,0,0:0:0:0:
268,218,283720,1,8,0:0:0:0:
272,274,283795,1,8,0:0:0:0:
238,323,283870,1,12,0:0:0:0:
188,341,283945,1,12,0:0:0:0:
131,323,284020,1,12,0:0:0:0:
96,262,284095,1,12,0:0:0:0:
110,195,284170,5,8,0:0:0:0:
156,155,284245,1,4,0:0:0:0:
178,88,284320,1,4,0:0:0:0:
151,20,284395,1,4,0:0:0:0:
80,1,284470,1,4,0:0:0:0:
21,30,284545,1,4,0:0:0:0:
0,99,284620,1,4,0:0:0:0:
40,166,284695,1,4,0:0:0:0:
122,189,284770,1,6,0:0:0:0:
256,114,296770,5,8,0:0:0:0:
255,270,297020,1,8,0:0:0:0:
171,135,297270,1,8,0:0:0:0:
341,245,297520,1,8,0:0:0:0:
86,159,297770,5,8,0:0:0:0:
364,251,298020,1,8,0:0:0:0:
61,250,298270,1,8,0:0:0:0:
340,161,298520,1,8,0:0:0:0:
43,335,298770,37,8,0:0:0:0:
319,74,299020,1,8,0:0:0:0:
0,161,299270,1,8,0:0:0:0:
377,247,299520,1,8,0:0:0:0:
160,0,299770,5,8,0:0:0:0:
255,339,300020,1,8,0:0:0:0:
352,0,300270,1,8,0:0:0:0:
256,365,300520,1,8,0:0:0:0:
256,0,300770,6,0,P|260:82|213:154,1,149.999995422363,14|2,0:0|0:0,0:0:0:0:
54,257,301520,2,0,L|-1:251,1,37.4999988555909,4|0,0:0|0:0,0:0:0:0:
0,354,301770,2,0,L|128:368,1,112.499996566773,8|0,0:0|0:0,0:0:0:0:
111,366,302520,1,4,0:0:0:0:
238,114,302770,6,0,P|253:185|222:269,1,149.999995422363,6|2,0:0|0:0,0:0:0:0:
107,124,303520,2,0,B|99:68,1,37.4999988555909,4|0,0:0|0:0,0:0:0:0:
26,0,303770,2,0,L|6:125,1,112.499996566773,10|0,0:0|0:0,0:0:0:0:
8,111,304520,1,4,0:0:0:0:
304,16,304770,38,0,P|217:1|160:26,1,149.999995422363,6|2,0:0|0:0,0:0:0:0:
316,163,305520,2,0,L|368:170,1,37.4999988555909,4|0,0:0|0:0,0:0:0:0:
425,70,305770,2,0,L|299:88,1,112.499996566773,10|0,0:0|0:0,0:0:0:0:
313,85,306520,1,4,0:0:0:0:
292,322,306770,6,0,P|349:333|432:279,1,149.999995422363,4|2,0:0|0:0,0:0:0:0:
440,107,307520,1,4,0:0:0:0:
262,175,307770,1,10,0:0:0:0:
482,188,308020,1,10,0:0:0:0:
230,254,308270,1,4,0:0:0:0:
512,25,308520,1,4,0:0:0:0:
202,101,308770,38,0,P|279:130|361:114,1,149.999995422363,6|2,0:0|0:0,0:0:0:0:
512,0,309520,2,0,L|451:9,1,37.4999988555909,4|0,0:0|0:0,0:0:0:0:
360,40,309770,2,0,L|219:22,1,112.499996566773,10|0,0:0|0:0,0:0:0:0:
248,25,310520,1,4,0:0:0:0:
489,176,310770,6,0,P|497:256|451:317,1,149.999995422363,6|2,0:0|0:0,0:0:0:0:
266,258,311520,2,0,L|314:251,1,37.4999988555909,4|0,0:0|0:0,0:0:0:0:
390,158,311770,2,0,L|263:140,1,112.499996566773,10|0,0:0|0:0,0:0:0:0:
278,142,312520,1,4,0:0:0:0:
108,384,312770,38,0,P|79:315|96:234,1,149.999995422363,6|2,0:0|0:0,0:0:0:0:
302,219,313520,2,0,L|298:280,1,37.4999988555909,4|0,0:0|0:0,0:0:0:0:
190,311,313770,2,0,L|199:198,1,112.499996566773,10|0,0:0|0:0,0:0:0:0:
199,198,314520,1,0,0:0:0:0:
254,1,314770,5,0,0:0:0:0:
124,192,315020,2,0,L|203:198,1,74.9999977111817,8|2,0:0|0:0,0:0:0:0:
236,25,315520,1,4,0:0:0:0:
0,0,315770,5,10,0:0:0:0:
326,35,316020,1,4,0:0:0:0:
0,185,316270,1,4,0:0:0:0:
351,27,316520,1,4,0:0:0:0:
0,84,316770,38,0,P|76:122|104:193,1,149.999995422363,6|0,0:0|0:0,0:0:0:0:
90,341,317520,2,0,P|116:357|140:361,1,37.4999988555909,4|0,0:0|0:0,0:0:0:0:
179,205,317770,2,0,P|139:245|77:267,1,112.499996566773,10|0,0:0|0:0,0:0:0:0:
87,265,318520,1,4,0:0:0:0:
371,101,318770,6,0,P|444:89|513:119,1,149.999995422363,6|2,0:0|0:0,0:0:0:0:
489,274,319520,2,0,P|511:298|517:314,1,37.4999988555909,4|0,0:0|0:0,0:0:0:0:
391,198,319770,2,0,P|464:187|514:208,1,112.499996566773,8|0,0:0|0:0,0:0:0:0:
499,198,320520,1,4,0:0:0:0:
271,26,320770,38,0,P|211:6|111:42,1,149.999995422363,6|2,0:0|0:0,0:0:0:0:
88,172,321520,2,0,P|108:152|115:132,1,37.4999988555909,4|0,0:0|0:0,0:0:0:0:
217,86,321770,2,0,P|172:38|103:30,1,112.499996566773,10|0,0:0|0:0,0:0:0:0:
128,27,322520,1,4,0:0:0:0:
82,263,322770,6,0,P|85:188|130:127,1,149.999995422363,6|2,0:0|0:0,0:0:0:0:
342,8,323520,1,4,0:0:0:0:
349,32,323645,1,4,0:0:0:0:
355,52,323770,1,10,0:0:0:0:
416,239,324020,1,8,0:0:0:0:
488,80,324270,1,4,0:0:0:0:
159,136,324520,1,4,0:0:0:0:
512,76,324770,38,0,P|533:155|503:238,1,149.999995422363,4|2,0:0|0:0,0:0:0:0:
346,288,325520,2,0,P|326:307|317:327,1,37.4999988555909,4|0,0:0|0:0,0:0:0:0:
459,265,325770,2,0,P|482:315|481:385,1,112.499996566773,12|0,0:0|0:0,0:0:0:0:
483,371,326520,1,4,0:0:0:0:
287,168,326770,6,0,P|223:206|122:184,1,149.999995422363,6|2,0:0|0:0,0:0:0:0:
182,31,327520,2,0,P|191:56|191:89,1,37.4999988555909,4|0,0:0|0:0,0:0:0:0:
75,156,327770,2,0,P|59:214|67:269,1,112.499996566773,8|0,0:0|0:0,0:0:0:0:
65,265,328520,1,4,0:0:0:0:
276,53,328770,38,0,P|349:56|416:104,1,149.999995422363,6|0,0:0|0:0,0:0:0:0:
406,253,329520,2,0,P|410:284|422:306,1,37.4999988555909,4|0,0:0|0:0,0:0:0:0:
380,175,329770,2,0,P|328:208|307:283,1,112.499996566773,10|0,0:0|0:0,0:0:0:0:
307,252,330520,1,4,0:0:0:0:
347,92,330770,5,4,0:0:0:0:
512,358,331020,1,4,0:0:0:0:
408,309,331270,1,2,0:0:0:0:
512,191,331520,1,4,0:0:0:0:
235,26,331770,37,8,0:0:0:0:
432,144,332020,1,4,0:0:0:0:
241,382,332270,1,6,0:0:0:0:
235,0,332520,1,4,0:0:0:0:
512,255,332770,6,0,B|456:236|403:267|403:267|350:297|283:255,1,224.999993133545,6|4,0:0|0:0,0:0:0:0:
185,196,333770,2,0,P|108:185|65:207,2,112.499996566773,8|0|4,0:0|0:0|0:0,0:0:0:0:
305,262,334770,38,0,P|322:151|233:77,1,224.999993133545,4|4,0:0|0:0,0:0:0:0:
425,93,335770,2,0,P|478:78|512:34,2,112.499996566773,12|0|0,0:0|0:0|0:0,0:0:0:0:
266,30,336770,6,0,P|165:6|63:72,1,224.999993133545,6|4,0:0|0:0,0:0:0:0:
49,213,337770,2,0,P|70:276|124:310,2,112.499996566773,8|0|4,0:0|0:0|0:0,0:0:0:0:
190,186,338770,37,4,0:0:0:0:
190,186,339020,2,0,P|246:152|266:65,1,149.999995422363,8|4,0:0|0:0,0:0:0:0:
106,123,339770,1,8,0:0:0:0:
106,123,340020,2,0,P|95:192|131:269,1,149.999995422363,4|4,0:0|0:0,0:0:0:0:
245,331,340770,6,0,B|306:314|357:352|357:352|412:390|470:350,1,224.999993133545,6|4,0:0|0:0,0:0:0:0:
413,224,341770,2,0,P|412:162|439:115,2,112.499996566773,8|0|4,0:0|0:0|0:0,0:0:0:0:
319,86,342770,38,0,P|254:60|113:133,1,224.999993133545,4|4,0:0|0:0,0:0:0:0:
222,270,343770,2,0,P|228:224|202:162,2,112.499996566773,8|0|4,0:0|0:0|0:0,0:0:0:0:
117,384,344770,6,0,P|43:296|55:188,1,224.999993133545,4|4,0:0|0:0,0:0:0:0:
167,100,345770,2,0,P|161:31|133:-2,2,112.499996566773,8|0|4,0:0|0:0|0:0,0:0:0:0:
124,236,346770,38,0,P|188:247|264:188,1,149.999995422363,4|0,0:0|0:0,0:0:0:0:
289,76,347520,1,4,0:0:0:0:
331,279,347770,1,8,0:0:0:0:
172,151,348020,2,0,P|228:196|318:187,1,149.999995422363,8|4,0:0|0:0,0:0:0:0:
431,128,348770,22,0,P|507:204|492:312,1,224.999993133545,6|4,0:0|0:0,0:0:0:0:
366,374,349770,2,0,L|249:363,2,112.499996566773,0|0|4,0:0|0:0|0:0,0:0:0:0:
287,271,350770,6,0,L|52:293,1,224.999993133545,4|4,0:0|0:0,0:0:0:0:
113,153,351770,2,0,L|225:163,2,112.499996566773,8|0|4,0:0|0:0|0:0,0:0:0:0:
194,41,352770,38,0,L|418:20,1,224.999993133545,4|4,0:0|0:0,0:0:0:0:
493,138,353770,2,0,L|483:262,2,112.499996566773,8|0|4,0:0|0:0|0:0,0:0:0:0:
375,207,354770,6,0,L|393:370,1,149.999995422363,6|0,0:0|0:0,0:0:0:0:
191,243,355770,2,0,L|209:80,1,149.999995422363,8|4,0:0|0:0,0:0:0:0:
207,93,356520,1,4,0:0:0:0:
256,192,356770,12,0,364770,0:0:0:0:
