osu file format v14

[General]
AudioFilename: audio.mp3
AudioLeadIn: 0
PreviewTime: 112554
Countdown: 0
SampleSet: Drum
StackLeniency: 0.7
Mode: 0
LetterboxInBreaks: 0
WidescreenStoryboard: 0

[Editor]
Bookmarks: 160,2560,4660,5260,9010,10929,12429,14529,16029,17079,19329,24279,36129,45729,52929,62529,64929,74529,78129,81729,84129,91329,92679,102129,110529,112629,122079,135729,136929,141729,196929,232929,238929,252643,278357,307500,319500,325929,334414,353614,392014,400414,407614,438814,447214,459214,466414,468814,472414
DistanceSpacing: 0.2
BeatDivisor: 4
GridSize: 8
TimelineZoom: 2.999999

[Metadata]
Title:Inside the Winter Storm
TitleUnicode:Inside the Winter Storm
Artist:DragonForce
ArtistUnicode:DragonForce
Creator:Melair
Version:Until the end of time, Inside the winter storm.
Source:
Tags:english rock power metal ultra beatdown herman li sam totrman vadim pruzhanov dave mackintosh frédéric leclercq zp theart
BeatmapID:3651837
BeatmapSetID:1783172

[Difficulty]
HPDrainRate:5
CircleSize:4.5
OverallDifficulty:9.6
ApproachRate:9.8
SliderMultiplier:2
SliderTickRate:1

[Events]
//Background and Video events
0,0,"eddy.jpg",0,0
//Break Periods
2,31753,35529
//Storyboard Layer 0 (Background)
//Storyboard Layer 1 (Fail)
//Storyboard Layer 2 (Pass)
//Storyboard Layer 3 (Foreground)
//Storyboard Layer 4 (Overlay)
//Storyboard Sound Samples

[TimingPoints]
160,300,4,1,0,67,1,0
160,-86.9565217391304,4,1,1,67,0,0
2560,-100,4,1,1,67,0,0
2860,-86.9565217391304,4,1,1,67,0,0
5260,-86.9565217391304,4,1,1,67,0,0
5860,-133.333333333333,4,1,2,67,0,0
7060,-80,4,1,1,67,0,0
7360,-153.846153846153,4,1,1,67,0,0
8410,-153.846153846153,4,1,1,5,0,0
8560,-100,4,1,1,67,0,0
9310,-100,4,1,1,5,0,0
9460,-100,4,3,10,67,0,0
10929,300,4,1,1,67,1,0
10929,-86.9565217391304,4,3,1,67,0,0
12129,-86.9565217391304,4,3,1,67,0,0
12429,-86.9565217391304,4,3,1,67,0,0
13329,-66.6666666666667,4,3,1,67,0,0
13479,-86.9565217391304,4,3,1,67,0,0
13779,-66.6666666666667,4,3,1,67,0,0
13854,-86.9565217391304,4,3,1,67,0,0
13929,-66.6666666666667,4,3,1,67,0,0
14004,-86.9565217391304,4,3,1,67,0,0
16329,-80,4,3,1,67,0,0
16929,-86.9565217391304,4,3,1,67,0,0
17529,-86.9565217391304,4,3,1,67,0,0
25629,-80,4,3,1,67,0,0
25929,-86.9565217391304,4,3,1,67,0,0
26229,-80,4,3,1,67,0,0
26529,-86.9565217391304,4,3,1,67,0,0
28929,-86.9565217391304,4,3,1,67,0,0
30129,-74.0740740740741,4,3,10,67,0,0
30429,-86.9565217391304,4,3,10,67,0,0
30729,-80,4,3,10,67,0,0
31029,-74.0740740740741,4,3,10,67,0,0
31329,-74.0740740740741,4,3,10,67,0,0
31554,-74.0740740740741,4,3,1,5,0,0
31629,-100,4,3,1,67,0,0
36129,-312.5,4,1,1,67,0,0
38979,-312.5,4,1,1,5,0,0
39129,-86.9565217391304,4,3,1,67,0,0
43029,-86.9565217391304,4,3,9,67,0,0
43329,-86.9565217391304,4,3,10,67,0,0
43554,-86.9565217391304,4,3,10,5,0,0
43629,-86.9565217391304,4,3,10,67,0,0
43854,-100,4,3,10,5,0,0
43929,-100,4,3,1,67,0,0
45729,-80,4,3,1,67,0,0
46029,-86.9565217391304,4,3,1,67,0,0
46929,-80,4,3,1,67,0,0
47229,-100,4,3,1,67,0,0
47379,-80,4,3,1,67,0,0
47679,-100,4,3,1,67,0,0
48129,-80,4,3,1,67,0,0
49329,-80,4,3,1,67,0,0
50229,-86.9565217391304,4,3,1,67,0,0
53379,-86.9565217391304,4,3,7,67,0,0
53529,-86.9565217391304,4,3,1,67,0,0
53829,-86.9565217391304,4,3,8,67,0,0
53904,-86.9565217391304,4,3,1,67,0,0
54129,-86.9565217391304,4,3,1,67,0,0
55179,-86.9565217391304,4,3,9,67,0,0
55254,-86.9565217391304,4,3,1,67,0,0
55329,-86.9565217391304,4,3,1,67,0,0
56529,-80,4,3,1,67,0,0
56829,-100,4,3,1,67,0,0
56979,-80,4,3,1,67,0,0
57279,-100,4,3,1,67,0,0
57729,-80,4,3,1,67,0,0
58029,-100,4,3,1,67,0,0
58929,-80,4,3,1,67,0,0
59529,-86.9565217391304,4,3,1,67,0,0
64929,-86.9565217391304,4,3,1,67,0,0
72129,-86.9565217391304,4,3,1,67,0,0
73329,-86.9565217391304,4,3,7,67,0,0
73404,-86.9565217391304,4,3,1,67,0,0
73629,-86.9565217391304,4,3,8,67,0,0
73704,-86.9565217391304,4,3,8,40,0,0
73929,-86.9565217391304,4,3,1,67,0,0
74229,-86.9565217391304,4,3,9,67,0,0
74304,-86.9565217391304,4,3,9,40,0,0
74529,-86.9565217391304,4,3,1,67,0,0
78129,-80,4,3,1,67,0,0
78429,-86.9565217391304,4,3,1,67,0,0
78729,-80,4,3,1,67,0,0
79029,-86.9565217391304,4,3,1,67,0,0
79329,-80,4,3,1,67,0,0
79629,-86.9565217391304,4,3,1,67,0,0
83379,-86.9565217391304,4,3,9,67,0,0
83454,-86.9565217391304,4,3,1,67,0,0
84129,-86.9565217391304,4,3,1,67,0,0
86529,-86.9565217391304,4,3,1,67,0,0
87729,-80,4,3,1,67,0,0
91329,-83.3333333333333,4,3,1,67,0,0
92679,-83.3333333333333,4,1,1,67,0,0
93729,-86.9565217391304,4,3,2,67,0,0
97329,-86.9565217391304,4,3,1,67,0,0
97629,-86.9565217391304,4,3,7,67,0,0
97704,-86.9565217391304,4,3,1,67,0,0
98229,-86.9565217391304,4,3,8,67,0,0
98304,-86.9565217391304,4,3,1,67,0,0
98529,-86.9565217391304,4,3,2,67,0,0
101829,-86.9565217391304,4,3,1,67,0,0
103029,-66.6666666666667,4,3,2,67,0,0
103329,-66.6666666666667,4,3,2,67,0,0
103479,-86.9565217391304,4,3,2,67,0,0
106929,-86.9565217391304,4,3,1,67,0,0
108129,-86.9565217391304,4,1,1,67,0,0
109366,-100,4,1,0,5,0,0
109404,-100,4,1,0,67,0,0
110529,-133.333333333333,4,3,10,67,0,0
110829,-100,4,3,10,67,0,0
111129,-80,4,3,10,67,0,0
111429,-66.6666666666667,4,3,10,67,0,0
111729,-57.1428571428571,4,3,10,67,0,0
112029,-50,4,3,10,67,0,0
112329,-44.4444444444445,4,3,10,67,0,0
112629,-86.9565217391304,4,3,2,50,0,0
112779,-86.9565217391304,4,3,2,5,0,0
112929,-74.0740740740741,4,3,1,67,0,1
113829,-74.0740740740741,4,3,1,67,0,1
114129,-50,4,3,1,67,0,1
114279,-74.0740740740741,4,3,1,67,0,1
115329,-50,4,3,1,67,0,1
115479,-83.3333333333333,4,3,1,67,0,1
116529,-83.3333333333333,4,3,7,67,0,1
116679,-83.3333333333333,4,3,1,67,0,1
116979,-83.3333333333333,4,3,8,67,0,1
117129,-83.3333333333333,4,3,1,67,0,1
117429,-83.3333333333333,4,3,9,67,0,1
117579,-83.3333333333333,4,3,9,50,0,1
117729,-83.3333333333333,4,3,3,67,0,1
122229,-83.3333333333333,4,3,8,67,0,1
122304,-83.3333333333333,4,3,1,67,0,1
122529,-50,4,3,1,67,0,1
122679,-74.0740740740741,4,3,1,67,0,1
122979,-50,4,3,1,67,0,1
123129,-74.0740740740741,4,3,1,67,0,1
123729,-74.0740740740741,4,3,1,67,0,1
124479,-83.3333333333333,4,3,1,67,0,1
124929,-74.0740740740741,4,3,1,67,0,1
125229,-83.3333333333333,4,3,1,67,0,1
126579,-83.3333333333333,4,3,7,67,0,1
126729,-83.3333333333333,4,3,1,67,0,1
127179,-83.3333333333333,4,3,8,67,0,1
127329,-83.3333333333333,4,3,10,67,0,0
127629,-83.3333333333333,4,1,0,67,0,0
129729,-166.666666666667,4,1,1,67,0,0
131979,-166.666666666667,4,1,1,5,0,0
132129,-100,4,3,10,67,0,0
135729,-100,4,1,1,67,0,0
136854,-100,4,1,1,5,0,0
136929,-86.9565217391304,4,3,1,67,0,1
144129,-86.9565217391304,4,3,1,67,0,0
146529,-86.9565217391304,4,3,1,67,0,1
148929,-80,4,3,1,67,0,1
149079,-86.9565217391304,4,3,1,67,0,1
151329,-74.0740740740741,4,3,1,67,0,1
151479,-86.9565217391304,4,3,1,67,0,1
151779,-86.9565217391304,4,3,1,67,0,1
153429,-125,4,3,1,67,0,1
153729,-86.9565217391304,4,3,7,67,0,1
153804,-86.9565217391304,4,3,1,67,0,1
154179,-86.9565217391304,4,3,8,67,0,1
154629,-86.9565217391304,4,3,1,67,0,1
154929,-86.9565217391304,4,3,9,67,0,1
156129,-86.9565217391304,4,3,1,67,0,0
156204,-86.9565217391304,4,2,1,45,0,0
158229,-399.999999999997,4,2,1,45,0,0
158529,-181.818181818182,4,2,1,45,0,0
160329,-181.818181818182,4,2,1,5,0,0
160629,-399.999999999997,4,2,1,45,0,0
160929,-153.846153846154,4,2,1,45,0,0
161979,-153.846153846154,4,2,1,5,0,0
162129,-166.666666666667,4,2,1,45,0,0
163179,-166.666666666667,4,2,1,5,0,0
163329,-166.666666666667,4,2,1,45,0,0
164829,-200,4,2,1,45,0,0
165429,-200,4,2,1,5,0,0
165729,-200,4,2,1,45,0,0
165879,-200,4,2,1,5,0,0
166029,-200,4,2,1,45,0,0
167829,-200,4,2,1,45,0,0
167979,-200,4,2,1,5,0,0
168129,-166.666666666667,4,2,1,45,0,0
169479,-166.666666666667,4,2,1,5,0,0
169629,-200,4,2,1,45,0,0
169929,-200,4,2,1,5,0,0
170229,-200,4,2,1,45,0,0
170379,-200,4,2,1,5,0,0
170529,-133.333333333333,4,2,1,45,0,0
171729,-133.333333333333,4,2,1,45,0,0
172779,-133.333333333333,4,2,1,45,0,0
172929,-133.333333333333,4,2,1,45,0,0
173154,-133.333333333333,4,2,1,5,0,0
173229,-133.333333333333,4,2,1,45,0,0
173454,-133.333333333333,4,2,1,5,0,0
173529,-133.333333333333,4,2,1,45,0,0
174129,-133.333333333333,4,2,1,5,0,0
174429,-133.333333333333,4,2,1,45,0,0
175329,-200,4,2,1,45,0,0
177729,-166.666666666667,4,2,1,45,0,0
179979,-166.666666666667,4,2,1,5,0,0
180129,-166.666666666667,4,2,1,45,0,0
182529,-344.827586206897,4,2,1,45,0,0
187329,-200,4,2,1,45,0,0
189579,-200,4,2,1,5,0,0
189729,-200,4,2,1,45,0,0
191979,-200,4,2,1,5,0,0
192129,-66.6666666666667,4,1,1,67,0,0
192354,-66.6666666666667,4,1,1,5,0,0
192429,-66.6666666666667,4,1,1,67,0,0
194529,-133.333333333333,4,3,8,67,0,0
195579,-133.333333333333,4,3,8,5,0,0
195729,-105.263157894737,4,3,9,67,0,0
196779,-105.263157894737,4,3,9,5,0,0
196929,-86.9565217391304,4,3,1,67,0,1
204129,-86.9565217391304,4,3,1,67,0,0
205329,-86.9565217391304,4,3,7,67,0,0
205779,-86.9565217391304,4,3,8,67,0,0
206229,-86.9565217391304,4,3,9,50,0,0
206529,-50,4,3,1,67,0,1
206679,-86.9565217391304,4,3,1,67,0,1
208929,-66.6666666666667,4,3,1,67,0,1
209079,-86.9565217391304,4,3,1,67,0,1
211329,-66.6666666666667,4,3,1,67,0,1
213729,-66.6666666666667,4,3,1,67,0,0
215229,-66.6666666666667,4,3,8,67,0,0
215529,-66.6666666666667,4,3,9,67,0,0
216129,-66.6666666666667,4,3,1,67,0,1
216279,-86.9565217391304,4,3,1,67,0,1
217329,-66.6666666666667,4,3,1,67,0,1
217479,-86.9565217391304,4,3,1,67,0,1
218529,-66.6666666666667,4,3,1,67,0,1
218829,-86.9565217391304,4,3,1,67,0,1
219729,-66.6666666666667,4,3,1,67,0,1
219879,-86.9565217391304,4,3,1,67,0,1
220404,-86.9565217391304,4,3,1,5,0,1
220479,-86.9565217391304,4,3,1,67,0,1
220929,-74.0740740740741,4,3,1,67,0,1
222129,-66.6666666666667,4,3,1,67,0,1
222279,-74.0740740740741,4,3,1,67,0,1
223329,-86.9565217391304,4,3,1,67,0,1
225429,-66.6666666666667,4,3,1,67,0,1
226929,-66.6666666666667,4,3,1,67,0,1
227829,-66.6666666666667,4,3,1,67,0,1
229329,-66.6666666666667,4,3,1,67,0,1
230079,-86.9565217391304,4,3,1,67,0,1
231729,-86.9565217391304,4,3,7,67,0,1
232029,-86.9565217391304,4,3,8,67,0,1
232329,-86.9565217391304,4,3,9,67,0,1
232629,-86.9565217391304,4,3,9,67,0,1
232929,-86.9565217391304,4,3,10,67,0,0
233079,-86.9565217391304,4,3,10,5,0,0
233229,-86.9565217391304,4,3,10,67,0,0
233379,-86.9565217391304,4,3,10,5,0,0
234129,-86.9565217391304,4,3,10,67,0,0
234279,-86.9565217391304,4,3,10,7,0,0
235329,-86.9565217391304,4,3,1,67,0,0
235929,-86.9565217391304,4,3,10,67,0,0
238929,428.571428571429,4,1,0,67,1,0
238929,-80,4,1,1,67,0,0
239571,-86.9565217391304,4,1,0,67,0,0
240214,-133.333333333333,4,1,0,67,0,0
242143,-80,4,1,0,67,0,0
243000,-76.9230769230769,4,1,0,67,0,0
243643,-80,4,1,0,67,0,0
244286,-100,4,1,0,67,0,0
245679,-100,4,1,0,5,0,0
245786,-153.846153846154,4,1,1,67,0,0
250821,-153.846153846154,4,1,1,5,0,0
250929,-117.647058823529,4,1,1,67,0,0
252429,-117.647058823529,4,1,1,5,0,0
252643,-86.9565217391304,4,3,2,67,0,0
264643,-86.9565217391304,4,1,1,67,0,0
266357,-100,4,3,1,67,0,0
266571,-80,4,3,1,67,0,0
280071,-100,4,3,1,67,0,0
286500,-100,4,3,1,40,0,0
286714,-100,4,3,1,67,0,0
287571,-66.6666666666667,4,3,1,67,0,0
287679,-100,4,3,1,67,0,0
292714,-100,4,3,7,67,0,0
292929,-100,4,3,1,67,0,0
293143,-100,4,3,8,67,0,0
293357,-100,4,3,9,67,0,0
293786,-80,4,3,1,67,0,0
297214,-74.0740740740741,4,3,1,67,0,0
300643,-80,4,3,2,50,0,0
300857,-80,4,3,1,67,0,0
305786,-100,4,3,1,67,0,0
307500,-80,4,3,1,67,0,0
307714,-80,4,3,1,67,0,0
310929,-74.0740740740741,4,3,1,67,0,0
314357,-80,4,3,1,67,0,0
314571,-80,4,3,1,67,0,0
316071,-80,4,3,1,50,0,0
316286,-80,4,3,1,67,0,0
319714,-80,4,3,8,67,0,0
320464,-80,4,3,9,67,0,0
321214,300,4,1,0,67,1,0
321214,-86.9565217391304,4,3,2,67,0,0
321364,-86.9565217391304,4,3,2,5,0,0
321514,-86.9565217391304,4,3,2,67,0,0
321964,-86.9565217391304,4,3,2,5,0,0
322114,-86.9565217391304,4,3,2,67,0,0
322414,-86.9565217391304,4,3,2,5,0,0
322564,-86.9565217391304,4,3,2,67,0,0
322864,-86.9565217391304,4,3,2,5,0,0
323014,-86.9565217391304,4,3,2,67,0,0
323539,-86.9565217391304,4,3,2,5,0,0
323614,-86.9565217391304,4,3,2,67,0,0
324064,-86.9565217391304,4,3,2,5,0,0
324214,-86.9565217391304,4,3,2,67,0,0
325714,-66.6666666666667,4,3,2,67,0,0
326014,-86.9565217391304,4,3,7,67,0,0
326614,-86.9565217391304,4,3,8,67,0,0
326914,-86.9565217391304,4,3,8,55,0,0
327364,-86.9565217391304,4,3,1,67,0,0
327664,-86.9565217391304,4,3,8,67,0,0
327814,-86.9565217391304,4,3,1,67,0,0
328114,-86.9565217391304,4,3,9,67,0,0
328414,-86.9565217391304,4,3,1,67,0,0
328564,-86.9565217391304,4,1,1,67,0,0
331864,-86.9565217391304,4,1,1,5,0,0
332014,-66.6666666666667,4,3,10,67,0,0
332164,-66.6666666666667,4,3,10,5,0,0
332314,-66.6666666666667,4,3,10,67,0,0
332464,-66.6666666666667,4,3,10,5,0,0
332614,-66.6666666666667,4,3,10,67,0,0
332764,-66.6666666666667,4,3,10,5,0,0
332914,-66.6666666666667,4,3,10,67,0,0
333064,-66.6666666666667,4,3,3,5,0,0
333214,-100,4,3,3,67,0,0
334414,-86.9565217391304,4,3,3,67,0,0
335014,-86.9565217391304,4,3,3,67,0,0
336214,-86.9565217391304,4,3,3,67,0,0
336514,-86.9565217391304,4,3,3,67,0,0
338614,-86.9565217391304,4,3,2,67,0,0
339064,-86.9565217391304,4,3,3,67,0,0
341614,-86.9565217391304,4,3,1,67,0,0
343264,-86.9565217391304,4,3,1,41,0,0
343414,-86.9565217391304,4,3,1,45,0,0
343564,-86.9565217391304,4,3,1,50,0,0
343714,-86.9565217391304,4,3,1,55,0,0
343864,-86.9565217391304,4,3,1,67,0,0
344614,-86.9565217391304,4,3,3,67,0,0
351214,-86.9565217391304,4,3,1,67,0,0
353314,-86.9565217391304,4,3,8,67,0,0
353389,-86.9565217391304,4,3,1,67,0,0
353614,-80,4,3,1,67,0,1
353764,-80,4,3,3,67,0,1
362014,-80,4,3,2,67,0,1
363064,-80,4,3,2,5,0,1
363214,-80,4,3,1,67,0,1
367714,-80,4,3,1,67,0,1
367939,-80,4,3,1,5,0,1
368014,-80,4,2,2,67,0,1
368239,-80,4,2,2,5,0,1
368314,-80,4,2,2,67,0,1
368389,-80,4,2,2,5,0,1
368464,-80,4,2,2,67,0,1
368839,-80,4,2,2,5,0,1
368914,-80,4,2,2,67,0,1
368989,-80,4,2,2,5,0,1
369064,-80,4,2,2,67,0,1
369139,-80,4,2,2,5,0,1
369214,-80,4,2,2,67,0,1
369439,-80,4,2,2,5,0,1
369514,-80,4,2,2,67,0,1
369739,-80,4,2,2,5,0,1
369814,-80,4,2,2,67,0,1
369889,-80,4,2,2,5,0,1
369964,-80,4,2,2,67,0,1
370039,-80,4,2,2,5,0,1
370114,-80,4,2,2,67,0,1
370339,-80,4,2,2,5,0,1
370414,-80,4,3,1,67,0,1
372814,-80,4,3,2,67,0,0
373189,-80,4,3,2,5,0,0
373264,-80,4,3,2,67,0,0
373339,-80,4,3,2,5,0,0
373414,-80,4,3,2,67,0,0
373489,-80,4,3,2,5,0,0
373564,-80,4,3,2,67,0,0
373639,-80,4,3,2,5,0,0
373714,-80,4,3,2,67,0,0
373789,-80,4,3,2,5,0,0
373864,-80,4,3,2,67,0,0
373939,-80,4,3,2,5,0,0
374014,-80,4,3,2,67,0,0
374464,-80,4,3,2,15,0,0
374614,-80,4,3,2,67,0,0
374839,-80,4,3,2,5,0,0
374914,-80,4,3,2,67,0,0
375139,-80,4,3,2,5,0,0
375214,-80,4,3,2,67,0,0
375589,-80,4,3,2,5,0,0
375664,-80,4,3,2,67,0,0
376039,-80,4,3,2,5,0,0
376114,-80,4,3,2,67,0,0
376339,-80,4,3,2,5,0,0
376414,-80,4,3,2,67,0,0
377239,-80,4,3,2,5,0,0
377314,-100,4,3,2,67,0,0
377539,-100,4,3,2,5,0,0
377614,-100,4,3,2,67,0,0
377989,-100,4,3,2,5,0,0
378064,-100,4,3,2,67,0,0
378439,-100,4,3,2,5,0,0
378514,-100,4,3,2,67,0,0
378739,-100,4,3,2,5,0,0
378814,-100,4,3,2,67,0,0
379189,-100,4,3,2,5,0,0
379264,-100,4,3,2,67,0,0
379639,-100,4,3,2,5,0,0
379714,-100,4,3,2,67,0,0
379939,-100,4,3,2,5,0,0
380014,-80,4,3,1,67,0,0
381214,-80,4,3,1,35,0,0
381439,-80,4,3,1,5,0,0
381514,-86.9565217391304,4,3,1,45,0,0
381739,-86.9565217391304,4,3,1,5,0,0
381814,-80,4,3,1,55,0,0
382039,-80,4,3,1,5,0,0
382114,-76.9230769230769,4,3,1,67,0,0
382339,-76.9230769230769,4,3,1,5,0,0
382414,-76.9230769230769,4,3,1,67,0,1
384814,-80,4,3,1,67,0,0
386014,-80,4,3,2,67,0,0
386614,-80,4,3,2,67,0,0
387139,-80,4,3,2,5,0,0
387214,-80,4,3,1,67,0,0
389614,-80,4,3,10,67,0,0
392014,-105.263157894737,4,1,1,67,0,0
392839,-105.263157894737,4,1,1,5,0,0
392914,-100,4,3,2,67,0,0
392989,-100,4,3,2,5,0,0
393064,-100,4,3,2,67,0,0
393139,-100,4,3,2,5,0,0
393214,-105.263157894737,4,3,2,67,0,0
393589,-105.263157894737,4,3,2,5,0,0
393664,-95.2380952380952,4,3,2,67,0,0
394039,-95.2380952380952,4,3,2,5,0,0
394114,-95.2380952380952,4,3,2,67,0,0
394339,-95.2380952380952,4,3,2,5,0,0
394414,-105.263157894737,4,3,2,67,0,0
395239,-105.263157894737,4,3,2,5,0,0
395314,-100,4,3,2,67,0,0
395389,-100,4,3,2,5,0,0
395464,-100,4,3,2,67,0,0
395539,-100,4,3,2,5,0,0
395614,-56.5932267378083,4,3,2,67,0,0
396439,-56.5932267378083,4,3,2,5,0,0
396514,-95.2380952380952,4,3,1,67,0,0
396664,-95.2380952380952,4,3,1,67,0,0
396814,-86.9565217391304,4,3,1,67,0,0
399664,-80,4,3,1,67,0,0
399964,-86.9565217391304,4,3,1,67,0,0
400114,-86.9565217391304,4,3,1,67,0,0
401614,-66.6666666666667,4,3,1,67,0,1
406414,-80,4,3,1,67,0,0
408814,-66.6666666666667,4,3,7,67,0,0
409189,-66.6666666666667,4,3,7,50,0,0
409414,-66.6666666666667,4,3,8,67,0,0
409714,-66.6666666666667,4,3,9,67,0,0
410014,-66.6666666666667,4,3,1,67,0,0
410314,-66.6666666666667,4,3,9,67,0,0
410614,-80,4,3,9,67,0,0
411214,-80,4,3,2,67,0,0
411589,-80,4,3,2,5,0,0
411664,-80,4,3,2,67,0,0
412039,-80,4,3,2,5,0,0
412114,-80,4,3,2,67,0,0
412339,-80,4,3,2,5,0,0
412414,-80,4,3,2,67,0,0
412864,-80,4,3,2,67,0,0
412939,-80,4,3,2,5,0,0
413014,-80,4,3,2,67,0,0
413164,-80,4,3,2,5,0,0
413239,-80,4,3,2,67,0,0
413389,-80,4,3,2,5,0,0
413464,-80,4,3,2,67,0,0
413539,-80,4,3,2,5,0,0
413614,-66.6666666666667,4,3,1,67,0,1
414364,-66.6666666666667,4,3,1,67,0,1
414514,-66.6666666666667,4,3,8,67,0,1
414664,-66.6666666666667,4,3,1,67,0,1
414814,-80,4,3,2,67,0,0
415339,-80,4,3,2,5,0,0
415414,-80,4,3,2,67,0,0
415939,-80,4,3,2,5,0,0
416014,-74.0740740740741,4,3,1,67,0,1
417214,-50,4,3,1,67,0,1
417364,-74.0740740740741,4,3,1,67,0,1
418414,-50,4,3,1,67,0,1
418564,-74.0740740740741,4,3,1,67,0,1
419614,-74.0740740740741,4,3,1,67,0,1
419914,-74.0740740740741,4,3,7,67,0,1
420064,-74.0740740740741,4,3,7,50,0,1
420139,-74.0740740740741,4,3,7,67,0,1
420214,-74.0740740740741,4,3,1,67,0,1
420514,-74.0740740740741,4,3,9,67,0,1
420664,-74.0740740740741,4,3,9,50,0,1
420814,-74.0740740740741,4,3,3,67,0,0
421714,-66.6666666666667,4,3,3,67,0,0
421864,-74.0740740740741,4,3,3,67,0,0
422014,-66.6666666666667,4,3,3,67,0,0
422164,-74.0740740740741,4,3,3,67,0,0
422464,-66.6666666666667,4,3,3,67,0,0
422614,-74.0740740740741,4,3,3,67,0,0
423214,-66.6666666666667,4,3,3,67,0,1
425314,-66.6666666666667,4,3,1,67,0,0
425614,-74.0740740740741,4,3,1,67,0,1
426814,-50,4,3,1,67,0,1
426964,-74.0740740740741,4,3,1,67,0,1
427264,-50,4,3,1,67,0,1
427414,-74.0740740740741,4,3,1,67,0,1
428014,-50,4,3,1,67,0,1
428164,-74.0740740740741,4,3,1,67,0,1
429214,-74.0740740740741,4,3,1,67,0,0
430414,-74.0740740740741,4,3,10,67,0,0
430639,-74.0740740740741,4,1,0,67,0,0
432814,-166.666666666667,4,1,1,67,0,0
435064,-166.666666666667,4,1,0,5,0,0
435214,-166.666666666667,4,3,10,67,0,0
435289,-166.666666666667,4,1,0,67,0,0
438814,-80,4,3,10,67,0,0
439864,-80,4,1,10,5,0,0
440014,-86.9565217391304,4,3,1,67,0,1
447214,-86.9565217391304,4,3,1,67,0,0
447289,-86.9565217391304,4,3,8,67,0,0
447364,-86.9565217391304,4,3,9,67,0,0
447514,-86.9565217391304,4,3,1,67,0,0
447589,-86.9565217391304,4,3,7,55,0,0
447664,-86.9565217391304,4,3,8,62,0,0
447739,-86.9565217391304,4,3,9,65,0,0
447814,-86.9565217391304,4,3,1,67,0,0
447964,-86.9565217391304,4,3,8,67,0,0
448114,-86.9565217391304,4,3,1,67,0,0
448189,-86.9565217391304,4,3,8,55,0,0
448264,-86.9565217391304,4,3,8,67,0,0
448339,-86.9565217391304,4,3,1,67,0,0
448639,-86.9565217391304,4,3,8,67,0,0
448714,-86.9565217391304,4,3,1,67,0,0
448864,-86.9565217391304,4,3,9,67,0,0
449014,-86.9565217391304,4,3,9,55,0,0
449164,-86.9565217391304,4,3,1,67,0,0
449614,-50,4,3,1,67,0,1
449764,-86.9565217391304,4,3,1,67,0,1
452014,-66.6666666666667,4,3,1,67,0,1
452164,-86.9565217391304,4,3,1,67,0,1
454414,-66.6666666666667,4,3,1,67,0,1
456814,-66.6666666666667,4,3,7,67,0,0
456889,-66.6666666666667,4,3,1,67,0,0
457264,-74.0740740740741,4,3,8,67,0,0
457339,-74.0740740740741,4,3,1,67,0,0
458014,-86.9565217391304,4,3,1,67,0,0
458314,-86.9565217391304,4,3,7,67,0,0
458614,-80,4,3,8,67,0,0
458914,-80,4,3,9,67,0,0
459214,-66.6666666666667,4,3,1,67,0,1
459364,-80,4,3,1,67,0,1
461089,-80,4,3,1,5,0,1
461164,-80,4,3,1,67,0,1
463489,-80,4,3,1,5,0,1
463564,-80,4,3,1,67,0,1
464014,-74.0740740740741,4,3,1,67,0,1
466414,-74.0740740740741,4,3,1,67,0,1
468814,-66.6666666666667,4,3,1,67,0,1
468964,-66.6666666666667,4,3,1,67,0,1
469714,-66.6666666666667,4,3,1,67,0,1
470014,-50,4,3,1,67,0,1
470914,-66.6666666666667,4,3,1,67,0,1
476014,-86.9565217391304,4,3,10,67,0,0
476164,-86.9565217391304,4,3,10,5,0,0
476314,-86.9565217391304,4,3,10,67,0,0
476464,-86.9565217391304,4,3,10,5,0,0
477214,-86.9565217391304,4,3,10,67,0,0
477364,-86.9565217391304,4,3,10,5,0,0
478414,-66.6666666666667,4,3,1,67,0,1
480814,-66.6666666666667,4,3,10,67,0,0
481264,-66.6666666666667,4,1,0,67,0,0
482014,-66.6666666666667,4,3,10,67,0,0
483214,-66.6666666666667,4,3,2,67,0,0
484714,-66.6666666666667,4,1,1,67,0,0
485614,-66.6666666666667,4,3,10,31,0,0
485714,-66.6666666666667,4,3,10,5,0,0
485814,-66.6666666666667,4,3,10,40,0,0
485914,-66.6666666666667,4,3,10,5,0,0
486014,-66.6666666666667,4,3,10,50,0,0
486114,-66.6666666666667,4,3,10,5,0,0
486214,-66.6666666666667,4,3,10,60,0,0
486314,-66.6666666666667,4,3,10,5,0,0
486414,-66.6666666666667,4,3,10,70,0,0
486514,-66.6666666666667,4,3,10,5,0,0
486614,-66.6666666666667,4,3,10,70,0,0
486714,-66.6666666666667,4,3,10,5,0,0
486814,-66.6666666666667,4,3,10,70,0,0
486914,-66.6666666666667,4,3,10,5,0,0
486964,-66.6666666666667,4,3,10,67,0,0
488164,-66.6666666666667,4,3,10,5,0,0

[Colours]
Combo1 : 6,131,255
Combo2 : 185,255,255
Combo3 : 15,177,255
Combo4 : 128,128,192

[HitObjects]
306,112,160,5,8,0:0:0:0:
147,241,310,1,8,0:0:0:0:
318,103,460,6,0,B|295:101|295:101|209:194,1,115.000002193451,2|0,0:0|0:0,0:0:0:0:
94,323,760,2,0,P|162:305|140:245,1,115.000002193451,2|0,0:0|0:0,0:0:0:0:
59,41,1060,2,0,B|69:91|69:91|77:101|77:101|96:194,1,115.000002193451,2|0,0:0|0:0,0:0:0:0:
283,125,1360,5,2,0:0:0:0:
309,138,1510,1,0,0:0:0:0:
267,248,1660,5,2,0:0:0:0:
286,297,1810,1,0,0:0:0:0:
150,347,1960,5,2,0:0:0:0:
132,224,2110,1,0,0:0:0:0:
8,128,2260,5,2,0:0:0:0:
94,292,2410,1,0,0:0:0:0:
287,296,2560,5,10,0:0:0:0:
163,106,2710,1,8,0:0:0:0:
300,307,2860,6,0,B|319:320|319:320|305:207,1,115.000002193451,2|0,0:0|0:0,0:0:0:0:
288,90,3160,2,0,P|341:98|331:39,1,115.000002193451,2|0,0:0|0:0,0:0:0:0:
115,12,3460,2,0,B|133:62|133:62|146:77|146:77|165:131,1,115.000002193451,2|0,0:0|0:0,0:0:0:0:
270,294,3760,5,2,0:0:0:0:
288,323,3910,1,0,0:0:0:0:
446,262,4060,5,2,0:0:0:0:
370,278,4210,1,0,0:0:0:0:
372,113,4360,5,2,0:0:0:0:
280,211,4510,1,0,0:0:0:0:
84,146,4660,5,10,0:0:0:0:
220,288,4810,1,8,0:0:0:0:
194,20,4960,1,10,0:0:0:0:
102,316,5110,1,0,0:0:0:0:
89,335,5260,6,0,B|74:347|74:347|79:295|79:295|85:291|85:291|92:219,1,115.000002193451,2|0,0:0|0:0,0:0:0:0:
126,126,5560,2,0,B|146:93|146:93|141:7,1,115.000002193451,2|0,0:0|0:0,0:0:0:0:
363,69,5860,6,0,B|387:176|387:176|413:214|413:214|433:299|433:299|422:355|366:351|366:351|345:259|345:259|329:242|329:242|311:168,1,525.000020027161,12|0,0:0|2:0,2:0:0:0:
144,52,7060,2,0,B|122:50|117:30|156:10|200:14|223:65,1,125,12|0,0:0|0:0,0:0:0:0:
324,289,7360,6,0,B|335:310|335:310|249:303|249:303|224:263|224:263|228:259|228:259|203:221|203:221|53:207|53:207|75:254|75:254|130:259,1,454.999979171754,12|0,0:0|0:0,0:0:0:0:
329,95,8560,2,0,B|364:35|364:35|373:169|373:169|388:185|388:185|402:325|402:325|447:237|447:237|443:178,1,500,12|0,0:0|0:0,0:0:0:0:
425,104,9460,5,4,0:0:0:0:
178,336,9610,1,4,0:0:0:0:
425,104,9760,1,4,0:0:0:0:
199,237,10929,5,8,0:0:0:0:
203,256,11004,1,0,0:0:0:0:
207,275,11079,1,0,0:0:0:0:
211,294,11154,2,0,L|224:363,1,57.5000010967255,8|0,0:0|0:0,0:0:0:0:
411,311,11304,5,0,0:0:0:0:
422,312,11379,2,0,L|346:323,1,57.5000010967255,8|0,0:0|0:0,0:0:0:0:
103,207,11529,2,0,L|118:284,1,57.5000010967255,8|0,0:0|0:0,0:0:0:0:
361,128,11679,5,8,0:0:0:0:
368,106,11754,1,8,0:0:0:0:
361,84,11829,2,8,B|344:97|344:97|316:163,1,57.5000010967255,8|0,0:0|0:0,0:0:0:0:
128,11,11979,2,8,L|230:29,1,57.5000010967255
98,189,12129,6,0,L|24:179,1,57.5000010967255
160,71,12279,2,0,B|179:88|179:88|185:132,1,57.5000010967255,10|0,0:0|0:0,0:0:0:0:
93,292,12429,5,0,0:0:0:0:
89,302,12504,1,0,0:0:0:0:
85,313,12579,2,0,B|70:296|70:296|78:239,1,57.5000010967255,10|0,0:0|0:0,0:0:0:0:
281,278,12729,2,0,L|207:290,1,57.5000010967255
13,123,12879,2,0,L|104:119,1,57.5000010967255,10|0,0:0|0:0,0:0:0:0:
365,156,13029,5,0,0:0:0:0:
376,157,13104,1,0,0:0:0:0:
387,159,13179,2,0,B|378:185|378:185|324:214,1,57.5000010967255,10|0,0:0|0:0,0:0:0:0:
174,357,13329,6,0,B|154:334|154:334|143:286|143:286|139:285|139:285|121:202,1,150.000005722046,0|10,0:0|0:0,0:0:0:0:
295,41,13629,5,0,0:0:0:0:
288,69,13704,1,0,0:0:0:0:
267,89,13779,6,0,L|184:112,1,75.0000028610231,10|0,0:0|0:0,0:0:0:0:
51,27,13929,2,0,B|80:39|80:39|115:82,1,75.0000028610231
216,277,14079,6,0,B|204:259|204:259|211:196,1,57.5000010967255,10|0,0:0|0:0,0:0:0:0:
409,49,14229,2,0,B|409:79|409:79|384:130,1,57.5000010967255
438,286,14379,2,0,L|362:256,1,57.5000010967255,10|0,0:0|0:0,0:0:0:0:
259,185,14529,6,0,B|275:207|275:207|282:255,1,57.5000010967255
139,354,14679,2,0,L|129:279,1,57.5000010967255,10|0,0:0|0:0,0:0:0:0:
360,131,14829,1,0,0:0:0:0:
368,158,14904,1,0,0:0:0:0:
376,185,14979,2,0,L|392:251,1,57.5000010967255,10|0,0:0|0:0,0:0:0:0:
313,355,15129,6,0,B|319:323|319:323|306:282,1,57.5000010967255
119,101,15279,2,0,L|158:173,1,57.5000010967255,10|0,0:0|0:0,0:0:0:0:
408,77,15429,5,0,0:0:0:0:
400,50,15504,1,0,0:0:0:0:
378,33,15579,2,0,B|348:27|348:27|318:36,1,57.5000010967255,10|0,0:0|0:0,0:0:0:0:
62,158,15729,6,0,B|81:189|81:189|122:212,1,57.5000010967255
333,285,15879,2,0,B|317:256|317:256|266:222,1,57.5000010967255,10|0,0:0|0:0,0:0:0:0:
195,338,16029,6,0,L|276:318,1,57.5000010967255
394,179,16179,2,0,L|291:197,1,57.5000010967255,10|0,0:0|0:0,0:0:0:0:
93,77,16329,6,0,L|65:159,1,62.5
163,256,16479,2,0,L|146:171,1,62.5,10|0,0:0|0:0,0:0:0:0:
315,125,16629,2,0,L|242:174,1,62.5
276,345,16779,2,0,L|297:256,1,62.5,10|0,0:0|0:0,0:0:0:0:
213,52,16929,1,0,0:0:0:0:
474,205,17079,5,10,0:0:0:0:
438,191,17154,1,0,0:0:0:0:
400,191,17229,1,0,0:0:0:0:
366,207,17304,1,0,0:0:0:0:
328,210,17379,1,10,0:0:0:0:
292,198,17454,1,0,0:0:0:0:
265,171,17529,2,0,B|245:142|245:142|245:99,1,57.5000010967255
102,5,17679,2,0,B|122:34|122:34|123:72,1,57.5000010967255,10|0,0:0|0:0,0:0:0:0:
52,262,17829,5,0,0:0:0:0:
76,233,17904,1,0,0:0:0:0:
112,223,17979,1,10,0:0:0:0:
148,213,18054,1,0,0:0:0:0:
183,202,18129,2,0,L|263:184,1,57.5000010967255
467,132,18279,2,0,L|374:157,1,57.5000010967255,10|0,0:0|0:0,0:0:0:0:
282,334,18429,5,0,0:0:0:0:
300,301,18504,1,0,0:0:0:0:
292,264,18579,1,10,0:0:0:0:
266,235,18654,1,0,0:0:0:0:
258,198,18729,5,0,0:0:0:0:
125,17,18879,1,10,0:0:0:0:
386,152,19029,2,0,B|403:160|403:160|417:223,1,57.5000010967255
320,339,19179,2,0,L|339:263,1,57.5000010967255,10|0,0:0|0:0,0:0:0:0:
12,260,19329,5,0,0:0:0:0:
49,188,19404,1,0,0:0:0:0:
111,147,19479,1,2,0:0:0:0:
179,140,19554,1,0,0:0:0:0:
238,162,19629,5,8,0:0:0:0:
256,191,19704,1,8,0:0:0:0:
252,219,19779,2,0,P|224:223|196:202,1,57.5000010967255,10|0,0:0|0:0,0:0:0:0:
171,0,19929,2,0,B|184:12|184:12|196:87,1,57.5000010967255
290,328,20079,5,10,0:0:0:0:
223,340,20154,1,8,0:0:0:0:
178,303,20229,2,0,P|166:278|172:233,1,57.5000010967255,8|0,0:0|0:0,0:0:0:0:
445,57,20379,5,8,0:0:0:0:
450,89,20454,1,8,0:0:0:0:
432,126,20529,1,10,0:0:0:0:
96,225,20679,5,2,0:0:0:0:
302,41,20829,5,10,0:0:0:0:
314,28,20904,1,8,0:0:0:0:
323,20,20979,1,10,0:0:0:0:
355,309,21129,5,2,0:0:0:0:
87,67,21279,1,10,0:0:0:0:
55,78,21354,1,8,0:0:0:0:
39,109,21429,1,8,0:0:0:0:
53,165,21504,1,8,0:0:0:0:
101,198,21579,1,10,0:0:0:0:
154,222,21654,1,8,0:0:0:0:
207,246,21729,6,0,L|272:271,1,57.5000010967255,10|0,0:0|0:0,0:0:0:0:
485,283,21879,2,0,L|420:258,1,57.5000010967255,8|0,0:0|0:0,0:0:0:0:
282,86,22029,2,0,P|300:102|306:147,1,57.5000010967255,2|0,0:0|0:0,0:0:0:0:
200,298,22179,2,0,P|179:269|182:228,1,57.5000010967255,8|0,0:0|0:0,0:0:0:0:
3,335,22329,5,2,0:0:0:0:
27,303,22404,1,0,0:0:0:0:
51,271,22479,1,8,0:0:0:0:
75,239,22554,1,0,0:0:0:0:
100,207,22629,2,0,L|154:138,1,57.5000010967255,2|0,0:0|0:0,0:0:0:0:
130,6,22779,2,0,B|141:22|141:22|212:58,1,57.5000010967255,8|0,0:0|0:0,0:0:0:0:
438,102,22929,5,2,0:0:0:0:
404,123,23004,1,0,0:0:0:0:
393,161,23079,2,0,B|390:186|390:186|409:253,1,57.5000010967255,8|0,0:0|0:0,0:0:0:0:
308,350,23229,1,2,0:0:0:0:
297,311,23304,1,0,0:0:0:0:
287,271,23379,2,0,L|269:191,1,57.5000010967255,8|0,0:0|0:0,0:0:0:0:
238,30,23529,2,0,P|270:50|280:94,1,57.5000010967255,2|0,0:0|0:0,0:0:0:0:
98,207,23679,5,8,0:0:0:0:
134,190,23754,1,0,0:0:0:0:
173,196,23829,2,0,P|214:209|265:188,1,57.5000010967255,2|0,0:0|0:0,0:0:0:0:
474,131,23979,2,0,B|452:125|452:125|379:135,1,57.5000010967255,8|0,0:0|0:0,0:0:0:0:
209,300,24129,1,2,0:0:0:0:
82,68,24279,5,8,0:0:0:0:
102,102,24354,1,0,0:0:0:0:
137,121,24429,1,2,0:0:0:0:
178,128,24504,1,0,0:0:0:0:
212,147,24579,1,8,0:0:0:0:
254,153,24654,1,0,0:0:0:0:
290,170,24729,1,2,0:0:0:0:
433,50,24879,5,8,0:0:0:0:
400,74,24954,1,0,0:0:0:0:
383,110,25029,1,2,0:0:0:0:
379,150,25104,1,0,0:0:0:0:
380,190,25179,1,8,0:0:0:0:
396,228,25254,1,0,0:0:0:0:
398,268,25329,1,2,0:0:0:0:
413,307,25404,1,0,0:0:0:0:
415,347,25479,1,8,0:0:0:0:
300,337,25629,6,0,B|283:318|283:318|205:306,1,62.5,2|0,0:0|0:0,0:0:0:0:
60,304,25779,2,0,B|81:297|81:297|85:216,1,62.5,8|0,0:0|0:0,0:0:0:0:
137,33,25929,6,0,P|116:67|68:86,1,57.5000010967255,2|0,0:0|0:0,0:0:0:0:
142,47,26079,2,0,P|121:81|73:100,1,57.5000010967255,8|0,0:0|0:0,0:0:0:0:
70,243,26229,6,0,B|90:253|90:253|172:246,1,62.5,2|0,0:0|0:0,0:0:0:0:
310,141,26379,2,0,B|290:131|290:131|208:138,1,62.5,8|0,0:0|0:0,0:0:0:0:
384,318,26529,1,2,0:0:0:0:
195,136,26679,5,8,0:0:0:0:
234,176,26754,1,0,0:0:0:0:
290,183,26829,1,2,0:0:0:0:
338,154,26904,1,0,0:0:0:0:
357,101,26979,2,0,P|349:60|323:37,1,57.5000010967255,8|0,0:0|0:0,0:0:0:0:
105,28,27129,5,2,0:0:0:0:
92,64,27204,1,0,0:0:0:0:
104,102,27279,1,8,0:0:0:0:
116,140,27354,1,0,0:0:0:0:
128,178,27429,2,0,L|156:263,1,57.5000010967255,2|0,0:0|0:0,0:0:0:0:
344,336,27579,5,8,0:0:0:0:
319,320,27654,1,0,0:0:0:0:
290,319,27729,1,2,0:0:0:0:
245,331,27804,1,0,0:0:0:0:
197,352,27879,1,8,0:0:0:0:
140,343,27954,1,0,0:0:0:0:
95,306,28029,2,0,P|82:281|80:227,1,57.5000010967255,2|0,0:0|0:0,0:0:0:0:
243,120,28179,2,0,P|208:160|164:168,1,57.5000010967255,8|0,0:0|0:0,0:0:0:0:
20,58,28329,5,2,0:0:0:0:
59,65,28404,1,0,0:0:0:0:
98,72,28479,2,0,L|183:87,1,57.5000010967255,8|0,0:0|0:0,0:0:0:0:
405,127,28629,2,0,B|387:99|387:99|342:89,1,57.5000010967255,2|0,0:0|0:0,0:0:0:0:
188,242,28779,2,0,B|206:262|206:262|282:272,1,57.5000010967255,8|0,0:0|0:0,0:0:0:0:
462,331,28929,5,0,0:0:0:0:
424,280,29004,1,0,0:0:0:0:
381,262,29079,1,0,0:0:0:0:
348,272,29154,1,0,0:0:0:0:
337,292,29229,1,8,0:0:0:0:
350,310,29304,1,8,0:0:0:0:
371,319,29379,5,8,0:0:0:0:
393,315,29454,1,0,0:0:0:0:
411,301,29529,1,0,0:0:0:0:
405,248,29604,1,0,0:0:0:0:
378,202,29679,1,0,0:0:0:0:
335,171,29754,1,0,0:0:0:0:
283,161,29829,1,0,0:0:0:0:
217,179,29904,1,8,0:0:0:0:
158,144,29979,1,8,0:0:0:0:
142,78,30054,1,8,0:0:0:0:
177,20,30129,6,0,B|211:11|211:11|270:37|270:37|271:41|271:41|366:86,1,202.500000772476,4|0,0:0|0:0,0:0:0:0:
467,65,30429,2,0,B|427:98|427:98|422:100|422:100|401:124|401:124|408:163|408:163|411:166|411:166|419:209,1,172.500003290176,4|0,0:0|0:0,0:0:0:0:
481,305,30729,2,0,B|460:296|449:277|449:277|373:269|373:269|368:265|368:265|249:252,1,187.5,4|0,0:0|0:0,0:0:0:0:
110,256,31029,2,0,P|147:336|212:259,1,202.500000772476,4|0,0:0|0:0,0:0:0:0:
318,83,31329,2,0,B|293:102|293:102|252:117|252:117|202:103|202:103|143:121|143:121|114:151,1,202.500000772476,4|0,0:0|0:0,0:0:0:0:
145,133,36129,6,0,B|142:97|104:66|104:66|139:75|181:121|184:194|184:194|176:199|176:199|185:283|271:325|271:325|269:317|269:317|315:289|363:296|363:296|366:301|366:301|409:303|441:263,1,608,4|0,0:0|0:0,0:0:0:0:
414,66,39129,5,0,0:0:0:0:
425,46,39279,1,0,0:0:0:0:
340,32,39429,5,0,0:0:0:0:
323,16,39579,1,0,0:0:0:0:
208,52,39729,5,0,0:0:0:0:
162,77,39879,1,0,0:0:0:0:
169,205,40029,5,0,0:0:0:0:
137,289,40179,1,0,0:0:0:0:
368,326,40329,5,0,0:0:0:0:
244,258,40479,1,0,0:0:0:0:
324,357,40629,5,0,0:0:0:0:
221,113,40779,1,0,0:0:0:0:
50,285,40929,5,8,0:0:0:0:
88,293,41004,1,0,0:0:0:0:
122,299,41079,1,0,0:0:0:0:
149,305,41154,2,0,B|181:313|181:313|185:311|185:311|237:324,1,57.5000010967255,8|0,0:0|0:0,0:0:0:0:
424,347,41304,5,0,0:0:0:0:
438,351,41379,2,0,P|431:316|392:287,1,57.5000010967255,8|0,0:0|0:0,0:0:0:0:
215,165,41529,2,0,B|222:194|222:194|263:244,1,57.5000010967255,8|0,0:0|0:0,0:0:0:0:
452,119,41679,5,0,0:0:0:0:
401,108,41754,1,0,0:0:0:0:
361,100,41829,2,0,L|261:79,1,57.5000010967255,8|0,0:0|0:0,0:0:0:0:
80,67,41979,5,0,0:0:0:0:
94,116,42054,1,0,0:0:0:0:
106,154,42129,2,0,L|131:241,1,57.5000010967255
384,269,42279,5,8,0:0:0:0:
343,218,42354,1,8,0:0:0:0:
303,189,42429,1,8,0:0:0:0:
282,154,42504,1,8,0:0:0:0:
245,136,42579,2,0,L|179:69,1,57.5000010967255
37,304,42729,5,8,0:0:0:0:
87,298,42804,1,8,0:0:0:0:
150,290,42879,1,8,0:0:0:0:
224,282,42954,1,8,0:0:0:0:
299,294,43029,5,8,0:0:0:0:
293,303,43104,1,8,0:0:0:0:
287,313,43179,1,8,0:0:0:0:
281,323,43254,1,8,0:0:0:0:
271,338,43329,6,0,B|251:323|251:323|233:254|233:254|235:243|235:243|210:150,1,172.500003290176,4|0,0:0|0:0,0:0:0:0:
118,49,43629,2,0,B|120:69|106:83|106:83|122:143|122:143|125:145|125:145|144:218,1,172.500003290176,4|0,0:0|0:0,0:0:0:0:
350,278,45729,6,0,B|332:291|332:291|341:246|341:246|338:227|338:227|350:168,1,125,0|10,0:0|0:0,0:0:0:0:
388,26,46029,1,0,0:0:0:0:
467,250,46179,1,10,0:0:0:0:
181,281,46329,2,0,P|229:241|219:196,1,115.000002193451,0|10,0:0|0:0,0:0:0:0:
14,170,46629,5,0,0:0:0:0:
23,193,46704,1,0,0:0:0:0:
41,210,46779,1,10,0:0:0:0:
158,96,46929,6,0,B|151:113|151:113|201:108|201:108|204:112|204:112|255:108,1,125,0|10,0:0|0:0,0:0:0:0:
389,5,47229,1,0,0:0:0:0:
483,267,47379,2,0,B|475:252|470:233|470:233|432:215|432:215|430:211|430:211|390:191,1,125,10|0,0:0|0:0,0:0:0:0:
321,336,47679,1,10,0:0:0:0:
245,125,47829,5,0,0:0:0:0:
236,101,47904,1,0,0:0:0:0:
227,77,47979,1,10,0:0:0:0:
77,23,48129,2,0,B|70:57|70:57|88:91|88:91|86:95|86:95|119:161,1,125,0|10,0:0|0:0,0:0:0:0:
258,272,48429,5,0,0:0:0:0:
227,264,48504,1,0,0:0:0:0:
196,272,48579,1,10,0:0:0:0:
80,357,48729,5,0,0:0:0:0:
104,90,48879,1,10,0:0:0:0:
281,303,49029,1,0,0:0:0:0:
281,303,49104,1,0,0:0:0:0:
281,303,49179,1,10,0:0:0:0:
451,334,49329,6,0,B|440:318|438:303|438:303|397:289|397:289|395:284|395:284|350:267,1,125,0|10,0:0|0:0,0:0:0:0:
208,249,49629,2,0,B|251:249|274:231|274:231|274:226|274:226|292:211|299:168,1,125,0|10,0:0|0:0,0:0:0:0:
423,67,49929,2,0,B|363:68|363:68|355:72|355:72|248:73,1,125,0|10,0:0|0:0,0:0:0:0:
464,175,50229,5,0,0:0:0:0:
464,175,50304,1,0,0:0:0:0:
464,175,50379,1,10,0:0:0:0:
289,345,50529,5,0,0:0:0:0:
407,112,50679,1,10,0:0:0:0:
123,211,50829,6,0,L|187:187,1,57.5000010967255
244,164,50979,1,10,0:0:0:0:
21,38,51129,2,0,B|25:56|22:71|22:71|41:102|41:102|45:103|45:103|72:159,1,115.000002193451,0|10,0:0|0:0,0:0:0:0:
87,277,51429,5,0,0:0:0:0:
87,277,51504,1,0,0:0:0:0:
87,277,51579,1,10,0:0:0:0:
187,86,51729,5,0,0:0:0:0:
302,317,51879,1,10,0:0:0:0:
266,77,52029,5,0,0:0:0:0:
261,52,52104,1,0,0:0:0:0:
256,27,52179,1,10,0:0:0:0:
393,100,52329,2,0,B|403:142|403:142|408:144|408:144|424:214,1,115.000002193451,0|10,0:0|0:0,0:0:0:0:
334,332,52629,5,0,0:0:0:0:
296,304,52704,1,0,0:0:0:0:
261,302,52779,2,0,P|233:311|181:302,1,57.5000010967255,8|0,0:0|0:0,0:0:0:0:
58,172,52929,2,0,B|78:175|78:175|145:192,1,57.5000010967255,8|0,0:0|0:0,0:0:0:0:
309,16,53079,5,8,0:0:0:0:
312,50,53154,1,8,0:0:0:0:
316,89,53229,1,8,0:0:0:0:
321,134,53304,1,8,0:0:0:0:
328,185,53379,2,0,L|336:260,1,57.5000010967255,8|0,0:0|0:0,0:0:0:0:
377,366,53529,5,8,0:0:0:0:
341,336,53604,1,8,0:0:0:0:
301,327,53679,1,8,0:0:0:0:
266,333,53754,1,8,0:0:0:0:
243,351,53829,2,0,P|205:361|156:343,1,57.5000010967255,8|0,0:0|0:0,0:0:0:0:
116,90,53979,5,0,0:0:0:0:
156,87,54054,1,0,0:0:0:0:
175,108,54129,2,0,P|188:138|185:175,1,57.5000010967255,8|0,0:0|0:0,0:0:0:0:
137,283,54279,5,0,0:0:0:0:
131,293,54354,1,0,0:0:0:0:
126,303,54429,2,0,L|200:346,1,57.5000010967255,8|0,0:0|0:0,0:0:0:0:
377,352,54579,6,0,L|308:308,1,57.5000010967255
194,163,54729,2,0,L|262:202,1,57.5000010967255,8|0,0:0|0:0,0:0:0:0:
493,217,54879,2,0,L|416:174,1,57.5000010967255
176,71,55029,5,8,0:3:0:0:
214,109,55104,1,0,0:3:0:0:
260,115,55179,1,8,0:3:0:0:
292,108,55254,1,0,0:3:0:0:
312,96,55329,6,0,B|285:72|260:65|260:65|261:70|261:70|230:73|205:95,1,115.000002193451,4|10,0:3|0:3,0:3:0:0:
91,81,55629,1,0,0:0:0:0:
78,92,55704,1,0,0:0:0:0:
71,107,55779,1,10,0:0:0:0:
259,231,55929,5,0,0:0:0:0:
86,292,56079,1,10,0:0:0:0:
136,128,56229,5,0,0:0:0:0:
136,128,56304,1,0,0:0:0:0:
136,128,56379,1,10,0:0:0:0:
329,2,56529,2,0,B|288:42|288:42|277:61|277:61|235:102,1,125,0|10,0:0|0:0,0:0:0:0:
223,300,56829,5,0,0:0:0:0:
246,279,56904,1,0,0:0:0:0:
268,256,56979,2,0,B|308:216|308:216|323:210|323:210|379:154,1,125,10|0,0:0|0:0,0:0:0:0:
394,143,57279,1,10,0:0:0:0:
104,291,57429,5,0,0:0:0:0:
104,291,57504,1,0,0:0:0:0:
104,291,57579,1,10,0:0:0:0:
278,107,57729,6,0,B|248:92|248:92|217:99|217:99|200:108|200:108|136:126,1,125,0|10,0:0|0:0,0:0:0:0:
4,28,58029,2,0,B|-4:57|-4:57|60:156,1,100,0|10,0:0|0:0,0:0:0:0:
157,293,58329,1,0,0:0:0:0:
262,29,58479,1,10,0:0:0:0:
56,203,58629,5,0,0:0:0:0:
56,203,58704,1,0,0:0:0:0:
56,203,58779,1,10,0:0:0:0:
342,210,58929,6,0,B|304:211|276:205|276:205|248:217|199:227,1,125,0|10,0:0|0:0,0:0:0:0:
475,352,59229,2,0,B|426:317|426:317|412:319|412:319|359:283,1,125,0|10,0:0|0:0,0:0:0:0:
151,107,59529,1,0,0:0:0:0:
266,321,59679,1,10,0:0:0:0:
360,34,59829,6,0,L|313:88,1,57.5000010967255
271,135,59979,1,10,0:0:0:0:
467,215,60129,6,0,B|453:211|442:201|442:201|396:206|396:206|391:209|391:209|342:216,1,115.000002193451,0|10,0:0|0:0,0:0:0:0:
104,296,60429,1,0,0:0:0:0:
124,272,60504,1,0,0:0:0:0:
132,242,60579,1,10,0:0:0:0:
26,49,60729,2,0,B|18:84|18:84|65:171,1,115.000002193451,0|10,0:0|0:0,0:0:0:0:
175,99,61029,5,0,0:0:0:0:
175,99,61104,1,0,0:0:0:0:
175,99,61179,1,10,0:0:0:0:
382,32,61329,2,0,B|406:44|406:44|464:140,1,115.000002193451,0|10,0:0|0:0,0:0:0:0:
286,314,61629,5,0,0:0:0:0:
270,321,61704,1,0,0:0:0:0:
255,322,61779,1,10,0:0:0:0:
201,55,61929,5,0,0:0:0:0:
476,180,62079,1,10,0:0:0:0:
182,257,62229,5,0,0:0:0:0:
158,264,62304,1,0,0:0:0:0:
134,271,62379,1,10,0:0:0:0:
29,90,62529,5,8,0:0:0:0:
65,83,62604,1,0,0:0:0:0:
101,92,62679,1,0,0:0:0:0:
130,113,62754,1,8,0:0:0:0:
150,145,62829,1,0,0:0:0:0:
180,184,62904,1,0,0:0:0:0:
225,205,62979,1,8,0:0:0:0:
274,204,63054,1,0,0:0:0:0:
318,182,63129,2,0,P|318:159|275:115,1,57.5000010967255,8|0,0:0|0:0,0:0:0:0:
47,161,63279,5,0,0:0:0:0:
37,204,63354,1,0,0:0:0:0:
50,237,63429,2,0,P|63:263|104:287,1,57.5000010967255,8|0,0:0|0:0,0:0:0:0:
370,334,63579,5,8,0:0:0:0:
357,295,63654,1,8,0:0:0:0:
333,278,63729,2,0,P|300:270|264:280,1,57.5000010967255,8|0,0:0|0:0,0:0:0:0:
120,341,63879,5,0,0:0:0:0:
120,341,63954,1,0,0:0:0:0:
120,341,64029,2,0,B|138:329|138:329|149:274,1,57.5000010967255,8|0,0:0|0:0,0:0:0:0:
108,92,64179,5,8,0:0:0:0:
336,126,64329,1,0,0:0:0:0:
217,304,64479,5,8,0:0:0:0:
216,15,64629,1,8,0:0:0:0:
189,235,64779,1,8,0:0:0:0:
472,186,64929,6,1,L|384:176,1,57.5000010967255,0|0,0:0|0:0,0:0:0:0:
293,57,65079,2,1,L|283:137,1,57.5000010967255,10|0,0:0|0:0,0:0:0:0:
246,284,65229,1,0,0:0:0:0:
241,298,65304,1,0,0:0:0:0:
239,312,65379,2,1,L|313:298,1,57.5000010967255,10|0,0:0|0:0,0:0:0:0:
157,138,65529,6,1,L|172:207,1,57.5000010967255,0|0,0:0|0:0,0:0:0:0:
352,328,65679,2,1,L|344:271,1,57.5000010967255,10|0,0:0|0:0,0:0:0:0:
225,106,65829,1,0,0:0:0:0:
219,91,65904,1,0,0:0:0:0:
210,78,65979,2,1,L|288:66,1,57.5000010967255,10|0,0:0|0:0,0:0:0:0:
214,301,66129,2,1,L|133:286,1,57.5000010967255,0|0,0:0|0:0,0:0:0:0:
49,148,66279,6,1,L|59:222,1,57.5000010967255,10|0,0:0|0:0,0:0:0:0:
121,340,66429,1,0,0:0:0:0:
127,353,66504,1,0,0:0:0:0:
134,365,66579,2,1,L|140:303,1,57.5000010967255,10|0,0:0|0:0,0:0:0:0:
166,108,66729,2,1,L|148:187,1,57.5000010967255,0|0,0:0|0:0,0:0:0:0:
70,321,66879,2,1,L|58:260,1,57.5000010967255,10|0,0:0|0:0,0:0:0:0:
25,58,67029,6,0,L|100:95,1,57.5000010967255
274,170,67179,2,0,L|204:223,1,57.5000010967255,10|0,0:0|0:0,0:0:0:0:
357,28,67329,5,0,0:0:0:0:
361,47,67404,1,0,0:0:0:0:
365,66,67479,1,10,0:0:0:0:
369,85,67554,1,0,0:0:0:0:
373,104,67629,1,0,0:0:0:0:
377,123,67704,1,0,0:0:0:0:
381,142,67779,1,10,0:0:0:0:
385,161,67854,1,0,0:0:0:0:
389,180,67929,1,0,0:0:0:0:
393,199,68004,1,0,0:0:0:0:
397,218,68079,1,10,0:0:0:0:
401,237,68154,1,0,0:0:0:0:
405,256,68229,1,0,0:0:0:0:
409,275,68304,1,0,0:0:0:0:
413,294,68379,1,10,0:0:0:0:
417,313,68454,1,0,0:0:0:0:
438,358,68529,5,0,0:0:0:0:
369,323,68604,1,0,0:0:0:0:
304,316,68679,1,10,0:0:0:0:
247,336,68754,1,0,0:0:0:0:
201,366,68829,6,0,P|169:372|126:353,1,57.5000010967255
114,221,68979,2,0,B|103:216|103:216|82:156,1,57.5000010967255,10|0,0:0|0:0,0:0:0:0:
284,224,69129,2,0,B|301:222|301:222|357:255,1,57.5000010967255
155,323,69279,6,0,L|189:246,1,57.5000010967255,10|0,0:0|0:0,0:0:0:0:
261,71,69429,2,0,L|312:155,1,57.5000010967255
413,319,69579,2,0,L|340:321,1,57.5000010967255,10|0,0:0|0:0,0:0:0:0:
151,208,69729,6,0,L|201:141,1,57.5000010967255
205,23,69879,2,0,L|266:81,1,57.5000010967255,10|0,0:0|0:0,0:0:0:0:
312,252,70029,1,0,0:0:0:0:
317,265,70104,1,0,0:0:0:0:
322,279,70179,2,0,L|243:231,1,57.5000010967255,10|0,0:0|0:0,0:0:0:0:
342,74,70329,6,0,L|333:164,1,57.5000010967255
242,347,70479,2,0,L|247:260,1,57.5000010967255,10|0,0:0|0:0,0:0:0:0:
386,214,70629,1,0,0:0:0:0:
400,215,70704,1,0,0:0:0:0:
413,220,70779,2,0,L|341:266,1,57.5000010967255,10|0,0:0|0:0,0:0:0:0:
139,316,70929,6,0,L|176:247,1,57.5000010967255
268,160,71079,2,0,L|169:147,1,57.5000010967255,10|0,0:0|0:0,0:0:0:0:
27,201,71229,2,0,L|105:207,1,57.5000010967255
269,47,71379,2,0,L|231:118,1,57.5000010967255,10|0,0:0|0:0,0:0:0:0:
35,99,71529,5,0,0:0:0:0:
29,85,71604,1,0,0:0:0:0:
31,70,71679,2,0,L|103:61,1,57.5000010967255,10|0,0:0|0:0,0:0:0:0:
221,5,71829,2,0,L|216:97,1,57.5000010967255
278,287,71979,2,0,L|282:210,1,57.5000010967255,10|0,0:0|0:0,0:0:0:0:
453,134,72129,5,8,0:0:0:0:
494,195,72204,1,0,0:0:0:0:
494,258,72279,1,0,0:0:0:0:
457,309,72354,1,0,0:0:0:0:
400,324,72429,1,0,0:0:0:0:
352,304,72504,1,0,0:0:0:0:
328,271,72579,2,0,L|321:189,1,57.5000010967255,8|0,0:0|0:0,0:0:0:0:
202,35,72729,5,0,0:0:0:0:
276,32,72804,1,0,0:0:0:0:
344,29,72879,1,0,0:0:0:0:
407,26,72954,1,0,0:0:0:0:
458,24,73029,2,0,L|550:16,1,57.5000010967255,8|0,0:0|0:0,0:0:0:0:
334,184,73179,5,0,0:0:0:0:
325,205,73254,1,0,0:0:0:0:
316,226,73329,5,8,0:0:0:0:
245,250,73404,1,0,0:0:0:0:
178,232,73479,1,0,0:0:0:0:
141,180,73554,1,0,0:0:0:0:
91,151,73629,5,8,0:0:0:0:
85,161,73704,1,8,0:0:0:0:
80,171,73779,1,8,0:0:0:0:
75,181,73854,1,8,0:0:0:0:
70,191,73929,5,8,0:0:0:0:
138,227,74004,1,8,0:0:0:0:
204,209,74079,1,8,0:0:0:0:
264,226,74154,1,8,0:0:0:0:
286,284,74229,1,8,0:0:0:0:
281,294,74304,1,8,0:0:0:0:
276,304,74379,1,8,0:0:0:0:
271,314,74454,1,8,0:0:0:0:
265,324,74529,2,0,B|246:344|246:344|156:355,1,115.000002193451,4|10,0:0|0:0,0:0:0:0:
54,337,74829,5,0,0:0:0:0:
43,342,74904,1,0,0:0:0:0:
33,347,74979,1,10,0:0:0:0:
277,221,75129,5,0,0:0:0:0:
150,345,75279,1,10,0:0:0:0:
129,88,75429,5,0,0:0:0:0:
127,58,75504,1,0,0:0:0:0:
126,28,75579,1,10,0:0:0:0:
22,118,75729,2,0,B|45:143|45:143|137:153,1,115.000002193451,0|10,0:0|0:0,0:0:0:0:
202,199,76029,5,0,0:0:0:0:
202,199,76104,1,0,0:0:0:0:
202,199,76179,1,10,0:0:0:0:
329,23,76329,5,0,0:0:0:0:
220,301,76479,1,10,0:0:0:0:
190,60,76629,1,0,0:0:0:0:
190,60,76704,1,0,0:0:0:0:
190,60,76779,1,10,0:0:0:0:
392,102,76929,2,0,B|373:128|373:128|373:164|373:164|378:171|378:171|379:225,1,115.000002193451,0|10,0:0|0:0,0:0:0:0:
437,314,77229,5,0,0:0:0:0:
413,332,77304,1,0,0:0:0:0:
383,334,77379,1,10,0:0:0:0:
186,181,77529,2,0,B|174:165|174:165|296:205,1,115.000002193451,0|10,0:0|0:0,0:0:0:0:
169,334,77829,5,0,0:0:0:0:
169,334,77904,1,0,0:0:0:0:
169,334,77979,1,10,0:0:0:0:
37,102,78129,6,0,B|28:130|28:130|49:162|49:162|55:165|55:165|90:226,1,125,0|10,0:0|0:0,0:0:0:0:
364,266,78429,6,0,L|281:240,1,57.5000010967255
215,219,78579,1,10,0:0:0:0:
483,71,78729,2,0,B|463:70|442:61|442:61|407:72|407:72|400:80|400:80|345:99,1,125,0|10,0:0|0:0,0:0:0:0:
204,255,79029,6,0,B|224:258|243:246|249:210|232:182|205:174,1,115.000002193451,0|10,0:0|0:0,0:0:0:0:
85,16,79329,2,0,B|84:47|84:47|102:85|102:85|106:84|106:84|131:140,1,125,0|10,0:0|0:0,0:0:0:0:
283,313,79629,5,0,0:0:0:0:
291,276,79704,1,0,0:0:0:0:
280,240,79779,1,10,0:0:0:0:
28,124,79929,5,0,0:0:0:0:
230,280,80079,1,10,0:0:0:0:
319,78,80229,5,0,0:0:0:0:
319,78,80304,1,0,0:0:0:0:
319,78,80379,1,10,0:0:0:0:
138,231,80529,2,0,B|156:176|156:176|123:119,1,115.000002193451,0|10,0:0|0:0,0:0:0:0:
9,71,80829,5,0,0:0:0:0:
9,71,80904,1,0,0:0:0:0:
9,71,80979,1,10,0:0:0:0:
145,336,81129,5,0,0:0:0:0:
172,21,81279,1,10,0:0:0:0:
283,200,81429,5,0,0:0:0:0:
283,200,81504,1,0,0:0:0:0:
283,200,81579,1,10,0:0:0:0:
63,34,81729,5,8,0:0:0:0:
130,53,81804,1,8,0:0:0:0:
187,70,81879,1,8,0:0:0:0:
230,82,81954,1,8,0:0:0:0:
263,92,82029,1,0,0:0:0:0:
286,99,82104,1,0,0:0:0:0:
300,103,82179,1,0,0:0:0:0:
310,92,82254,1,0,0:0:0:0:
309,77,82329,5,8,0:0:0:0:
260,83,82404,1,8,0:0:0:0:
221,114,82479,1,8,0:0:0:0:
205,161,82554,1,8,0:0:0:0:
215,209,82629,1,0,0:0:0:0:
214,274,82704,1,0,0:0:0:0:
175,325,82779,1,0,0:0:0:0:
113,344,82854,1,0,0:0:0:0:
52,323,82929,5,0,0:0:0:0:
81,288,83004,1,0,0:0:0:0:
113,276,83079,1,0,0:0:0:0:
137,278,83154,1,0,0:0:0:0:
153,289,83229,1,8,0:0:0:0:
157,308,83304,1,8,0:0:0:0:
148,325,83379,1,0,0:0:0:0:
129,333,83454,1,0,0:0:0:0:
109,327,83529,5,8,0:0:0:0:
110,277,83604,1,8,0:0:0:0:
132,232,83679,1,8,0:0:0:0:
170,201,83754,1,0,0:0:0:0:
219,189,83829,1,0,0:0:0:0:
280,189,83904,1,8,0:0:0:0:
340,152,83979,1,8,0:0:0:0:
366,82,84054,1,8,0:0:0:0:
338,7,84129,2,0,B|316:34|310:58|310:58|306:61|306:61|303:91|315:114,1,115.000002193451,4|10,0:0|0:0,0:0:0:0:
460,281,84429,5,0,0:0:0:0:
460,281,84504,1,0,0:0:0:0:
460,281,84579,1,10,0:0:0:0:
270,84,84729,5,0,0:0:0:0:
492,178,84879,1,10,0:0:0:0:
178,149,85029,5,0,0:0:0:0:
143,149,85104,1,0,0:0:0:0:
108,149,85179,1,10,0:0:0:0:
27,14,85329,2,0,B|43:35|43:35|79:50|79:50|85:50|85:50|146:79,1,115.000002193451,0|10,0:0|0:0,0:0:0:0:
266,165,85629,5,0,0:0:0:0:
266,165,85704,1,0,0:0:0:0:
266,165,85779,1,10,0:0:0:0:
355,329,85929,2,0,P|346:263|296:256,1,115.000002193451,0|10,0:0|0:0,0:0:0:0:
126,164,86229,5,0,0:0:0:0:
92,154,86304,1,0,0:0:0:0:
58,145,86379,1,10,0:0:0:0:
114,335,86529,2,0,B|148:314|148:314|183:223,1,115.000002193451,0|10,0:0|0:0,0:0:0:0:
175,11,86829,5,0,0:0:0:0:
175,11,86904,1,0,0:0:0:0:
175,11,86979,1,10,0:0:0:0:
262,247,87129,5,0,0:0:0:0:
51,138,87279,1,10,0:0:0:0:
311,338,87429,5,0,0:0:0:0:
336,306,87504,1,0,0:0:0:0:
332,265,87579,1,10,0:0:0:0:
177,45,87729,6,0,B|183:88|183:88|240:152,1,125,0|10,0:0|0:0,0:0:0:0:
468,248,88029,1,0,0:0:0:0:
481,258,88179,2,0,B|496:250|496:250|389:192,1,125,10|0,0:0|0:0,0:0:0:0:
270,34,88479,1,10,0:0:0:0:
165,153,88629,6,0,B|180:179|180:179|269:219,1,125,0|10,0:0|0:0,0:0:0:0:
442,334,88929,2,0,P|384:292|324:323,1,125,0|10,0:0|0:0,0:0:0:0:
254,359,89229,5,0,0:0:0:0:
254,359,89304,1,0,0:0:0:0:
254,359,89379,1,10,0:0:0:0:
108,206,89529,2,0,B|136:237|136:237|229:239,1,125,0|10,0:0|0:0,0:0:0:0:
440,163,89829,5,0,0:0:0:0:
400,144,89904,1,0,0:0:0:0:
356,147,89979,1,10,0:0:0:0:
174,281,90129,5,0,0:0:0:0:
321,51,90279,1,10,0:0:0:0:
361,300,90429,5,0,0:0:0:0:
361,300,90504,1,0,0:0:0:0:
361,300,90579,1,10,0:0:0:0:
204,113,90729,2,0,B|165:68|165:68|155:63|155:63|115:17,1,125,0|10,0:0|0:0,0:0:0:0:
51,98,91029,5,0,0:0:0:0:
51,98,91104,1,0,0:0:0:0:
51,98,91179,1,10,0:0:0:0:
285,213,91329,5,8,0:0:0:0:
214,225,91404,1,0,0:0:0:0:
160,233,91479,1,0,0:0:0:0:
118,240,91554,1,0,0:0:0:0:
88,244,91629,6,0,L|2:256,1,59.9999981689454,8|0,0:0|0:0,0:0:0:0:
182,89,91779,2,0,B|204:104|204:104|217:159,1,59.9999981689454,8|0,0:0|0:0,0:0:0:0:
137,324,91929,5,0,0:0:0:0:
134,336,92004,1,0,0:0:0:0:
131,348,92079,2,0,B|119:332|119:332|124:263,1,59.9999981689454,8|0,0:0|0:0,0:0:0:0:
368,41,92229,5,8,0:0:0:0:
395,107,92304,1,0,0:0:0:0:
417,162,92379,1,0,0:0:0:0:
435,206,92454,1,0,0:0:0:0:
449,239,92529,2,0,L|479:320,1,59.9999981689454,8|0,0:0|0:0,0:0:0:0:
408,362,92679,5,8,0:0:0:0:
191,205,92829,1,8,0:0:0:0:
359,246,92979,5,8,0:0:0:0:
163,308,93129,1,8,0:0:0:0:
301,72,93279,5,8,0:0:0:0:
293,236,93429,1,8,0:0:0:0:
81,46,93579,1,8,0:0:0:0:
359,268,93729,6,0,B|344:251|349:232|349:232|332:187|282:185,1,115.000002193451,2|0,0:0|0:0,0:0:0:0:
95,94,94029,1,2,0:0:0:0:
70,346,94179,2,0,B|88:346|105:355|105:355|167:317|167:317|171:319|171:319|281:242,1,230.000004386902,2|0,0:0|0:0,0:0:0:0:
412,186,94629,2,0,P|385:231|423:272,1,115.000002193451,2|0,0:0|0:0,0:0:0:0:
485,117,94929,2,0,B|452:77|452:77|413:62|374:80|374:80|332:106|274:92,1,230.000004386902,2|0,0:0|0:0,0:0:0:0:
104,103,95379,6,0,B|125:123|125:123|236:129,1,115.000002193451,2|0,0:0|0:0,0:0:0:0:
196,26,95679,1,2,0:0:0:0:
301,258,95829,2,0,B|261:245|261:245|239:245|239:245|221:233|221:233|177:217,1,115.000002193451,2|0,0:0|0:0,0:0:0:0:
73,329,96129,6,0,P|118:296|98:229,1,115.000002193451,2|0,0:0|0:0,0:0:0:0:
61,26,96429,1,2,0:0:0:0:
54,8,96579,2,0,B|39:39|39:39|115:63|115:63|115:69|115:69|236:114,1,230.000004386902,2|0,0:0|0:0,0:0:0:0:
443,130,97029,2,0,B|401:109|401:109|393:108|393:108|356:90|356:90|374:127,1,115.000002193451,2|0,0:0|0:0,0:0:0:0:
406,337,97329,5,8,0:0:0:0:
419,273,97404,1,8,0:0:0:0:
430,219,97479,1,8,0:0:0:0:
440,175,97554,1,8,0:0:0:0:
447,140,97629,1,8,0:0:0:0:
454,110,97704,1,0,0:0:0:0:
445,86,97779,1,0,0:0:0:0:
421,76,97854,1,0,0:0:0:0:
398,87,97929,5,8,0:0:0:0:
373,115,98004,1,8,0:0:0:0:
340,132,98079,1,8,0:0:0:0:
303,135,98154,1,8,0:0:0:0:
267,124,98229,1,8,0:0:0:0:
213,104,98304,1,0,0:0:0:0:
155,113,98379,1,0,0:0:0:0:
110,150,98454,1,0,0:0:0:0:
88,204,98529,2,0,B|134:219|134:219|200:181|200:181|204:184|204:184|300:123,1,230.000004386902,2|0,0:0|0:0,0:0:0:0:
342,33,98979,5,2,0:0:0:0:
177,32,99129,2,0,B|121:51|121:51|40:106,1,115.000002193451,2|0,0:0|0:0,0:0:0:0:
32,161,99429,1,2,0:0:0:0:
289,310,99579,1,2,0:0:0:0:
383,17,99729,6,0,B|402:55|402:55|403:124|403:124|408:135|408:135|408:263,1,230.000004386902,2|0,0:0|0:0,0:0:0:0:
124,96,100179,2,0,B|133:68|186:43|246:47|246:47|279:83|353:71,1,230.000004386902,2|0,0:0|0:0,0:0:0:0:
375,177,100629,5,2,0:0:0:0:
147,311,100779,1,2,0:0:0:0:
324,59,100929,2,0,B|311:141|311:141|282:165|282:165|260:285,1,230.000004386902,2|0,0:0|0:0,0:0:0:0:
68,349,101379,2,0,B|96:325|120:320|120:320|136:243|136:243|146:227|146:227|158:152,1,230.000004386902,2|0,0:0|0:0,0:0:0:0:
46,156,101829,5,0,0:0:0:0:
43,179,101904,1,0,0:0:0:0:
54,200,101979,1,8,0:0:0:0:
361,289,102129,5,8,0:0:0:0:
320,259,102204,1,0,0:0:0:0:
270,253,102279,1,0,0:0:0:0:
224,274,102354,1,0,0:0:0:0:
186,307,102429,1,0,0:0:0:0:
137,318,102504,1,0,0:0:0:0:
87,310,102579,2,0,P|52:300|26:261,1,57.5000010967255,8|0,0:0|0:0,0:0:0:0:
185,149,102729,5,0,0:0:0:0:
242,133,102804,1,0,0:0:0:0:
299,117,102879,1,0,0:0:0:0:
357,103,102954,1,0,0:0:0:0:
415,90,103029,2,0,B|421:45|349:20|310:65|310:65|302:59|302:59|310:65|310:65|294:88|293:160|354:204,1,300.000011444092,2|0,0:0|0:0,0:0:0:0:
473,261,103479,5,2,0:0:0:0:
259,15,103629,1,2,0:0:0:0:
382,269,103779,2,0,B|325:291|325:291|262:289,1,115.000002193451,2|0,0:0|0:0,0:0:0:0:
148,84,104079,1,2,0:0:0:0:
54,80,104229,6,0,B|28:81|28:81|60:112|60:112|69:116|69:116|123:175,1,115.000002193451,2|0,0:0|2:0,2:0:0:0:
293,317,104529,2,0,B|247:267|189:285|189:285|191:291|191:291|188:286|188:286|125:310|79:266,1,230.000004386902,2|0,0:0|0:0,0:0:0:0:
197,62,104979,2,0,B|221:79|221:79|237:201,1,115.000002193451,2|0,0:0|0:0,0:0:0:0:
243,223,105279,5,2,0:0:0:0:
3,50,105429,2,0,P|62:44|126:75,1,115.000002193451,2|0,0:0|0:0,0:0:0:0:
325,154,105729,2,0,B|327:135|304:123|270:137|241:171|264:225,1,115.000002193451,2|0,0:0|0:0,0:0:0:0:
219,337,106029,1,2,0:0:0:0:
421,17,106179,6,0,B|440:23|451:37|451:37|406:24|367:48|367:48|365:54|365:54|319:83|243:42,1,230.000004386902,2|0,0:0|0:0,0:0:0:0:
293,282,106629,2,0,B|313:261|313:261|332:171,1,115.000002193451,2|0,0:0|0:0,0:0:0:0:
160,41,106929,5,0,0:0:0:0:
145,46,107004,1,0,0:0:0:0:
130,51,107079,1,8,0:0:0:0:
109,101,107154,1,8,0:0:0:0:
138,147,107229,1,8,0:0:0:0:
192,153,107304,1,8,0:0:0:0:
233,116,107379,1,0,0:0:0:0:
287,117,107454,1,0,0:0:0:0:
336,173,107529,5,8,0:0:0:0:
325,247,107604,1,8,0:0:0:0:
265,293,107679,1,8,0:0:0:0:
190,280,107754,1,8,0:0:0:0:
145,220,107829,1,0,0:0:0:0:
159,146,107904,1,0,0:0:0:0:
174,72,107979,2,0,L|194:6,1,57.5000010967255
256,203,108129,5,8,0:0:0:0:
90,148,109329,2,0,L|138:173,1,28.7500005483627,8|0,0:0|0:0,0:0:0:0:
386,218,110529,6,0,B|378:209|375:197|375:197|307:166,1,75.0000028610231,4|0,0:0|0:0,0:0:0:0:
138,173,110829,2,0,B|144:181|149:194|149:194|233:231,1,100,4|0,0:0|0:0,0:0:0:0:
461,176,111129,2,0,B|453:166|450:155|450:155|347:106,1,125,4|0,0:0|0:0,0:0:0:0:
39,199,111429,2,0,B|47:210|50:220|50:220|184:277,1,150.000005722046,4|0,0:0|0:0,0:0:0:0:
418,70,111729,2,0,B|368:64|368:64|244:113,1,175.00000166893,4|0,0:0|0:0,0:0:0:0:
100,326,112029,2,0,B|150:332|150:332|317:264,1,200,4|0,0:0|0:0,0:0:0:0:
385,21,112329,2,0,B|345:25|345:25|192:157,1,225.000008583069,4|0,0:0|0:0,0:0:0:0:
300,322,112629,6,0,B|278:313|269:292|269:261|269:261|277:271|277:296|312:303,1,115.000002193451,2|2,0:0|0:0,0:0:0:0:
359,272,112929,2,0,B|377:251|377:251|381:214|381:214|378:210|378:210|391:90,1,135.000000514984,0|10,0:0|0:0,0:0:0:0:
449,28,113229,1,0,0:0:0:0:
107,71,113379,6,0,B|115:90|112:111|112:111|148:136|148:136|152:134|152:134|200:166,1,135.000000514984,10|0,0:0|0:0,0:0:0:0:
454,316,113679,1,10,0:0:0:0:
471,327,113829,2,0,B|453:269|453:269|448:266|448:266|424:199,1,135.000000514984,0|10,0:0|0:0,0:0:0:0:
167,49,114129,6,0,B|181:52|190:61|190:61|249:71|249:71|271:55|271:55|415:81,1,200,0|10,0:0|0:0,0:0:0:0:
479,85,114429,1,0,0:0:0:0:
170,206,114579,6,0,B|236:197|236:197|238:192|238:192|340:178,1,135.000000514984,10|0,0:0|0:0,0:0:0:0:
210,363,114879,2,0,P|185:306|99:321,1,135.000000514984,10|0,0:0|0:0,0:0:0:0:
11,288,115179,1,10,0:0:0:0:
213,117,115329,6,0,P|192:166|291:146,1,200,0|10,0:0|0:0,0:0:0:0:
349,22,115629,1,0,0:0:0:0:
32,38,115779,6,0,B|40:95|40:95|33:109|33:109|42:190,1,119.999996337891,10|0,0:0|0:0,0:0:0:0:
19,241,116079,1,10,0:0:0:0:
186,53,116229,5,0,0:0:0:0:
283,342,116379,1,10,0:0:0:0:
452,222,116529,5,8,0:0:0:0:
388,203,116604,1,0,0:0:0:0:
329,234,116679,1,8,0:0:0:0:
294,289,116754,1,8,0:0:0:0:
242,305,116829,1,8,0:0:0:0:
202,293,116904,1,8,0:0:0:0:
184,268,116979,2,0,P|171:239|174:207,1,59.9999981689454,8|0,0:0|0:0,0:0:0:0:
103,45,117129,5,8,0:0:0:0:
163,5,117204,1,8,0:0:0:0:
228,6,117279,1,8,0:0:0:0:
280,34,117354,1,8,0:0:0:0:
299,84,117429,1,8,0:0:0:0:
286,130,117504,1,8,0:0:0:0:
262,164,117579,1,8,0:0:0:0:
230,180,117654,1,8,0:0:0:0:
200,181,117729,6,0,B|204:156|204:156|238:136|238:136|241:131|241:131|290:104,1,119.999996337891,0|10,0:0|0:0,0:0:0:0:
468,31,118029,1,0,0:0:0:0:
410,339,118179,2,0,B|417:304|408:278|408:278|411:275|411:275|400:245|369:214,1,119.999996337891,10|0,0:0|0:0,0:0:0:0:
267,81,118479,5,10,0:0:0:0:
203,286,118629,2,0,B|263:277|263:277|324:222,1,119.999996337891,0|10,0:0|0:0,0:0:0:0:
26,119,118929,2,0,B|29:145|29:145|66:169|66:169|66:173|66:173|122:208,1,119.999996337891,0|10,0:0|0:0,0:0:0:0:
383,58,119229,5,0,0:0:0:0:
467,251,119379,2,0,B|478:270|478:270|465:291|435:291|435:291|431:287|431:287|403:288|372:316,1,119.999996337891,10|0,0:0|0:0,0:0:0:0:
166,348,119679,5,10,0:0:0:0:
258,80,119829,1,0,0:0:0:0:
243,105,119904,1,0,0:0:0:0:
228,131,119979,1,10,0:0:0:0:
87,275,120129,2,0,B|68:287|68:287|96:247|96:247|96:243|96:243|123:205,1,119.999996337891,0|10,0:0|0:0,0:0:0:0:
371,169,120429,5,0,0:0:0:0:
44,124,120579,2,0,B|84:85|84:85|88:86|88:86|148:30,1,119.999996337891,10|0,0:0|0:0,0:0:0:0:
177,9,120879,1,10,0:0:0:0:
479,197,121029,5,0,0:0:0:0:
412,182,121104,1,0,0:0:0:0:
365,210,121179,1,10,0:0:0:0:
325,195,121254,1,0,0:0:0:0:
292,210,121329,2,0,B|236:217|236:217|224:226|224:226|147:238,1,119.999996337891
334,358,121629,5,10,0:0:0:0:
460,62,121779,2,0,B|414:24|414:24|339:22,1,119.999996337891,10|8,0:0|0:0,0:0:0:0:
269,34,122079,1,0,0:0:0:0:
408,294,122229,5,8,0:0:0:0:
380,269,122304,1,8,0:0:0:0:
334,267,122379,1,8,0:0:0:0:
273,293,122454,1,8,0:0:0:0:
196,277,122529,2,0,B|113:255|113:255|85:268|85:268|-21:240,1,200,4|10,0:0|0:0,0:0:0:0:
293,96,122829,5,0,0:0:0:0:
304,359,122979,2,0,B|278:319|278:319|283:257|283:257|276:242|276:242|286:150,1,200,10|0,0:0|0:0,0:0:0:0:
432,31,123279,1,10,0:0:0:0:
464,328,123429,2,0,B|420:275|420:275|345:274,1,135.000000514984,0|10,0:0|0:0,0:0:0:0:
47,158,123729,6,0,B|60:174|60:174|109:188|109:188|114:191|114:191|203:217,1,135.000000514984,0|10,0:0|0:0,0:0:0:0:
425,69,124029,1,0,0:0:0:0:
287,33,124179,2,0,B|260:27|260:27|281:78|281:78|286:80|286:80|323:161,1,135.000000514984,10|0,0:0|0:0,0:0:0:0:
455,277,124479,1,10,0:0:0:0:
231,322,124629,2,0,B|170:334|170:334|166:333|166:333|61:353,1,119.999996337891,0|10,0:0|0:0,0:0:0:0:
79,159,124929,6,0,P|142:173|146:84,1,135.000000514984,0|10,0:0|0:0,0:0:0:0:
90,47,125229,1,0,0:0:0:0:
81,38,125304,1,0,0:0:0:0:
72,29,125379,1,10,0:0:0:0:
394,36,125529,2,0,B|358:37|358:37|329:67|329:67|332:71|332:71|291:117,1,119.999996337891,0|10,0:0|0:0,0:0:0:0:
380,267,125829,5,0,0:0:0:0:
387,283,125904,1,0,0:0:0:0:
394,299,125979,1,10,0:0:0:0:
220,186,126129,5,8,0:0:0:0:
496,334,126279,1,8,0:0:0:0:
318,87,126429,5,8,0:0:0:0:
322,116,126504,1,8,0:0:0:0:
340,139,126579,1,8,0:0:0:0:
109,21,126729,5,8,0:0:0:0:
234,318,126879,1,8,0:0:0:0:
391,84,127029,5,8,0:0:0:0:
409,60,127104,1,8,0:0:0:0:
425,40,127179,1,8,0:0:0:0:
170,172,127329,1,4,0:0:0:0:
471,237,127479,1,4,0:0:0:0:
218,85,129729,6,0,B|192:155|192:155|265:115|265:115|284:66|284:66|337:38|337:38|230:316|230:316|314:248|314:248|350:152|350:152|408:136|408:136|384:210,1,899.999972534181,4|0,0:0|0:0,0:0:0:0:
92,318,132129,1,4,0:0:0:0:
102,149,135729,2,0,B|97:130|64:119|18:118|18:118|86:83|205:141|214:218|214:218|207:294|264:374|354:393|429:361|461:291|461:291|450:307|424:318,1,750,4|0,0:0|0:0,0:0:0:0:
334,70,136929,6,0,B|329:103|329:103|333:106|333:106|331:139,1,57.5000010967255,10|0,0:0|0:0,0:0:0:0:
334,259,137079,5,0,0:0:0:0:
334,259,137154,1,0,0:0:0:0:
334,259,137229,2,0,B|306:248|306:248|298:248|298:248|256:232,1,57.5000010967255,10|0,0:0|0:0,0:0:0:0:
104,182,137379,5,0,0:0:0:0:
104,182,137454,1,0,0:0:0:0:
104,182,137529,2,0,B|127:164|127:164|131:157|131:157|166:128,1,57.5000010967255,10|0,0:0|0:0,0:0:0:0:
292,24,137679,5,0,0:0:0:0:
292,24,137754,1,0,0:0:0:0:
292,24,137829,2,0,B|274:49|274:49|272:56|272:56|247:94,1,57.5000010967255,10|0,0:0|0:0,0:0:0:0:
134,278,137979,5,0,0:0:0:0:
121,297,138054,1,0,0:0:0:0:
111,317,138129,5,10,0:0:0:0:
174,355,138204,1,0,0:0:0:0:
247,334,138279,1,0,0:0:0:0:
299,279,138354,1,0,0:0:0:0:
293,203,138429,5,10,0:0:0:0:
320,139,138504,1,0,0:0:0:0:
369,108,138579,1,0,0:0:0:0:
421,113,138654,1,0,0:0:0:0:
450,148,138729,1,10,0:0:0:0:
448,187,138804,1,0,0:0:0:0:
424,212,138879,1,0,0:0:0:0:
390,213,138954,1,0,0:0:0:0:
368,193,139029,2,0,P|384:159|419:149,1,57.5000010967255,10|0,0:0|0:0,0:0:0:0:
424,326,139179,5,0,0:0:0:0:
413,346,139254,1,0,0:0:0:0:
396,362,139329,1,10,0:0:0:0:
327,354,139404,1,0,0:0:0:0:
280,302,139479,1,0,0:0:0:0:
290,233,139554,1,0,0:0:0:0:
348,195,139629,1,10,0:0:0:0:
398,148,139704,1,0,0:0:0:0:
398,79,139779,5,0,0:0:0:0:
346,42,139854,1,0,0:0:0:0:
296,56,139929,1,10,0:0:0:0:
272,102,140004,1,0,0:0:0:0:
285,139,140079,1,0,0:0:0:0:
321,156,140154,1,0,0:0:0:0:
352,142,140229,2,0,P|362:108|339:61,1,57.5000010967255,10|0,0:0|0:0,0:0:0:0:
56,156,140379,5,0,0:0:0:0:
37,171,140454,1,0,0:0:0:0:
24,190,140529,1,10,0:0:0:0:
35,258,140604,1,0,0:0:0:0:
90,298,140679,1,0,0:0:0:0:
158,291,140754,1,0,0:0:0:0:
202,237,140829,5,10,0:0:0:0:
259,200,140904,1,0,0:0:0:0:
327,195,140979,1,0,0:0:0:0:
383,223,141054,1,0,0:0:0:0:
403,277,141129,1,10,0:0:0:0:
383,325,141204,1,0,0:0:0:0:
340,342,141279,6,0,P|304:324|297:294,1,57.5000010967255
201,123,141429,2,0,P|249:118|277:150,1,57.5000010967255,10|0,0:0|0:0,0:0:0:0:
448,145,141579,2,0,P|441:182|419:218,1,57.5000010967255
202,295,141729,5,10,0:0:0:0:
220,240,141804,1,0,0:0:0:0:
239,186,141879,1,0,0:0:0:0:
258,131,141954,1,0,0:0:0:0:
277,77,142029,1,10,0:0:0:0:
317,55,142104,1,0,0:0:0:0:
355,68,142179,1,0,0:0:0:0:
369,99,142254,1,0,0:0:0:0:
354,124,142329,2,0,P|308:146|279:138,1,57.5000010967255,10|0,0:0|0:0,0:0:0:0:
118,32,142479,5,0,0:0:0:0:
110,23,142554,1,0,0:0:0:0:
102,14,142629,2,0,P|135:6|170:19,1,57.5000010967255,10|0,0:0|0:0,0:0:0:0:
279,218,142779,5,0,0:0:0:0:
287,226,142854,1,0,0:0:0:0:
295,235,142929,2,0,P|262:243|227:230,1,57.5000010967255,10|0,0:0|0:0,0:0:0:0:
43,247,143079,5,0,0:0:0:0:
30,246,143154,1,0,0:0:0:0:
18,245,143229,2,0,P|35:216|69:200,1,57.5000010967255,10|0,0:0|0:0,0:0:0:0:
260,80,143379,5,0,0:0:0:0:
260,80,143454,1,0,0:0:0:0:
260,80,143529,2,0,L|234:171,1,57.5000010967255,10|0,0:0|0:0,0:0:0:0:
183,342,143679,5,0,0:0:0:0:
183,342,143754,1,0,0:0:0:0:
183,342,143829,2,0,L|209:251,1,57.5000010967255,10|0,0:0|0:0,0:0:0:0:
395,239,143979,5,0,0:0:0:0:
409,247,144054,1,0,0:0:0:0:
421,258,144129,1,10,0:0:0:0:
378,290,144204,1,0,0:0:0:0:
309,296,144279,1,0,0:0:0:0:
248,265,144354,2,0,P|219:228|218:186,1,57.5000010967255,8|0,0:0|0:0,0:0:0:0:
412,96,144504,5,0,0:0:0:0:
430,94,144579,2,0,P|418:116|369:139,1,57.5000010967255,8|0,0:0|0:0,0:0:0:0:
119,84,144729,5,8,0:0:0:0:
158,76,144804,1,0,0:0:0:0:
209,65,144879,1,0,0:0:0:0:
264,57,144954,1,0,0:0:0:0:
326,44,145029,2,0,L|407:29,1,57.5000010967255,8|0,0:0|0:0,0:0:0:0:
346,263,145179,5,0,0:0:0:0:
314,318,145254,1,0,0:0:0:0:
258,324,145329,1,8,0:0:0:0:
233,291,145404,1,0,0:0:0:0:
237,260,145479,1,0,0:0:0:0:
253,247,145554,1,0,0:0:0:0:
270,249,145629,2,0,P|295:266|304:298,1,57.5000010967255,8|0,0:0|0:0,0:0:0:0:
133,339,145779,2,0,P|108:322|99:290,1,57.5000010967255,8|0,0:0|0:0,0:0:0:0:
379,179,145929,5,0,0:0:0:0:
379,179,146004,1,0,0:0:0:0:
379,179,146079,2,0,P|356:215|311:227,1,57.5000010967255,8|0,0:0|0:0,0:0:0:0:
199,89,146229,2,0,P|230:96|251:124,1,57.5000010967255,8|0,0:0|0:0,0:0:0:0:
29,141,146379,5,0,0:0:0:0:
29,141,146454,1,0,0:0:0:0:
29,141,146529,1,4,0:0:0:0:
190,315,146679,5,10,0:0:0:0:
245,26,146829,2,0,B|243:86|243:86|215:144,1,115.000002193451,0|10,0:0|0:0,0:0:0:0:
190,157,147129,1,0,0:0:0:0:
401,29,147279,1,10,0:0:0:0:
329,264,147429,5,0,0:0:0:0:
322,280,147504,1,0,0:0:0:0:
315,296,147579,1,10,0:0:0:0:
52,278,147729,2,0,B|110:252|110:252|172:252,1,115.000002193451,0|10,0:0|0:0,0:0:0:0:
223,297,148029,5,0,0:0:0:0:
223,297,148104,1,0,0:0:0:0:
223,297,148179,1,10,0:0:0:0:
83,348,148329,1,0,0:0:0:0:
202,78,148479,1,10,0:0:0:0:
325,287,148629,5,0,0:0:0:0:
334,301,148704,1,0,0:0:0:0:
343,315,148779,1,10,0:0:0:0:
329,103,148929,2,0,B|349:128|349:128|363:161|363:161|369:169|369:169|393:228,1,125,0|10,0:0|0:0,0:0:0:0:
146,228,149229,5,0,0:0:0:0:
130,235,149304,1,0,0:0:0:0:
114,243,149379,1,10,0:0:0:0:
280,361,149529,2,0,B|260:336|260:336|246:303|246:303|240:295|240:295|219:245,1,115.000002193451,0|10,0:0|0:0,0:0:0:0:
121,40,149829,5,0,0:0:0:0:
121,40,149904,1,0,0:0:0:0:
121,40,149979,1,10,0:0:0:0:
188,200,150129,2,0,B|132:191|132:191|126:186|126:186|58:176,1,115.000002193451,0|10,0:0|0:0,0:0:0:0:
230,324,150429,5,0,0:0:0:0:
230,324,150504,1,0,0:0:0:0:
230,324,150579,1,10,0:0:0:0:
196,65,150729,2,0,P|280:119|312:88,1,115.000002193451,0|10,0:0|0:0,0:0:0:0:
410,37,151029,5,0,0:0:0:0:
410,37,151104,1,0,0:0:0:0:
410,37,151179,1,10,0:0:0:0:
456,233,151329,6,0,B|424:258|397:239|397:239|393:240|393:240|359:225|331:250,1,135.000000514984,0|10,0:0|0:0,0:0:0:0:
115,270,151629,1,0,0:0:0:0:
103,277,151704,1,0,0:0:0:0:
91,284,151779,2,0,B|142:312|142:312|192:274,1,115.000002193451,10|0,0:0|0:0,0:0:0:0:
91,88,152079,5,10,0:0:0:0:
381,41,152229,2,0,B|354:77|354:77|326:86|326:86|273:157,1,115.000002193451,0|10,0:0|0:0,0:0:0:0:
170,305,152529,6,0,B|193:247|262:247|262:247|341:247|356:152,1,230.000004386902
152,26,152979,2,0,B|102:13|84:96|143:110|143:110|187:121|187:121|191:126|191:126|242:139,1,230.000004386902,10|8,0:0|0:0,0:0:0:0:
412,192,153429,2,0,B|425:171|425:171|419:102,1,80,0|10,0:0|0:0,0:0:0:0:
88,184,153729,5,8,0:0:0:0:
103,237,153804,1,0,0:0:0:0:
145,274,153879,1,0,0:0:0:0:
202,281,153954,1,0,0:0:0:0:
253,256,154029,1,0,0:0:0:0:
281,207,154104,1,0,0:0:0:0:
278,150,154179,2,0,P|254:172|263:220,1,57.5000010967255,8|0,0:0|0:0,0:0:0:0:
438,324,154329,5,0,0:0:0:0:
447,296,154404,1,0,0:0:0:0:
436,269,154479,1,0,0:0:0:0:
410,256,154554,1,0,0:0:0:0:
378,269,154629,1,8,0:0:0:0:
320,274,154704,1,8,0:0:0:0:
269,247,154779,1,8,0:0:0:0:
246,194,154854,1,8,0:0:0:0:
265,139,154929,1,8,0:0:0:0:
318,119,155004,1,0,0:0:0:0:
372,137,155079,1,0,0:0:0:0:
387,180,155154,1,0,0:0:0:0:
370,216,155229,2,0,P|343:230|310:218,1,57.5000010967255,8|0,0:0|0:0,0:0:0:0:
183,57,155379,5,0,0:0:0:0:
192,62,155454,1,0,0:0:0:0:
201,68,155529,2,0,P|221:97|219:132,1,57.5000010967255,8|0,0:0|0:0,0:0:0:0:
76,221,155679,5,0,0:0:0:0:
65,226,155754,1,0,0:0:0:0:
53,228,155829,2,0,P|89:182|128:183,1,57.5000010967255,8|0,0:0|0:0,0:0:0:0:
312,237,155979,5,0,0:0:0:0:
357,271,156054,1,0,0:0:0:0:
369,311,156129,1,4,0:0:0:0:
86,239,158229,5,0,0:0:0:0:
66,258,158529,2,0,B|31:230|63:123|165:113|237:159|241:238|241:238|298:166|372:206|411:288|504:258|521:152|472:121,1,660.000020141602,2|0,0:0|0:0,0:0:0:0:
141,34,160629,5,0,0:0:0:0:
124,25,160929,2,0,B|78:64|110:144|163:158|163:158|158:165|158:165|213:179|232:279|196:315|155:334|155:334|183:302|174:254,1,454.999979171754,2|0,0:0|0:0,0:0:0:0:
249,42,162129,6,0,B|246:89|301:117|345:71|345:71|391:91|379:165|379:165|369:229|417:265|417:265|401:233|408:196,1,419.999987182618,2|0,0:0|0:0,0:0:0:0:
491,336,163329,2,0,B|497:285|439:262|399:297|399:297|389:297|389:297|354:347|286:339|264:293|264:293|253:292|253:292|242:245|176:233|148:278,1,419.999987182618,2|0,0:0|0:0,0:0:0:0:
30,61,164829,6,0,B|47:63|62:69|62:69|89:141|89:141|96:147|96:147|129:234,1,200
178,71,165729,2,0,L|158:19,1,50
42,246,166029,1,0,0:0:0:0:
313,310,166329,1,0,0:0:0:0:
195,185,166629,1,0,0:0:0:0:
102,272,166929,5,0,0:0:0:0:
213,316,167079,1,0,0:0:0:0:
311,238,167229,1,0,0:0:0:0:
405,241,167379,1,0,0:0:0:0:
446,305,167529,1,0,0:0:0:0:
218,181,167829,6,0,B|231:186|237:200|237:200|239:185|253:176,1,50
367,61,168129,2,0,B|413:53|449:103|407:166|356:148|356:148|348:153|348:153|328:89|254:74|254:74|251:66|251:66|248:116|182:172|97:151|69:97,1,539.999983520508,2|0,0:0|0:0,0:0:0:0:
279,208,169629,2,0,P|297:256|282:307,1,100
75,31,170229,6,0,P|102:46|139:44,1,50
143,196,170529,2,0,B|145:182|136:167|136:167|162:179|182:226|162:266|162:266|125:226|59:239|44:160,1,300.000011444092,2|0,0:0|0:0,0:0:0:0:
268,83,171279,5,0,0:0:0:0:
298,168,171429,1,0,0:0:0:0:
278,279,171579,1,0,0:0:0:0:
37,252,171729,2,0,B|94:201|133:238|133:238|162:268|211:262|211:262|237:351|365:369|411:289|411:289|381:317|332:316,1,525.000020027161
427,111,172929,6,0,B|407:144|407:144|388:251,1,112.500004291535,2|0,0:0|0:0,0:0:0:0:
276,53,173229,2,0,B|297:83|297:83|309:189,1,112.500004291535,2|0,0:0|0:0,0:0:0:0:
198,251,173529,2,0,P|203:186|259:285,1,300.000011444092,2|0,0:0|0:0,0:0:0:0:
123,153,174429,5,0,0:0:0:0:
161,338,174729,1,0,0:0:0:0:
241,71,175329,6,0,B|226:111|226:111|228:126|228:126|206:188,2,100
414,151,176229,1,0,0:0:0:0:
58,108,176529,5,0,0:0:0:0:
191,64,176679,1,0,0:0:0:0:
298,109,176829,1,0,0:0:0:0:
346,197,176979,1,0,0:0:0:0:
431,226,177129,1,0,0:0:0:0:
490,181,177279,1,0,0:0:0:0:
476,114,177429,1,0,0:0:0:0:
416,96,177579,1,0,0:0:0:0:
291,221,177729,6,0,B|326:262|387:246|391:178|380:136|333:121|294:113|263:120|227:133|194:164|188:205|195:257|195:257|200:318|180:352|180:352|178:292|143:253|111:251|111:251|157:205|157:148|157:148|87:120|86:41|129:10,1,899.999972534181,2|0,0:0|0:0,0:0:0:0:
348,113,180129,2,0,B|369:101|378:83|376:52|348:20|303:6|255:5|185:38|163:98|163:98|174:106|174:106|136:139|126:204|126:204|106:138|68:114|41:112|41:112|95:154|99:243|70:289|70:289|115:364|193:322,1,899.999972534181,2|0,0:0|0:0,0:0:0:0:
16,218,182529,6,0,B|20:188|74:181|112:223|66:292|226:287|226:203|226:203|240:208|240:208|287:137|369:142|369:142|376:136|376:136|342:234|441:251|441:251|516:180|425:125|425:125|434:128|434:128|493:129|528:81|528:81,1,870.000026550294,2|0,0:0|0:0,0:0:0:0:
277,23,187329,2,0,B|220:68|229:183|264:239|264:239|283:181|369:166|412:192|419:238|419:238|374:237|322:296|327:333|327:333|267:284|210:372|155:283,1,750,2|0,0:0|0:0,0:0:0:0:
393,153,189729,2,0,B|394:188|359:215|320:203|306:174|306:174|344:123|293:39|195:73|189:150|230:183|230:183|300:116|260:-11|133:-26|65:46|70:121,1,750,2|0,0:0|0:0,0:0:0:0:
46,263,192129,6,0,B|151:279|151:279|151:284|151:284|289:307,1,225.000008583069,8|0,0:0|0:0,0:0:0:0:
279,282,192429,5,8,0:0:0:0:
122,164,192579,1,8,0:0:0:0:
414,216,192729,5,8,0:0:0:0:
180,300,192879,1,8,0:0:0:0:
185,64,193029,5,8,0:0:0:0:
382,308,193179,1,8,0:0:0:0:
312,42,193329,5,8,0:0:0:0:
292,259,193479,1,8,0:0:0:0:
125,32,193629,5,8,0:0:0:0:
327,152,193779,1,8,0:0:0:0:
45,217,193929,5,8,0:0:0:0:
318,38,194079,1,8,0:0:0:0:
212,309,194229,5,8,0:0:0:0:
225,22,194379,1,8,0:0:0:0:
381,301,194529,6,0,B|352:164|162:222|215:337|215:337|254:300|248:245|214:213|214:213|165:205|156:148|156:148,1,525.000020027161,8|0,0:0|0:0,0:0:0:0:
329,47,195729,2,0,B|348:27|348:27|307:37|307:37|333:142|333:142|331:154|331:154|374:314|374:314|453:275|408:163|300:171|262:307|198:191|198:191,1,664.999982242585,8|0,0:0|0:0,0:0:0:0:
30,56,196929,6,0,B|62:67|62:67|63:72|63:72|93:85,1,57.5000010967255,14|0,0:0|0:0,0:0:0:0:
279,127,197079,5,0,0:0:0:0:
279,127,197154,1,0,0:0:0:0:
279,127,197229,2,0,B|251:138|251:138|243:138|243:138|201:154,1,57.5000010967255,10|0,0:0|0:0,0:0:0:0:
103,280,197379,5,0,0:0:0:0:
103,280,197454,1,0,0:0:0:0:
103,280,197529,2,0,B|126:298|126:298|130:305|130:305|165:334,1,57.5000010967255,10|0,0:0|0:0,0:0:0:0:
332,354,197679,5,0,0:0:0:0:
332,354,197754,1,0,0:0:0:0:
332,354,197829,2,0,B|322:325|322:325|322:317|322:317|309:274,1,57.5000010967255,10|0,0:0|0:0,0:0:0:0:
140,98,197979,5,0,0:0:0:0:
123,121,198054,1,0,0:0:0:0:
122,149,198129,5,10,0:0:0:0:
197,176,198204,1,0,0:0:0:0:
273,150,198279,1,0,0:0:0:0:
316,82,198354,1,0,0:0:0:0:
390,51,198429,1,10,0:0:0:0:
456,84,198504,1,0,0:0:0:0:
467,152,198579,1,0,0:0:0:0:
419,194,198654,1,0,0:0:0:0:
357,180,198729,5,10,0:0:0:0:
338,131,198804,1,0,0:0:0:0:
368,96,198879,1,0,0:0:0:0:
405,110,198954,1,0,0:0:0:0:
410,138,199029,6,0,P|401:164|367:151,1,57.5000010967255,10|0,0:0|0:0,0:0:0:0:
249,12,199179,2,0,L|273:83,1,57.5000010967255
504,248,199329,5,10,0:0:0:0:
459,301,199404,1,0,0:0:0:0:
392,318,199479,1,0,0:0:0:0:
329,289,199554,1,0,0:0:0:0:
296,227,199629,1,10,0:0:0:0:
241,193,199704,1,0,0:0:0:0:
183,195,199779,1,0,0:0:0:0:
142,227,199854,1,0,0:0:0:0:
141,273,199929,2,0,B|152:267|152:267|162:212,1,57.5000010967255,10|0,0:0|0:0,0:0:0:0:
70,95,200079,5,0,0:0:0:0:
62,85,200154,1,0,0:0:0:0:
55,75,200229,2,0,B|48:107|48:107|44:109|44:109|37:142,1,57.5000010967255,10|0,0:0|0:0,0:0:0:0:
144,366,200379,2,0,B|140:335|140:335|145:330|145:330|142:287,1,57.5000010967255
362,245,200529,5,10,0:0:0:0:
292,209,200604,1,0,0:0:0:0:
217,238,200679,1,0,0:0:0:0:
173,305,200754,1,0,0:0:0:0:
94,321,200829,1,10,0:0:0:0:
30,281,200904,1,0,0:0:0:0:
33,212,200979,1,0,0:0:0:0:
79,178,201054,1,0,0:0:0:0:
129,188,201129,2,0,P|154:205|199:204,1,57.5000010967255,10|0,0:0|0:0,0:0:0:0:
401,186,201279,5,0,0:0:0:0:
401,186,201354,1,0,0:0:0:0:
401,186,201429,2,0,P|390:151|352:123,1,57.5000010967255,10|0,0:0|0:0,0:0:0:0:
203,285,201579,5,0,0:0:0:0:
196,306,201654,1,0,0:0:0:0:
200,328,201729,1,10,0:0:0:0:
269,330,201804,1,0,0:0:0:0:
314,277,201879,1,0,0:0:0:0:
304,208,201954,1,0,0:0:0:0:
251,163,202029,5,10,0:0:0:0:
230,115,202104,1,0,0:0:0:0:
245,65,202179,1,0,0:0:0:0:
289,38,202254,1,0,0:0:0:0:
340,43,202329,1,10,0:0:0:0:
363,59,202404,1,0,0:0:0:0:
386,75,202479,1,0,0:0:0:0:
409,92,202554,1,0,0:0:0:0:
432,109,202629,5,10,0:0:0:0:
391,141,202704,1,0,0:0:0:0:
339,141,202779,1,0,0:0:0:0:
292,117,202854,1,0,0:0:0:0:
270,69,202929,1,10,0:0:0:0:
230,35,203004,1,0,0:0:0:0:
179,25,203079,1,0,0:0:0:0:
129,41,203154,1,0,0:0:0:0:
98,82,203229,5,10,0:0:0:0:
128,143,203304,1,0,0:0:0:0:
193,164,203379,1,0,0:0:0:0:
258,142,203454,1,0,0:0:0:0:
296,84,203529,1,10,0:0:0:0:
348,39,203604,1,0,0:0:0:0:
416,39,203679,1,0,0:0:0:0:
467,85,203754,1,0,0:0:0:0:
465,153,203829,2,0,P|424:157|394:134,1,57.5000010967255,2|0,0:0|0:0,0:0:0:0:
195,62,203979,5,0,0:0:0:0:
204,76,204054,1,0,0:0:0:0:
213,90,204129,2,0,L|265:176,1,57.5000010967255
124,331,204279,5,0,0:3:0:0:
77,276,204354,1,0,0:3:0:0:
91,227,204429,2,0,P|106:202|142:182,1,57.5000010967255,8|0,0:3|0:3,0:3:0:0:
311,336,204579,2,0,B|292:330|281:319|281:319|279:321|279:321|260:308|251:277,1,57.5000010967255,8|0,0:0|0:0,0:0:0:0:
382,108,204729,5,0,0:0:0:0:
407,178,204804,1,0,0:0:0:0:
432,248,204879,2,0,B|443:278|443:278|446:279|446:279|459:321,1,57.5000010967255,8|0,0:0|0:0,0:0:0:0:
227,234,205029,2,0,B|223:217|229:202|229:202|226:197|226:197|229:185|251:161,1,57.5000010967255
109,51,205179,5,0,0:0:0:0:
131,56,205254,1,0,0:0:0:0:
153,61,205329,5,8,0:0:0:0:
165,134,205404,1,8,0:0:0:0:
110,185,205479,1,8,0:0:0:0:
36,172,205554,1,8,0:0:0:0:
64,144,205629,1,8,0:0:0:0:
104,143,205704,1,8,0:0:0:0:
138,163,205779,5,8,0:0:0:0:
150,201,205854,1,8,0:0:0:0:
136,239,205929,1,8,0:0:0:0:
160,309,206004,1,8,0:0:0:0:
229,337,206079,1,8,0:0:0:0:
301,318,206154,1,8,0:0:0:0:
336,252,206229,5,8,0:0:0:0:
273,201,206304,1,8,0:0:0:0:
210,150,206379,1,8,0:0:0:0:
146,100,206454,1,8,0:0:0:0:
83,49,206529,2,0,B|183:60|183:60|188:66|188:66|295:79,1,200,4|10,0:0|0:0,0:0:0:0:
367,83,206829,5,0,0:0:0:0:
377,86,206904,1,0,0:0:0:0:
387,89,206979,1,10,0:0:0:0:
202,227,207129,5,0,0:0:0:0:
462,99,207279,1,10,0:0:0:0:
436,286,207429,5,0,0:0:0:0:
437,297,207504,1,0,0:0:0:0:
439,308,207579,1,10,0:0:0:0:
176,337,207729,6,0,B|199:305|230:305|230:305|266:305|273:287,1,115.000002193451,0|10,0:0|0:0,0:0:0:0:
94,224,208029,1,0,0:0:0:0:
80,232,208104,1,0,0:0:0:0:
67,241,208179,1,10,0:0:0:0:
116,51,208329,6,0,B|130:109|130:109|179:177,1,115.000002193451,0|10,0:0|0:0,0:0:0:0:
286,263,208629,1,0,0:0:0:0:
293,271,208704,1,0,0:0:0:0:
300,280,208779,1,10,0:0:0:0:
456,38,208929,6,0,B|422:34|422:34|377:49|377:49|378:53|378:53|284:87,1,150.000005722046,0|10,0:0|0:0,0:0:0:0:
262,164,209229,1,0,0:0:0:0:
240,189,209304,1,0,0:0:0:0:
219,213,209379,1,10,0:0:0:0:
389,337,209529,5,0,0:0:0:0:
308,80,209679,1,10,0:0:0:0:
90,229,209829,5,0,0:0:0:0:
109,250,209904,1,0,0:0:0:0:
136,258,209979,1,10,0:0:0:0:
419,235,210129,6,0,B|378:177|378:177|378:172|378:172|348:128,1,115.000002193451,0|10,0:0|0:0,0:0:0:0:
341,301,210429,1,0,0:0:0:0:
341,301,210504,1,0,0:0:0:0:
341,301,210579,1,10,0:0:0:0:
462,100,210729,5,0,0:0:0:0:
160,117,210879,1,10,0:0:0:0:
240,315,211029,5,0,0:0:0:0:
247,329,211104,1,0,0:0:0:0:
253,342,211179,1,10,0:0:0:0:
426,270,211329,6,0,B|394:198|394:198|388:194|388:194|357:124,1,150.000005722046,0|10,0:0|0:0,0:0:0:0:
352,115,211629,1,0,0:0:0:0:
129,236,211779,6,0,B|207:227|207:227|268:166,1,150.000005722046,10|0,0:0|0:0,0:0:0:0:
226,60,212079,1,10,0:0:0:0:
298,307,212229,5,0,0:0:0:0:
310,300,212304,1,0,0:0:0:0:
318,288,212379,1,10,0:0:0:0:
137,325,212529,6,0,B|138:340|158:351|178:349|207:330|221:279|185:250,1,150.000005722046,0|10,0:0|0:0,0:0:0:0:
22,225,212829,1,0,0:0:0:0:
226,60,212979,6,0,B|160:106|160:106|151:105|151:105|72:161,1,150.000005722046,10|0,0:0|0:0,0:0:0:0:
19,76,213279,1,10,0:0:0:0:
326,68,213429,5,0,0:0:0:0:
340,70,213504,1,0,0:0:0:0:
354,72,213579,1,10,0:0:0:0:
246,282,213729,5,0,0:0:0:0:
172,298,213804,1,0,0:0:0:0:
105,263,213879,1,0,0:0:0:0:
75,194,213954,1,0,0:0:0:0:
100,139,214029,1,0,0:0:0:0:
144,131,214104,1,0,0:0:0:0:
166,151,214179,2,0,P|167:178|133:216,1,75.0000028610231,8|0,0:0|0:0,0:0:0:0:
38,48,214329,5,0,0:0:0:0:
111,65,214404,1,0,0:0:0:0:
184,82,214479,1,0,0:0:0:0:
256,99,214554,1,0,0:0:0:0:
328,116,214629,2,0,P|350:151|323:200,1,75.0000028610231,8|0,0:0|0:0,0:0:0:0:
138,276,214779,5,0,0:0:0:0:
123,281,214854,1,8,0:0:0:0:
108,283,214929,2,0,B|110:262|126:246|126:246|121:241|121:241|136:225|175:216,1,75.0000028610231,8|0,0:0|0:0,0:0:0:0:
275,68,215079,5,0,0:0:0:0:
283,54,215154,1,0,0:0:0:0:
292,43,215229,2,8,B|307:56|311:79|311:79|316:79|316:79|322:99|306:136,1,75.0000028610231,0|0,0:0|0:0,0:0:0:0:
300,295,215379,5,8,0:0:0:0:
297,309,215454,1,8,0:0:0:0:
294,323,215529,2,0,B|280:304|280:286|280:286|275:284|275:284|272:261|287:243,1,75.0000028610231,8|0,0:0|0:0,0:0:0:0:
433,95,215679,5,8,0:0:0:0:
447,103,215754,1,8,0:0:0:0:
390,152,215829,1,8,0:0:0:0:
307,158,215904,1,8,0:0:0:0:
226,117,215979,1,8,0:0:0:0:
177,41,216054,1,8,0:0:0:0:
82,15,216129,2,0,B|81:51|97:67|97:67|94:71|94:71|122:109|183:109,1,150.000005722046,4|10,0:0|0:0,0:0:0:0:
372,62,216429,5,0,0:0:0:0:
391,56,216504,1,0,0:0:0:0:
411,51,216579,1,10,0:0:0:0:
307,266,216729,2,0,B|327:279|354:273|364:225|327:186,1,115.000002193451,0|10,0:0|0:0,0:0:0:0:
103,143,217029,5,0,0:0:0:0:
92,139,217104,1,0,0:0:0:0:
80,135,217179,1,10,0:0:0:0:
136,304,217329,2,0,B|139:327|139:327|167:319|177:303|177:303|182:298|182:298|177:292|177:292|192:284|182:200,1,150.000005722046,0|10,0:0|0:0,0:0:0:0:
45,243,217629,5,0,0:0:0:0:
45,243,217704,1,0,0:0:0:0:
45,243,217779,1,10,0:0:0:0:
273,328,217929,5,0,0:0:0:0:
202,39,218079,1,10,0:0:0:0:
373,129,218229,5,0,0:0:0:0:
385,137,218304,1,0,0:0:0:0:
397,145,218379,1,10,0:0:0:0:
178,253,218529,6,0,B|127:260|110:225|110:225|127:202|127:202|133:203|133:203|170:140,1,150.000005722046,0|10,0:0|0:0,0:0:0:0:
209,87,218829,1,0,0:0:0:0:
219,76,218904,1,0,0:0:0:0:
229,65,218979,1,10,0:0:0:0:
262,307,219129,5,0,0:0:0:0:
40,115,219279,1,10,0:0:0:0:
314,121,219429,5,0,0:0:0:0:
328,123,219504,1,0,0:0:0:0:
342,125,219579,1,10,0:0:0:0:
167,326,219729,6,0,B|138:285|167:249|167:249|163:244|163:244|189:213|159:150,1,150.000005722046,0|10,0:0|0:0,0:0:0:0:
95,61,220029,1,0,0:0:0:0:
88,74,220104,1,0,0:0:0:0:
91,88,220179,1,10,0:0:0:0:
364,239,220329,6,0,L|403:155,1,57.5000010967255
422,120,220479,1,10,0:0:0:0:
107,291,220629,5,0,0:0:0:0:
102,301,220704,1,0,0:0:0:0:
97,311,220779,1,10,0:0:0:0:
340,280,220929,6,0,B|279:247|279:247|211:252,1,135.000000514984,0|10,0:0|0:0,0:0:0:0:
139,272,221229,1,0,0:0:0:0:
425,355,221379,6,0,B|406:288|406:288|402:284|402:284|376:186,1,135.000000514984,10|0,0:0|0:0,0:0:0:0:
245,49,221679,1,10,0:0:0:0:
37,142,221829,2,0,B|59:167|97:173|97:173|99:178|99:178|136:182|176:164,1,135.000000514984,0|10,0:0|0:0,0:0:0:0:
345,28,222129,6,0,B|324:56|324:56|317:105|317:105|314:106|314:106|301:189,1,150.000005722046,0|10,0:0|0:0,0:0:0:0:
395,306,222429,1,0,0:0:0:0:
239,50,222579,1,10,0:0:0:0:
166,331,222729,1,0,0:0:0:0:
291,189,222879,1,10,0:0:0:0:
48,216,223029,2,0,B|74:229|74:229|79:228|79:228|108:240|108:240|141:236|141:236|145:238|145:238|187:227,1,135.000000514984,0|10,0:0|0:0,0:0:0:0:
187,39,223329,5,8,0:0:0:0:
158,58,223404,1,0,0:0:0:0:
142,101,223479,1,0,0:0:0:0:
164,154,223554,1,0,0:0:0:0:
225,173,223629,2,0,P|224:133|201:108,1,57.5000010967255,8|0,0:0|0:0,0:0:0:0:
48,216,223779,5,0,0:0:0:0:
106,241,223854,1,0,0:0:0:0:
154,263,223929,2,0,L|235:299,1,57.5000010967255,8|0,0:0|0:0,0:0:0:0:
409,322,224079,5,0,0:0:0:0:
383,263,224154,1,0,0:0:0:0:
337,242,224229,2,0,P|289:241|263:271,1,57.5000010967255,8|0,0:0|0:0,0:0:0:0:
138,347,224379,5,0,0:0:0:0:
180,317,224454,1,0,0:0:0:0:
198,250,224529,6,0,B|195:232|186:218|186:218|189:217|189:217|180:201|152:187,1,57.5000010967255,8|0,0:0|0:0,0:0:0:0:
30,209,224679,2,0,B|45:222|62:224|62:224|63:229|63:229|77:232|98:223,1,57.5000010967255,8|0,0:0|0:0,0:0:0:0:
154,90,224829,5,0,0:0:0:0:
154,90,224904,1,0,0:0:0:0:
154,90,224979,2,0,B|139:102|129:116|129:116|125:115|125:115|119:128|120:154,1,57.5000010967255,8|0,0:0|0:0,0:0:0:0:
360,212,225129,2,0,B|328:207|328:207|324:203|324:203|276:193,1,57.5000010967255,8|0,0:0|0:0,0:0:0:0:
83,276,225279,5,0,0:0:0:0:
58,289,225354,1,0,0:0:0:0:
39,310,225429,2,0,B|53:347|53:347|77:360|104:355|104:355|104:349|104:349|128:340|137:318|137:318|146:302|162:291|162:291|163:295|163:295|186:283|234:286,1,225.000008583069,2|0,0:0|0:0,0:0:0:0:
388,263,225729,6,0,B|393:309|361:315|335:317|294:295|280:255|292:215|305:187|333:168|361:156|383:140|390:100,1,300.000011444092
487,49,226179,2,0,B|426:106|350:67|350:67|343:75|343:75|342:67|342:67|260:37|194:87,1,300.000011444092,10|10,0:0|0:0,0:0:0:0:
100,187,226629,2,0,P|138:157|74:157,1,150.000005722046,0|10,0:0|0:0,0:0:0:0:
40,280,226929,5,0,0:0:0:0:
112,297,227004,1,0,0:0:0:0:
178,262,227079,1,10,0:0:0:0:
191,188,227154,1,0,0:0:0:0:
234,126,227229,1,0,0:0:0:0:
304,99,227304,1,0,0:0:0:0:
377,112,227379,5,10,0:0:0:0:
378,179,227454,1,0,0:0:0:0:
335,221,227529,1,0,0:0:0:0:
282,223,227604,1,0,0:0:0:0:
248,192,227679,1,10,0:0:0:0:
249,154,227754,1,0,0:0:0:0:
269,131,227829,2,0,B|283:151|298:156|298:156|311:203|311:203|316:204|316:204|332:275,1,150.000005722046,0|10,0:0|0:0,0:0:0:0:
403,347,228129,6,0,P|467:251|303:170,1,300.000011444092
100,30,228579,2,0,B|34:55|82:99|68:122|159:151|207:7|316:81,1,300.000011444092,10|10,0:0|0:0,0:0:0:0:
372,56,229029,2,0,B|359:14|359:14|340:62|340:62|334:67|334:67|315:112,1,150.000005722046,0|10,0:0|0:0,0:0:0:0:
429,264,229329,5,0,0:0:0:0:
360,218,229404,1,0,0:0:0:0:
278,232,229479,1,10,0:0:0:0:
227,296,229554,1,0,0:0:0:0:
150,326,229629,1,0,0:0:0:0:
71,301,229704,1,0,0:0:0:0:
25,231,229779,1,10,0:0:0:0:
95,204,229854,1,0,0:0:0:0:
148,231,229929,1,0,0:0:0:0:
161,281,230004,1,0,0:0:0:0:
142,313,230079,6,0,B|125:302|120:288|120:288|122:284|122:284|120:271|126:249,1,57.5000010967255,10|0,0:0|0:0,0:0:0:0:
246,159,230229,2,0,B|249:177|244:193|244:193|239:192|239:192|234:204|221:211,1,57.5000010967255
54,142,230379,2,0,B|74:139|87:142|87:142|91:140|91:140|106:147|123:167,1,57.5000010967255,10|0,0:0|0:0,0:0:0:0:
412,84,230529,5,4,0:0:0:0:
404,105,230604,1,0,0:0:0:0:
396,126,230679,1,10,0:0:0:0:
388,147,230754,1,0,0:0:0:0:
381,168,230829,1,0,0:0:0:0:
374,189,230904,1,0,0:0:0:0:
367,210,230979,1,10,0:0:0:0:
360,232,231054,1,0,0:0:0:0:
330,213,231129,5,0,0:0:0:0:
322,179,231204,1,0,0:0:0:0:
331,145,231279,1,10,0:0:0:0:
326,110,231354,1,0,0:0:0:0:
300,86,231429,1,0,0:0:0:0:
265,81,231504,1,0,0:0:0:0:
234,97,231579,1,10,0:0:0:0:
218,127,231654,1,0,0:0:0:0:
225,160,231729,5,8,0:0:0:0:
293,190,231804,1,8,0:0:0:0:
365,173,231879,1,8,0:0:0:0:
401,107,231954,1,8,0:0:0:0:
379,35,232029,5,8,0:0:0:0:
344,39,232104,1,8,0:0:0:0:
309,43,232179,1,8,0:0:0:0:
274,47,232254,1,8,0:0:0:0:
239,51,232329,5,8,0:0:0:0:
183,100,232404,1,8,0:0:0:0:
186,174,232479,1,8,0:0:0:0:
244,220,232554,1,8,0:0:0:0:
255,293,232629,1,8,0:0:0:0:
219,348,232704,1,8,0:0:0:0:
164,358,232779,1,8,0:0:0:0:
127,333,232854,1,8,0:0:0:0:
121,297,232929,6,0,B|144:279|176:277|176:277|171:271|171:271|204:270|218:280,1,115.000002193451,4|0,0:0|0:0,0:0:0:0:
416,332,233229,2,0,B|386:331|361:311|361:311|360:319|360:319|335:300|330:283,1,115.000002193451,4|0,0:0|0:0,0:0:0:0:
394,46,234129,6,0,B|406:100|406:100|410:103|410:103|426:178,1,115.000002193451,4|0,0:0|0:0,0:0:0:0:
290,278,235329,2,0,P|283:243|269:228,1,57.5000010967255,8|0,0:0|0:0,0:0:0:0:
90,130,235479,5,0,0:0:0:0:
86,146,235554,1,0,0:0:0:0:
92,162,235629,2,0,B|137:177|177:152|177:152|176:146|176:146|177:152|216:128|254:142,1,172.500003290176,8|0,0:0|0:0,0:0:0:0:
274,148,235929,5,4,0:0:0:0:
37,306,236079,1,4,0:0:0:0:
110,35,236379,5,4,0:0:0:0:
452,161,236529,1,4,0:0:0:0:
286,264,238929,6,0,B|281:279|290:298|329:303|356:283|356:283|352:279|352:279|371:254|365:205|346:195|346:195|349:192|349:192|313:169|298:128,1,250,10|0,0:0|0:0,0:0:0:0:
154,35,239571,2,0,B|260:57|260:57|257:60|257:60|405:89,1,230.000004386902,2|0,0:0|0:0,0:0:0:0:
423,183,240214,6,0,B|428:171|439:164|439:164|375:160|319:207|319:207|327:215|327:215|319:207|319:207|252:276|178:245|178:245|191:187|157:140|82:130|35:177|35:177|71:178|84:189,1,600.000022888185,2|0,0:0|0:0,0:0:0:0:
297,122,242143,5,0,0:0:0:0:
246,64,242250,1,0,0:0:0:0:
194,47,242357,2,0,B|161:78|161:78|173:145|173:145|178:144|178:144|194:231|194:231|163:270,1,250,2|0,0:0|0:0,0:0:0:0:
77,306,243000,6,0,B|58:280|74:250|121:229|154:247|174:268|174:268|191:271|191:271|188:277|188:277|201:288|220:305|277:298,1,259.999988098145,2|0,0:0|0:0,0:0:0:0:
406,279,243643,2,0,B|423:280|438:270|444:238|416:197|367:193,1,125,2|0,0:0|0:0,0:0:0:0:
173,70,244071,5,0,0:0:0:0:
155,62,244179,1,0,0:0:0:0:
139,64,244286,2,1,B|127:39|93:4|10:23|1:76|14:108|14:108|7:107|7:107|27:156|82:197|186:175|205:110|205:110|199:112|199:112|242:56|306:88|306:88|309:130|347:154,1,650,2|0,0:0|0:0,0:0:0:0:
419,300,245786,2,0,B|445:298|458:263|469:233|440:195|314:218|301:304|301:304|295:301|295:301|256:343|204:311|204:311|235:255|222:222|222:222|183:239|145:219|145:219|105:201|72:223|72:223|60:187|109:136|167:110|219:126|253:137|285:166|289:210|349:211|397:197|441:165|441:165|378:195|307:152|282:101|297:31|345:0|393:11|393:11|412:52|395:97|395:97|442:89|466:141,1,1527.4999300766,4|0,0:0|0:0,0:0:0:0:
343,192,250929,54,0,B|317:132|417:71|513:158|527:275|430:302|430:302|434:313|434:313|323:322|323:322|321:327|321:327|194:337|194:337,1,595.000011348725,4|0,0:0|0:0,0:0:0:0:
122,310,252643,53,0,0:0:0:0:
100,323,252857,1,0,0:0:0:0:
78,336,253071,1,0,0:0:0:0:
56,349,253286,5,0,0:0:0:0:
84,273,253393,1,0,0:0:0:0:
157,238,253500,1,0,0:0:0:0:
236,249,253607,1,0,0:0:0:0:
302,204,253714,1,0,0:0:0:0:
303,123,253821,1,0,0:0:0:0:
278,119,253929,2,0,B|263:153|263:153|264:158|264:158|256:182,1,57.5000010967255,8|0,0:0|0:0,0:0:0:0:
415,119,254143,5,0,0:0:0:0:
361,51,254250,1,0,0:0:0:0:
275,41,254357,1,0,0:0:0:0:
208,95,254464,1,0,0:0:0:0:
209,181,254571,1,0,0:0:0:0:
154,233,254679,1,0,0:0:0:0:
103,217,254786,2,0,P|124:184|150:172,1,57.5000010967255,8|0,0:0|0:0,0:0:0:0:
132,67,255000,5,0,0:0:0:0:
207,94,255107,1,0,0:0:0:0:
238,167,255214,1,0,0:0:0:0:
219,245,255321,1,0,0:0:0:0:
253,318,255429,1,0,0:0:0:0:
330,339,255536,1,0,0:0:0:0:
400,300,255643,1,0,0:0:0:0:
383,276,255750,5,0,0:0:0:0:
311,240,255857,1,0,0:0:0:0:
230,238,255964,1,0,0:0:0:0:
157,273,256071,6,0,P|186:284|222:257,1,57.5000010967255,8|0,0:0|0:0,0:0:0:0:
244,93,256286,2,0,P|224:120|231:161,1,57.5000010967255,8|0,0:0|0:0,0:0:0:0:
346,266,256500,2,0,P|322:235|268:228,1,57.5000010967255,8|0,0:0|0:0,0:0:0:0:
424,352,256714,5,0,0:0:0:0:
409,272,256821,1,0,0:0:0:0:
394,192,256929,1,0,0:0:0:0:
380,112,257036,1,0,0:0:0:0:
304,85,257143,1,0,0:0:0:0:
231,118,257250,1,0,0:0:0:0:
154,94,257357,2,0,P|182:72|227:71,1,57.5000010967255,8|0,0:0|0:0,0:0:0:0:
309,171,257571,5,0,0:0:0:0:
253,230,257679,1,0,0:0:0:0:
172,231,257786,1,0,0:0:0:0:
108,280,257893,1,0,0:0:0:0:
126,358,258000,1,0,0:0:0:0:
204,374,258107,1,0,0:0:0:0:
229,353,258214,2,0,P|199:330|170:337,1,57.5000010967255,8|0,0:0|0:0,0:0:0:0:
37,191,258429,5,0,0:0:0:0:
103,236,258536,1,0,0:0:0:0:
183,235,258643,1,0,0:0:0:0:
239,178,258750,1,0,0:0:0:0:
302,128,258857,1,0,0:0:0:0:
382,130,258964,1,0,0:0:0:0:
440,185,259071,5,0,0:0:0:0:
370,227,259179,1,0,0:0:0:0:
295,197,259286,1,0,0:0:0:0:
277,118,259393,1,0,0:0:0:0:
334,62,259500,6,0,P|361:78|374:119,1,57.5000010967255,8|0,0:0|0:0,0:0:0:0:
200,243,259714,2,0,P|214:214|264:188,1,57.5000010967255,8|0,0:0|0:0,0:0:0:0:
432,296,259929,2,0,P|389:275|367:234,1,57.5000010967255,8|0,0:0|0:0,0:0:0:0:
459,72,260143,5,0,0:0:0:0:
414,138,260250,1,0,0:0:0:0:
338,165,260357,1,0,0:0:0:0:
260,145,260464,1,0,0:0:0:0:
183,169,260571,1,0,0:0:0:0:
156,245,260679,1,0,0:0:0:0:
170,263,260786,2,0,P|200:241|200:202,1,57.5000010967255,8|0,0:0|0:0,0:0:0:0:
52,189,261000,5,0,0:0:0:0:
56,269,261107,1,0,0:0:0:0:
120,317,261214,1,0,0:0:0:0:
199,307,261321,1,0,0:0:0:0:
246,241,261429,1,0,0:0:0:0:
326,231,261536,1,0,0:0:0:0:
391,277,261643,2,0,P|360:296|322:284,1,57.5000010967255,8|0,0:0|0:0,0:0:0:0:
177,108,261857,5,0,0:0:0:0:
177,188,261964,1,0,0:0:0:0:
242,234,262071,1,8,0:0:0:0:
321,217,262179,1,0,0:0:0:0:
347,141,262286,1,0,0:0:0:0:
267,149,262393,1,0,0:0:0:0:
187,157,262500,5,8,0:0:0:0:
107,165,262607,1,0,0:0:0:0:
67,235,262714,1,0,0:0:0:0:
110,302,262821,1,0,0:0:0:0:
191,306,262929,2,0,P|206:280|190:232,1,57.5000010967255,8|0,0:0|0:0,0:0:0:0:
356,148,263143,5,0,0:0:0:0:
286,107,263250,1,0,0:0:0:0:
208,128,263357,1,8,0:0:0:0:
129,112,263464,1,0,0:0:0:0:
93,39,263571,1,0,0:0:0:0:
172,53,263679,1,0,0:0:0:0:
194,130,263786,5,8,0:0:0:0:
132,182,263893,1,0,0:0:0:0:
142,261,264000,1,0,0:0:0:0:
216,291,264107,1,0,0:0:0:0:
279,241,264214,1,8,0:0:0:0:
267,161,264321,1,0,0:0:0:0:
329,109,264429,1,0,0:0:0:0:
402,140,264536,1,0,0:0:0:0:
414,219,264643,6,0,L|329:188,1,57.5000010967255,8|0,0:0|0:0,0:0:0:0:
473,57,264857,2,0,L|395:87,1,57.5000010967255,8|0,0:0|0:0,0:0:0:0:
414,219,265071,2,0,L|329:188,1,57.5000010967255,8|0,0:0|0:0,0:0:0:0:
223,41,265286,6,0,P|213:77|223:123,1,57.5000010967255,8|0,0:0|0:0,0:0:0:0:
106,182,265500,2,0,P|86:229|51:243,1,57.5000010967255,8|0,0:0|0:0,0:0:0:0:
223,41,265714,2,0,P|213:77|223:123,1,57.5000010967255,8|0,0:0|0:0,0:0:0:0:
330,284,265929,6,0,B|303:263|303:263|264:250,1,57.5000010967255,8|0,0:0|0:0,0:0:0:0:
134,345,266143,2,0,B|162:346|162:346|213:318,1,57.5000010967255,8|0,0:0|0:0,0:0:0:0:
425,117,266357,6,0,B|446:138|446:138|443:237,1,100,4|0,0:0|0:0,0:0:0:0:
433,324,266786,1,10,0:0:0:0:
194,265,267000,6,0,B|239:251|239:251|274:258|274:258|338:238,1,125,0|2,0:0|0:0,0:0:0:0:
165,359,267429,1,0,0:0:0:0:
56,204,267643,1,10,0:0:0:0:
312,261,267857,1,0,0:0:0:0:
308,43,268071,6,0,B|276:41|276:41|240:67|240:67|237:66|237:66|183:105,1,125,2|0,0:0|0:0,0:0:0:0:
200,247,268500,1,10,0:0:0:0:
439,232,268714,2,0,B|420:192|420:192|426:160|426:160|391:86,1,125,0|2,0:0|0:0,0:0:0:0:
98,43,269143,5,0,0:0:0:0:
363,102,269357,1,10,0:0:0:0:
301,332,269571,1,0,0:0:0:0:
42,288,269786,6,0,B|71:284|71:284|94:254|94:254|100:254|100:254|141:200,1,125,2|0,0:0|0:0,0:0:0:0:
137,84,270214,1,10,0:0:0:0:
259,354,270429,2,0,B|241:308|241:308|217:292|217:292|195:240,1,125,0|2,0:0|0:0,0:0:0:0:
257,46,270857,5,0,0:0:0:0:
392,232,271071,1,10,0:0:0:0:
178,299,271286,1,0,0:0:0:0:
203,281,271500,6,0,B|213:310|213:310|188:347|188:347|183:348|183:348|149:390,1,125,2|0,0:0|0:0,0:0:0:0:
83,95,271929,1,10,0:0:0:0:
298,322,272143,2,0,B|309:296|309:296|295:269|295:269|296:266|296:266|282:234|282:234|301:199,1,125,0|2,0:0|0:0,0:0:0:0:
440,149,272571,5,8,0:0:0:0:
454,154,272679,1,8,0:0:0:0:
450,141,272786,2,0,B|443:178|443:178|374:238,1,125,14|0,0:0|0:0,0:0:0:0:
251,29,273214,6,0,B|279:30|306:54|306:54|308:50|308:50|333:75|336:117,1,125,4|0,0:0|0:0,0:0:0:0:
259,271,273643,1,10,0:0:0:0:
97,138,273857,2,0,B|135:123|135:123|180:132|180:132|258:103,1,125,0|2,0:0|0:0,0:0:0:0:
123,292,274286,5,0,0:0:0:0:
168,38,274500,1,10,0:0:0:0:
351,183,274714,1,0,0:0:0:0:
212,344,274929,6,0,B|207:312|207:312|211:307|211:307|209:275|209:275|218:248|218:248|222:246|222:246|230:212,1,125,2|0,0:0|0:0,0:0:0:0:
319,319,275357,1,10,0:0:0:0:
183,126,275571,2,0,B|154:153|154:153|155:158|155:158|135:173|135:173|125:201|125:201|120:203|120:203|111:241,1,125,0|2,0:0|0:0,0:0:0:0:
412,182,276000,5,0,0:0:0:0:
205,46,276214,1,10,0:0:0:0:
345,321,276429,1,0,0:0:0:0:
445,81,276643,6,0,B|411:88|411:88|379:86|379:86|350:101|350:101|319:107,1,125,2|0,0:0|0:0,0:0:0:0:
277,124,277071,1,10,0:0:0:0:
426,284,277286,2,0,B|428:254|428:254|412:214|412:214|407:211|407:211|388:160,1,125,0|2,0:0|0:0,0:0:0:0:
185,71,277714,5,0,0:0:0:0:
344,277,277929,1,10,0:0:0:0:
320,34,278143,1,0,0:0:0:0:
116,169,278357,6,0,L|192:156,1,62.5
88,87,278571,1,0,0:0:0:0:
34,149,278679,1,0,0:0:0:0:
48,227,278786,1,0,0:0:0:0:
122,254,278893,1,0,0:0:0:0:
164,315,279000,1,0,0:0:0:0:
162,359,279107,1,0,0:0:0:0:
122,336,279214,5,0,0:0:0:0:
118,291,279321,1,0,0:0:0:0:
156,266,279429,1,0,0:0:0:0:
198,252,279536,1,0,0:0:0:0:
240,238,279643,1,0,0:0:0:0:
278,226,279750,1,0,0:0:0:0:
311,215,279857,1,0,0:0:0:0:
339,206,279964,1,0,0:0:0:0:
397,157,280071,5,4,0:0:0:0:
335,134,280179,1,0,0:0:0:0:
278,166,280286,1,0,0:0:0:0:
269,230,280393,1,0,0:0:0:0:
313,277,280500,2,0,L|337:210,1,50,10|0,0:0|0:0,0:0:0:0:
313,51,280714,5,0,0:0:0:0:
260,89,280821,1,0,0:0:0:0:
207,128,280929,1,2,0:0:0:0:
155,166,281036,1,0,0:0:0:0:
102,204,281143,2,0,L|32:257,1,50
262,312,281357,5,10,0:0:0:0:
252,278,281464,1,0,0:0:0:0:
228,252,281571,1,0,0:0:0:0:
195,239,281679,1,0,0:0:0:0:
160,243,281786,2,0,P|165:264|194:283,1,50,2|0,0:0|0:0,0:0:0:0:
432,177,282000,5,0,0:0:0:0:
374,147,282107,1,0,0:0:0:0:
309,143,282214,1,10,0:0:0:0:
252,175,282321,1,0,0:0:0:0:
186,169,282429,2,0,P|156:152|142:117,1,50
323,29,282643,5,2,0:0:0:0:
342,90,282750,1,0,0:0:0:0:
361,151,282857,1,0,0:0:0:0:
380,212,282964,1,0,0:0:0:0:
400,273,283071,2,0,P|370:268|349:244,3,50,10|0|0|0,0:0|0:0|0:0|0:0,0:0:0:0:
190,84,283500,5,2,0:0:0:0:
267,49,283607,1,0,0:0:0:0:
348,57,283714,2,0,L|414:92,1,50
445,227,283929,5,10,0:0:0:0:
421,256,284036,1,0,0:0:0:0:
352,268,284143,1,0,0:0:0:0:
284,250,284250,1,0,0:0:0:0:
230,197,284357,2,0,P|198:173|156:171,1,50,2|0,0:0|0:0,0:0:0:0:
67,62,284571,5,0,0:0:0:0:
38,97,284679,1,0,0:0:0:0:
42,141,284786,1,10,0:0:0:0:
76,169,284893,1,0,0:0:0:0:
120,169,285000,2,0,P|118:138|93:122,1,50
232,300,285214,5,2,0:0:0:0:
252,283,285321,1,0,0:0:0:0:
211,225,285429,1,0,0:0:0:0:
141,224,285536,1,0,0:0:0:0:
99,280,285643,2,0,P|120:293|156:288,1,50,10|0,0:0|0:0,0:0:0:0:
209,49,285857,5,0,0:0:0:0:
189,116,285964,1,0,0:0:0:0:
234,169,286071,1,2,0:0:0:0:
304,162,286179,1,0,0:0:0:0:
312,140,286286,2,0,L|257:146,1,50
370,290,286500,5,14,0:0:0:0:
398,225,286607,1,0,0:0:0:0:
389,155,286714,1,4,0:0:0:0:
360,91,286821,1,0,0:0:0:0:
384,24,286929,5,2,0:0:0:0:
343,92,287036,1,0,0:0:0:0:
263,101,287143,1,0,0:0:0:0:
200,51,287250,1,0,0:0:0:0:
120,46,287357,1,10,0:0:0:0:
64,103,287464,1,0,0:0:0:0:
61,182,287571,2,0,P|86:177|109:159,2,37.5000014305115
229,314,287786,5,2,0:0:0:0:
234,249,287893,1,0,0:0:0:0:
214,187,288000,1,0,0:0:0:0:
218,122,288107,1,0,0:0:0:0:
200,51,288214,2,0,P|241:63|259:89,1,50,10|0,0:0|0:0,0:0:0:0:
385,86,288429,2,0,P|392:118|378:155,1,50
370,326,288643,5,2,0:0:0:0:
341,267,288750,1,0,0:0:0:0:
359,204,288857,1,0,0:0:0:0:
416,174,288964,1,0,0:0:0:0:
433,132,289071,1,10,0:0:0:0:
428,86,289179,1,0,0:0:0:0:
392,136,289286,5,0,0:0:0:0:
336,158,289393,1,0,0:0:0:0:
276,160,289500,1,2,0:0:0:0:
218,144,289607,1,0,0:0:0:0:
167,110,289714,1,0,0:0:0:0:
107,113,289821,1,0,0:0:0:0:
68,159,289929,5,10,0:0:0:0:
76,218,290036,1,0,0:0:0:0:
125,252,290143,1,0,0:0:0:0:
156,236,290250,1,0,0:0:0:0:
168,214,290357,2,0,P|156:189|122:175,1,50,2|0,0:0|0:0,0:0:0:0:
54,282,290571,5,0,0:0:0:0:
124,278,290679,1,0,0:0:0:0:
193,274,290786,1,10,0:0:0:0:
262,270,290893,1,0,0:0:0:0:
331,266,291000,2,0,L|416:259,1,50
273,51,291214,5,2,0:0:0:0:
280,119,291321,1,0,0:0:0:0:
326,153,291429,1,0,0:0:0:0:
371,138,291536,1,0,0:0:0:0:
384,105,291643,1,10,0:0:0:0:
313,81,291750,1,0,0:0:0:0:
245,111,291857,1,0,0:0:0:0:
170,105,291964,1,0,0:0:0:0:
111,58,292071,5,10,0:0:0:0:
206,69,292179,1,8,0:0:0:0:
248,153,292286,1,8,0:0:0:0:
214,241,292393,1,8,0:0:0:0:
262,322,292500,1,2,0:0:0:0:
356,328,292607,1,0,0:0:0:0:
421,258,292714,2,0,L|352:237,1,50,8|0,0:0|0:0,0:0:0:0:
280,60,292929,5,10,0:0:0:0:
217,74,293036,1,8,0:0:0:0:
188,121,293143,1,8,0:0:0:0:
186,170,293250,1,8,0:0:0:0:
212,200,293357,1,10,0:0:0:0:
229,230,293464,1,8,0:0:0:0:
229,264,293571,1,8,0:0:0:0:
214,290,293679,1,8,0:0:0:0:
192,302,293786,2,0,B|166:297|166:297|150:266|150:266|146:267|146:267|127:232|127:232|89:223,1,125,2|0,0:0|0:0,0:0:0:0:
33,272,294214,5,10,0:0:0:0:
293,85,294429,2,0,B|310:79|310:79|285:131|285:131|286:137|286:137|265:184,1,125,0|2,0:0|0:0,0:0:0:0:
133,172,294857,5,0,0:0:0:0:
414,83,295071,1,10,0:0:0:0:
297,324,295286,1,0,0:0:0:0:
343,33,295500,6,0,B|336:54|318:65|318:65|317:101|317:101|315:106|315:106|314:161,1,125,2|0,0:0|0:0,0:0:0:0:
383,273,295929,5,10,0:0:0:0:
77,107,296143,2,0,B|101:94|101:94|138:89|138:89|145:91|145:91|201:86,1,125,0|2,0:0|0:0,0:0:0:0:
257,84,296571,5,0,0:0:0:0:
99,319,296786,1,10,0:0:0:0:
160,139,297000,1,0,0:0:0:0:
382,294,297214,6,0,B|317:306|317:306|312:303|312:303|199:321,1,135.000000514984,2|0,0:0|0:0,0:0:0:0:
126,238,297643,1,10,0:0:0:0:
301,143,297857,2,0,B|369:135|369:135|375:138|375:138|468:126,1,135.000000514984,0|2,0:0|0:0,0:0:0:0:
486,197,298286,5,0,0:0:0:0:
230,223,298500,1,10,0:0:0:0:
206,36,298714,1,0,0:0:0:0:
94,143,298929,6,0,B|108:158|125:165|125:165|129:194|129:194|132:199|132:199|142:272,1,135.000000514984,2|0,0:0|0:0,0:0:0:0:
23,238,299357,1,10,0:0:0:0:
294,222,299571,2,0,B|282:234|253:229|253:229|235:202|241:157|299:126,1,135.000000514984,0|2,0:0|0:0,0:0:0:0:
414,89,300000,5,0,0:0:0:0:
424,84,300107,1,0,0:0:0:0:
434,80,300214,1,2,0:0:0:0:
378,307,300429,5,0,0:0:0:0:
167,209,300643,2,0,B|189:174|189:174|223:159|223:159|229:161|229:161|277:142,1,125,4|0,0:0|0:0,0:0:0:0:
338,25,301071,5,10,0:0:0:0:
456,236,301286,2,0,B|441:241|429:246|429:246|384:241|384:241|380:243|380:243|317:234,1,125,0|2,0:0|0:0,0:0:0:0:
169,102,301714,5,0,0:0:0:0:
375,184,301929,1,10,0:0:0:0:
179,335,302143,1,0,0:0:0:0:
42,128,302357,6,0,B|55:140|77:143|77:143|91:184|91:184|96:188|96:188|126:264,1,125,2|0,0:0|0:0,0:0:0:0:
27,359,302786,1,10,0:0:0:0:
287,118,303000,2,0,B|287:150|300:171|300:171|290:202|290:202|286:206|286:206|264:264,1,125,0|2,0:0|0:0,0:0:0:0:
172,52,303429,5,0,0:0:0:0:
405,165,303643,1,10,0:0:0:0:
187,296,303857,1,0,0:0:0:0:
464,302,304071,6,0,B|451:311|431:304|431:304|393:282|393:282|386:281|386:281|316:244,1,125,2|0,0:0|0:0,0:0:0:0:
359,54,304500,1,10,0:0:0:0:
142,171,304714,2,0,B|155:178|176:176|176:176|223:172|223:172|224:167|224:167|277:163,1,125,0|2,0:0|0:0,0:0:0:0:
92,45,305143,5,0,0:0:0:0:
221,276,305357,1,10,0:0:0:0:
339,34,305571,1,0,0:0:0:0:
343,13,305786,2,0,P|310:34|299:64,1,50,2|0,0:0|0:0,0:0:0:0:
471,179,306000,5,8,0:0:0:0:
421,122,306107,1,8,0:0:0:0:
348,104,306214,1,8,0:0:0:0:
282,140,306321,2,0,P|263:155|207:160,1,50
108,53,306536,5,0,0:0:0:0:
83,37,306643,2,0,L|102:115,1,50,8|0,0:0|0:0,0:0:0:0:
66,253,306857,2,0,P|87:249|68:239,1,50
97,347,307071,5,8,0:0:0:0:
142,286,307179,1,0,0:0:0:0:
187,226,307286,2,0,L|248:152,1,50
399,129,307500,2,0,B|412:160|412:160|390:198|390:198|388:198|388:198|361:248,1,125,4|0,0:0|0:0,0:0:0:0:
287,303,307929,5,10,0:0:0:0:
75,135,308143,2,0,B|62:132|56:113|85:90|130:85|175:127,1,125,0|2,0:0|0:0,0:0:0:0:
210,242,308571,5,0,0:0:0:0:
325,45,308786,1,10,0:0:0:0:
431,320,309000,1,0,0:0:0:0:
488,64,309214,6,0,B|459:106|459:106|455:122|455:122|442:129|442:129|410:170,1,125,2|0,0:0|0:0,0:0:0:0:
289,157,309643,1,10,0:0:0:0:
146,344,309857,2,0,B|173:341|173:341|217:315|217:315|221:318|221:318|264:292,1,125,0|2,0:0|0:0,0:0:0:0:
354,156,310286,5,0,0:0:0:0:
52,224,310500,1,10,0:0:0:0:
236,50,310714,1,0,0:0:0:0:
429,268,310929,6,0,B|376:247|376:247|378:243|378:243|259:196,1,135.000000514984,2|0,0:0|0:0,0:0:0:0:
172,300,311357,1,10,0:0:0:0:
217,26,311571,2,0,B|230:82|230:82|228:87|228:87|254:201,1,135.000000514984,0|2,0:0|0:0,0:0:0:0:
379,114,312000,5,0,0:0:0:0:
309,297,312214,1,10,0:0:0:0:
51,67,312429,1,0,0:0:0:0:
220,227,312643,6,0,B|240:237|240:237|219:258|219:258|217:264|217:264|156:323,1,135.000000514984,2|0,0:0|0:0,0:0:0:0:
23,238,313071,1,10,0:0:0:0:
193,56,313286,2,0,B|226:57|248:69|248:69|253:67|253:67|289:81|311:118,1,135.000000514984,0|2,0:0|0:0,0:0:0:0:
273,282,313714,5,0,0:0:0:0:
272,293,313821,1,0,0:0:0:0:
270,303,313929,1,10,0:0:0:0:
434,223,314143,5,0,0:0:0:0:
331,20,314357,2,0,B|323:34|323:34|344:78|344:78|342:82|342:82|375:154,1,125,4|0,0:0|0:0,0:0:0:0:
232,243,314786,1,10,0:0:0:0:
468,335,315000,2,0,B|441:345|441:345|400:338|400:338|395:342|395:342|344:332,1,125,0|2,0:0|0:0,0:0:0:0:
254,91,315429,5,0,0:0:0:0:
420,240,315643,1,10,0:0:0:0:
179,335,315857,1,0,0:0:0:0:
60,124,316071,6,0,B|88:94|88:94|128:86|128:86|132:89|132:89|217:75,1,125,2|0,0:0|0:0,0:0:0:0:
90,253,316500,1,10,0:0:0:0:
337,131,316714,2,0,B|309:137|309:137|278:140|278:140|272:137|272:137|238:142|238:142|193:157,1,125,0|2,0:0|0:0,0:0:0:0:
288,28,317143,5,0,0:0:0:0:
351,225,317357,1,10,0:0:0:0:
124,338,317571,1,0,0:0:0:0:
344,363,317786,6,0,B|327:358|327:358|299:311|299:311|302:306|302:306|274:251,1,125,2|0,0:0|0:0,0:0:0:0:
293,58,318214,1,10,0:0:0:0:
468,222,318429,2,0,B|473:282|473:282|479:286|479:286|485:352,1,125,0|2,0:0|0:0,0:0:0:0:
447,30,318857,5,0,0:0:0:0:
329,233,319071,1,10,0:0:0:0:
115,102,319286,1,0,0:0:0:0:
239,35,319500,5,8,0:0:0:0:
257,110,319607,1,8,0:0:0:0:
209,167,319714,1,8,0:0:0:0:
150,213,319821,1,8,0:0:0:0:
137,282,319929,1,8,0:0:0:0:
183,334,320036,1,0,0:0:0:0:
247,330,320143,1,8,0:0:0:0:
282,275,320250,1,0,0:0:0:0:
261,218,320357,5,0,0:0:0:0:
205,196,320464,1,8,0:0:0:0:
172,157,320571,1,8,0:0:0:0:
175,106,320679,1,8,0:0:0:0:
213,83,320786,1,8,0:0:0:0:
256,92,320893,1,8,0:0:0:0:
270,123,321000,1,8,0:0:0:0:
261,151,321107,1,8,0:0:0:0:
243,166,321214,6,0,B|197:197|197:197|190:198|190:198|124:242,1,115.000002193451,8|0,0:0|0:0,0:0:0:0:
112,247,321514,1,2,0:0:0:0:
319,56,321664,1,2,0:0:0:0:
306,344,321814,6,0,B|288:358|262:346|257:302|287:264|322:255,1,115.000002193451,8|0,0:0|0:0,0:0:0:0:
403,206,322114,1,2,0:0:0:0:
60,133,322264,6,0,B|116:113|116:113|120:114|120:114|187:90,1,115.000002193451,8|0,0:0|0:0,0:0:0:0:
391,106,322564,1,2,0:0:0:0:
207,19,322714,6,0,B|246:32|261:54|261:54|258:56|258:56|276:83|268:119,1,115.000002193451,8|0,0:0|0:0,0:0:0:0:
64,268,323014,1,10,0:0:0:0:
350,35,323164,1,10,0:0:0:0:
402,315,323314,2,0,B|373:267|373:267|384:262|384:262|328:248|328:248|323:242|323:242|272:231|272:231|264:234|264:234,1,172.500003290176,8|0,0:0|0:0,0:0:0:0:
244,246,323614,5,8,0:3:0:0:
93,354,323764,2,0,B|114:335|114:335|145:300|126:244|126:244|131:241|131:241|110:191|149:136,1,230.000004386902,2|0,0:0|0:0,0:0:0:0:
261,27,324214,2,0,P|266:77|240:104,5,57.5000010967255,10|0|0|0|0|0,0:0|0:0|0:0|0:0|0:0|0:0,0:0:0:0:
374,202,324664,2,0,P|403:187|454:193,5,57.5000010967255,10|0|0|0|0|0,0:0|0:0|0:0|0:0|0:0|0:0,0:0:0:0:
479,33,325114,5,8,0:0:0:0:
419,67,325189,1,0,0:0:0:0:
359,101,325264,1,0,0:0:0:0:
299,136,325339,1,0,0:0:0:0:
239,171,325414,2,0,L|165:216,1,57.5000010967255,10|0,0:0|0:0,0:0:0:0:
245,344,325564,2,0,L|245:276,1,57.5000010967255,10|0,0:0|0:0,0:0:0:0:
85,282,325714,2,0,B|52:279|30:249|30:249|57:246|71:271|110:272,1,150.000005722046,10|0,0:0|0:0,0:0:0:0:
352,244,326014,5,8,0:0:0:0:
359,245,326089,1,8,0:0:0:0:
366,247,326164,1,8,0:0:0:0:
373,249,326239,1,8,0:0:0:0:
380,251,326314,1,8,0:0:0:0:
387,253,326389,1,8,0:0:0:0:
394,255,326464,1,8,0:0:0:0:
401,257,326539,1,8,0:0:0:0:
408,259,326614,5,8,0:0:0:0:
356,303,326689,1,8,0:0:0:0:
288,308,326764,1,8,0:0:0:0:
228,275,326839,1,8,0:0:0:0:
209,209,326914,1,8,0:0:0:0:
164,169,326989,1,8,0:0:0:0:
112,176,327064,1,8,0:0:0:0:
92,207,327139,1,8,0:0:0:0:
98,228,327214,2,0,B|132:220|132:220|136:222|136:222|167:214,1,57.5000010967255,8|0,0:0|0:0,0:0:0:0:
260,34,327364,5,8,0:0:0:0:
185,23,327439,1,8,0:0:0:0:
126,59,327514,1,8,0:0:0:0:
115,119,327589,1,8,0:0:0:0:
146,165,327664,1,8,0:0:0:0:
188,181,327739,1,0,0:0:0:0:
226,168,327814,5,8,0:0:0:0:
290,187,327889,1,8,0:0:0:0:
322,246,327964,1,8,0:0:0:0:
304,311,328039,1,8,0:0:0:0:
242,339,328114,5,8,0:0:0:0:
209,328,328189,1,8,0:0:0:0:
181,318,328264,1,8,0:0:0:0:
159,310,328339,1,8,0:0:0:0:
142,304,328414,1,12,0:0:0:0:
256,192,328564,12,0,331864,0:0:0:0:
118,49,332014,6,0,B|190:75|190:75|193:73|193:73|300:112,1,150.000005722046,4|0,0:0|0:0,0:0:0:0:
389,68,332314,2,0,B|352:78|352:78|347:74|347:74|313:85|313:85|297:118|297:118|298:124|298:124|280:159,1,150.000005722046,4|0,0:0|0:0,0:0:0:0:
218,290,332614,2,0,B|224:322|237:332|237:332|238:327|238:327|251:340|271:340|271:340|272:336|272:336|290:337|307:332|307:332|306:336|306:336|327:340|341:364,1,150.000005722046,4|0,0:0|0:0,0:0:0:0:
226,165,332914,2,0,B|184:133|150:158|150:158|148:152|148:152|130:188|86:210,1,150.000005722046,4|0,0:0|0:0,0:0:0:0:
131,280,333214,6,0,B|115:261|75:254|75:254|105:244|133:248|133:248|133:253|133:253|171:250|198:280|198:280|202:294|202:294|209:286|209:286|236:324|280:338|280:338|280:335|280:335|317:347|351:349|351:349|350:335|350:335|351:349|351:349|408:342|439:312|439:312|439:317|439:317|463:290|481:234|481:234|442:277|401:281,1,700
165,342,334414,5,4,0:0:0:0:
352,53,334564,2,0,B|336:107|336:107|336:112|336:112|313:184,1,115.000002193451,10|0,0:0|0:0,0:0:0:0:
342,316,334864,1,10,0:0:0:0:
53,128,335014,6,0,B|86:82|86:82|91:83|91:83|114:49|114:49|126:34|126:34|141:42|141:42|174:54|174:54|177:51|177:51|258:86,1,230.000004386902,2|0,0:0|0:0,0:0:0:0:
250,236,335464,1,10,0:0:0:0:
465,53,335614,5,0,0:0:0:0:
421,67,335689,1,0,0:0:0:0:
369,65,335764,1,10,0:0:0:0:
325,79,335839,1,0,0:0:0:0:
279,82,335914,1,0,0:0:0:0:
419,212,336064,5,10,0:0:0:0:
126,325,336214,2,0,B|139:333|139:333|163:279|128:228|128:228|121:231|121:231|127:226|127:226|92:190|103:120,1,230.000004386902
183,26,336664,5,10,0:0:0:0:
50,247,336814,1,0,0:0:0:0:
46,25,336964,5,10,0:0:0:0:
315,133,337114,1,0,0:0:0:0:
30,147,337264,5,10,0:0:0:0:
262,332,337414,1,0,0:0:0:0:
204,89,337564,1,10,0:0:0:0:
196,55,337639,1,0,0:0:0:0:
190,16,337714,1,0,0:0:0:0:
382,137,337864,5,10,0:0:0:0:
343,315,338014,1,0,0:0:0:0:
258,17,338164,5,10,0:0:0:0:
468,182,338314,1,0,0:0:0:0:
174,196,338464,1,10,0:0:0:0:
458,54,338614,6,0,B|405:63|405:63|402:66|402:66|352:77|352:77|350:80|350:80|291:90|291:90|291:93|291:93|228:106|228:106|229:109|229:109|173:118|173:118|177:121|177:121|103:134,1,345.000006580353,2|0,0:0|0:0,0:0:0:0:
105,270,339214,1,0,0:0:0:0:
93,291,339289,1,0,0:0:0:0:
130,306,339364,1,10,0:0:0:0:
185,289,339439,1,0,0:0:0:0:
214,233,339514,1,0,0:0:0:0:
194,166,339589,1,0,0:0:0:0:
154,141,339664,1,10,0:0:0:0:
119,144,339739,1,0,0:0:0:0:
92,166,339814,5,0,0:0:0:0:
117,204,339889,1,0,0:0:0:0:
167,213,339964,1,10,0:0:0:0:
216,184,340039,1,0,0:0:0:0:
277,169,340114,1,0,0:0:0:0:
330,188,340189,1,0,0:0:0:0:
359,230,340264,1,10,0:0:0:0:
357,275,340339,1,0,0:0:0:0:
337,303,340414,5,0,0:0:0:0:
315,283,340489,1,0,0:0:0:0:
301,257,340564,1,10,0:0:0:0:
301,228,340639,1,0,0:0:0:0:
313,202,340714,1,0,0:0:0:0:
333,182,340789,1,0,0:0:0:0:
360,173,340864,5,10,0:0:0:0:
401,152,340939,1,0,0:0:0:0:
418,109,341014,1,0,0:0:0:0:
405,64,341089,1,0,0:0:0:0:
365,40,341164,1,10,0:0:0:0:
319,46,341239,1,0,0:0:0:0:
290,82,341314,2,0,B|280:137|280:137|283:141|283:141|266:223,1,115.000002193451,0|10,0:0|0:0,0:0:0:0:
412,312,341614,5,2,0:0:0:0:
382,277,341689,1,0,0:0:0:0:
332,262,341764,1,8,0:0:0:0:
276,277,341839,1,0,0:0:0:0:
219,266,341914,1,0,0:0:0:0:
177,225,341989,1,0,0:0:0:0:
177,161,342064,2,0,B|202:139|202:139|226:134,1,57.5000010967255,10|0,0:0|0:0,0:0:0:0:
415,36,342214,5,8,0:0:0:0:
460,80,342289,1,8,0:0:0:0:
454,142,342364,1,8,0:0:0:0:
402,178,342439,1,8,0:0:0:0:
339,168,342514,1,8,0:0:0:0:
276,158,342589,1,8,0:0:0:0:
213,148,342664,1,8,0:0:0:0:
150,139,342739,1,8,0:0:0:0:
87,129,342814,2,0,B|59:125|59:125|82:160|82:160|88:161|88:161|113:197,1,115.000002193451
216,331,343114,5,8,0:0:0:0:
110,38,343264,1,8,0:0:0:0:
336,174,343414,5,8,0:0:0:0:
121,246,343564,1,8,0:0:0:0:
363,29,343714,5,8,0:0:0:0:
412,312,343864,1,8,0:0:0:0:
171,57,344014,6,0,B|184:28|232:7|274:24|274:24|270:27|270:27|301:49|317:97|292:126|292:126|295:132|295:132|271:169|286:235|369:231,1,345.000006580353,4|0,0:0|0:0,0:0:0:0:
450,315,344614,5,0,0:0:0:0:
428,254,344689,1,0,0:0:0:0:
373,220,344764,1,10,0:0:0:0:
310,220,344839,1,0,0:0:0:0:
266,265,344914,1,0,0:0:0:0:
202,266,344989,1,0,0:0:0:0:
147,234,345064,1,10,0:0:0:0:
134,172,345139,1,0,0:0:0:0:
162,115,345214,5,0,0:0:0:0:
213,107,345289,1,0,0:0:0:0:
256,123,345364,1,10,0:0:0:0:
276,157,345439,1,0,0:0:0:0:
272,185,345514,5,0,0:0:0:0:
208,190,345589,1,0,0:0:0:0:
164,144,345664,1,10,0:0:0:0:
165,80,345739,1,0,0:0:0:0:
214,41,345814,1,0,0:0:0:0:
277,44,345889,1,0,0:0:0:0:
320,90,345964,2,0,P|317:129|298:149,1,57.5000010967255,10|0,0:0|0:0,0:0:0:0:
41,139,346114,6,0,B|74:124|93:128|93:128|89:132|89:132|112:132|127:147|127:147|141:160|162:164|162:164|160:160|160:160|184:163|199:157,1,172.500003290176
367,100,346414,6,0,L|394:43,1,57.5000010967255
293,247,346564,2,0,L|258:311,1,57.5000010967255,10|0,0:0|0:0,0:0:0:0:
155,84,346714,5,0,0:0:0:0:
418,249,346864,1,10,0:0:0:0:
127,344,347014,5,0,0:0:0:0:
231,142,347164,1,10,0:0:0:0:
305,351,347314,5,0,0:0:0:0:
14,207,347464,1,10,0:0:0:0:
200,50,347614,6,0,P|219:84|206:125,1,57.5000010967255
211,310,347764,2,0,P|200:283|207:246,1,57.5000010967255,10|0,0:0|0:0,0:0:0:0:
152,88,347914,5,0,0:0:0:0:
55,331,348064,1,8,0:0:0:0:
388,35,348214,6,0,B|414:52|426:76|393:110|358:118|358:118|356:113|356:113|326:129|285:124,1,172.500003290176,2|0,0:0|0:0,0:0:0:0:
196,57,348514,2,0,B|226:135|226:135|230:138|230:138|266:227,1,172.500003290176
229,340,348814,5,0,0:0:0:0:
199,304,348889,1,0,0:0:0:0:
199,258,348964,1,10,0:0:0:0:
226,220,349039,1,0,0:0:0:0:
271,211,349114,1,0,0:0:0:0:
338,227,349189,1,0,0:0:0:0:
397,191,349264,1,10,0:0:0:0:
408,122,349339,1,0,0:0:0:0:
359,73,349414,5,0,0:0:0:0:
301,78,349489,1,0,0:0:0:0:
263,113,349564,1,10,0:0:0:0:
218,125,349639,1,0,0:0:0:0:
178,117,349714,1,0,0:0:0:0:
151,95,349789,1,0,0:0:0:0:
142,61,349864,1,10,0:0:0:0:
157,30,349939,1,0,0:0:0:0:
190,21,350014,5,0,0:0:0:0:
258,27,350089,1,0,0:0:0:0:
315,33,350164,1,10,0:0:0:0:
360,37,350239,1,0,0:0:0:0:
394,40,350314,2,0,P|388:89|355:108,1,57.5000010967255
361,266,350464,5,10,0:0:0:0:
328,278,350539,1,0,0:0:0:0:
282,269,350614,1,0,0:0:0:0:
259,222,350689,1,0,0:0:0:0:
277,173,350764,1,10,0:0:0:0:
336,151,350839,1,0,0:0:0:0:
392,178,350914,1,0,0:0:0:0:
410,244,350989,1,0,0:0:0:0:
375,303,351064,2,0,P|334:324|300:319,1,57.5000010967255,10|0,0:0|0:0,0:0:0:0:
168,210,351214,5,8,0:0:0:0:
207,217,351289,1,0,0:0:0:0:
240,223,351364,1,0,0:0:0:0:
268,227,351439,1,0,0:0:0:0:
290,231,351514,1,0,0:0:0:0:
306,234,351589,1,0,0:0:0:0:
322,239,351664,5,8,0:0:0:0:
274,289,351739,1,0,0:0:0:0:
212,301,351814,1,0,0:0:0:0:
158,280,351889,1,0,0:0:0:0:
123,241,351964,1,0,0:0:0:0:
78,230,352039,1,8,0:0:0:0:
43,251,352114,5,0,0:0:0:0:
38,285,352189,1,0,0:0:0:0:
56,306,352264,1,0,0:0:0:0:
78,309,352339,1,0,0:0:0:0:
93,300,352414,1,8,0:0:0:0:
122,237,352489,1,0,0:0:0:0:
103,170,352564,1,0,0:0:0:0:
126,105,352639,1,0,0:0:0:0:
191,81,352714,1,0,0:0:0:0:
256,101,352789,1,0,0:0:0:0:
280,165,352864,5,8,0:0:0:0:
226,217,352939,1,0,0:0:0:0:
151,220,353014,1,0,0:0:0:0:
91,174,353089,1,0,0:0:0:0:
82,99,353164,1,0,0:0:0:0:
127,39,353239,1,0,0:0:0:0:
200,28,353314,5,8,0:0:0:0:
271,48,353389,1,0,0:0:0:0:
341,73,353464,1,8,0:0:0:0:
411,98,353539,1,8,0:0:0:0:
480,124,353614,5,4,0:0:0:0:
151,220,353764,2,0,B|161:198|161:198|206:191|206:191|209:188|209:188|286:176,1,125,10|0,0:0|0:0,0:0:0:0:
439,226,354064,5,10,0:0:0:0:
171,357,354214,1,0,0:0:0:0:
300,46,354364,5,10,0:0:0:0:
279,327,354514,1,0,0:0:0:0:
67,75,354664,5,10,0:0:0:0:
222,297,354814,1,0,0:0:0:0:
446,61,354964,5,10,0:0:0:0:
390,67,355039,1,0,0:0:0:0:
334,73,355114,1,0,0:0:0:0:
278,80,355189,1,0,0:0:0:0:
222,86,355264,1,10,0:0:0:0:
402,229,355414,5,0,0:0:0:0:
237,13,355564,1,10,0:0:0:0:
210,330,355714,1,0,0:0:0:0:
459,114,355864,1,10,0:0:0:0:
169,252,356014,5,0,0:0:0:0:
203,266,356089,1,0,0:0:0:0:
240,266,356164,1,10,0:0:0:0:
271,246,356239,1,0,0:0:0:0:
286,211,356314,5,0,0:0:0:0:
260,167,356389,1,0,0:0:0:0:
211,156,356464,1,10,0:0:0:0:
164,173,356539,1,0,0:0:0:0:
142,218,356614,5,0,0:0:0:0:
91,254,356689,1,0,0:0:0:0:
29,243,356764,1,10,0:0:0:0:
5,185,356839,1,0,0:0:0:0:
39,132,356914,1,0,0:0:0:0:
107,130,356989,1,0,0:0:0:0:
171,154,357064,1,10,0:0:0:0:
237,138,357139,1,0,0:0:0:0:
276,81,357214,6,0,P|246:79|199:108,1,62.5
255,279,357364,2,0,P|284:275|314:245,1,62.5
354,17,357514,2,0,P|325:25|291:69,1,62.5
425,284,357664,5,0,0:0:0:0:
428,289,357739,1,0,0:0:0:0:
430,294,357814,2,0,L|348:252,1,62.5
175,323,357964,2,0,L|241:359,1,62.5
442,121,358114,2,0,L|378:80,1,62.5
121,109,358264,5,0,0:0:0:0:
103,114,358339,1,0,0:0:0:0:
85,120,358414,2,0,L|149:157,1,62.5,6|0,0:0|0:0,0:0:0:0:
260,304,358564,5,10,0:0:0:0:
266,314,358639,1,0,0:0:0:0:
270,325,358714,2,0,B|238:315|238:315|230:314|230:314|195:304,1,62.5
45,145,358864,2,0,B|81:154|81:154|84:153|84:153|117:162,1,62.5,10|0,0:0|0:0,0:0:0:0:
307,144,359014,2,0,B|295:130|295:130|289:69,1,62.5
434,42,359164,5,10,0:0:0:0:
444,35,359239,1,0,0:0:0:0:
454,28,359314,2,0,P|457:52|415:99,1,62.5
227,220,359464,2,0,B|226:199|226:199|272:166,1,62.5,10|0,0:0|0:0,0:0:0:0:
422,246,359614,5,0,0:0:0:0:
427,257,359689,1,0,0:0:0:0:
427,269,359764,2,0,P|416:290|371:303,1,62.5,10|0,0:0|0:0,0:0:0:0:
223,113,359914,5,0,0:0:0:0:
234,108,359989,1,0,0:0:0:0:
246,107,360064,2,8,P|268:126|274:163,1,62.5,10|0,0:0|0:0,0:0:0:0:
113,286,360214,5,0,0:0:0:0:
101,290,360289,1,0,0:0:0:0:
89,295,360364,2,0,B|80:298|80:298|109:234,1,62.5,10|0,0:0|0:0,0:0:0:0:
365,152,360514,5,0,0:0:0:0:
377,148,360589,1,0,0:0:0:0:
389,143,360664,2,0,B|398:140|398:140|369:204,1,62.5,10|0,0:0|0:0,0:0:0:0:
116,74,360814,5,0,0:0:0:0:
183,62,360889,1,0,0:0:0:0:
244,51,360964,1,10,0:0:0:0:
299,43,361039,1,0,0:0:0:0:
348,36,361114,6,0,P|330:67|286:84,1,62.5
162,211,361264,2,0,P|192:188|240:197,1,62.5,10|0,0:0|0:0,0:0:0:0:
379,324,361414,5,0,0:0:0:0:
350,337,361489,1,0,0:0:0:0:
319,331,361564,2,0,P|305:303|322:261,1,62.5,10|0,0:0|0:0,0:0:0:0:
464,119,361714,2,0,P|441:164|392:180,1,62.5
100,106,361864,5,10,0:0:0:0:
81,81,361939,1,0,0:0:0:0:
86,52,362014,2,0,B|116:53|160:79|168:131|168:131|159:137|159:137|130:213|173:280|126:333|126:333|183:288|236:352|302:328|302:328|431:271|431:271|400:231|337:231|337:231|258:231|242:165,1,875,2|0,0:0|0:0,0:0:0:0:
255,159,363214,5,0,0:0:0:0:
297,150,363289,1,0,0:0:0:0:
340,158,363364,2,0,P|318:191|272:204,1,62.5,10|0,0:0|0:0,0:0:0:0:
91,136,363514,5,0,0:0:0:0:
68,98,363589,1,0,0:0:0:0:
69,54,363664,2,0,P|99:77|108:117,1,62.5,10|0,0:0|0:0,0:0:0:0:
155,292,363814,5,0,0:0:0:0:
148,335,363889,1,0,0:0:0:0:
118,368,363964,2,0,P|109:331|128:294,1,62.5,10|0,0:0|0:0,0:0:0:0:
255,159,364114,5,0,0:0:0:0:
297,150,364189,1,0,0:0:0:0:
340,158,364264,2,0,P|318:191|272:204,1,62.5,10|0,0:0|0:0,0:0:0:0:
182,56,364414,5,0,0:0:0:0:
223,42,364489,1,0,0:0:0:0:
264,29,364564,1,10,0:0:0:0:
356,275,364714,5,0,0:0:0:0:
312,277,364789,1,0,0:0:0:0:
278,248,364864,1,10,0:0:0:0:
418,67,365014,5,0,0:0:0:0:
430,95,365089,1,0,0:0:0:0:
430,126,365164,1,10,0:0:0:0:
107,236,365314,5,0,0:0:0:0:
121,193,365389,1,0,0:0:0:0:
155,165,365464,1,10,0:0:0:0:
235,355,365614,6,0,B|229:325|229:325|226:323|226:323|218:283,1,62.5
174,246,365764,2,0,B|223:214|269:227|269:227|315:264|385:226,1,187.5,10|0,0:0|0:0,0:0:0:0:
354,129,366064,6,0,P|333:151|323:189,1,62.5,10|0,0:0|0:0,0:0:0:0:
431,340,366214,2,0,L|422:267,1,62.5
249,51,366364,2,0,P|252:85|296:119,1,62.5,10|0,0:0|0:0,0:0:0:0:
464,229,366514,2,0,P|412:219|385:229,1,62.5
183,324,366664,2,0,P|211:311|240:260,1,62.5,10|0,0:0|0:0,0:0:0:0:
80,64,366814,6,0,B|91:100|91:100|90:106|90:106|102:141|104:149,1,62.5
297,189,366964,2,0,B|226:193|226:193|203:188|203:188|180:197|180:197|98:201,1,187.5,10|0,0:0|0:0,0:0:0:0:
52,332,367264,6,0,B|69:305|69:305|74:303|74:303|88:278,1,62.5,10|0,0:0|0:0,0:0:0:0:
231,40,367414,2,0,B|214:69|214:69|210:70|210:70|195:94,1,62.5
63,314,367564,2,0,B|80:287|80:287|85:285|85:285|99:260,1,62.5,10|0,0:0|0:0,0:0:0:0:
217,58,367714,2,0,B|218:96|246:115|246:115|296:120|296:120|297:123|297:123|368:129|368:129,1,187.5
432,92,368014,6,0,B|448:143|448:143|452:146|452:146|461:183|461:183|437:220|437:220|432:222|432:222|405:263,1,187.5,2|0,0:0|0:0,0:0:0:0:
293,313,368314,2,0,B|313:292|313:292|313:286|313:286|350:240,1,62.5,2|0,0:0|0:0,0:0:0:0:
419,314,368464,2,0,B|425:320|439:326|439:326|354:334|303:296|303:296|298:302|298:302|228:315|228:315|191:291|138:302,1,312.5,2|0,0:0|0:0,0:0:0:0:
50,346,368914,6,0,P|80:310|81:269,1,62.5,2|0,0:0|0:0,0:0:0:0:
53,125,369064,2,0,B|65:139|65:139|134:146,1,62.5,2|0,0:0|0:0,0:0:0:0:
292,36,369214,2,0,B|284:73|284:73|272:87|272:87|263:146|263:146|260:149|260:149|246:229,1,187.5,2|0,0:0|0:0,0:0:0:0:
304,294,369514,2,0,B|332:276|339:232|315:188|254:192|225:216|204:249,1,187.5,2|0,0:0|0:0,0:0:0:0:
180,358,369814,6,0,B|212:345|212:345|233:313,1,62.5,2|0,0:0|0:0,0:0:0:0:
144,132,369964,2,0,P|151:198|169:217,1,62.5,2|0,0:0|0:0,0:0:0:0:
415,162,370114,6,0,B|314:153|314:153|311:155|311:155|213:145,1,187.5,2|0,0:0|0:0,0:0:0:0:
122,275,370414,2,0,P|147:272|176:233,1,62.5
292,69,370564,5,0,0:0:0:0:
239,102,370639,1,0,0:0:0:0:
221,148,370714,1,0,0:0:0:0:
226,185,370789,1,0,0:0:0:0:
242,211,370864,2,0,P|266:204|262:165,1,62.5
187,330,371014,5,0,0:0:0:0:
255,321,371089,1,0,0:0:0:0:
304,315,371164,1,0,0:0:0:0:
341,310,371239,1,0,0:0:0:0:
372,306,371314,2,0,B|365:272|365:272|345:247,1,62.5
100,201,371464,2,0,B|133:227|133:227|178:227,1,62.5
488,194,371614,5,8,0:0:0:0:
446,198,371689,1,0,0:0:0:0:
403,205,371764,1,0,0:0:0:0:
359,210,371839,1,0,0:0:0:0:
343,263,371914,5,8,0:0:0:0:
313,273,371989,1,0,0:0:0:0:
283,281,372064,1,0,0:0:0:0:
254,290,372139,1,0,0:0:0:0:
210,252,372214,5,8,0:0:0:0:
191,254,372289,1,0,0:0:0:0:
172,255,372364,1,0,0:0:0:0:
153,257,372439,1,0,0:0:0:0:
118,309,372514,5,8,0:0:0:0:
159,352,372589,1,0,0:0:0:0:
197,366,372664,1,0,0:0:0:0:
231,363,372739,1,0,0:0:0:0:
278,365,372814,6,0,B|278:333|250:318|250:318|145:325|145:325|130:311|130:311|-3:373,1,312.5,2|0,0:0|0:0,0:0:0:0:
11,298,373264,2,0,P|24:262|69:241,1,62.5,2|0,0:0|0:0,0:0:0:0:
40,139,373414,2,0,P|87:154|108:189,1,62.5,2|0,0:0|0:0,0:0:0:0:
164,364,373564,6,0,P|160:341|166:298,1,62.5,2|0,0:0|0:0,0:0:0:0:
427,165,373714,2,0,P|385:199|361:199,1,62.5,2|0,0:0|0:0,0:0:0:0:
280,252,373864,2,0,P|253:229|242:183,1,62.5,2|0,0:0|0:0,0:0:0:0:
64,56,374014,2,0,B|103:100|131:104|131:104|133:109|133:109|172:114|217:92|217:92|213:89|213:89|253:71|297:72|297:72|299:69|299:69|356:82|391:124,1,375,2|0,0:0|0:0,0:0:0:0:
373,315,374614,6,0,B|321:287|321:287|318:282|318:282|292:268|292:268|279:229|279:229|281:227|281:227|254:163,1,187.5,2|0,0:0|0:0,0:0:0:0:
451,80,374914,2,0,B|445:103|450:122|450:122|399:175|399:175|393:178|393:178|338:232,1,187.5,2|0,0:0|0:0,0:0:0:0:
282,346,375214,6,0,B|191:306|237:216|237:216|233:211|233:211|258:154|222:88|171:86,1,312.5,2|0,0:0|0:0,0:0:0:0:
94,76,375664,2,0,B|122:161|122:161|129:172|129:172|172:312|172:312|146:277|100:267,1,312.5,2|0,0:0|0:0,0:0:0:0:
16,285,376114,2,0,B|108:263|108:263|190:182,1,187.5,2|0,0:0|0:0,0:0:0:0:
216,94,376414,2,0,B|219:80|210:65|210:65|164:86|173:153|173:153|272:177|239:276|239:276|255:314|228:352|228:352|305:372|327:310|327:310|360:270|438:299|438:299|395:271|389:211,1,687.5,2|0,0:0|0:0,0:0:0:0:
372,73,377314,6,0,P|323:73|369:123,1,150,2|0,0:0|0:0,0:0:0:0:
414,133,377614,2,0,B|430:138|456:124|456:124|432:168|370:200|323:201|275:179,1,250,2|0,0:0|0:0,0:0:0:0:
314,325,378064,2,0,B|320:340|314:359|314:359|273:312|210:308|210:308|207:312|207:312|156:288|89:313,1,250,2|0,0:0|0:0,0:0:0:0:
68,104,378514,2,0,B|81:78|101:70|142:80|159:107|167:158|148:192,1,150,2|0,0:0|0:0,0:0:0:0:
69,343,378814,6,0,B|137:354|185:309|185:309|188:312|188:312|186:308|186:308|248:263|336:286,1,250,2|0,0:0|0:0,0:0:0:0:
367,195,379264,2,0,P|371:258|415:174,1,250,2|0,0:0|0:0,0:0:0:0:
256,38,379714,2,0,B|273:113|273:113|277:115|277:115|294:195,1,150,2|0,0:0|0:0,0:0:0:0:
177,339,380014,6,0,L|251:313,1,62.5
402,304,380164,2,0,L|313:332,1,62.5,8|0,0:0|0:0,0:0:0:0:
76,234,380314,6,0,P|115:245|155:240,1,62.5
321,184,380464,2,0,L|244:197,1,62.5,8|0,0:0|0:0,0:0:0:0:
1,141,380614,6,0,P|49:149|82:165,1,62.5
280,78,380764,2,0,P|230:97|199:124,1,62.5,8|0,0:0|0:0,0:0:0:0:
137,347,380914,6,0,P|156:308|157:252,1,62.5
78,49,381064,2,0,B|83:71|83:71|130:125,1,62.5,8|0,0:0|0:0,0:0:0:0:
340,137,381214,6,0,B|297:149|297:149|260:203|304:264|347:270,1,187.5,12|0,0:0|0:0,0:0:0:0:
424,313,381514,2,0,B|441:224|441:224|423:123,1,172.500003290176,12|0,0:0|0:0,0:0:0:0:
264,86,381814,2,0,B|258:106|245:115|245:115|264:130|298:135|334:113|347:81|342:32|299:0,1,187.5,12|0,0:0|0:0,0:0:0:0:
122,38,382114,2,0,B|136:94|136:94|154:121|154:121|152:158|152:158|178:257,1,194.999991073609,12|0,0:0|0:0,0:0:0:0:
371,259,382414,5,0,0:0:0:0:
312,217,382489,1,0,0:0:0:0:
246,217,382564,1,10,0:0:0:0:
198,250,382639,1,0,0:0:0:0:
186,300,382714,1,0,0:0:0:0:
211,338,382789,1,0,0:0:0:0:
248,348,382864,1,10,0:0:0:0:
276,331,382939,1,0,0:0:0:0:
285,307,383014,5,0,0:0:0:0:
269,286,383089,1,0,0:0:0:0:
224,277,383164,1,10,0:0:0:0:
179,303,383239,1,0,0:0:0:0:
114,298,383314,1,0,0:0:0:0:
59,251,383389,1,0,0:0:0:0:
57,173,383464,1,10,0:0:0:0:
104,110,383539,1,0,0:0:0:0:
181,103,383614,5,0,0:0:0:0:
237,146,383689,1,0,0:0:0:0:
231,210,383764,1,10,0:0:0:0:
177,233,383839,1,0,0:0:0:0:
135,201,383914,1,0,0:0:0:0:
139,162,383989,1,0,0:0:0:0:
172,141,384064,2,0,B|191:138|201:149|201:149|207:147|207:147|222:157|234:182,1,64.9999970245363,10|0,0:0|0:0,0:0:0:0:
418,251,384214,5,0,0:0:0:0:
376,309,384289,1,0,0:0:0:0:
305,321,384364,1,10,0:0:0:0:
246,280,384439,1,0,0:0:0:0:
231,210,384514,1,0,0:0:0:0:
272,151,384589,1,0,0:0:0:0:
339,126,384664,1,10,0:0:0:0:
357,56,384739,1,0,0:0:0:0:
311,1,384814,5,0,0:0:0:0:
131,244,384964,1,10,0:0:0:0:
405,146,385114,1,0,0:0:0:0:
52,60,385264,5,10,0:0:0:0:
359,255,385414,1,0,0:0:0:0:
369,262,385489,1,0,0:0:0:0:
379,269,385564,1,10,0:0:0:0:
255,83,385714,5,0,0:0:0:0:
304,352,385864,1,10,0:0:0:0:
38,238,386014,2,2,B|121:197|121:197|120:203|120:203|246:139,2,187.5
79,271,386614,2,0,B|48:304|81:342|159:323|174:269|174:269|174:277|174:277|258:302|299:224|299:224|305:224|305:224|325:162|403:142,1,437.5,2|0,0:0|0:0,0:0:0:0:
360,41,387214,5,4,0:0:0:0:
285,35,387289,1,0,0:0:0:0:
228,74,387364,1,10,0:0:0:0:
205,133,387439,1,0,0:0:0:0:
158,165,387514,1,0,0:0:0:0:
114,166,387589,1,0,0:0:0:0:
83,144,387664,1,10,0:0:0:0:
76,114,387739,1,0,0:0:0:0:
85,95,387814,5,0,0:0:0:0:
122,98,387889,1,0,0:0:0:0:
158,122,387964,1,10,0:0:0:0:
185,164,388039,1,0,0:0:0:0:
227,201,388114,1,0,0:0:0:0:
287,214,388189,1,0,0:0:0:0:
351,189,388264,1,10,0:0:0:0:
379,119,388339,1,0,0:0:0:0:
345,48,388414,5,8,0:0:0:0:
279,69,388489,1,0,0:0:0:0:
213,88,388564,1,0,0:0:0:0:
147,108,388639,1,0,0:0:0:0:
82,130,388714,1,8,0:0:0:0:
70,172,388789,1,8,0:0:0:0:
83,213,388864,1,8,0:0:0:0:
121,233,388939,1,0,0:0:0:0:
164,232,389014,5,8,0:0:0:0:
197,249,389089,1,0,0:0:0:0:
213,282,389164,1,8,0:0:0:0:
203,318,389239,1,0,0:0:0:0:
174,341,389314,1,8,0:0:0:0:
153,317,389389,1,8,0:0:0:0:
151,285,389464,1,8,0:0:0:0:
167,258,389539,1,0,0:0:0:0:
196,246,389614,1,4,0:0:0:0:
241,227,390814,5,4,0:0:0:0:
441,293,392014,6,0,B|416:292|400:278|400:278|256:298|256:298|253:295|253:295|100:314|100:314|136:284|150:242|150:242|168:191|212:178,1,522.499986047745,12|0,0:0|0:0,0:0:0:0:
328,223,392914,2,0,B|300:239|300:239|251:246,1,50,2|0,0:0|0:0,0:0:0:0:
176,81,393064,2,0,B|203:96|203:96|229:129,1,50,2|0,0:0|0:0,0:0:0:0:
30,231,393214,6,0,B|40:220|46:203|46:203|106:177|141:191|141:191|144:188|144:188|195:212|266:191,1,237.499993658066,2|0,0:0|0:0,0:0:0:0:
325,70,393664,2,0,B|292:102|292:102|307:165|307:165|312:167|312:167|331:246|331:246|328:250|328:250|350:337,1,262.499991989136,2|0,0:0|0:0,0:0:0:0:
395,206,394114,2,0,P|447:214|423:140,1,157.499995193482,2|0,0:0|0:0,0:0:0:0:
463,66,394414,2,0,B|404:33|345:37|345:37|344:41|344:41|297:52|240:107|240:107|177:166|125:155|125:155|124:160|124:160|66:155|27:116|27:116|60:119|79:110,1,522.499986047745,2|0,0:0|0:0,0:0:0:0:
138,41,395314,6,0,P|162:54|184:107,1,50,2|0,0:0|0:0,0:0:0:0:
247,251,395464,2,0,P|235:211|249:184,1,50,2|0,0:0|0:0,0:0:0:0:
321,285,395614,2,0,B|318:303|306:317|306:317|293:332|274:339|274:339|277:338|274:339|274:339|265:342|256:343|256:343|258:343|256:343|256:343|247:344|239:343|239:343|241:343|239:343|239:343|231:342|224:340|224:340|226:341|224:340|224:340|221:339|224:340|224:340|209:336|197:326|197:326|199:328|197:326|197:326|195:324|197:326|197:326|190:320|184:313|184:313|185:315|184:313|184:313|181:309|179:306|179:306|180:308|179:306|179:306|176:301|176:301|177:304|176:301|176:301|174:298|173:295|173:295|171:289|169:284|169:284|170:288|169:284|169:284|168:282|169:284|169:284|168:281|167:275|167:275|167:273|167:275|167:275|166:271|166:267|166:267|166:263|166:267|166:267|166:259|166:255|166:255|166:257|166:255|166:255|166:253|166:255|166:255|167:247|167:247|168:244|167:247|167:247|168:242|168:242|169:238|169:238|168:241|169:238|169:238|170:236|169:238|169:238|171:230|173:226|173:226|175:221|173:226|173:226|176:219|179:214|179:214|178:216|179:214|179:214|182:209|179:214|179:214|184:206|190:198|190:198|187:202|190:198|190:198|193:195|190:198|190:198|197:190|197:190|196:191|197:190|197:190|198:189|197:190|197:190|199:188|199:188|201:186|199:188|199:188|202:185|202:185|203:184|202:185|202:185|204:183|204:183|208:180|204:183|204:183|214:174|214:174|211:177|214:174|214:174|216:172|214:174|214:174|220:169|220:169|218:170|220:169|220:169|222:167|220:169|220:169|225:165|225:165|228:163|225:165|225:165|229:162|229:162|235:157|229:162|229:162|232:160|229:162|229:162|244:151|244:151|250:146|250:146|245:150|250:146|250:146|246:149|250:146|250:146|252:145|250:146|250:146|254:143|254:143|259:139|254:143|254:143|256:142|254:143|254:143|266:133|266:133|262:136|266:133|266:133|267:132|266:133|266:133|267:132|267:132|266:133|267:132|267:132|271:129|267:132|267:132|275:124|275:124|272:127|275:124|275:124|279:120|275:124|275:124|278:121|275:124|275:124|281:117|286:110|286:110|283:115|286:110|286:110|285:113|286:110|286:110|287:107|286:110|286:110|288:106|288:106|290:101|288:106|288:106|290:101|288:106|288:106|292:98|294:90|294:90|293:95|294:90|294:90|293:94|294:90|294:90|294:89|294:89|294:91|294:89|294:89|295:85|294:89|294:89|295:81|295:81|295:85|295:81|295:81|295:79|295:81|295:81|295:80|295:80|295:78|295:78|295:80|295:78|295:78|295:77|295:77|295:80|295:77|295:77|295:73|295:77|295:77|295:74|295:77|295:77|295:70|293:64|293:64|294:68|293:64|293:64|294:68|293:64|293:64|292:60|293:64|293:64|292:60|291:57|291:57|293:61|291:57|291:57|289:53|291:57|291:57|289:53|288:51|288:51|290:54|288:51|288:51|286:48|288:51|288:51|286:48|288:51|288:51|286:47|284:45|284:45|286:48|284:45|284:45|282:42|284:45|284:45|282:42|284:45|284:45|282:43|284:45|284:45|280:40|276:37|276:37|279:39|276:37|276:37|279:39|276:37|276:37|273:35|276:37|276:37|273:35|273:35|273:33|273:35|273:35|273:38|273:35|273:35|273:38|273:35|273:35|273:37|273:35|273:35|274:43|274:43|274:40|274:43|274:43|274:40|274:43|274:43|274:46|274:43|274:43|274:46|274:43|274:43|274:46|274:43|274:43|274:50|273:54|273:54|273:51|273:54|273:54|273:57|273:54|273:54|273:57|273:54|273:54|273:57|273:54|273:54|273:57|273:54|273:54|272:61|272:61|273:58|272:61|272:61|271:64|272:61|272:61|272:62|272:62|271:65|272:62|272:62|271:65|272:62|272:62|271:65|270:68|270:68|271:65|270:68|270:68|271:65|270:68|270:68|271:65|270:68|270:68|269:71|270:68|270:68|269:70|270:68|270:68|269:72|267:75|267:75|268:73|267:75|267:75|268:73|267:75|267:75|268:73|267:75|267:75|266:77|267:75|267:75|266:77|267:75|267:75|266:77|267:75|267:75|266:78|264:81|264:81|265:79|264:81|264:81|265:79|264:81|264:81|263:83|264:81|264:81|263:83|264:81|264:81|263:83|264:81|264:81|263:83|264:81|264:81|262:84|260:86|260:86|262:84|260:86|260:86|262:84|260:86|260:86|259:88|260:86|260:86|259:88|260:86|260:86|259:88|260:86|260:86|256:91|256:91|258:89|256:91|256:91|258:89|256:91|256:91|254:93|256:91|256:91|255:92|255:92|254:93|255:92|255:92|255:92|255:92|257:90|255:92,1,971.84773761718,2|0,0:0|0:0,0:0:0:0:
310,194,396514,6,0,L|388:163,1,52.4999983978272,2|0,0:0|0:0,0:0:0:0:
501,118,396664,2,0,L|410:152,1,52.4999983978272,10|0,0:0|0:0,0:0:0:0:
408,343,396814,6,0,B|418:278|418:278|421:277|421:277|429:215,1,115.000002193451,0|10,0:0|0:0,0:0:0:0:
433,192,397114,1,0,0:0:0:0:
158,195,397264,6,0,B|209:163|209:163|208:159|208:159|288:104,1,115.000002193451,10|0,0:0|0:0,0:0:0:0:
290,106,397564,1,10,0:0:0:0:
258,349,397714,5,0,0:0:0:0:
236,330,397789,1,0,0:0:0:0:
225,291,397864,1,10,0:0:0:0:
246,256,397939,1,0,0:0:0:0:
291,247,398014,5,0,0:0:0:0:
340,275,398089,1,0,0:0:0:0:
397,275,398164,1,10,0:0:0:0:
446,248,398239,1,0,0:0:0:0:
476,199,398314,1,0,0:0:0:0:
478,142,398389,1,0,0:0:0:0:
452,92,398464,1,10,0:0:0:0:
404,61,398539,1,0,0:0:0:0:
348,57,398614,5,0,0:0:0:0:
309,82,398689,1,0,0:0:0:0:
297,120,398764,1,10,0:0:0:0:
308,152,398839,1,0,0:0:0:0:
331,168,398914,6,0,P|367:173|385:163,1,57.5000010967255
416,10,399064,2,0,P|369:17|361:26,1,57.5000010967255,10|0,0:0|0:0,0:0:0:0:
360,289,399214,5,0,0:0:0:0:
223,46,399364,1,10,0:0:0:0:
433,166,399514,5,0,0:0:0:0:
125,122,399664,2,0,B|66:113|66:113|48:118|48:118|-34:104,2,125,10|0|8,0:0|0:0|0:0,0:0:0:0:
277,29,400114,6,0,B|265:60|265:60|260:63|260:63|243:105,1,57.5000010967255
200,340,400264,2,0,B|210:318|210:318|263:289,1,57.5000010967255,8|0,0:0|0:0,0:0:0:0:
460,269,400414,5,8,0:0:0:0:
444,244,400489,1,8,0:0:0:0:
408,225,400564,1,8,0:0:0:0:
356,226,400639,1,8,0:0:0:0:
310,261,400714,2,0,P|288:284|234:290,1,57.5000010967255,8|0,0:0|0:0,0:0:0:0:
165,108,400864,5,0,0:0:0:0:
211,91,400939,1,0,0:0:0:0:
247,108,401014,2,0,P|262:126|264:163,1,57.5000010967255,8|8,0:0|0:0,0:0:0:0:
77,319,401164,5,8,0:0:0:0:
71,284,401239,1,0,0:0:0:0:
67,255,401314,2,0,L|56:162,1,57.5000010967255,8|0,0:0|0:0,0:0:0:0:
98,18,401464,2,0,L|110:126,1,57.5000010967255,8|0,0:0|0:0,0:0:0:0:
351,213,401614,5,4,0:0:0:0:
333,293,401689,1,0,0:0:0:0:
265,325,401764,1,10,0:0:0:0:
198,312,401839,1,0,0:0:0:0:
166,260,401914,5,0,0:0:0:0:
211,221,401989,1,0,0:0:0:0:
270,218,402064,1,10,0:0:0:0:
319,252,402139,1,0,0:0:0:0:
334,310,402214,1,0,0:0:0:0:
370,356,402289,1,0,0:0:0:0:
427,369,402364,1,10,0:0:0:0:
480,343,402439,1,0,0:0:0:0:
505,290,402514,1,0,0:0:0:0:
491,233,402589,1,0,0:0:0:0:
444,197,402664,6,0,P|406:184|359:207,1,75.0000028610231,10|0,0:0|0:0,0:0:0:0:
97,302,402814,5,0,0:0:0:0:
150,352,402889,1,0,0:0:0:0:
217,353,402964,1,10,0:0:0:0:
263,315,403039,1,0,0:0:0:0:
276,264,403114,2,0,P|271:225|250:198,1,75.0000028610231
31,30,403264,5,10,0:0:0:0:
49,102,403339,1,0,0:0:0:0:
66,159,403414,1,0,0:0:0:0:
81,209,403489,1,0,0:0:0:0:
95,251,403564,2,0,B|104:288|104:288|108:292|108:292|122:349,1,75.0000028610231,10|0,0:0|0:0,0:0:0:0:
252,64,403714,5,0,0:0:0:0:
223,55,403789,1,0,0:0:0:0:
193,60,403864,2,0,B|180:97|180:97|182:104|182:104|170:140,1,75.0000028610231,10|0,0:0|0:0,0:0:0:0:
462,261,404014,5,0,0:0:0:0:
500,187,404089,1,0,0:0:0:0:
485,113,404164,1,10,0:0:0:0:
435,67,404239,1,0,0:0:0:0:
375,59,404314,1,0,0:0:0:0:
328,84,404389,1,0,0:0:0:0:
312,134,404464,1,10,0:0:0:0:
331,174,404539,1,0,0:0:0:0:
397,192,404614,5,0,0:0:0:0:
345,127,404689,1,0,0:0:0:0:
270,116,404764,1,10,0:0:0:0:
205,135,404839,1,0,0:0:0:0:
164,179,404914,1,0,0:0:0:0:
118,205,404989,1,0,0:0:0:0:
73,205,405064,2,0,P|81:170|126:156,1,75.0000028610231,10|0,0:0|0:0,0:0:0:0:
324,280,405214,5,0,0:0:0:0:
271,333,405289,1,0,0:0:0:0:
203,336,405364,1,10,0:0:0:0:
151,305,405439,1,0,0:0:0:0:
137,254,405514,2,0,B|140:211|140:211|160:178,1,75.0000028610231
384,21,405664,5,10,0:0:0:0:
367,94,405739,1,0,0:0:0:0:
351,159,405814,1,0,0:0:0:0:
337,217,405889,1,0,0:0:0:0:
324,268,405964,2,0,L|301:348,1,75.0000028610231,10|0,0:0|0:0,0:0:0:0:
55,88,406114,5,0,0:0:0:0:
110,37,406189,1,0,0:0:0:0:
175,22,406264,1,10,0:0:0:0:
234,32,406339,1,0,0:0:0:0:
274,61,406414,2,0,B|293:90|293:90|298:143,3,62.5,0|0|10|0,0:0|0:0|0:0|0:0,0:0:0:0:
209,344,406714,6,0,L|200:256,1,62.5
384,194,406864,2,0,B|371:231|371:231|323:263,3,62.5,10|0|0|0,0:0|0:0|0:0|0:0,0:0:0:0:
101,163,407164,6,0,L|192:170,1,62.5,10|0,0:0|0:0,0:0:0:0:
464,159,407314,2,0,B|458:124|458:124|439:103,3,62.5,0|0|10|0,0:0|0:0|0:0|0:0,0:0:0:0:
456,268,407614,5,0,0:0:0:0:
389,302,407689,1,0,0:0:0:0:
320,307,407764,1,10,0:0:0:0:
259,291,407839,1,0,0:0:0:0:
209,263,407914,1,0,0:0:0:0:
159,253,407989,1,0,0:0:0:0:
115,259,408064,1,10,0:0:0:0:
81,275,408139,1,0,0:0:0:0:
64,301,408214,5,0,0:0:0:0:
82,326,408289,1,0,0:0:0:0:
117,339,408364,1,10,0:0:0:0:
160,331,408439,1,0,0:0:0:0:
196,297,408514,1,0,0:0:0:0:
203,247,408589,1,0,0:0:0:0:
177,196,408664,1,10,0:0:0:0:
116,179,408739,1,0,0:0:0:0:
53,207,408814,5,8,0:0:0:0:
107,238,408889,1,8,0:0:0:0:
160,220,408964,1,8,0:0:0:0:
173,171,409039,1,8,0:0:0:0:
150,126,409114,1,8,0:0:0:0:
108,112,409189,1,8,0:0:0:0:
76,92,409264,1,8,0:0:0:0:
69,61,409339,1,8,0:0:0:0:
80,38,409414,5,8,0:0:0:0:
148,28,409489,1,8,0:0:0:0:
207,46,409564,1,8,0:0:0:0:
249,82,409639,1,8,0:0:0:0:
295,100,409714,1,8,0:0:0:0:
338,95,409789,1,8,0:0:0:0:
368,73,409864,1,8,0:0:0:0:
380,44,409939,1,8,0:0:0:0:
374,19,410014,5,8,0:0:0:0:
312,48,410089,1,8,0:0:0:0:
289,113,410164,1,8,0:0:0:0:
297,181,410239,1,8,0:0:0:0:
341,233,410314,2,0,P|375:254|420:255,3,75.0000028610231,8|8|0|8,0:0|0:0|0:0|0:0,0:0:0:0:
470,154,410614,5,8,0:0:0:0:
401,157,410689,1,8,0:0:0:0:
339,187,410764,1,8,0:0:0:0:
277,218,410839,1,8,0:0:0:0:
208,213,410914,2,0,L|134:166,1,62.5,8|0,0:0|0:0,0:0:0:0:
52,114,411064,2,0,B|60:77|60:77|97:44,1,62.5,8|0,0:0|0:0,0:0:0:0:
223,19,411214,6,0,B|242:67|242:67|219:144|219:144|211:137|211:137|211:147|211:147|187:223|187:223|183:222|183:222|145:332,1,312.5,2|0,0:0|0:0,0:0:0:0:
70,332,411664,2,0,B|52:345|52:345|106:338|106:338|150:347|150:347|152:353|152:353|237:366|237:366|358:357|358:357,1,312.5,2|0,0:0|0:0,0:0:0:0:
471,261,412114,2,0,B|422:278|422:278|417:275|417:275|383:288|383:288|340:282|340:282|337:284|337:284|286:277,1,187.5,2|0,0:0|0:0,0:0:0:0:
166,145,412414,2,0,B|198:129|198:129|289:132,2,125,2|2|0,0:0|0:0|0:0,0:0:0:0:
197,291,412864,6,0,P|204:245|183:199,1,62.5,2|0,0:0|0:0,0:0:0:0:
16,278,413014,2,0,B|42:289|42:289|149:258,1,125,2|0,0:0|0:0,0:0:0:0:
32,96,413239,2,0,B|22:130|22:130|71:234,1,125,2|0,0:0|0:0,0:0:0:0:
218,102,413464,2,0,B|190:101|190:101|142:124,1,62.5,2|0,0:0|0:0,0:0:0:0:
302,318,413614,5,0,0:0:0:0:
357,289,413689,1,0,0:0:0:0:
374,228,413764,1,0,0:0:0:0:
349,170,413839,1,0,0:0:0:0:
289,151,413914,1,8,0:0:0:0:
229,169,413989,1,8,0:0:0:0:
167,159,414064,1,0,0:0:0:0:
131,107,414139,1,0,0:0:0:0:
143,45,414214,1,0,0:0:0:0:
196,12,414289,1,0,0:0:0:0:
257,24,414364,5,8,0:0:0:0:
263,48,414439,1,8,0:0:0:0:
271,84,414514,1,8,0:0:0:0:
282,132,414589,1,0,0:0:0:0:
296,192,414664,1,8,0:0:0:0:
314,264,414739,1,8,0:0:0:0:
333,342,414814,6,0,B|296:333|279:356|279:356|218:332|194:286|191:227|212:192|212:192|223:199|223:199|259:186|282:129|263:98|263:98|274:65|291:57,1,437.5,6|0,0:0|0:0,0:0:0:0:
397,85,415414,2,0,B|418:60|463:46|499:91|497:150|464:198|391:224|316:161|316:161|322:148|322:148|272:115|216:146,1,437.5,2|0,0:0|0:0,0:0:0:0:
76,52,416014,2,0,B|98:106|98:106|105:115|105:115|141:215,1,135.000000514984,4|10,0:0|0:0,0:0:0:0:
313,293,416314,5,0,0:0:0:0:
96,329,416464,2,0,B|135:269|135:269|203:233,1,135.000000514984,10|0,0:0|0:0,0:0:0:0:
408,336,416764,1,10,0:0:0:0:
477,79,416914,6,0,B|453:143|453:143|453:151|453:151|421:239,1,135.000000514984,0|10,0:0|0:0,0:0:0:0:
133,78,417214,2,0,B|186:49|186:49|195:52|195:52|224:38|224:38|260:49|260:49|268:46|268:46|324:70,1,200,0|10,0:0|0:0,0:0:0:0:
348,262,417514,5,0,0:0:0:0:
83,225,417664,2,0,B|63:221|63:221|107:190|107:190|106:184|106:184|162:138,1,135.000000514984,10|0,0:0|0:0,0:0:0:0:
364,192,417964,2,0,B|378:212|359:239|299:237|269:201|270:136,1,135.000000514984,10|0,0:0|0:0,0:0:0:0:
313,61,418264,1,10,0:0:0:0:
470,292,418414,6,0,B|481:303|481:303|459:327|395:298|395:298|336:272|279:323,1,200,0|10,0:0|0:0,0:0:0:0:
262,348,418714,1,0,0:0:0:0:
268,121,418864,2,0,P|275:178|349:185,1,135.000000514984,10|0,0:0|0:0,0:0:0:0:
211,23,419164,1,10,0:0:0:0:
18,259,419314,2,0,B|85:246|85:246|91:249|91:249|181:231,1,135.000000514984,0|10,0:0|0:0,0:0:0:0:
415,248,419614,5,8,0:0:0:0:
437,177,419689,1,8,0:0:0:0:
406,118,419764,1,8,0:0:0:0:
350,94,419839,1,8,0:0:0:0:
299,107,419914,2,0,P|268:136|260:169,1,67.5000002574921,8|0,0:0|0:0,0:0:0:0:
389,320,420064,5,8,0:0:0:0:
396,330,420139,1,8,0:0:0:0:
406,339,420214,2,0,P|371:340|338:325,1,67.5000002574921,8|0,0:0|0:0,0:0:0:0:
83,304,420364,5,8,0:0:0:0:
63,333,420439,1,8,0:0:0:0:
70,371,420514,1,8,0:0:0:0:
123,374,420589,1,8,0:0:0:0:
165,331,420664,1,8,0:0:0:0:
188,260,420739,1,8,0:0:0:0:
170,187,420814,6,0,B|172:153|197:126|197:126|202:130|202:130|222:102|259:96,1,135.000000514984,4|10,0:0|0:0,0:0:0:0:
291,91,421114,1,0,0:0:0:0:
430,281,421264,6,0,B|386:277|369:256|369:256|362:258|362:258|339:231|337:178,1,135.000000514984,10|0,0:0|0:0,0:0:0:0:
408,60,421564,1,10,0:0:0:0:
202,315,421714,6,0,B|165:296|165:296|161:297|161:297|131:280|131:280|129:243|129:243|132:240|132:240|131:209,1,150.000005722046,0|10,0:0|0:0,0:0:0:0:
30,38,422014,2,0,B|40:53|51:60|51:60|57:106|57:106|54:108|54:108|66:214,1,150.000005722046,0|10,0:0|0:0,0:0:0:0:
66,319,422314,1,0,0:0:0:0:
163,79,422464,6,0,B|231:64|231:64|233:61|233:61|337:36,1,150.000005722046,10|0,0:0|0:0,0:0:0:0:
433,213,422764,1,10,0:0:0:0:
441,222,422914,2,0,B|475:239|475:239|478:296|406:290|394:242|344:245|314:281,1,202.500000772476
111,155,423214,6,0,B|104:186|104:186|120:232,1,75.0000028610231
245,355,423364,2,0,B|260:347|260:347|235:271,1,75.0000028610231,10|0,0:0|0:0,0:0:0:0:
330,103,423514,5,0,0:0:0:0:
274,64,423589,1,0,0:0:0:0:
221,64,423664,2,0,B|190:80|190:80|173:121,1,75.0000028610231,10|0,0:0|0:0,0:0:0:0:
245,355,423814,2,0,B|270:357|270:357|327:316,1,75.0000028610231
427,216,423964,2,0,B|417:189|417:189|367:159,1,75.0000028610231,10|0,0:0|0:0,0:0:0:0:
43,64,424114,5,0,0:0:0:0:
38,131,424189,1,0,0:0:0:0:
34,183,424264,2,0,B|48:218|48:218|76:245,1,75.0000028610231,10|0,0:0|0:0,0:0:0:0:
279,120,424414,2,0,B|236:111|236:111|185:133,1,75.0000028610231
245,355,424564,2,0,B|284:336|284:336|298:294,1,75.0000028610231,10|0,0:0|0:0,0:0:0:0:
229,29,424714,5,0,0:0:0:0:
169,60,424789,1,0,0:0:0:0:
149,116,424864,2,0,B|150:157|150:157|172:186,1,75.0000028610231,10|0,0:0|0:0,0:0:0:0:
464,169,425014,2,0,L|376:164,1,75.0000028610231
245,355,425164,2,0,B|281:370|281:370|329:360,1,75.0000028610231,10|0,0:0|0:0,0:0:0:0:
481,304,425314,5,0,0:0:0:0:
435,244,425389,1,0,0:0:0:0:
369,226,425464,1,8,0:0:0:0:
310,237,425539,1,8,0:0:0:0:
263,227,425614,2,0,B|227:207|227:207|181:113,1,135.000000514984,4|10,0:0|0:0,0:0:0:0:
260,0,425914,5,0,0:0:0:0:
350,321,426064,2,0,B|415:294|415:294|439:229,1,135.000000514984,10|0,0:0|0:0,0:0:0:0:
221,155,426364,1,10,0:0:0:0:
486,74,426514,2,0,B|423:75|423:75|403:84|403:84|312:88,1,135.000000514984,0|10,0:0|0:0,0:0:0:0:
94,161,426814,6,0,B|107:180|106:197|106:197|127:232|166:229|166:229|170:224|170:224|211:222|243:257,1,200,0|10,0:0|0:0,0:0:0:0:
393,356,427114,1,0,0:0:0:0:
334,34,427264,6,0,B|273:58|273:58|269:56|269:56|236:67|236:67|203:98|203:98|202:102|202:102|152:153,1,200,10|0,0:0|0:0,0:0:0:0:
121,298,427564,1,10,0:0:0:0:
440,189,427714,2,0,B|399:125|399:125|391:121|391:121|356:67,1,135.000000514984,0|10,0:0|0:0,0:0:0:0:
38,149,428014,2,0,B|27:170|51:195|112:172|112:172|115:175|115:175|162:152|211:170,1,200,0|10,0:0|0:0,0:0:0:0:
310,265,428314,5,0,0:0:0:0:
323,279,428389,1,0,0:0:0:0:
336,293,428464,1,10,0:0:0:0:
90,243,428614,6,0,B|70:218|70:218|57:62,1,135.000000514984,0|10,0:0|0:0,0:0:0:0:
267,37,428914,1,0,0:0:0:0:
272,56,428989,1,0,0:0:0:0:
270,76,429064,1,10,0:0:0:0:
91,243,429214,5,8,0:0:0:0:
213,18,429364,1,8,0:0:0:0:
306,299,429514,5,8,0:0:0:0:
318,330,429589,1,8,0:0:0:0:
331,361,429664,1,8,0:0:0:0:
94,123,429814,5,8,0:0:0:0:
459,212,429964,1,8,0:0:0:0:
141,305,430114,5,8,0:0:0:0:
120,298,430189,1,8,0:0:0:0:
95,275,430264,1,0,0:0:0:0:
79,237,430339,1,0,0:0:0:0:
88,190,430414,5,4,0:0:0:0:
447,304,430564,1,4,0:0:0:0:
437,289,432814,6,0,B|455:307|495:306|516:272|521:230|497:189|412:169|412:169|406:183|406:183|348:169|308:214|308:214|298:216|298:216|246:298|160:294|160:294|153:297|153:297|123:282|84:287|84:287|152:257|175:212|175:212|171:205|171:205|174:169|202:138|202:138|211:139|211:139|243:95|299:106,1,899.999972534181,4|0,0:0|0:0,0:0:0:0:
232,353,435214,5,4,0:0:0:0:
88,120,438814,2,0,B|140:113|148:69|142:5|45:-4|-2:28|-11:77|-14:138|29:198|124:203|124:203|135:200|135:200|137:207|137:207|146:203|146:203|152:210|152:210|161:207|161:207|167:215|167:215|178:213|178:213|186:220|186:220|196:218|196:218|205:225|205:225|216:224|216:224|221:231|221:231|233:229|233:229|241:236|241:236|255:232|255:232|265:246|265:246|284:239|284:239|288:251|296:256|296:256|307:256|316:250|316:250|325:261|337:268|337:268|349:270|364:262|364:262|369:272|378:279|378:279|392:282|412:278|412:278|428:297|444:303|444:303|470:301|470:301|491:315|507:343,1,875,4|0,0:0|0:0,0:0:0:0:
255,354,440014,6,0,B|282:344|282:344|284:338|284:338|320:321,1,57.5000010967255,14|0,0:0|0:0,0:0:0:0:
453,280,440164,5,0,0:0:0:0:
453,280,440239,1,0,0:0:0:0:
453,280,440314,2,0,B|425:269|425:269|417:269|417:269|375:253,1,57.5000010967255,10|0,0:0|0:0,0:0:0:0:
213,153,440464,5,0,0:0:0:0:
213,153,440539,1,0,0:0:0:0:
213,153,440614,2,0,B|241:145|241:145|247:140|247:140|291:127,1,57.5000010967255,10|0,0:0|0:0,0:0:0:0:
470,33,440764,5,0,0:0:0:0:
470,33,440839,1,0,0:0:0:0:
470,33,440914,2,0,B|460:62|460:62|460:70|460:70|447:113,1,57.5000010967255,10|0,0:0|0:0,0:0:0:0:
234,301,441064,5,0,0:0:0:0:
217,294,441139,1,0,0:0:0:0:
203,283,441214,1,10,0:0:0:0:
218,209,441289,1,0,0:0:0:0:
286,179,441364,1,0,0:0:0:0:
353,210,441439,1,0,0:0:0:0:
384,277,441514,1,10,0:0:0:0:
443,322,441589,1,0,0:0:0:0:
511,292,441664,5,0,0:0:0:0:
477,245,441739,1,0,0:0:0:0:
425,238,441814,1,10,0:0:0:0:
389,267,441889,1,0,0:0:0:0:
377,299,441964,1,0,0:0:0:0:
356,319,442039,1,0,0:0:0:0:
334,327,442114,2,0,P|303:313|286:268,1,57.5000010967255,10|0,0:0|0:0,0:0:0:0:
121,45,442264,5,0,0:0:0:0:
137,29,442339,1,0,0:0:0:0:
158,21,442414,1,10,0:0:0:0:
214,69,442489,1,0,0:0:0:0:
212,143,442564,1,0,0:0:0:0:
154,190,442639,1,0,0:0:0:0:
102,243,442714,1,10,0:0:0:0:
106,317,442789,1,0,0:0:0:0:
165,362,442864,5,0,0:0:0:0:
206,342,442939,1,0,0:0:0:0:
194,285,443014,1,10,0:0:0:0:
149,258,443089,1,0,0:0:0:0:
104,268,443164,1,0,0:0:0:0:
80,300,443239,1,0,0:0:0:0:
84,334,443314,2,0,P|123:344|151:328,1,57.5000010967255,10|0,0:0|0:0,0:0:0:0:
424,243,443464,5,0,0:0:0:0:
438,225,443539,1,0,0:0:0:0:
448,204,443614,1,10,0:0:0:0:
385,175,443689,1,0,0:0:0:0:
320,200,443764,1,0,0:0:0:0:
280,256,443839,1,0,0:0:0:0:
215,281,443914,1,10,0:0:0:0:
159,266,443989,1,0,0:0:0:0:
132,235,444064,2,0,B|123:201|123:201|132:154,1,57.5000010967255
356,57,444214,5,10,0:0:0:0:
369,68,444289,1,0,0:0:0:0:
376,83,444364,2,0,B|363:115|363:115|321:135,1,57.5000010967255
83,50,444514,5,10,0:0:0:0:
97,40,444589,1,0,0:0:0:0:
113,36,444664,1,0,0:0:0:0:
144,17,444739,1,0,0:0:0:0:
185,79,444814,1,10,0:0:0:0:
206,150,444889,1,0,0:0:0:0:
196,224,444964,1,0,0:0:0:0:
156,287,445039,1,0,0:0:0:0:
92,326,445114,5,10,0:0:0:0:
126,305,445189,1,0,0:0:0:0:
166,302,445264,1,0,0:0:0:0:
204,313,445339,1,0,0:0:0:0:
237,335,445414,1,10,0:0:0:0:
276,343,445489,1,0,0:0:0:0:
316,338,445564,1,0,0:0:0:0:
348,314,445639,1,0,0:0:0:0:
411,298,445714,5,10,0:0:0:0:
404,223,445789,1,0,0:0:0:0:
364,166,445864,1,0,0:0:0:0:
304,145,445939,1,0,0:0:0:0:
248,160,446014,5,10,0:0:0:0:
248,188,446089,1,0,0:0:0:0:
261,213,446164,1,0,0:0:0:0:
283,230,446239,1,0,0:0:0:0:
315,240,446314,5,10,0:0:0:0:
329,196,446389,1,0,0:0:0:0:
314,146,446464,1,0,0:0:0:0:
265,116,446539,1,0,0:0:0:0:
201,126,446614,1,10,0:0:0:0:
159,180,446689,1,0,0:0:0:0:
88,203,446764,1,0,0:0:0:0:
22,165,446839,1,0,0:0:0:0:
15,96,446914,1,10,0:0:0:0:
62,54,446989,1,0,0:0:0:0:
118,63,447064,1,0,0:0:0:0:
135,111,447139,1,0,0:0:0:0:
103,144,447214,2,0,P|64:153|36:132,1,57.5000010967255,8|8,0:0|0:0,0:0:0:0:
293,33,447364,5,8,0:0:0:0:
308,49,447439,1,0,0:0:0:0:
315,70,447514,2,0,B|316:101|316:101|301:133,1,57.5000010967255,8|8,0:0|0:0,0:0:0:0:
154,345,447664,5,8,0:0:0:0:
108,287,447739,1,8,0:0:0:0:
101,241,447814,2,0,B|109:210|109:210|129:186,1,57.5000010967255,8|0,0:0|0:0,0:0:0:0:
363,324,447964,2,0,B|327:319|327:319|303:293,1,57.5000010967255,8|0,0:0|0:0,0:0:0:0:
406,114,448114,5,8,0:0:0:0:
418,145,448189,1,8,0:0:0:0:
418,179,448264,2,0,B|412:200|412:200|363:229,1,57.5000010967255,8|0,0:0|0:0,0:0:0:0:
175,268,448414,2,0,B|182:233|182:233|207:211,1,57.5000010967255,0|8,0:0|0:0,0:0:0:0:
454,40,448564,5,8,0:0:0:0:
447,114,448639,1,8,0:0:0:0:
441,177,448714,1,8,0:0:0:0:
435,228,448789,1,8,0:0:0:0:
450,274,448864,5,8,0:0:0:0:
384,227,448939,1,8,0:0:0:0:
316,211,449014,1,8,0:0:0:0:
260,227,449089,1,8,0:0:0:0:
236,255,449164,5,8,0:0:0:0:
243,309,449239,1,8,0:0:0:0:
286,354,449314,1,8,0:0:0:0:
356,363,449389,1,8,0:0:0:0:
419,313,449464,1,8,0:0:0:0:
428,226,449539,1,8,0:0:0:0:
359,158,449614,2,0,B|259:150|259:150|251:145|251:145|122:136,1,200,4|10,0:0|0:0,0:0:0:0:
229,284,449914,5,0,0:0:0:0:
232,300,449989,1,0,0:0:0:0:
235,317,450064,1,10,0:0:0:0:
359,158,450214,5,0,0:0:0:0:
137,353,450364,1,10,0:0:0:0:
188,85,450514,5,0,0:0:0:0:
192,62,450589,1,0,0:0:0:0:
196,39,450664,1,10,0:0:0:0:
451,79,450814,2,0,P|389:74|342:117,1,115.000002193451,0|10,0:0|0:0,0:0:0:0:
367,285,451114,5,0,0:0:0:0:
373,306,451189,1,0,0:0:0:0:
379,327,451264,2,0,P|412:258|355:201,1,115.000002193451,10|0,0:0|0:0,0:0:0:0:
97,266,451564,5,10,0:0:0:0:
352,146,451714,5,0,0:0:0:0:
385,139,451789,1,0,0:0:0:0:
418,132,451864,1,10,0:0:0:0:
174,22,452014,6,0,B|168:39|147:43|147:43|125:85|125:85|129:87|129:87|93:165,1,150.000005722046,0|10,0:0|0:0,0:0:0:0:
172,329,452314,5,0,0:0:0:0:
177,339,452389,1,0,0:0:0:0:
182,349,452464,1,10,0:0:0:0:
444,159,452614,5,0,0:0:0:0:
102,166,452764,1,10,0:0:0:0:
342,344,452914,5,0,0:0:0:0:
369,323,452989,1,0,0:0:0:0:
373,288,453064,1,10,0:0:0:0:
264,38,453214,6,0,B|257:79|257:79|253:83|253:83|240:164,1,115.000002193451,0|10,0:0|0:0,0:0:0:0:
118,262,453514,5,0,0:0:0:0:
113,272,453589,1,0,0:0:0:0:
109,282,453664,1,10,0:0:0:0:
450,144,453814,5,0,0:0:0:0:
114,131,453964,1,10,0:0:0:0:
235,355,454114,5,0,0:0:0:0:
252,318,454189,1,0,0:0:0:0:
244,278,454264,1,10,0:0:0:0:
12,287,454414,2,0,B|40:307|40:307|172:289,1,150.000005722046,0|10,0:0|0:0,0:0:0:0:
336,131,454714,1,0,0:0:0:0:
121,36,454864,6,0,B|56:80|56:80|31:163,1,150.000005722046,10|0,0:0|0:0,0:0:0:0:
102,248,455164,1,10,0:0:0:0:
336,131,455314,5,0,0:0:0:0:
303,99,455389,1,0,0:0:0:0:
266,92,455464,1,10,0:0:0:0:
306,330,455614,6,0,B|320:348|340:353|340:353|355:269|295:238,1,150.000005722046,0|10,0:0|0:0,0:0:0:0:
105,240,455914,1,0,0:0:0:0:
270,16,456064,6,0,B|239:90|239:90|232:90|232:90|193:182,1,150.000005722046,10|0,0:0|0:0,0:0:0:0:
294,287,456364,1,10,0:0:0:0:
91,65,456514,5,0,0:0:0:0:
58,84,456589,1,0,0:0:0:0:
50,112,456664,1,10,0:0:0:0:
149,348,456814,5,8,0:0:0:0:
222,334,456889,1,0,0:0:0:0:
265,282,456964,1,8,0:0:0:0:
265,222,457039,1,8,0:0:0:0:
239,176,457114,1,8,0:0:0:0:
196,160,457189,1,0,0:0:0:0:
134,187,457264,5,8,0:0:0:0:
154,218,457339,1,0,0:0:0:0:
194,237,457414,1,0,0:0:0:0:
253,241,457489,1,0,0:0:0:0:
311,206,457564,1,0,0:0:0:0:
382,183,457639,1,0,0:0:0:0:
463,193,457714,5,8,0:0:0:0:
467,230,457789,1,8,0:0:0:0:
443,259,457864,1,8,0:0:0:0:
406,267,457939,1,8,0:0:0:0:
336,272,458014,5,8,0:0:0:0:
350,213,458089,1,8,0:0:0:0:
362,162,458164,1,8,0:0:0:0:
372,118,458239,1,8,0:0:0:0:
381,81,458314,2,0,B|389:56|389:56|386:47|386:47|395:16,3,57.5000010967255,8|8|8|8,0:0|0:0|0:0|0:0,0:0:0:0:
467,230,458614,5,8,0:0:0:0:
476,250,458689,1,8,0:0:0:0:
486,270,458764,5,8,0:0:0:0:
454,289,458839,1,8,0:0:0:0:
401,294,458914,1,8,0:0:0:0:
341,262,458989,1,8,0:0:0:0:
291,205,459064,1,8,0:0:0:0:
225,169,459139,1,8,0:0:0:0:
142,169,459214,2,0,B|70:187|70:187|65:183|65:183|-14:204,1,150.000005722046,4|10,0:0|0:0,0:0:0:0:
311,326,459514,5,0,0:0:0:0:
327,334,459589,1,0,0:0:0:0:
342,343,459664,2,0,B|370:354|370:354|416:338|416:338|416:335|416:335|491:307,1,125,10|0,0:0|0:0,0:0:0:0:
260,81,459964,1,10,0:0:0:0:
96,268,460114,5,0,0:0:0:0:
82,281,460189,1,0,0:0:0:0:
67,293,460264,1,10,0:0:0:0:
406,178,460414,2,0,B|378:115|378:115|373:114|373:114|345:47,1,125,0|10,0:0|0:0,0:0:0:0:
198,274,460714,5,0,0:0:0:0:
209,288,460789,1,0,0:0:0:0:
225,295,460864,1,10,0:0:0:0:
279,60,461014,6,0,L|225:122,1,62.5
191,152,461164,1,10,0:0:0:0:
484,191,461314,5,0,0:0:0:0:
477,160,461389,1,0,0:0:0:0:
457,134,461464,1,10,0:0:0:0:
193,318,461614,2,0,P|263:308|310:238,1,125,0|10,0:0|0:0,0:0:0:0:
87,73,461914,5,0,0:0:0:0:
69,69,461989,1,0,0:0:0:0:
50,69,462064,2,0,B|37:98|37:98|49:140|49:140|53:145|53:145|69:204,1,125,10|0,0:0|0:0,0:0:0:0:
283,318,462364,1,10,0:0:0:0:
234,69,462514,5,0,0:0:0:0:
230,49,462589,1,0,0:0:0:0:
226,30,462664,1,10,0:0:0:0:
400,196,462814,6,0,B|430:254|430:254|431:261|431:261|472:339,1,125,0|10,0:0|0:0,0:0:0:0:
200,337,463114,1,0,0:0:0:0:
184,309,463189,1,0,0:0:0:0:
183,277,463264,1,10,0:0:0:0:
390,78,463414,6,0,L|356:151,1,62.5
312,227,463564,1,10,0:0:0:0:
75,96,463714,5,0,0:0:0:0:
97,74,463789,1,0,0:0:0:0:
127,66,463864,1,10,0:0:0:0:
263,307,464014,2,0,B|196:283|196:283|157:222,1,135.000000514984,0|10,0:0|0:0,0:0:0:0:
190,8,464314,5,0,0:0:0:0:
376,93,464464,2,0,B|350:157|350:157|347:160|347:160|308:250,1,135.000000514984,10|0,0:0|0:0,0:0:0:0:
127,316,464764,5,10,0:0:0:0:
480,327,464914,2,0,B|454:302|454:302|410:287|410:287|407:290|407:290|306:254,1,135.000000514984,0|10,0:0|0:0,0:0:0:0:
36,217,465214,2,0,P|106:200|100:131,1,135.000000514984,0|10,0:0|0:0,0:0:0:0:
232,11,465514,5,0,0:0:0:0:
302,198,465664,1,10,0:0:0:0:
61,34,465814,5,0,0:0:0:0:
451,131,465964,1,10,0:0:0:0:
121,355,466114,2,0,B|104:345|104:345|92:297|92:297|95:293|95:293|75:225,1,135.000000514984,2|10,0:0|0:0,0:0:0:0:
349,153,466414,5,8,0:0:0:0:
345,184,466489,1,0,0:0:0:0:
318,214,466564,1,0,0:0:0:0:
265,229,466639,1,0,0:0:0:0:
212,214,466714,1,0,0:0:0:0:
151,221,466789,1,0,0:0:0:0:
92,271,466864,5,8,0:0:0:0:
157,305,466939,1,0,0:0:0:0:
221,285,467014,1,0,0:0:0:0:
244,228,467089,1,0,0:0:0:0:
221,179,467164,1,0,0:0:0:0:
187,156,467239,1,8,0:0:0:0:
153,156,467314,5,0,0:0:0:0:
126,177,467389,1,0,0:0:0:0:
99,184,467464,1,0,0:0:0:0:
78,182,467539,1,0,0:0:0:0:
20,135,467614,5,8,0:0:0:0:
45,127,467689,1,0,0:0:0:0:
70,119,467764,1,0,0:0:0:0:
95,111,467839,1,0,0:0:0:0:
121,104,467914,1,0,0:0:0:0:
147,98,467989,1,0,0:0:0:0:
216,62,468064,5,8,0:0:0:0:
208,101,468139,1,0,0:0:0:0:
201,140,468214,1,0,0:0:0:0:
194,180,468289,1,0,0:0:0:0:
188,219,468364,1,0,0:0:0:0:
181,259,468439,1,0,0:0:0:0:
133,301,468514,5,8,0:0:0:0:
163,327,468589,1,8,0:0:0:0:
216,333,468664,1,8,0:0:0:0:
270,305,468739,1,8,0:0:0:0:
344,306,468814,2,0,B|381:304|412:322|412:322|414:318|414:318|448:332|473:371,1,150.000005722046,4|10,0:0|0:0,0:0:0:0:
127,358,469114,5,0,0:0:0:0:
106,363,469264,2,0,B|71:334|82:278|82:278|90:275|90:275|104:214|163:208|163:208|166:199|166:199|211:190|227:130,1,300.000011444092,10|10,0:0|0:0,0:0:0:0:
78,43,469714,2,0,P|102:114|178:116,1,150.000005722046,0|10,0:0|0:0,0:0:0:0:
457,32,470014,5,0,0:0:0:0:
382,44,470089,1,0,0:0:0:0:
333,100,470164,1,10,0:0:0:0:
326,174,470239,1,0,0:0:0:0:
358,241,470314,1,0,0:0:0:0:
348,315,470389,1,0,0:0:0:0:
281,351,470464,5,10,0:0:0:0:
216,332,470539,1,0,0:0:0:0:
202,273,470614,1,0,0:0:0:0:
231,229,470689,1,0,0:0:0:0:
282,219,470764,1,10,0:0:0:0:
313,251,470839,1,0,0:0:0:0:
303,287,470914,2,0,P|264:295|182:223,1,150.000005722046,0|10,0:0|0:0,0:0:0:0:
96,71,471214,2,0,B|77:74|53:59|53:59|88:117|163:92|163:92|167:86|167:86|235:58|293:93,1,300.000011444092
420,307,471664,2,0,P|334:289|302:232,1,150.000005722046,10|0,0:0|0:0,0:0:0:0:
424,29,471964,5,10,0:0:0:0:
431,17,472114,2,0,B|410:77|410:77|412:93|412:93|402:103|402:103|369:198,1,150.000005722046,0|10,0:0|0:0,0:0:0:0:
143,309,472414,5,0,0:0:0:0:
96,251,472489,1,0,0:0:0:0:
92,177,472564,1,10,0:0:0:0:
130,114,472639,1,0,0:0:0:0:
197,84,472714,1,0,0:0:0:0:
270,98,472789,1,0,0:0:0:0:
321,151,472864,5,10,0:0:0:0:
355,210,472939,1,0,0:0:0:0:
411,229,473014,1,0,0:0:0:0:
459,206,473089,1,0,0:0:0:0:
467,162,473164,1,10,0:0:0:0:
442,133,473239,1,0,0:0:0:0:
412,130,473314,6,0,P|390:152|382:202,1,75.0000028610231
429,360,473464,2,0,P|405:325|350:309,1,75.0000028610231,10|0,0:0|0:0,0:0:0:0:
106,347,473614,5,0,0:0:0:0:
126,338,473689,1,0,0:0:0:0:
147,329,473764,1,10,0:0:0:0:
168,320,473839,1,0,0:0:0:0:
188,313,473914,1,0,0:0:0:0:
209,305,473989,1,0,0:0:0:0:
230,297,474064,1,10,0:0:0:0:
252,289,474139,1,0,0:0:0:0:
232,260,474214,5,0,0:0:0:0:
197,253,474289,1,0,0:0:0:0:
164,263,474364,1,10,0:0:0:0:
128,260,474439,1,0,0:0:0:0:
104,234,474514,1,0,0:0:0:0:
97,200,474589,1,0,0:0:0:0:
112,168,474664,1,10,0:0:0:0:
142,151,474739,1,0,0:0:0:0:
175,157,474814,5,8,0:0:0:0:
207,224,474889,1,0,0:0:0:0:
193,296,474964,1,0,0:0:0:0:
128,335,475039,1,0,0:0:0:0:
55,315,475114,1,8,0:0:0:0:
58,280,475189,1,0,0:0:0:0:
61,245,475264,1,0,0:0:0:0:
64,210,475339,1,0,0:0:0:0:
66,175,475414,5,8,0:0:0:0:
113,117,475489,1,0,0:0:0:0:
188,117,475564,1,0,0:0:0:0:
236,174,475639,1,0,0:0:0:0:
309,182,475714,1,8,0:0:0:0:
363,144,475789,1,0,0:0:0:0:
371,89,475864,1,0,0:0:0:0:
344,53,475939,1,0,0:0:0:0:
308,49,476014,6,0,B|290:72|290:72|297:169,1,115.000002193451,4|0,0:0|0:0,0:0:0:0:
353,342,476314,2,0,B|350:312|350:312|291:249,1,115.000002193451,4|0,0:0|0:0,0:0:0:0:
79,157,477214,2,0,B|90:211|90:211|88:218|88:218|100:272,1,115.000002193451,4|0,0:0|0:0,0:0:0:0:
317,83,478414,5,10,0:0:0:0:
317,83,478489,1,0,0:0:0:0:
317,83,478564,2,0,B|287:95|287:95|279:94|279:94|238:110,1,75.0000028610231
151,153,478714,5,10,0:0:0:0:
151,153,478789,1,0,0:0:0:0:
151,153,478864,2,0,B|176:173|176:173|179:180|179:180|208:205,1,75.0000028610231
299,263,479014,5,10,0:0:0:0:
299,263,479089,1,0,0:0:0:0:
299,263,479164,2,0,B|301:228|301:228|304:224|304:224|309:177,1,75.0000028610231
196,296,479314,5,10,0:0:0:0:
196,296,479389,1,0,0:0:0:0:
196,296,479464,2,0,B|194:331|194:331|191:335|191:335|186:382,1,75.0000028610231
105,246,479614,5,10,0:0:0:0:
105,246,479689,1,0,0:0:0:0:
105,246,479764,2,0,B|103:211|103:211|100:207|100:207|95:160,1,75.0000028610231
93,22,479914,5,10,0:0:0:0:
93,22,479989,1,0,0:0:0:0:
93,22,480064,2,0,B|121:42|121:42|126:42|126:42|166:68,1,75.0000028610231
379,264,480214,5,6,0:0:0:0:
379,264,480289,1,0,0:0:0:0:
379,264,480364,2,0,B|350:284|350:284|348:288|348:288|311:318,1,75.0000028610231
306,74,480514,5,6,0:0:0:0:
306,74,480589,1,0,0:0:0:0:
306,74,480664,2,0,B|334:53|334:53|336:49|336:49|373:19,1,75.0000028610231
451,132,480814,6,0,B|445:157|447:174|447:174|443:178|443:178|448:198|439:224,1,75.0000028610231,4|0,0:0|0:0,0:0:0:0:
329,353,480964,2,0,B|331:314|331:314|335:310|335:310|338:268,1,75.0000028610231,4|0,0:0|0:0,0:0:0:0:
203,59,481114,2,0,B|193:72|193:72|196:94|196:94|192:100|192:100|196:153,1,75.0000028610231,4|0,0:0|0:0,0:0:0:0:
76,271,481264,5,0,0:0:0:0:
61,297,481339,1,0,0:0:0:0:
75,324,481414,1,0,0:0:0:0:
105,329,481489,1,0,0:0:0:0:
126,308,481564,5,0,0:0:0:0:
125,270,481639,1,0,0:0:0:0:
99,232,481714,1,0,0:0:0:0:
53,205,481789,1,0,0:0:0:0:
18,155,481864,1,0,0:0:0:0:
21,87,481939,1,0,0:0:0:0:
74,33,482014,2,0,B|114:51|114:91|114:91|127:95|127:95|98:125|108:181,1,150.000005722046,4|0,0:0|0:0,0:0:0:0:
320,120,483214,5,10,0:0:0:0:
370,133,483289,1,10,0:0:0:0:
420,146,483364,1,10,0:0:0:0:
470,160,483439,1,10,0:0:0:0:
481,181,483514,1,10,0:0:0:0:
184,208,483814,5,10,0:0:0:0:
134,221,483889,1,10,0:0:0:0:
84,234,483964,1,10,0:0:0:0:
34,248,484039,1,10,0:0:0:0:
23,269,484114,1,10,0:0:0:0:
226,342,484414,5,8,0:0:0:0:
278,336,484489,1,8,0:0:0:0:
318,302,484564,1,8,0:0:0:0:
327,250,484639,1,8,0:0:0:0:
302,203,484714,2,0,B|275:220|275:220|262:287,1,75.0000028610231,8|0,0:0|0:0,0:0:0:0:
471,325,484864,2,0,B|446:296|446:296|372:271,1,75.0000028610231,8|0,0:0|0:0,0:0:0:0:
105,268,485164,2,0,L|208:281,1,75.0000028610231,8|0,0:0|0:0,0:0:0:0:
141,79,485614,6,0,B|144:111|155:129|155:129|163:128|163:128|172:143|209:164,1,100.000003814697,4|0,0:0|0:0,0:0:0:0:
421,79,485814,2,0,B|384:73|363:78|363:78|364:83|364:83|335:91|303:128,1,100.000003814697,4|0,0:0|0:0,0:0:0:0:
293,327,486014,6,0,B|301:295|301:295|299:267|299:267|296:263|296:263|293:223,1,100.000003814697,4|0,0:0|0:0,0:0:0:0:
53,119,486214,2,0,B|93:152|93:152|97:149|97:149|157:199,1,100.000003814697,4|0,0:0|0:0,0:0:0:0:
445,207,486414,2,0,B|405:243|405:243|399:241|399:241|357:279,1,100.000003814697,4|0,0:0|0:0,0:0:0:0:
115,348,486614,6,0,B|111:311|119:292|119:292|125:294|125:294|134:277|164:254,1,100.000003814697,4|0,0:0|0:0,0:0:0:0:
480,88,486814,2,0,B|422:98|422:98|417:102|417:102|320:120,1,100.000003814697,4|0,0:0|0:0,0:0:0:0:
187,31,487414,5,4,0:0:0:0:
449,320,487564,1,4,0:0:0:0:
121,250,487714,2,0,B|120:269|97:282|97:282|151:308|188:293|212:271|212:271|220:275|220:275|257:262|269:223|269:223|278:180|304:164|304:164|311:173|311:173|357:125|434:164,1,450.000017166138,4|0,0:0|0:0,0:0:0:0:
