osu file format v14

[General]
AudioFilename: audio.mp3
AudioLeadIn: 0
PreviewTime: 112989
Countdown: 0
SampleSet: Normal
StackLeniency: 0.7
Mode: 1
LetterboxInBreaks: 0
WidescreenStoryboard: 1

[Editor]
DistanceSpacing: 0.4
BeatDivisor: 4
GridSize: 8
TimelineZoom: 3.199998

[Metadata]
Title:Inside the Winter Storm
TitleUnicode:Inside the Winter Storm
Artist:DragonForce
ArtistUnicode:DragonForce
Creator:Janssen
Version:zigizigiefe's Tatsujin
Source:
Tags:Ultra Beatdown Speed Metal Power Deathstreams Streams zigizigiefe zp theart herman li Atsuro
BeatmapID:1302378
BeatmapSetID:613814

[Difficulty]
HPDrainRate:4
CircleSize:2
OverallDifficulty:7
ApproachRate:9.6
SliderMultiplier:1.4
SliderTickRate:1

[Events]
//Background and Video events
0,0,"bg.png",0,0
//Break Periods
//Storyboard Layer 0 (Background)
//Storyboard Layer 1 (Fail)
//Storyboard Layer 2 (Pass)
//Storyboard Layer 3 (Foreground)
//Storyboard Sound Samples

[TimingPoints]
571,300,4,1,0,75,1,0
65371,-100,4,1,0,75,0,1
74971,-100,4,1,0,75,0,0
113371,-100,4,1,0,75,0,1
127771,-100,4,1,0,75,0,0
132571,-50,4,1,0,75,0,0
132721,-100,4,1,0,75,0,0
137371,-100,4,1,0,75,0,1
156571,-100,4,1,0,75,0,0
158821,-142.857142857143,4,1,0,35,0,0
158971,-142.857142857143,4,1,0,35,0,0
192496,-117.647058823529,4,1,0,60,0,0
193021,-116.182572614108,4,1,0,60,0,0
193171,-114.754098360656,4,1,0,60,0,0
193321,-113.36032388664,4,1,0,60,0,0
193471,-112,4,1,0,60,0,0
193621,-110.671936758893,4,1,0,60,0,0
193771,-109.375,4,1,0,60,0,0
193921,-108.108108108108,4,1,0,60,0,0
194071,-106.870229007634,4,1,0,60,0,0
194221,-105.660377358491,4,1,0,60,0,0
194371,-104.477611940299,4,1,0,60,0,0
194521,-103.321033210332,4,1,0,60,0,0
194671,-102.189781021898,4,1,0,60,0,0
194821,-101.083032490975,4,1,0,60,0,0
194971,-100,4,1,0,60,0,0
197371,-100,4,1,0,75,0,1
233371,-100,4,1,0,75,0,0
239371,428.571428571429,4,1,0,65,1,0
239371,-69.9300699300699,4,1,0,65,0,0
252978,-69.9300699300699,4,1,0,75,0,0
321656,300,4,1,0,60,1,0
334856,-100,4,1,0,75,0,1
373256,-100,4,1,0,75,0,0
382856,-100,4,1,0,75,0,1
390056,-100,4,1,0,75,0,0
402056,-100,4,1,0,75,0,1
411656,-100,4,1,0,75,0,0
416456,-100,4,1,0,75,0,1
430856,-100,4,1,0,75,0,0
435656,-50,4,1,0,75,0,0
435806,-100,4,1,0,75,0,0
440456,-100,4,1,0,75,0,1
476456,-100,4,1,0,75,0,0
478856,-100,4,1,0,75,0,1
481256,-100,4,1,0,75,0,0

[HitObjects]
160,144,571,5,4,0:0:0:0:
160,144,721,1,4,0:0:0:0:
160,144,871,1,4,0:0:0:0:
172,144,2971,1,4,0:0:0:0:
172,144,3121,1,4,0:0:0:0:
152,196,5071,1,4,0:0:0:0:
152,196,5221,1,4,0:0:0:0:
140,196,5371,1,4,0:0:0:0:
136,164,6271,1,12,0:0:0:0:
136,164,7471,1,12,0:0:0:0:
136,164,7771,1,4,0:0:0:0:
140,164,8971,1,12,0:0:0:0:
140,164,9871,1,4,0:0:0:0:
140,164,10021,1,4,0:0:0:0:
144,232,10171,2,4,L|184:232,12,35,12|4|4|12|4|4|12|4|12|4|4|12|4,0:0|0:0|0:0|0:0|0:0|0:0|0:0|0:0|0:0|0:0|0:0|0:0|0:0,0:0:0:0:
308,152,11371,1,8,0:0:0:0:
308,152,11446,1,8,0:0:0:0:
308,152,11521,1,0,0:0:0:0:
308,152,11596,1,8,0:0:0:0:
308,152,11671,1,8,0:0:0:0:
152,152,11746,1,0,0:0:0:0:
152,152,11821,1,8,0:0:0:0:
152,152,11896,1,0,0:0:0:0:
308,152,11971,1,8,0:0:0:0:
308,152,12046,1,8,0:0:0:0:
308,152,12121,1,0,0:0:0:0:
308,152,12196,1,8,0:0:0:0:
152,152,12271,1,8,0:0:0:0:
308,152,12346,1,8,0:0:0:0:
152,152,12421,1,0,0:0:0:0:
248,136,12496,1,8,0:0:0:0:
248,120,12571,1,0,0:0:0:0:
336,264,12721,1,8,0:0:0:0:
336,264,12796,1,8,0:0:0:0:
336,264,12871,1,0,0:0:0:0:
336,264,12946,1,0,0:0:0:0:
336,264,13021,1,8,0:0:0:0:
336,264,13096,1,0,0:0:0:0:
336,264,13171,1,8,0:0:0:0:
232,236,13321,1,8,0:0:0:0:
232,236,13396,1,8,0:0:0:0:
232,236,13471,1,0,0:0:0:0:
232,236,13546,1,0,0:0:0:0:
232,236,13621,1,8,0:0:0:0:
228,240,13771,1,0,0:0:0:0:
148,292,13921,1,8,0:0:0:0:
148,292,13996,1,8,0:0:0:0:
148,292,14071,1,0,0:0:0:0:
148,292,14146,1,0,0:0:0:0:
148,292,14221,1,8,0:0:0:0:
208,296,14371,1,0,0:0:0:0:
208,296,14446,1,0,0:0:0:0:
208,296,14521,1,8,0:0:0:0:
208,296,14596,1,8,0:0:0:0:
208,296,14671,1,0,0:0:0:0:
200,296,14746,1,0,0:0:0:0:
208,296,14821,1,8,0:0:0:0:
248,120,14971,1,0,0:0:0:0:
336,264,15121,1,8,0:0:0:0:
336,264,15196,1,8,0:0:0:0:
336,264,15271,1,0,0:0:0:0:
336,264,15346,1,0,0:0:0:0:
336,264,15421,1,8,0:0:0:0:
336,264,15571,1,0,0:0:0:0:
232,236,15721,1,8,0:0:0:0:
232,236,15796,1,0,0:0:0:0:
232,236,15871,1,8,0:0:0:0:
232,236,15946,1,8,0:0:0:0:
232,236,16021,1,0,0:0:0:0:
228,180,16096,1,8,0:0:0:0:
228,240,16171,1,0,0:0:0:0:
148,292,16321,1,0,0:0:0:0:
148,292,16471,1,8,0:0:0:0:
148,292,16546,1,8,0:0:0:0:
148,292,16621,1,0,0:0:0:0:
208,296,16771,1,8,0:0:0:0:
208,296,16846,1,0,0:0:0:0:
208,296,16921,1,8,0:0:0:0:
208,296,16996,1,8,0:0:0:0:
208,296,17071,1,0,0:0:0:0:
200,296,17221,1,8,0:0:0:0:
248,120,17371,1,0,0:0:0:0:
336,264,17521,1,8,0:0:0:0:
336,264,17596,1,8,0:0:0:0:
336,264,17671,1,0,0:0:0:0:
336,264,17746,1,0,0:0:0:0:
336,264,17821,1,8,0:0:0:0:
336,264,17896,1,0,0:0:0:0:
336,264,17971,1,8,0:0:0:0:
232,236,18121,1,8,0:0:0:0:
232,236,18196,1,0,0:0:0:0:
232,236,18346,1,0,0:0:0:0:
232,236,18421,1,8,0:0:0:0:
228,240,18571,1,0,0:0:0:0:
148,292,18721,1,8,0:0:0:0:
148,292,18796,1,8,0:0:0:0:
148,292,18871,1,0,0:0:0:0:
148,292,18946,1,8,0:0:0:0:
148,292,19021,1,0,0:0:0:0:
208,296,19171,1,8,0:0:0:0:
208,296,19246,1,0,0:0:0:0:
208,296,19321,1,8,0:0:0:0:
208,296,19471,1,0,0:0:0:0:
208,296,19546,1,0,0:0:0:0:
200,296,19621,1,0,0:0:0:0:
248,120,19771,1,8,0:0:0:0:
336,264,19846,1,0,0:0:0:0:
336,264,19921,1,0,0:0:0:0:
28,164,19996,1,0,0:0:0:0:
336,264,20071,1,8,0:0:0:0:
336,264,20146,1,8,0:0:0:0:
336,264,20221,1,0,0:0:0:0:
336,264,20371,1,0,0:0:0:0:
232,236,20521,1,8,0:0:0:0:
232,236,20596,1,0,0:0:0:0:
232,236,20671,1,0,0:0:0:0:
232,236,20821,1,8,0:0:0:0:
228,240,20971,1,8,0:0:0:0:
148,292,21008,1,8,0:0:0:0:
148,292,21121,1,8,0:0:0:0:
280,144,21158,1,8,0:0:0:0:
148,292,21271,1,0,0:0:0:0:
264,144,21308,1,0,0:0:0:0:
148,292,21421,1,0,0:0:0:0:
264,144,21458,1,0,0:0:0:0:
128,120,21571,1,8,0:0:0:0:
208,64,21608,1,8,0:0:0:0:
208,296,21721,1,0,0:0:0:0:
208,296,21758,1,0,0:0:0:0:
208,296,21871,1,8,0:0:0:0:
208,296,21908,1,8,0:0:0:0:
200,296,22021,1,8,0:0:0:0:
64,104,22058,1,8,0:0:0:0:
248,120,22171,1,4,0:0:0:0:
336,264,22321,1,8,0:0:0:0:
336,264,22396,1,8,0:0:0:0:
336,264,22471,1,0,0:0:0:0:
336,264,22546,1,0,0:0:0:0:
336,264,22621,1,8,0:0:0:0:
336,264,22696,1,0,0:0:0:0:
336,264,22771,1,8,0:0:0:0:
232,236,22846,1,8,0:0:0:0:
232,236,22921,1,8,0:0:0:0:
232,236,22996,1,8,0:0:0:0:
68,144,23071,1,0,0:0:0:0:
232,236,23146,1,0,0:0:0:0:
232,236,23221,1,8,0:0:0:0:
180,80,23296,1,8,0:0:0:0:
228,240,23371,1,8,0:0:0:0:
148,292,23521,1,0,0:0:0:0:
148,292,23671,1,8,0:0:0:0:
148,292,23746,1,8,0:0:0:0:
148,292,23821,1,0,0:0:0:0:
208,296,23971,1,0,0:0:0:0:
208,296,24046,1,0,0:0:0:0:
208,296,24121,1,8,0:0:0:0:
208,296,24196,1,0,0:0:0:0:
208,296,24271,1,8,0:0:0:0:
208,296,24346,1,8,0:0:0:0:
200,296,24421,1,0,0:0:0:0:
248,120,24571,1,0,0:0:0:0:
336,264,24721,1,8,0:0:0:0:
156,160,24796,1,0,0:0:0:0:
336,264,24871,1,0,0:0:0:0:
336,264,24946,1,0,0:0:0:0:
336,264,25021,1,8,0:0:0:0:
336,264,25096,1,8,0:0:0:0:
336,264,25171,1,0,0:0:0:0:
232,236,25321,1,8,0:0:0:0:
232,236,25396,1,8,0:0:0:0:
232,236,25471,1,0,0:0:0:0:
232,236,25546,1,0,0:0:0:0:
232,236,25621,1,8,0:0:0:0:
232,104,25696,1,8,0:0:0:0:
228,180,25771,1,0,0:0:0:0:
228,240,25846,1,0,0:0:0:0:
148,292,25921,1,0,0:0:0:0:
148,292,26071,1,8,0:0:0:0:
148,292,26221,1,8,0:0:0:0:
208,296,26371,1,0,0:0:0:0:
208,296,26446,1,0,0:0:0:0:
208,296,26521,1,0,0:0:0:0:
208,296,26671,1,8,0:0:0:0:
64,168,26821,1,8,0:0:0:0:
248,120,26971,1,0,0:0:0:0:
148,176,27046,1,0,0:0:0:0:
336,264,27121,1,8,0:0:0:0:
336,264,27196,1,8,0:0:0:0:
336,264,27271,1,0,0:0:0:0:
336,264,27346,1,0,0:0:0:0:
336,264,27421,1,8,0:0:0:0:
336,264,27496,1,0,0:0:0:0:
336,264,27571,1,8,0:0:0:0:
232,236,27646,1,8,0:0:0:0:
192,72,27721,1,0,0:0:0:0:
232,236,27796,1,0,0:0:0:0:
192,72,27871,1,8,0:0:0:0:
232,236,27946,1,0,0:0:0:0:
232,236,28021,1,8,0:0:0:0:
148,132,28096,1,8,0:0:0:0:
228,240,28171,1,0,0:0:0:0:
148,292,28321,1,8,0:0:0:0:
148,292,28471,1,0,0:0:0:0:
148,292,28546,1,0,0:0:0:0:
148,292,28621,1,8,0:0:0:0:
208,296,28696,1,0,0:0:0:0:
208,296,28771,1,8,0:0:0:0:
208,296,28921,1,0,0:0:0:0:
208,296,29071,1,8,0:0:0:0:
200,296,29146,1,0,0:0:0:0:
336,264,29221,1,8,0:0:0:0:
336,264,29371,1,8,0:0:0:0:
248,120,29446,1,0,0:0:0:0:
168,120,29521,1,0,0:0:0:0:
28,164,29596,1,0,0:0:0:0:
336,264,29671,1,8,0:0:0:0:
336,264,29746,1,0,0:0:0:0:
336,264,29821,1,8,0:0:0:0:
192,160,29896,1,8,0:0:0:0:
188,220,29971,1,8,0:0:0:0:
232,236,30046,1,8,0:0:0:0:
192,160,30121,1,0,0:0:0:0:
232,236,30196,1,0,0:0:0:0:
232,236,30271,1,8,0:0:0:0:
232,236,30346,1,8,0:0:0:0:
232,236,30421,1,0,0:0:0:0:
88,132,30571,1,4,0:0:0:0:
88,132,30871,1,12,0:0:0:0:
88,132,31171,1,4,0:0:0:0:
88,132,31471,1,12,0:0:0:0:
88,132,31771,1,4,0:0:0:0:
224,160,36571,6,4,L|288:160,32,35
200,132,39571,5,0,0:0:0:0:
140,212,39721,1,0,0:0:0:0:
140,212,39871,1,0,0:0:0:0:
140,212,40021,1,0,0:0:0:0:
140,212,40171,1,0,0:0:0:0:
140,212,40321,1,0,0:0:0:0:
136,204,40471,1,0,0:0:0:0:
136,200,40621,1,0,0:0:0:0:
128,204,40771,1,4,0:0:0:0:
128,204,40921,1,4,0:0:0:0:
128,204,41071,1,4,0:0:0:0:
164,124,41221,1,4,0:0:0:0:
248,160,41371,1,8,0:0:0:0:
248,160,41446,1,8,0:0:0:0:
248,160,41521,1,0,0:0:0:0:
248,160,41596,1,8,0:0:0:0:
248,168,41671,1,8,0:0:0:0:
248,160,41746,1,0,0:0:0:0:
248,160,41821,1,8,0:0:0:0:
248,160,41896,1,0,0:0:0:0:
248,160,41971,1,8,0:0:0:0:
248,160,42046,1,8,0:0:0:0:
248,160,42121,1,8,0:0:0:0:
156,228,42196,1,0,0:0:0:0:
248,160,42271,1,8,0:0:0:0:
248,160,42346,1,0,0:0:0:0:
248,160,42421,1,8,0:0:0:0:
248,160,42496,1,8,0:0:0:0:
252,156,42571,1,0,0:0:0:0:
152,144,42646,1,0,0:0:0:0:
152,144,42721,1,8,0:0:0:0:
152,144,42796,1,8,0:0:0:0:
152,144,42871,1,8,0:0:0:0:
152,144,42946,1,8,0:0:0:0:
152,144,43021,1,0,0:0:0:0:
228,224,43096,1,0,0:0:0:0:
228,224,43171,1,8,0:0:0:0:
228,224,43246,1,8,0:0:0:0:
228,224,43321,1,8,0:0:0:0:
228,224,43396,1,8,0:0:0:0:
112,316,43471,1,0,0:0:0:0:
228,224,43546,1,0,0:0:0:0:
228,224,43621,1,0,0:0:0:0:
104,308,43771,1,4,0:0:0:0:
152,184,44071,1,4,0:0:0:0:
256,192,44221,12,0,46021,0:0:0:0:
208,268,46171,5,4,0:0:0:0:
188,196,46321,1,8,0:0:0:0:
188,196,46396,1,0,0:0:0:0:
188,196,46471,1,0,0:0:0:0:
216,80,46546,1,0,0:0:0:0:
188,196,46621,1,8,0:0:0:0:
176,96,46696,1,8,0:0:0:0:
192,192,46771,1,0,0:0:0:0:
192,192,46921,1,8,0:0:0:0:
192,192,47071,1,0,0:0:0:0:
192,188,47146,1,0,0:0:0:0:
192,188,47221,1,8,0:0:0:0:
204,208,47371,1,0,0:0:0:0:
204,208,47521,1,8,0:0:0:0:
204,208,47671,1,0,0:0:0:0:
204,208,47746,1,0,0:0:0:0:
204,208,47821,1,8,0:0:0:0:
208,40,47896,1,8,0:0:0:0:
204,208,47971,1,0,0:0:0:0:
204,208,48121,1,0,0:0:0:0:
120,144,48271,1,8,0:0:0:0:
120,144,48346,1,0,0:0:0:0:
120,144,48421,1,8,0:0:0:0:
216,168,48496,1,8,0:0:0:0:
120,144,48571,1,0,0:0:0:0:
216,168,48721,1,8,0:0:0:0:
216,168,48871,1,0,0:0:0:0:
216,168,48946,1,0,0:0:0:0:
216,168,49021,1,8,0:0:0:0:
360,192,49096,1,8,0:0:0:0:
208,160,49171,1,0,0:0:0:0:
208,160,49321,1,8,0:0:0:0:
208,160,49396,1,8,0:0:0:0:
208,160,49471,1,0,0:0:0:0:
208,160,49621,1,8,0:0:0:0:
164,248,49771,1,8,0:0:0:0:
164,248,49921,1,0,0:0:0:0:
208,64,49996,1,0,0:0:0:0:
164,248,50071,1,8,0:0:0:0:
164,248,50221,1,0,0:0:0:0:
164,248,50296,1,0,0:0:0:0:
164,248,50371,1,8,0:0:0:0:
240,104,50446,1,0,0:0:0:0:
164,248,50521,1,8,0:0:0:0:
144,112,50596,1,8,0:0:0:0:
164,248,50671,1,0,0:0:0:0:
164,248,50821,1,8,0:0:0:0:
240,208,50971,1,0,0:0:0:0:
240,208,51121,1,8,0:0:0:0:
240,208,51271,1,0,0:0:0:0:
192,112,51346,1,0,0:0:0:0:
252,200,51421,1,8,0:0:0:0:
240,208,51496,1,8,0:0:0:0:
240,208,51571,1,0,0:0:0:0:
252,204,51721,1,8,0:0:0:0:
252,204,51871,1,0,0:0:0:0:
252,200,51946,1,0,0:0:0:0:
252,204,52021,1,8,0:0:0:0:
196,240,52171,1,0,0:0:0:0:
196,240,52321,1,8,0:0:0:0:
196,240,52471,1,0,0:0:0:0:
196,240,52546,1,0,0:0:0:0:
196,240,52621,1,8,0:0:0:0:
196,240,52771,1,0,0:0:0:0:
196,240,52921,1,8,0:0:0:0:
220,176,52996,1,8,0:0:0:0:
220,176,53071,1,0,0:0:0:0:
196,240,53146,1,0,0:0:0:0:
220,176,53221,1,8,0:0:0:0:
220,168,53371,1,0,0:0:0:0:
220,168,53446,1,0,0:0:0:0:
220,168,53521,1,8,0:0:0:0:
220,168,53596,1,8,0:0:0:0:
220,168,53671,1,8,0:0:0:0:
220,168,53746,1,8,0:0:0:0:
220,168,53821,1,0,0:0:0:0:
220,168,53896,1,0,0:0:0:0:
220,168,53971,1,8,0:0:0:0:
220,168,54046,1,8,0:0:0:0:
220,168,54121,1,8,0:0:0:0:
220,168,54196,1,8,0:0:0:0:
248,236,54271,1,0,0:0:0:0:
248,236,54346,1,0,0:0:0:0:
248,236,54421,1,0,0:0:0:0:
248,236,54496,1,0,0:0:0:0:
248,236,54571,1,8,0:0:0:0:
248,236,54721,1,0,0:0:0:0:
248,236,54796,1,0,0:0:0:0:
248,236,54871,1,8,0:0:0:0:
160,200,55021,1,0,0:0:0:0:
160,200,55096,1,0,0:0:0:0:
160,200,55171,1,8,0:0:0:0:
172,216,55321,1,0,0:0:0:0:
172,216,55396,1,0,0:0:0:0:
172,216,55471,1,8,0:0:0:0:
268,188,55546,1,8,0:0:0:0:
172,216,55621,1,0,0:0:0:0:
208,268,55771,5,4,0:0:0:0:
188,196,55921,1,8,0:0:0:0:
188,196,55996,1,0,0:0:0:0:
188,196,56071,1,0,0:0:0:0:
216,80,56146,1,0,0:0:0:0:
188,196,56221,1,8,0:0:0:0:
192,192,56371,1,0,0:0:0:0:
184,80,56446,1,0,0:0:0:0:
192,192,56521,1,8,0:0:0:0:
184,72,56596,1,8,0:0:0:0:
192,192,56671,1,0,0:0:0:0:
192,188,56746,1,0,0:0:0:0:
192,188,56821,1,8,0:0:0:0:
204,208,56971,1,0,0:0:0:0:
204,208,57121,1,8,0:0:0:0:
204,208,57271,1,0,0:0:0:0:
204,208,57346,1,0,0:0:0:0:
204,208,57421,1,8,0:0:0:0:
208,40,57496,1,8,0:0:0:0:
204,208,57571,1,0,0:0:0:0:
204,208,57721,1,0,0:0:0:0:
120,144,57871,1,8,0:0:0:0:
120,144,57946,1,0,0:0:0:0:
120,144,58021,1,8,0:0:0:0:
216,168,58096,1,8,0:0:0:0:
120,144,58171,1,0,0:0:0:0:
216,168,58321,1,8,0:0:0:0:
152,72,58396,1,0,0:0:0:0:
216,168,58471,1,0,0:0:0:0:
216,168,58546,1,0,0:0:0:0:
216,168,58621,1,8,0:0:0:0:
208,160,58771,1,0,0:0:0:0:
360,192,58846,1,0,0:0:0:0:
208,160,58921,1,8,0:0:0:0:
192,48,58996,1,0,0:0:0:0:
208,160,59071,1,0,0:0:0:0:
208,160,59221,1,8,0:0:0:0:
164,248,59371,1,8,0:0:0:0:
164,248,59521,1,0,0:0:0:0:
164,248,59596,1,0,0:0:0:0:
164,248,59671,1,8,0:0:0:0:
164,248,59821,1,0,0:0:0:0:
192,104,59896,1,0,0:0:0:0:
164,248,59971,1,8,0:0:0:0:
176,96,60046,1,0,0:0:0:0:
164,248,60121,1,8,0:0:0:0:
176,96,60196,1,8,0:0:0:0:
144,112,60271,5,0,0:0:0:0:
216,64,60421,1,8,0:0:0:0:
240,208,60571,1,0,0:0:0:0:
240,208,60721,5,8,0:0:0:0:
240,208,60871,1,0,0:0:0:0:
144,160,60946,1,0,0:0:0:0:
252,200,61021,1,8,0:0:0:0:
252,204,61096,1,0,0:0:0:0:
240,208,61171,1,0,0:0:0:0:
252,204,61321,1,8,0:0:0:0:
252,204,61471,1,0,0:0:0:0:
160,32,61546,1,0,0:0:0:0:
252,204,61621,1,8,0:0:0:0:
196,240,61696,1,8,0:0:0:0:
196,240,61771,1,0,0:0:0:0:
196,240,61921,1,8,0:0:0:0:
196,240,62071,1,0,0:0:0:0:
176,112,62146,1,0,0:0:0:0:
196,240,62221,1,8,0:0:0:0:
196,240,62371,1,0,0:0:0:0:
196,240,62521,1,8,0:0:0:0:
144,224,62596,1,8,0:0:0:0:
220,176,62671,1,0,0:0:0:0:
220,176,62821,1,8,0:0:0:0:
220,168,62971,1,8,0:0:0:0:
220,168,63046,1,0,0:0:0:0:
220,168,63121,1,0,0:0:0:0:
220,168,63196,1,8,0:0:0:0:
220,168,63271,1,0,0:0:0:0:
220,168,63346,1,0,0:0:0:0:
220,168,63421,1,8,0:0:0:0:
220,168,63496,1,0,0:0:0:0:
220,168,63571,1,8,0:0:0:0:
220,168,63646,1,8,0:0:0:0:
220,168,63721,1,0,0:0:0:0:
248,236,63796,1,0,0:0:0:0:
220,168,63871,1,8,0:0:0:0:
248,236,63946,1,8,0:0:0:0:
248,236,64021,1,8,0:0:0:0:
248,236,64096,1,8,0:0:0:0:
248,236,64171,1,0,0:0:0:0:
248,236,64321,1,0,0:0:0:0:
248,236,64396,1,0,0:0:0:0:
248,236,64471,1,8,0:0:0:0:
160,200,64621,1,8,0:0:0:0:
172,216,64771,1,0,0:0:0:0:
160,200,64846,1,0,0:0:0:0:
160,200,64921,1,8,0:0:0:0:
160,200,64996,1,0,0:0:0:0:
172,216,65071,1,8,0:0:0:0:
268,188,65146,1,8,0:0:0:0:
172,216,65221,1,0,0:0:0:0:
176,200,65371,5,12,0:0:0:0:
240,232,65521,1,0,0:0:0:0:
276,292,65596,1,0,0:0:0:0:
240,232,65671,1,8,0:0:0:0:
216,184,65746,1,0,0:0:0:0:
216,184,65821,1,8,0:0:0:0:
216,184,65896,1,8,0:0:0:0:
200,112,65971,1,0,0:0:0:0:
200,112,66046,1,0,0:0:0:0:
276,292,66121,1,8,0:0:0:0:
276,292,66196,1,0,0:0:0:0:
200,112,66271,1,8,0:0:0:0:
276,292,66346,1,8,0:0:0:0:
200,112,66421,1,0,0:0:0:0:
200,112,66496,1,0,0:0:0:0:
172,216,66571,1,8,0:0:0:0:
200,184,66646,1,8,0:0:0:0:
276,292,66721,1,8,0:0:0:0:
208,192,66796,1,0,0:0:0:0:
232,192,66871,1,8,0:0:0:0:
200,112,66946,1,0,0:0:0:0:
276,292,67021,1,8,0:0:0:0:
232,192,67096,1,8,0:0:0:0:
200,112,67171,1,0,0:0:0:0:
200,112,67246,1,0,0:0:0:0:
276,292,67321,1,8,0:0:0:0:
276,292,67396,1,0,0:0:0:0:
200,112,67471,1,8,0:0:0:0:
276,292,67546,1,8,0:0:0:0:
200,112,67621,1,0,0:0:0:0:
172,216,67696,1,0,0:0:0:0:
200,112,67771,1,8,0:0:0:0:
224,184,67846,1,8,0:0:0:0:
224,184,67921,1,0,0:0:0:0:
200,112,67996,1,8,0:0:0:0:
200,112,68071,1,8,0:0:0:0:
276,292,68146,1,0,0:0:0:0:
276,292,68221,1,8,0:0:0:0:
276,292,68296,1,8,0:0:0:0:
200,112,68371,1,0,0:0:0:0:
200,112,68446,1,0,0:0:0:0:
276,292,68521,1,8,0:0:0:0:
276,292,68596,1,0,0:0:0:0:
200,112,68671,1,8,0:0:0:0:
276,292,68746,1,8,0:0:0:0:
200,112,68821,1,0,0:0:0:0:
172,216,68896,1,0,0:0:0:0:
200,112,68971,1,8,0:0:0:0:
248,208,69046,1,8,0:0:0:0:
276,292,69121,1,8,0:0:0:0:
248,208,69196,1,0,0:0:0:0:
248,208,69271,1,8,0:0:0:0:
248,208,69346,1,8,0:0:0:0:
248,208,69421,1,0,0:0:0:0:
248,208,69496,1,0,0:0:0:0:
248,208,69571,1,8,0:0:0:0:
200,112,69646,1,0,0:0:0:0:
276,292,69721,1,8,0:0:0:0:
200,112,69796,1,0,0:0:0:0:
276,292,69871,1,8,0:0:0:0:
200,112,69946,1,8,0:0:0:0:
276,292,70021,1,8,0:0:0:0:
248,208,70096,1,0,0:0:0:0:
240,208,70171,1,8,0:0:0:0:
240,208,70246,1,8,0:0:0:0:
240,208,70321,1,0,0:0:0:0:
276,292,70396,1,0,0:0:0:0:
240,208,70471,1,8,0:0:0:0:
200,112,70546,1,0,0:0:0:0:
276,292,70621,1,8,0:0:0:0:
200,112,70696,1,8,0:0:0:0:
276,292,70771,1,0,0:0:0:0:
200,112,70846,1,0,0:0:0:0:
276,292,70921,1,8,0:0:0:0:
276,292,70996,1,0,0:0:0:0:
200,112,71071,1,8,0:0:0:0:
276,292,71146,1,8,0:0:0:0:
200,112,71221,1,0,0:0:0:0:
200,112,71296,1,0,0:0:0:0:
172,216,71371,1,8,0:0:0:0:
264,232,71446,1,8,0:0:0:0:
276,292,71521,1,8,0:0:0:0:
264,232,71596,1,0,0:0:0:0:
264,232,71671,1,8,0:0:0:0:
200,112,71746,1,0,0:0:0:0:
276,292,71821,1,8,0:0:0:0:
256,192,71896,1,8,0:0:0:0:
200,112,71971,1,0,0:0:0:0:
200,112,72046,1,0,0:0:0:0:
276,292,72121,1,8,0:0:0:0:
276,292,72196,1,0,0:0:0:0:
200,112,72271,1,8,0:0:0:0:
276,292,72346,1,8,0:0:0:0:
256,192,72421,1,0,0:0:0:0:
200,112,72496,1,0,0:0:0:0:
172,216,72571,1,8,0:0:0:0:
276,292,72646,1,0,0:0:0:0:
276,292,72721,1,0,0:0:0:0:
200,112,72796,1,0,0:0:0:0:
276,292,72871,1,8,0:0:0:0:
200,112,72946,1,0,0:0:0:0:
276,292,73021,1,8,0:0:0:0:
264,224,73096,1,8,0:0:0:0:
276,292,73171,1,0,0:0:0:0:
200,112,73246,1,0,0:0:0:0:
200,112,73321,1,8,0:0:0:0:
276,292,73396,1,0,0:0:0:0:
200,112,73471,1,8,0:0:0:0:
256,240,73546,1,8,0:0:0:0:
200,112,73621,1,0,0:0:0:0:
172,216,73696,1,0,0:0:0:0:
200,112,73771,1,8,0:0:0:0:
276,292,73846,1,8,0:0:0:0:
248,216,73921,1,8,0:0:0:0:
248,216,73996,1,8,0:0:0:0:
248,216,74071,1,0,0:0:0:0:
248,216,74221,1,0,0:0:0:0:
200,112,74371,1,8,0:0:0:0:
200,112,74446,1,8,0:0:0:0:
276,292,74521,1,8,0:0:0:0:
276,292,74596,1,8,0:0:0:0:
200,112,74671,5,0,0:0:0:0:
276,292,74821,1,0,0:0:0:0:
208,268,74971,5,4,0:0:0:0:
188,196,75121,5,8,0:0:0:0:
188,196,75271,1,0,0:0:0:0:
188,196,75346,1,0,0:0:0:0:
188,196,75421,1,8,0:0:0:0:
192,192,75571,1,0,0:0:0:0:
200,72,75721,1,8,0:0:0:0:
188,60,75796,1,0,0:0:0:0:
192,192,75871,1,0,0:0:0:0:
192,188,75946,1,0,0:0:0:0:
192,188,76021,1,8,0:0:0:0:
144,136,76096,1,8,0:0:0:0:
204,208,76171,1,0,0:0:0:0:
204,208,76321,1,8,0:0:0:0:
204,208,76471,1,0,0:0:0:0:
204,208,76546,1,0,0:0:0:0:
204,208,76621,1,8,0:0:0:0:
120,144,76696,1,8,0:0:0:0:
204,208,76771,1,0,0:0:0:0:
204,208,76921,1,8,0:0:0:0:
120,144,77071,1,8,0:0:0:0:
120,144,77146,1,0,0:0:0:0:
120,144,77221,1,8,0:0:0:0:
216,168,77371,1,0,0:0:0:0:
216,168,77521,1,8,0:0:0:0:
216,168,77596,1,0,0:0:0:0:
224,264,77671,1,0,0:0:0:0:
216,168,77746,1,0,0:0:0:0:
216,168,77821,1,8,0:0:0:0:
208,160,77896,1,8,0:0:0:0:
208,160,77971,1,0,0:0:0:0:
192,80,78046,1,0,0:0:0:0:
184,64,78121,1,8,0:0:0:0:
208,160,78271,1,0,0:0:0:0:
208,160,78346,1,8,0:0:0:0:
208,160,78421,1,8,0:0:0:0:
164,248,78571,1,0,0:0:0:0:
164,248,78721,1,8,0:0:0:0:
164,248,78871,1,0,0:0:0:0:
164,248,78946,1,0,0:0:0:0:
164,248,79021,1,8,0:0:0:0:
164,248,79171,1,8,0:0:0:0:
232,160,79246,1,0,0:0:0:0:
164,248,79321,1,8,0:0:0:0:
232,160,79396,1,8,0:0:0:0:
164,248,79471,1,0,0:0:0:0:
164,248,79546,1,0,0:0:0:0:
164,248,79621,1,8,0:0:0:0:
192,64,79696,1,8,0:0:0:0:
240,208,79771,1,0,0:0:0:0:
240,208,79921,1,8,0:0:0:0:
240,208,80071,1,0,0:0:0:0:
184,136,80146,1,0,0:0:0:0:
252,200,80221,1,8,0:0:0:0:
240,208,80296,1,8,0:0:0:0:
240,208,80371,1,0,0:0:0:0:
252,204,80521,1,8,0:0:0:0:
252,204,80671,1,0,0:0:0:0:
176,40,80746,1,0,0:0:0:0:
196,240,80821,1,8,0:0:0:0:
196,240,80971,1,0,0:0:0:0:
196,240,81121,1,8,0:0:0:0:
196,240,81271,1,0,0:0:0:0:
224,56,81346,1,0,0:0:0:0:
196,240,81421,1,8,0:0:0:0:
196,240,81571,1,0,0:0:0:0:
220,176,81646,1,0,0:0:0:0:
196,240,81721,1,8,0:0:0:0:
144,72,81796,1,0,0:0:0:0:
220,176,81871,1,0,0:0:0:0:
220,176,82021,1,8,0:0:0:0:
220,168,82171,1,8,0:0:0:0:
220,168,82246,1,8,0:0:0:0:
220,168,82321,1,8,0:0:0:0:
220,168,82396,1,8,0:0:0:0:
220,168,82471,1,0,0:0:0:0:
220,168,82546,1,0,0:0:0:0:
220,168,82621,1,0,0:0:0:0:
220,168,82696,1,0,0:0:0:0:
220,168,82771,1,8,0:0:0:0:
220,168,82846,1,8,0:0:0:0:
220,168,82921,1,8,0:0:0:0:
220,168,82996,1,8,0:0:0:0:
248,236,83071,1,0,0:0:0:0:
248,236,83146,1,0,0:0:0:0:
248,236,83221,1,0,0:0:0:0:
248,236,83296,1,0,0:0:0:0:
248,236,83371,1,8,0:0:0:0:
264,136,83446,1,0,0:0:0:0:
248,236,83521,1,8,0:0:0:0:
248,236,83596,1,0,0:0:0:0:
248,236,83671,1,8,0:0:0:0:
220,64,83746,1,8,0:0:0:0:
160,200,83821,1,0,0:0:0:0:
160,200,83896,1,0,0:0:0:0:
160,200,83971,1,8,0:0:0:0:
144,128,84046,1,8,0:0:0:0:
172,216,84121,1,0,0:0:0:0:
172,216,84196,1,8,0:0:0:0:
172,216,84271,1,0,0:0:0:0:
268,188,84346,1,0,0:0:0:0:
172,216,84421,1,0,0:0:0:0:
48,136,84571,1,4,0:0:0:0:
188,196,84721,1,8,0:0:0:0:
152,168,84796,1,0,0:0:0:0:
188,196,84871,1,0,0:0:0:0:
240,136,84946,1,0,0:0:0:0:
188,196,85021,1,8,0:0:0:0:
192,192,85096,1,0,0:0:0:0:
224,80,85171,1,8,0:0:0:0:
192,192,85246,1,8,0:0:0:0:
152,168,85321,1,0,0:0:0:0:
224,112,85396,1,0,0:0:0:0:
192,192,85471,1,8,0:0:0:0:
192,188,85546,1,8,0:0:0:0:
192,188,85621,1,0,0:0:0:0:
176,112,85696,1,0,0:0:0:0:
204,208,85771,1,8,0:0:0:0:
204,208,85921,1,8,0:0:0:0:
204,208,85996,1,0,0:0:0:0:
204,208,86071,1,0,0:0:0:0:
176,80,86146,1,0,0:0:0:0:
204,208,86221,1,8,0:0:0:0:
176,64,86296,1,8,0:0:0:0:
204,208,86371,1,0,0:0:0:0:
168,88,86446,1,8,0:0:0:0:
204,208,86521,1,0,0:0:0:0:
168,88,86596,1,0,0:0:0:0:
120,144,86671,1,8,0:0:0:0:
120,144,86746,1,0,0:0:0:0:
120,144,86821,1,8,0:0:0:0:
208,96,86896,1,8,0:0:0:0:
216,168,86971,1,0,0:0:0:0:
216,168,87121,1,8,0:0:0:0:
216,168,87196,1,8,0:0:0:0:
104,144,87271,1,0,0:0:0:0:
216,168,87346,1,0,0:0:0:0:
216,168,87421,1,8,0:0:0:0:
200,72,87496,1,0,0:0:0:0:
208,160,87571,1,0,0:0:0:0:
208,160,87646,1,0,0:0:0:0:
208,160,87721,1,8,0:0:0:0:
72,112,87796,1,0,0:0:0:0:
208,160,87871,1,8,0:0:0:0:
208,160,87946,1,8,0:0:0:0:
208,160,88021,1,0,0:0:0:0:
192,112,88096,1,8,0:0:0:0:
164,248,88171,1,0,0:0:0:0:
164,248,88321,1,8,0:0:0:0:
176,104,88396,1,0,0:0:0:0:
164,248,88471,1,0,0:0:0:0:
164,248,88546,1,0,0:0:0:0:
164,248,88621,1,8,0:0:0:0:
168,96,88696,1,0,0:0:0:0:
164,248,88771,1,8,0:0:0:0:
164,248,88846,1,8,0:0:0:0:
128,116,88921,1,0,0:0:0:0:
164,248,88996,1,0,0:0:0:0:
228,64,89071,1,8,0:0:0:0:
164,248,89146,1,8,0:0:0:0:
164,248,89221,1,0,0:0:0:0:
192,120,89296,1,8,0:0:0:0:
240,208,89371,1,0,0:0:0:0:
252,200,89521,1,8,0:0:0:0:
240,208,89671,1,0,0:0:0:0:
240,208,89746,1,0,0:0:0:0:
240,208,89821,1,8,0:0:0:0:
240,208,89971,1,0,0:0:0:0:
252,204,90121,1,8,0:0:0:0:
144,108,90271,1,0,0:0:0:0:
252,204,90346,1,0,0:0:0:0:
252,204,90421,1,8,0:0:0:0:
224,56,90496,1,8,0:0:0:0:
196,240,90571,1,0,0:0:0:0:
196,240,90721,1,8,0:0:0:0:
196,240,90871,1,0,0:0:0:0:
196,240,90946,1,0,0:0:0:0:
196,240,91021,1,8,0:0:0:0:
196,240,91171,1,0,0:0:0:0:
196,240,91321,1,8,0:0:0:0:
196,240,91396,1,8,0:0:0:0:
220,176,91471,1,0,0:0:0:0:
220,176,91621,1,8,0:0:0:0:
220,168,91771,1,8,0:0:0:0:
220,168,91846,1,0,0:0:0:0:
220,168,91921,1,0,0:0:0:0:
220,168,91996,1,0,0:0:0:0:
220,168,92071,1,8,0:0:0:0:
220,168,92146,1,0,0:0:0:0:
220,168,92221,1,8,0:0:0:0:
220,168,92296,1,0,0:0:0:0:
220,168,92371,1,0,0:0:0:0:
220,168,92446,1,0,0:0:0:0:
220,168,92521,1,8,0:0:0:0:
248,236,92596,1,0,0:0:0:0:
220,168,92671,1,8,0:0:0:0:
248,236,92746,1,0,0:0:0:0:
248,236,92821,1,0,0:0:0:0:
248,236,92896,1,0,0:0:0:0:
248,236,92971,1,8,0:0:0:0:
248,236,93121,1,0,0:0:0:0:
248,236,93271,1,0,0:0:0:0:
160,200,93421,1,0,0:0:0:0:
172,216,93571,1,8,0:0:0:0:
276,292,93721,1,8,0:0:0:0:
172,216,93871,1,0,0:0:0:0:
172,216,94021,1,0,0:0:0:0:
160,200,94171,1,8,0:0:0:0:
104,152,94246,1,0,0:0:0:0:
276,292,94321,1,0,0:0:0:0:
200,112,94396,1,0,0:0:0:0:
276,292,94471,1,8,0:0:0:0:
200,112,94546,1,0,0:0:0:0:
276,292,94621,1,8,0:0:0:0:
276,292,94696,1,0,0:0:0:0:
200,112,94771,1,0,0:0:0:0:
200,112,94846,1,0,0:0:0:0:
276,292,94921,1,8,0:0:0:0:
276,292,94996,1,0,0:0:0:0:
200,112,95071,1,8,0:0:0:0:
276,292,95146,1,8,0:0:0:0:
200,112,95221,1,0,0:0:0:0:
200,112,95296,1,0,0:0:0:0:
172,216,95371,1,8,0:0:0:0:
276,292,95446,1,0,0:0:0:0:
276,292,95521,1,0,0:0:0:0:
200,112,95596,1,0,0:0:0:0:
276,292,95671,1,8,0:0:0:0:
200,112,95746,1,0,0:0:0:0:
276,292,95821,1,8,0:0:0:0:
276,292,95896,1,8,0:0:0:0:
200,112,95971,1,0,0:0:0:0:
200,112,96046,1,0,0:0:0:0:
276,292,96121,1,8,0:0:0:0:
276,292,96196,1,0,0:0:0:0:
200,112,96271,1,8,0:0:0:0:
276,292,96346,1,8,0:0:0:0:
200,112,96421,1,0,0:0:0:0:
172,216,96496,1,0,0:0:0:0:
200,112,96571,1,8,0:0:0:0:
276,292,96646,1,0,0:0:0:0:
200,112,96721,1,0,0:0:0:0:
276,292,96796,1,0,0:0:0:0:
276,292,96871,1,8,0:0:0:0:
200,112,96946,1,0,0:0:0:0:
276,292,97021,1,8,0:0:0:0:
276,292,97096,1,8,0:0:0:0:
200,112,97171,1,0,0:0:0:0:
200,112,97246,1,0,0:0:0:0:
276,292,97321,1,8,0:0:0:0:
276,292,97396,1,0,0:0:0:0:
200,112,97471,1,8,0:0:0:0:
276,292,97546,1,8,0:0:0:0:
200,112,97621,1,8,0:0:0:0:
200,112,97696,1,0,0:0:0:0:
172,216,97771,1,8,0:0:0:0:
276,292,97846,1,8,0:0:0:0:
276,292,97921,1,8,0:0:0:0:
276,292,97996,1,8,0:0:0:0:
200,112,98071,1,0,0:0:0:0:
200,112,98146,1,0,0:0:0:0:
276,292,98221,1,0,0:0:0:0:
276,292,98296,1,0,0:0:0:0:
200,112,98371,1,8,0:0:0:0:
200,112,98446,1,8,0:0:0:0:
200,112,98521,1,0,0:0:0:0:
200,112,98596,1,0,0:0:0:0:
276,292,98671,1,8,0:0:0:0:
172,216,98746,1,0,0:0:0:0:
276,292,98821,1,8,0:0:0:0:
104,136,98896,1,8,0:0:0:0:
276,292,98971,1,0,0:0:0:0:
276,292,99121,1,8,0:0:0:0:
276,292,99271,1,0,0:0:0:0:
200,112,99346,1,0,0:0:0:0:
276,292,99421,1,8,0:0:0:0:
200,112,99571,1,0,0:0:0:0:
276,292,99721,1,8,0:0:0:0:
276,292,99796,1,8,0:0:0:0:
200,112,99871,1,0,0:0:0:0:
200,112,99946,1,0,0:0:0:0:
276,292,100021,1,8,0:0:0:0:
172,216,100171,1,8,0:0:0:0:
276,292,100246,1,8,0:0:0:0:
200,112,100321,1,8,0:0:0:0:
276,292,100471,1,0,0:0:0:0:
276,292,100621,1,8,0:0:0:0:
276,292,100696,1,8,0:0:0:0:
200,112,100771,1,0,0:0:0:0:
184,32,100846,1,0,0:0:0:0:
200,112,100921,1,8,0:0:0:0:
200,112,101071,1,8,0:0:0:0:
172,216,101146,1,0,0:0:0:0:
276,292,101221,1,8,0:0:0:0:
200,112,101371,1,0,0:0:0:0:
276,292,101521,1,8,0:0:0:0:
276,292,101671,1,0,0:0:0:0:
200,112,101746,1,0,0:0:0:0:
276,292,101821,1,8,0:0:0:0:
200,112,101971,1,0,0:0:0:0:
276,292,102121,1,8,0:0:0:0:
276,292,102196,1,0,0:0:0:0:
200,112,102271,1,8,0:0:0:0:
276,292,102346,1,8,0:0:0:0:
200,112,102421,1,0,0:0:0:0:
200,112,102571,1,8,0:0:0:0:
276,292,102646,1,8,0:0:0:0:
276,292,102721,1,8,0:0:0:0:
200,112,102796,1,8,0:0:0:0:
276,292,102871,1,0,0:0:0:0:
276,292,102946,1,0,0:0:0:0:
276,292,103021,1,8,0:0:0:0:
200,112,103096,1,8,0:0:0:0:
200,112,103171,1,8,0:0:0:0:
200,112,103246,1,8,0:0:0:0:
276,292,103321,1,0,0:0:0:0:
276,292,103396,1,0,0:0:0:0:
200,112,103471,1,8,0:0:0:0:
208,132,103546,1,8,0:0:0:0:
204,124,103621,1,0,0:0:0:0:
204,132,103771,1,4,0:0:0:0:
276,292,103921,1,8,0:0:0:0:
200,112,104071,1,0,0:0:0:0:
276,292,104146,1,0,0:0:0:0:
276,292,104221,1,8,0:0:0:0:
200,112,104296,1,8,0:0:0:0:
200,112,104371,1,0,0:0:0:0:
276,292,104521,1,8,0:0:0:0:
200,112,104671,1,0,0:0:0:0:
276,292,104746,1,0,0:0:0:0:
200,112,104821,1,8,0:0:0:0:
172,216,104971,1,8,0:0:0:0:
276,292,105046,1,8,0:0:0:0:
276,292,105121,1,8,0:0:0:0:
276,292,105271,1,0,0:0:0:0:
160,72,105346,1,0,0:0:0:0:
276,292,105421,1,8,0:0:0:0:
276,292,105496,1,8,0:0:0:0:
200,112,105571,1,0,0:0:0:0:
172,216,105721,1,8,0:0:0:0:
276,292,105871,1,8,0:0:0:0:
200,112,105946,1,0,0:0:0:0:
276,292,106021,1,8,0:0:0:0:
276,292,106171,1,0,0:0:0:0:
200,112,106321,1,8,0:0:0:0:
276,292,106471,1,0,0:0:0:0:
276,292,106546,1,0,0:0:0:0:
276,292,106621,1,8,0:0:0:0:
200,112,106771,1,0,0:0:0:0:
276,292,106921,1,8,0:0:0:0:
200,112,106996,1,8,0:0:0:0:
276,292,107071,1,0,0:0:0:0:
276,292,107146,1,0,0:0:0:0:
200,112,107221,1,8,0:0:0:0:
172,216,107371,1,0,0:0:0:0:
200,112,107446,1,0,0:0:0:0:
276,292,107521,1,8,0:0:0:0:
276,292,107596,1,8,0:0:0:0:
276,292,107671,1,8,0:0:0:0:
200,112,107746,1,8,0:0:0:0:
276,292,107821,1,0,0:0:0:0:
200,112,107896,1,0,0:0:0:0:
200,112,107971,1,8,0:0:0:0:
144,120,108046,1,8,0:0:0:0:
200,112,108121,1,8,0:0:0:0:
276,292,108196,1,8,0:0:0:0:
276,292,108271,1,0,0:0:0:0:
276,292,108346,1,0,0:0:0:0:
276,292,108421,1,0,0:0:0:0:
172,216,108571,1,4,0:0:0:0:
260,216,109771,1,4,0:0:0:0:
256,160,110971,1,4,0:0:0:0:
256,160,111271,1,4,0:0:0:0:
256,160,111571,1,4,0:0:0:0:
256,160,111871,1,4,0:0:0:0:
256,160,112171,1,4,0:0:0:0:
256,160,112471,1,12,0:0:0:0:
256,160,112771,1,12,0:0:0:0:
144,160,113371,1,4,0:0:0:0:
144,160,113521,1,8,0:0:0:0:
184,116,113671,1,0,0:0:0:0:
184,116,113746,1,0,0:0:0:0:
180,124,113821,1,8,0:0:0:0:
180,124,113896,1,0,0:0:0:0:
180,124,113971,1,0,0:0:0:0:
180,124,114121,1,8,0:0:0:0:
180,124,114271,1,8,0:0:0:0:
180,124,114346,1,0,0:0:0:0:
180,124,114421,1,8,0:0:0:0:
184,116,114496,1,8,0:0:0:0:
184,116,114571,1,0,0:0:0:0:
192,112,114721,1,8,0:0:0:0:
192,112,114796,1,8,0:0:0:0:
192,112,114871,1,0,0:0:0:0:
196,112,115021,1,8,0:0:0:0:
208,48,115096,1,8,0:0:0:0:
192,112,115171,1,0,0:0:0:0:
192,112,115321,1,8,0:0:0:0:
176,108,115471,1,0,0:0:0:0:
176,108,115546,1,0,0:0:0:0:
176,108,115621,1,8,0:0:0:0:
232,240,115771,1,0,0:0:0:0:
232,240,115921,1,8,0:0:0:0:
232,240,116071,1,0,0:0:0:0:
232,240,116146,1,0,0:0:0:0:
232,240,116221,1,8,0:0:0:0:
144,208,116296,1,8,0:0:0:0:
144,208,116371,1,0,0:0:0:0:
144,208,116521,1,8,0:0:0:0:
144,208,116671,1,0,0:0:0:0:
144,208,116746,1,0,0:0:0:0:
144,208,116821,1,8,0:0:0:0:
216,196,116971,1,0,0:0:0:0:
216,196,117046,1,0,0:0:0:0:
216,196,117121,1,8,0:0:0:0:
216,196,117196,1,8,0:0:0:0:
216,196,117271,1,8,0:0:0:0:
216,196,117346,1,8,0:0:0:0:
216,196,117421,1,0,0:0:0:0:
216,196,117496,1,0,0:0:0:0:
216,196,117571,1,8,0:0:0:0:
216,196,117646,1,8,0:0:0:0:
216,196,117721,1,8,0:0:0:0:
216,196,117796,1,8,0:0:0:0:
216,196,117871,1,0,0:0:0:0:
216,196,117946,1,0,0:0:0:0:
216,196,118021,1,0,0:0:0:0:
216,196,118096,1,0,0:0:0:0:
216,196,118171,1,8,0:0:0:0:
156,252,118321,1,0,0:0:0:0:
156,252,118396,1,0,0:0:0:0:
156,252,118471,1,0,0:0:0:0:
156,252,118621,1,8,0:0:0:0:
152,216,118771,1,0,0:0:0:0:
184,120,118846,1,0,0:0:0:0:
156,216,118921,1,0,0:0:0:0:
192,136,118996,1,0,0:0:0:0:
156,216,119071,1,8,0:0:0:0:
152,216,119221,1,0,0:0:0:0:
168,92,119371,1,8,0:0:0:0:
260,200,119521,1,0,0:0:0:0:
192,88,119596,1,0,0:0:0:0:
260,200,119671,1,0,0:0:0:0:
260,200,119821,1,8,0:0:0:0:
260,200,119971,1,0,0:0:0:0:
260,200,120046,1,8,0:0:0:0:
260,200,120121,1,0,0:0:0:0:
260,200,120196,1,0,0:0:0:0:
260,200,120271,1,8,0:0:0:0:
208,80,120346,1,8,0:0:0:0:
260,200,120421,1,0,0:0:0:0:
208,80,120496,1,0,0:0:0:0:
168,92,120571,1,8,0:0:0:0:
260,200,120721,1,0,0:0:0:0:
260,200,120796,1,0,0:0:0:0:
260,200,120871,1,0,0:0:0:0:
260,200,120946,1,0,0:0:0:0:
260,200,121021,1,8,0:0:0:0:
260,200,121171,1,0,0:0:0:0:
240,48,121246,1,8,0:0:0:0:
260,200,121321,1,0,0:0:0:0:
248,96,121471,1,8,0:0:0:0:
260,200,121546,1,8,0:0:0:0:
48,128,121621,1,0,0:0:0:0:
204,296,121696,1,8,0:0:0:0:
136,168,121771,1,0,0:0:0:0:
288,296,121921,1,0,0:0:0:0:
288,296,122071,1,8,0:0:0:0:
288,296,122146,1,8,0:0:0:0:
288,296,122221,1,0,0:0:0:0:
280,288,122371,1,0,0:0:0:0:
280,288,122521,1,8,0:0:0:0:
280,288,122596,1,8,0:0:0:0:
280,288,122671,1,0,0:0:0:0:
288,280,122821,1,8,0:0:0:0:
144,160,122971,1,4,0:0:0:0:
144,160,123121,1,8,0:0:0:0:
184,116,123271,1,0,0:0:0:0:
184,116,123346,1,0,0:0:0:0:
180,124,123421,1,8,0:0:0:0:
192,56,123496,1,8,0:0:0:0:
180,124,123571,1,0,0:0:0:0:
180,124,123721,1,0,0:0:0:0:
240,56,123796,1,0,0:0:0:0:
180,124,123871,1,8,0:0:0:0:
180,124,123946,1,0,0:0:0:0:
180,124,124021,1,8,0:0:0:0:
184,116,124096,1,8,0:0:0:0:
184,116,124171,1,0,0:0:0:0:
192,112,124321,1,8,0:0:0:0:
192,112,124471,1,0,0:0:0:0:
192,112,124546,1,0,0:0:0:0:
196,112,124621,1,8,0:0:0:0:
192,112,124771,1,0,0:0:0:0:
192,112,124921,1,8,0:0:0:0:
208,48,124996,1,8,0:0:0:0:
176,108,125071,1,0,0:0:0:0:
176,108,125146,1,0,0:0:0:0:
176,108,125221,1,8,0:0:0:0:
232,240,125371,1,0,0:0:0:0:
232,240,125521,1,8,0:0:0:0:
192,112,125596,1,0,0:0:0:0:
272,136,125671,1,0,0:0:0:0:
232,240,125746,1,0,0:0:0:0:
232,240,125821,1,8,0:0:0:0:
144,208,125971,1,0,0:0:0:0:
144,208,126121,1,8,0:0:0:0:
144,208,126271,1,0,0:0:0:0:
144,208,126346,1,0,0:0:0:0:
144,208,126421,1,8,0:0:0:0:
136,168,126571,1,8,0:0:0:0:
288,296,126721,1,8,0:0:0:0:
288,296,126871,1,8,0:0:0:0:
288,296,126946,1,8,0:0:0:0:
288,296,127021,1,0,0:0:0:0:
304,112,127096,1,0,0:0:0:0:
280,288,127171,1,8,0:0:0:0:
280,288,127321,1,8,0:0:0:0:
288,280,127471,1,0,0:0:0:0:
280,288,127546,1,8,0:0:0:0:
280,288,127621,1,0,0:0:0:0:
288,280,127771,1,4,0:0:0:0:
288,280,127921,1,4,0:0:0:0:
292,224,130171,1,12,0:0:0:0:
268,224,132571,1,4,0:0:0:0:
112,104,136171,2,4,B|240:104|240:104|120:232|120:232|240:232,1,419.99995634079
304,304,137371,1,12,0:0:0:0:
304,304,137521,1,0,0:0:0:0:
304,304,137596,1,0,0:0:0:0:
304,304,137671,1,8,0:0:0:0:
304,304,137746,1,0,0:0:0:0:
232,160,137821,1,0,0:0:0:0:
304,304,137896,1,0,0:0:0:0:
304,304,137971,1,8,0:0:0:0:
136,208,138046,1,0,0:0:0:0:
304,304,138121,1,8,0:0:0:0:
304,304,138196,1,0,0:0:0:0:
304,304,138271,1,8,0:0:0:0:
152,140,138346,1,8,0:0:0:0:
304,304,138421,1,0,0:0:0:0:
304,304,138496,1,0,0:0:0:0:
304,304,138571,1,8,0:0:0:0:
128,204,138646,1,0,0:0:0:0:
136,208,138721,1,0,0:0:0:0:
304,304,138796,1,0,0:0:0:0:
304,304,138871,1,8,0:0:0:0:
128,204,138946,1,0,0:0:0:0:
304,304,139021,1,0,0:0:0:0:
304,304,139096,1,0,0:0:0:0:
304,304,139171,1,8,0:0:0:0:
128,204,139246,1,0,0:0:0:0:
304,304,139321,1,0,0:0:0:0:
304,304,139396,1,0,0:0:0:0:
304,304,139471,1,8,0:0:0:0:
304,304,139546,1,8,0:0:0:0:
64,144,139621,1,8,0:0:0:0:
304,304,139696,1,0,0:0:0:0:
304,304,139771,1,8,0:0:0:0:
128,204,139846,1,0,0:0:0:0:
304,304,139921,1,0,0:0:0:0:
304,304,139996,1,0,0:0:0:0:
304,304,140071,1,8,0:0:0:0:
128,204,140146,1,0,0:0:0:0:
304,304,140221,1,8,0:0:0:0:
304,304,140296,1,0,0:0:0:0:
304,304,140371,1,8,0:0:0:0:
128,204,140446,1,0,0:0:0:0:
304,304,140521,1,0,0:0:0:0:
304,304,140596,1,0,0:0:0:0:
304,304,140671,1,8,0:0:0:0:
304,304,140746,1,8,0:0:0:0:
144,180,140821,1,0,0:0:0:0:
304,304,140896,1,0,0:0:0:0:
304,304,140971,1,8,0:0:0:0:
304,304,141046,1,0,0:0:0:0:
304,304,141121,1,0,0:0:0:0:
128,204,141196,1,0,0:0:0:0:
304,304,141271,1,8,0:0:0:0:
128,204,141346,1,0,0:0:0:0:
304,304,141421,1,0,0:0:0:0:
304,304,141496,1,0,0:0:0:0:
304,304,141571,1,8,0:0:0:0:
128,204,141646,1,0,0:0:0:0:
304,304,141721,1,8,0:0:0:0:
304,304,141796,1,0,0:0:0:0:
304,304,141871,1,8,0:0:0:0:
128,204,141946,1,8,0:0:0:0:
64,144,142021,1,0,0:0:0:0:
304,304,142096,1,0,0:0:0:0:
304,304,142171,1,8,0:0:0:0:
128,204,142246,1,0,0:0:0:0:
304,304,142321,1,0,0:0:0:0:
304,304,142396,1,0,0:0:0:0:
304,304,142471,1,8,0:0:0:0:
128,204,142546,1,0,0:0:0:0:
304,304,142621,1,0,0:0:0:0:
304,304,142696,1,0,0:0:0:0:
304,304,142771,1,8,0:0:0:0:
128,204,142846,1,0,0:0:0:0:
304,304,142921,1,8,0:0:0:0:
304,304,142996,1,0,0:0:0:0:
304,304,143071,1,8,0:0:0:0:
304,304,143146,1,8,0:0:0:0:
304,304,143221,1,0,0:0:0:0:
304,304,143296,1,0,0:0:0:0:
304,304,143371,1,8,0:0:0:0:
152,140,143446,1,0,0:0:0:0:
304,304,143521,1,0,0:0:0:0:
128,204,143596,1,0,0:0:0:0:
304,304,143671,1,8,0:0:0:0:
128,204,143746,1,0,0:0:0:0:
128,204,143821,1,0,0:0:0:0:
304,304,143896,1,0,0:0:0:0:
304,304,143971,1,8,0:0:0:0:
128,204,144046,1,0,0:0:0:0:
304,304,144121,1,0,0:0:0:0:
304,304,144196,1,0,0:0:0:0:
304,304,144271,1,8,0:0:0:0:
304,304,144346,1,8,0:0:0:0:
64,144,144421,1,8,0:0:0:0:
304,304,144496,1,0,0:0:0:0:
304,304,144571,1,8,0:0:0:0:
128,204,144646,1,8,0:0:0:0:
304,304,144721,1,0,0:0:0:0:
304,304,144796,1,8,0:0:0:0:
304,304,144871,1,8,0:0:0:0:
264,88,144946,1,0,0:0:0:0:
304,304,145021,1,8,0:0:0:0:
304,304,145096,1,0,0:0:0:0:
304,304,145171,1,8,0:0:0:0:
236,180,145246,1,0,0:0:0:0:
304,304,145321,1,0,0:0:0:0:
304,304,145396,1,0,0:0:0:0:
304,304,145471,1,8,0:0:0:0:
144,180,145546,1,0,0:0:0:0:
304,304,145621,1,8,0:0:0:0:
304,304,145696,1,8,0:0:0:0:
304,304,145771,1,8,0:0:0:0:
304,304,145921,1,0,0:0:0:0:
304,304,145996,1,0,0:0:0:0:
304,304,146071,1,8,0:0:0:0:
304,304,146221,1,8,0:0:0:0:
304,304,146371,1,0,0:0:0:0:
304,304,146446,1,0,0:0:0:0:
304,304,146521,1,8,0:0:0:0:
304,304,146596,1,0,0:0:0:0:
304,304,146671,1,8,0:0:0:0:
64,144,146746,1,8,0:0:0:0:
304,304,146821,1,8,0:0:0:0:
304,304,146896,1,8,0:0:0:0:
220,136,146971,1,0,0:0:0:0:
168,244,147121,1,8,0:0:0:0:
168,244,147271,1,0,0:0:0:0:
168,244,147346,1,0,0:0:0:0:
168,244,147421,1,8,0:0:0:0:
168,244,147571,1,0,0:0:0:0:
168,244,147721,1,8,0:0:0:0:
168,236,147871,1,0,0:0:0:0:
168,236,147946,1,0,0:0:0:0:
168,236,148021,1,8,0:0:0:0:
208,64,148096,1,8,0:0:0:0:
168,244,148171,1,0,0:0:0:0:
168,244,148321,1,8,0:0:0:0:
168,236,148471,1,0,0:0:0:0:
168,236,148546,1,0,0:0:0:0:
168,236,148621,1,8,0:0:0:0:
168,244,148696,1,0,0:0:0:0:
168,236,148771,1,0,0:0:0:0:
168,236,148921,1,8,0:0:0:0:
168,236,148996,1,0,0:0:0:0:
160,64,149146,1,0,0:0:0:0:
300,264,149221,1,8,0:0:0:0:
168,244,149371,1,0,0:0:0:0:
168,244,149521,1,8,0:0:0:0:
168,236,149671,1,0,0:0:0:0:
168,236,149746,1,0,0:0:0:0:
168,236,149821,1,8,0:0:0:0:
168,236,149971,1,0,0:0:0:0:
168,236,150121,1,8,0:0:0:0:
168,244,150196,1,0,0:0:0:0:
168,244,150271,1,0,0:0:0:0:
168,236,150346,1,0,0:0:0:0:
300,264,150421,1,8,0:0:0:0:
176,88,150496,1,8,0:0:0:0:
168,244,150571,1,0,0:0:0:0:
168,244,150721,1,8,0:0:0:0:
168,236,150871,1,0,0:0:0:0:
168,236,150946,1,0,0:0:0:0:
168,236,151021,1,8,0:0:0:0:
168,236,151171,1,0,0:0:0:0:
168,236,151321,1,8,0:0:0:0:
168,244,151396,1,0,0:0:0:0:
200,56,151546,1,0,0:0:0:0:
300,264,151621,1,8,0:0:0:0:
200,56,151696,1,8,0:0:0:0:
156,156,151771,1,0,0:0:0:0:
156,156,151921,1,8,0:0:0:0:
160,136,151996,1,0,0:0:0:0:
176,128,152071,1,0,0:0:0:0:
280,156,152146,1,0,0:0:0:0:
280,156,152221,1,8,0:0:0:0:
276,152,152371,1,0,0:0:0:0:
208,184,152446,1,0,0:0:0:0:
276,156,152521,1,8,0:0:0:0:
240,84,152671,1,0,0:0:0:0:
240,84,152746,1,0,0:0:0:0:
196,76,152821,1,8,0:0:0:0:
208,88,152896,1,0,0:0:0:0:
16,160,152971,1,0,0:0:0:0:
156,156,153121,1,8,0:0:0:0:
280,156,153196,1,8,0:0:0:0:
176,128,153271,1,0,0:0:0:0:
280,156,153346,1,0,0:0:0:0:
280,156,153421,1,8,0:0:0:0:
276,152,153571,1,0,0:0:0:0:
276,156,153721,1,8,0:0:0:0:
240,84,153871,1,0,0:0:0:0:
240,84,153946,1,0,0:0:0:0:
196,76,154021,1,8,0:0:0:0:
272,256,154171,1,0,0:0:0:0:
272,256,154246,1,0,0:0:0:0:
272,256,154321,1,0,0:0:0:0:
272,256,154396,1,0,0:0:0:0:
300,308,154471,1,8,0:0:0:0:
300,308,154546,1,8,0:0:0:0:
300,308,154621,1,0,0:0:0:0:
376,284,154696,1,0,0:0:0:0:
376,284,154771,1,8,0:0:0:0:
376,284,154846,1,8,0:0:0:0:
376,284,154921,1,8,0:0:0:0:
376,284,154996,1,0,0:0:0:0:
376,284,155071,1,8,0:0:0:0:
368,280,155146,1,8,0:0:0:0:
368,280,155221,1,8,0:0:0:0:
368,280,155296,1,8,0:0:0:0:
232,176,155371,1,0,0:0:0:0:
232,176,155446,1,0,0:0:0:0:
232,176,155521,1,0,0:0:0:0:
232,176,155596,1,0,0:0:0:0:
232,176,155671,1,8,0:0:0:0:
144,104,155746,1,0,0:0:0:0:
144,104,155821,1,0,0:0:0:0:
132,104,155896,1,0,0:0:0:0:
132,104,155971,1,8,0:0:0:0:
128,104,156046,1,0,0:0:0:0:
128,104,156121,1,0,0:0:0:0:
128,104,156196,1,0,0:0:0:0:
204,256,156271,1,8,0:0:0:0:
216,272,156346,1,8,0:0:0:0:
216,272,156421,1,0,0:0:0:0:
300,112,156571,1,12,0:0:0:0:
184,240,158971,1,8,0:0:0:0:
187,169,159271,1,0,0:0:0:0:
187,169,159571,1,8,0:0:0:0:
187,169,159871,1,8,0:0:0:0:
187,169,160171,1,0,0:0:0:0:
187,169,160471,1,8,0:0:0:0:
184,240,161071,1,0,0:0:0:0:
184,240,161371,1,8,0:0:0:0:
187,169,161671,1,8,0:0:0:0:
187,169,161971,1,0,0:0:0:0:
187,169,162271,1,8,0:0:0:0:
187,169,162571,1,0,0:0:0:0:
187,169,162871,1,8,0:0:0:0:
374,291,163171,1,0,0:0:0:0:
374,291,163321,1,8,0:0:0:0:
374,291,163471,1,0,0:0:0:0:
324,169,163771,1,8,0:0:0:0:
205,259,164071,1,0,0:0:0:0:
205,259,164371,1,0,0:0:0:0:
205,259,164671,1,8,0:0:0:0:
288,245,164821,1,0,0:0:0:0:
288,245,164971,1,0,0:0:0:0:
155,171,165271,1,8,0:0:0:0:
155,171,165871,1,0,0:0:0:0:
155,171,166171,1,0,0:0:0:0:
163,177,166471,1,8,0:0:0:0:
163,177,166771,1,0,0:0:0:0:
164,175,167071,1,8,0:0:0:0:
292,193,167371,1,8,0:0:0:0:
292,193,167521,1,8,0:0:0:0:
292,193,167671,1,0,0:0:0:0:
292,193,167821,1,8,0:0:0:0:
292,193,167971,1,8,0:0:0:0:
184,240,168271,1,0,0:0:0:0:
184,240,168571,1,8,0:0:0:0:
187,169,168871,1,0,0:0:0:0:
187,169,169171,1,0,0:0:0:0:
187,169,169471,1,8,0:0:0:0:
187,169,169771,1,0,0:0:0:0:
187,169,170071,1,8,0:0:0:0:
184,240,170671,1,0,0:0:0:0:
184,240,170971,1,8,0:0:0:0:
187,169,171271,1,8,0:0:0:0:
187,169,171571,1,0,0:0:0:0:
187,169,171721,1,8,0:0:0:0:
257,217,171871,1,0,0:0:0:0:
187,169,172021,1,8,0:0:0:0:
257,217,172171,1,0,0:0:0:0:
10,153,172321,1,0,0:0:0:0:
187,169,172471,1,8,0:0:0:0:
374,291,172621,1,0,0:0:0:0:
374,291,172771,1,0,0:0:0:0:
374,291,173071,1,0,0:0:0:0:
324,169,173371,1,8,0:0:0:0:
205,259,173671,1,0,0:0:0:0:
167,137,173821,1,8,0:0:0:0:
205,259,173971,1,0,0:0:0:0:
205,259,174271,1,8,0:0:0:0:
288,245,174571,1,0,0:0:0:0:
155,171,174871,1,8,0:0:0:0:
235,272,175171,1,8,0:0:0:0:
155,171,175471,1,0,0:0:0:0:
163,177,175771,1,8,0:0:0:0:
155,171,176071,1,0,0:0:0:0:
163,177,176371,1,0,0:0:0:0:
164,175,176671,1,8,0:0:0:0:
292,193,176971,1,8,0:0:0:0:
292,193,177121,1,8,0:0:0:0:
292,193,177271,1,0,0:0:0:0:
292,193,177421,1,8,0:0:0:0:
292,193,177571,1,0,0:0:0:0:
168,96,177721,1,0,0:0:0:0:
184,240,177871,1,8,0:0:0:0:
184,240,178171,1,8,0:0:0:0:
184,160,178471,1,0,0:0:0:0:
288,288,178621,1,8,0:0:0:0:
288,288,178921,1,0,0:0:0:0:
187,169,179071,1,8,0:0:0:0:
187,169,179221,1,0,0:0:0:0:
187,169,179371,1,8,0:0:0:0:
184,240,180271,1,0,0:0:0:0:
184,240,180571,1,8,0:0:0:0:
187,169,180871,1,0,0:0:0:0:
187,169,181021,1,8,0:0:0:0:
112,152,181321,1,0,0:0:0:0:
187,169,181471,1,8,0:0:0:0:
187,169,181771,1,0,0:0:0:0:
374,291,181921,1,0,0:0:0:0:
374,291,182071,1,0,0:0:0:0:
187,169,182221,1,8,0:0:0:0:
171,140,182521,1,0,0:0:0:0:
374,291,182671,1,8,0:0:0:0:
324,169,182971,1,8,0:0:0:0:
205,259,183271,1,0,0:0:0:0:
205,259,183571,1,0,0:0:0:0:
205,259,183871,1,8,0:0:0:0:
288,245,184021,1,0,0:0:0:0:
155,171,184171,1,8,0:0:0:0:
66,235,184321,1,0,0:0:0:0:
288,245,184471,1,0,0:0:0:0:
66,235,184771,1,8,0:0:0:0:
66,235,184921,1,0,0:0:0:0:
155,171,185071,1,8,0:0:0:0:
155,171,185371,1,0,0:0:0:0:
163,177,185671,1,8,0:0:0:0:
163,177,185971,1,0,0:0:0:0:
248,280,186121,1,0,0:0:0:0:
164,175,186271,1,8,0:0:0:0:
292,193,186571,1,8,0:0:0:0:
292,193,186721,1,8,0:0:0:0:
292,193,186871,1,0,0:0:0:0:
292,193,187021,1,0,0:0:0:0:
292,193,187171,1,0,0:0:0:0:
184,240,187471,1,0,0:0:0:0:
184,240,187771,1,8,0:0:0:0:
187,169,188071,1,0,0:0:0:0:
187,169,188221,1,8,0:0:0:0:
187,169,188521,1,0,0:0:0:0:
187,169,188671,1,8,0:0:0:0:
336,224,188821,1,8,0:0:0:0:
120,192,188971,1,0,0:0:0:0:
184,240,189871,1,0,0:0:0:0:
184,240,190171,1,8,0:0:0:0:
187,169,190471,1,0,0:0:0:0:
187,169,190621,1,8,0:0:0:0:
128,160,190921,1,0,0:0:0:0:
257,217,191071,1,8,0:0:0:0:
144,152,191221,1,8,0:0:0:0:
257,217,191371,1,0,0:0:0:0:
374,291,191671,1,8,0:0:0:0:
374,291,191821,1,0,0:0:0:0:
184,136,192121,1,0,0:0:0:0:
374,291,192271,1,8,0:0:0:0:
324,169,192571,1,12,0:0:0:0:
197,295,192871,1,0,0:0:0:0:
197,295,193021,1,0,0:0:0:0:
197,295,193171,1,0,0:0:0:0:
197,295,193321,1,0,0:0:0:0:
197,295,193471,1,0,0:0:0:0:
197,295,193621,1,0,0:0:0:0:
197,295,193771,1,0,0:0:0:0:
197,295,193921,1,0,0:0:0:0:
197,295,194071,1,0,0:0:0:0:
205,261,194221,1,0,0:0:0:0:
197,295,194371,1,0,0:0:0:0:
204,261,194521,1,0,0:0:0:0:
204,261,194671,1,0,0:0:0:0:
197,295,194821,1,0,0:0:0:0:
202,261,194971,1,8,0:0:0:0:
266,133,196171,1,4,0:0:0:0:
304,304,197371,1,12,0:0:0:0:
304,304,197521,1,0,0:0:0:0:
304,304,197596,1,0,0:0:0:0:
304,304,197671,1,8,0:0:0:0:
304,304,197746,1,0,0:0:0:0:
232,160,197821,1,0,0:0:0:0:
304,304,197896,1,0,0:0:0:0:
304,304,197971,1,8,0:0:0:0:
136,208,198046,1,0,0:0:0:0:
304,304,198121,1,8,0:0:0:0:
304,304,198196,1,0,0:0:0:0:
304,304,198271,1,8,0:0:0:0:
152,140,198346,1,8,0:0:0:0:
304,304,198421,1,0,0:0:0:0:
304,304,198496,1,0,0:0:0:0:
304,304,198571,1,8,0:0:0:0:
128,204,198646,1,0,0:0:0:0:
136,208,198721,1,0,0:0:0:0:
304,304,198796,1,0,0:0:0:0:
304,304,198871,1,8,0:0:0:0:
128,204,198946,1,0,0:0:0:0:
304,304,199021,1,0,0:0:0:0:
304,304,199096,1,0,0:0:0:0:
304,304,199171,1,8,0:0:0:0:
128,204,199246,1,0,0:0:0:0:
304,304,199321,1,0,0:0:0:0:
304,304,199396,1,0,0:0:0:0:
304,304,199471,1,8,0:0:0:0:
304,304,199546,1,8,0:0:0:0:
64,144,199621,1,8,0:0:0:0:
304,304,199696,1,0,0:0:0:0:
304,304,199771,1,8,0:0:0:0:
128,204,199846,1,0,0:0:0:0:
304,304,199921,1,0,0:0:0:0:
304,304,199996,1,0,0:0:0:0:
304,304,200071,1,8,0:0:0:0:
128,204,200146,1,0,0:0:0:0:
304,304,200221,1,8,0:0:0:0:
304,304,200296,1,0,0:0:0:0:
304,304,200371,1,8,0:0:0:0:
128,204,200446,1,0,0:0:0:0:
304,304,200521,1,0,0:0:0:0:
304,304,200596,1,0,0:0:0:0:
304,304,200671,1,8,0:0:0:0:
304,304,200746,1,8,0:0:0:0:
144,180,200821,1,0,0:0:0:0:
304,304,200896,1,0,0:0:0:0:
304,304,200971,1,8,0:0:0:0:
304,304,201046,1,0,0:0:0:0:
304,304,201121,1,0,0:0:0:0:
128,204,201196,1,0,0:0:0:0:
304,304,201271,1,8,0:0:0:0:
128,204,201346,1,0,0:0:0:0:
304,304,201421,1,0,0:0:0:0:
304,304,201496,1,0,0:0:0:0:
304,304,201571,1,8,0:0:0:0:
128,204,201646,1,0,0:0:0:0:
304,304,201721,1,8,0:0:0:0:
304,304,201796,1,0,0:0:0:0:
304,304,201871,1,8,0:0:0:0:
128,204,201946,1,8,0:0:0:0:
64,144,202021,1,0,0:0:0:0:
304,304,202096,1,0,0:0:0:0:
304,304,202171,1,8,0:0:0:0:
128,204,202246,1,0,0:0:0:0:
304,304,202321,1,0,0:0:0:0:
304,304,202396,1,0,0:0:0:0:
304,304,202471,1,8,0:0:0:0:
128,204,202546,1,0,0:0:0:0:
304,304,202621,1,0,0:0:0:0:
304,304,202696,1,0,0:0:0:0:
304,304,202771,1,8,0:0:0:0:
128,204,202846,1,0,0:0:0:0:
304,304,202921,1,8,0:0:0:0:
304,304,202996,1,0,0:0:0:0:
304,304,203071,1,8,0:0:0:0:
304,304,203146,1,8,0:0:0:0:
304,304,203221,1,0,0:0:0:0:
304,304,203296,1,0,0:0:0:0:
304,304,203371,1,8,0:0:0:0:
152,140,203446,1,0,0:0:0:0:
304,304,203521,1,0,0:0:0:0:
128,204,203596,1,0,0:0:0:0:
304,304,203671,1,8,0:0:0:0:
128,204,203746,1,0,0:0:0:0:
128,204,203821,1,0,0:0:0:0:
304,304,203896,1,0,0:0:0:0:
304,304,203971,1,8,0:0:0:0:
128,204,204046,1,0,0:0:0:0:
304,304,204121,5,0,0:0:0:0:
304,304,204196,1,0,0:0:0:0:
304,304,204271,1,8,0:0:0:0:
304,304,204346,1,8,0:0:0:0:
64,144,204421,1,8,0:0:0:0:
304,304,204496,1,0,0:0:0:0:
304,304,204571,1,8,0:0:0:0:
128,204,204646,1,0,0:0:0:0:
304,304,204721,1,0,0:0:0:0:
304,304,204796,1,0,0:0:0:0:
304,304,204871,1,8,0:0:0:0:
264,88,204946,1,0,0:0:0:0:
304,304,205021,1,8,0:0:0:0:
304,304,205096,1,8,0:0:0:0:
304,304,205171,1,0,0:0:0:0:
236,180,205246,1,0,0:0:0:0:
304,304,205321,1,8,0:0:0:0:
304,304,205396,1,0,0:0:0:0:
304,304,205471,1,8,0:0:0:0:
304,304,205546,1,8,0:0:0:0:
144,180,205621,1,0,0:0:0:0:
304,304,205696,1,0,0:0:0:0:
304,304,205771,1,8,0:0:0:0:
304,304,205921,1,0,0:0:0:0:
304,304,205996,1,0,0:0:0:0:
304,304,206071,1,0,0:0:0:0:
304,304,206146,1,0,0:0:0:0:
304,304,206221,1,0,0:0:0:0:
304,304,206296,1,0,0:0:0:0:
304,304,206371,1,8,0:0:0:0:
304,304,206521,1,0,0:0:0:0:
304,304,206671,1,8,0:0:0:0:
64,144,206746,1,8,0:0:0:0:
304,304,206821,1,8,0:0:0:0:
304,304,206896,1,8,0:0:0:0:
220,136,206971,1,0,0:0:0:0:
168,244,207121,1,8,0:0:0:0:
168,244,207271,1,8,0:0:0:0:
168,244,207346,1,0,0:0:0:0:
168,244,207421,1,8,0:0:0:0:
168,244,207571,1,0,0:0:0:0:
168,244,207721,1,8,0:0:0:0:
64,96,207796,1,0,0:0:0:0:
208,64,207871,1,8,0:0:0:0:
168,236,207946,1,8,0:0:0:0:
168,236,208021,1,0,0:0:0:0:
168,236,208096,1,0,0:0:0:0:
168,244,208171,1,0,0:0:0:0:
168,244,208321,1,8,0:0:0:0:
168,236,208471,1,0,0:0:0:0:
168,236,208546,1,0,0:0:0:0:
168,236,208621,1,8,0:0:0:0:
168,244,208696,1,0,0:0:0:0:
168,236,208771,1,0,0:0:0:0:
168,236,208921,1,8,0:0:0:0:
168,236,208996,1,0,0:0:0:0:
160,64,209146,1,0,0:0:0:0:
300,264,209221,1,8,0:0:0:0:
168,244,209371,1,0,0:0:0:0:
168,244,209521,1,8,0:0:0:0:
168,236,209671,1,8,0:0:0:0:
168,236,209746,1,0,0:0:0:0:
168,236,209821,1,8,0:0:0:0:
168,236,209971,1,0,0:0:0:0:
232,112,210046,1,0,0:0:0:0:
168,236,210121,1,8,0:0:0:0:
168,244,210196,1,0,0:0:0:0:
168,244,210271,1,0,0:0:0:0:
168,236,210346,1,0,0:0:0:0:
300,264,210421,1,8,0:0:0:0:
176,88,210496,1,8,0:0:0:0:
168,244,210571,1,0,0:0:0:0:
168,244,210721,1,8,0:0:0:0:
168,236,210871,1,0,0:0:0:0:
168,236,210946,1,0,0:0:0:0:
168,236,211021,1,8,0:0:0:0:
208,112,211096,1,8,0:0:0:0:
168,236,211171,1,0,0:0:0:0:
168,236,211321,1,8,0:0:0:0:
168,244,211396,1,0,0:0:0:0:
200,56,211546,1,0,0:0:0:0:
300,264,211621,1,8,0:0:0:0:
156,156,211771,1,0,0:0:0:0:
156,156,211921,1,8,0:0:0:0:
160,136,211996,1,0,0:0:0:0:
176,128,212071,1,0,0:0:0:0:
280,156,212146,1,0,0:0:0:0:
280,156,212221,1,8,0:0:0:0:
276,152,212371,1,0,0:0:0:0:
208,184,212446,1,0,0:0:0:0:
276,156,212521,1,8,0:0:0:0:
232,96,212596,1,8,0:0:0:0:
240,84,212671,1,0,0:0:0:0:
240,84,212746,1,0,0:0:0:0:
196,76,212821,1,8,0:0:0:0:
208,88,212896,1,0,0:0:0:0:
16,160,212971,1,0,0:0:0:0:
156,156,213121,1,8,0:0:0:0:
280,156,213196,1,8,0:0:0:0:
176,128,213271,1,0,0:0:0:0:
280,156,213346,1,0,0:0:0:0:
280,156,213421,1,8,0:0:0:0:
192,120,213496,1,0,0:0:0:0:
276,152,213571,1,0,0:0:0:0:
276,156,213721,5,8,0:0:0:0:
240,84,213871,1,0,0:0:0:0:
240,84,213946,1,0,0:0:0:0:
196,76,214021,1,8,0:0:0:0:
272,256,214171,5,8,0:0:0:0:
272,256,214246,1,0,0:0:0:0:
272,256,214321,1,0,0:0:0:0:
272,256,214396,1,0,0:0:0:0:
300,308,214471,1,8,0:0:0:0:
300,308,214546,1,0,0:0:0:0:
300,308,214621,1,8,0:0:0:0:
376,284,214696,1,8,0:0:0:0:
376,284,214771,1,0,0:0:0:0:
376,284,214846,1,0,0:0:0:0:
376,284,214921,1,8,0:0:0:0:
376,284,214996,1,0,0:0:0:0:
376,284,215071,1,8,0:0:0:0:
368,280,215146,1,8,0:0:0:0:
368,280,215221,1,8,0:0:0:0:
368,280,215296,1,8,0:0:0:0:
232,176,215371,1,0,0:0:0:0:
232,176,215446,1,0,0:0:0:0:
232,176,215521,1,0,0:0:0:0:
232,176,215596,1,0,0:0:0:0:
232,176,215671,1,8,0:0:0:0:
144,104,215746,1,0,0:0:0:0:
144,104,215821,1,0,0:0:0:0:
132,104,215896,1,0,0:0:0:0:
132,104,215971,1,8,0:0:0:0:
128,104,216046,1,0,0:0:0:0:
128,104,216121,1,0,0:0:0:0:
128,104,216196,1,0,0:0:0:0:
204,256,216271,1,8,0:0:0:0:
216,272,216346,1,8,0:0:0:0:
216,272,216421,1,0,0:0:0:0:
300,112,216571,1,4,0:0:0:0:
128,248,216721,1,8,0:0:0:0:
128,248,216871,1,0,0:0:0:0:
128,248,216946,1,0,0:0:0:0:
128,248,217021,1,8,0:0:0:0:
232,120,217096,1,8,0:0:0:0:
128,248,217171,1,0,0:0:0:0:
128,248,217321,1,8,0:0:0:0:
128,248,217471,1,0,0:0:0:0:
128,248,217546,1,0,0:0:0:0:
128,248,217621,1,8,0:0:0:0:
128,248,217771,1,0,0:0:0:0:
128,248,217921,1,8,0:0:0:0:
128,248,218071,1,0,0:0:0:0:
128,248,218146,1,0,0:0:0:0:
128,248,218221,1,8,0:0:0:0:
128,248,218371,1,0,0:0:0:0:
128,248,218521,1,8,0:0:0:0:
128,248,218671,1,0,0:0:0:0:
128,248,218746,1,0,0:0:0:0:
128,248,218821,1,8,0:0:0:0:
128,248,218896,1,0,0:0:0:0:
240,328,218971,1,0,0:0:0:0:
240,328,219121,1,8,0:0:0:0:
240,328,219271,1,0,0:0:0:0:
240,328,219346,1,0,0:0:0:0:
240,328,219421,1,8,0:0:0:0:
208,48,219496,1,8,0:0:0:0:
240,328,219571,1,0,0:0:0:0:
208,176,219721,1,8,0:0:0:0:
224,168,219871,1,0,0:0:0:0:
216,176,219946,1,0,0:0:0:0:
216,176,220021,1,8,0:0:0:0:
128,248,220171,1,0,0:0:0:0:
128,248,220321,1,8,0:0:0:0:
128,248,220471,1,0,0:0:0:0:
128,248,220546,1,0,0:0:0:0:
128,248,220621,1,8,0:0:0:0:
128,248,220771,1,0,0:0:0:0:
128,248,220921,1,8,0:0:0:0:
128,248,221071,1,0,0:0:0:0:
128,248,221146,1,0,0:0:0:0:
128,248,221221,1,8,0:0:0:0:
240,232,221371,1,4,0:0:0:0:
240,240,221521,1,8,0:0:0:0:
200,64,221596,1,0,0:0:0:0:
104,144,221671,1,0,0:0:0:0:
104,144,221746,1,0,0:0:0:0:
104,144,221821,1,8,0:0:0:0:
104,144,221971,1,0,0:0:0:0:
200,64,222046,1,0,0:0:0:0:
104,144,222121,1,8,0:0:0:0:
104,144,222271,1,0,0:0:0:0:
104,144,222346,1,0,0:0:0:0:
248,136,222421,1,8,0:0:0:0:
208,112,222496,1,8,0:0:0:0:
104,144,222571,1,0,0:0:0:0:
216,232,222721,1,8,0:0:0:0:
216,232,222796,1,0,0:0:0:0:
208,224,222871,1,0,0:0:0:0:
184,48,222946,1,0,0:0:0:0:
200,216,223021,1,8,0:0:0:0:
200,216,223096,1,8,0:0:0:0:
200,216,223171,1,0,0:0:0:0:
176,280,223321,1,8,0:0:0:0:
200,216,223471,1,0,0:0:0:0:
256,56,223546,1,0,0:0:0:0:
200,216,223621,1,8,0:0:0:0:
288,240,223771,1,8,0:0:0:0:
288,240,223846,1,8,0:0:0:0:
288,240,223921,1,8,0:0:0:0:
288,240,223996,1,0,0:0:0:0:
288,240,224071,1,8,0:0:0:0:
288,240,224146,1,8,0:0:0:0:
288,240,224221,1,8,0:0:0:0:
288,240,224296,1,0,0:0:0:0:
288,240,224371,1,8,0:0:0:0:
288,240,224446,1,0,0:0:0:0:
288,240,224521,1,8,0:0:0:0:
288,240,224596,1,8,0:0:0:0:
288,240,224671,1,0,0:0:0:0:
288,240,224746,1,0,0:0:0:0:
288,240,224821,1,8,0:0:0:0:
288,240,224896,1,8,0:0:0:0:
288,240,224971,1,0,0:0:0:0:
320,328,225121,1,0,0:0:0:0:
320,328,225271,1,8,0:0:0:0:
320,328,225346,1,8,0:0:0:0:
312,328,225421,1,0,0:0:0:0:
312,328,225571,1,0,0:0:0:0:
208,208,225721,1,8,0:0:0:0:
208,208,225796,1,0,0:0:0:0:
208,216,225871,1,8,0:0:0:0:
208,208,225946,1,8,0:0:0:0:
208,216,226021,1,0,0:0:0:0:
300,112,226171,1,4,0:0:0:0:
128,248,226321,1,0,0:0:0:0:
168,56,226396,1,0,0:0:0:0:
128,248,226471,1,8,0:0:0:0:
128,248,226546,1,0,0:0:0:0:
128,248,226621,1,8,0:0:0:0:
232,120,226696,1,0,0:0:0:0:
128,248,226771,1,0,0:0:0:0:
184,40,226846,1,0,0:0:0:0:
128,248,226921,1,8,0:0:0:0:
184,40,226996,1,0,0:0:0:0:
128,248,227071,1,8,0:0:0:0:
192,32,227146,1,8,0:0:0:0:
128,248,227221,1,0,0:0:0:0:
128,248,227296,1,0,0:0:0:0:
128,248,227371,1,8,0:0:0:0:
128,248,227521,1,8,0:0:0:0:
200,112,227596,1,8,0:0:0:0:
128,248,227671,1,0,0:0:0:0:
128,248,227746,1,0,0:0:0:0:
128,248,227821,1,8,0:0:0:0:
200,112,227896,1,0,0:0:0:0:
128,248,227971,1,0,0:0:0:0:
128,248,228121,1,8,0:0:0:0:
128,248,228271,1,0,0:0:0:0:
128,248,228346,1,0,0:0:0:0:
128,248,228421,1,8,0:0:0:0:
240,328,228571,1,8,0:0:0:0:
240,328,228721,1,0,0:0:0:0:
192,56,228796,1,0,0:0:0:0:
240,328,228871,1,8,0:0:0:0:
240,328,228946,1,0,0:0:0:0:
240,328,229021,1,8,0:0:0:0:
208,48,229096,1,0,0:0:0:0:
240,328,229171,1,0,0:0:0:0:
240,80,229246,1,0,0:0:0:0:
208,176,229321,1,8,0:0:0:0:
240,80,229396,1,0,0:0:0:0:
216,176,229471,1,8,0:0:0:0:
216,176,229546,1,8,0:0:0:0:
224,168,229621,1,0,0:0:0:0:
128,248,229771,1,0,0:0:0:0:
128,248,229921,1,8,0:0:0:0:
144,136,229996,1,8,0:0:0:0:
128,248,230071,1,0,0:0:0:0:
128,248,230146,1,0,0:0:0:0:
128,248,230221,1,8,0:0:0:0:
128,248,230371,1,0,0:0:0:0:
168,72,230446,1,0,0:0:0:0:
128,248,230521,1,8,0:0:0:0:
176,64,230596,1,0,0:0:0:0:
128,248,230671,1,8,0:0:0:0:
128,248,230746,1,8,0:0:0:0:
128,248,230821,1,8,0:0:0:0:
240,232,230971,1,4,0:0:0:0:
240,240,231121,1,0,0:0:0:0:
208,64,231196,1,0,0:0:0:0:
104,144,231271,1,8,0:0:0:0:
104,144,231346,1,8,0:0:0:0:
104,144,231421,1,0,0:0:0:0:
304,128,231496,1,0,0:0:0:0:
104,144,231571,1,8,0:0:0:0:
304,128,231646,1,0,0:0:0:0:
104,144,231721,1,0,0:0:0:0:
184,24,231796,1,0,0:0:0:0:
248,136,231871,1,8,0:0:0:0:
104,144,231946,1,8,0:0:0:0:
192,144,232021,1,0,0:0:0:0:
200,8,232096,1,0,0:0:0:0:
104,144,232171,1,8,0:0:0:0:
128,48,232246,1,8,0:0:0:0:
224,248,232321,1,8,0:0:0:0:
224,248,232396,1,0,0:0:0:0:
224,248,232471,1,8,0:0:0:0:
224,248,232546,1,8,0:0:0:0:
224,248,232621,1,0,0:0:0:0:
224,248,232696,1,0,0:0:0:0:
224,248,232771,1,8,0:0:0:0:
224,248,232846,1,0,0:0:0:0:
224,248,232921,1,0,0:0:0:0:
224,248,232996,1,0,0:0:0:0:
224,248,233071,1,8,0:0:0:0:
224,248,233146,1,8,0:0:0:0:
224,248,233221,1,0,0:0:0:0:
224,248,233371,1,4,0:0:0:0:
104,136,233671,1,4,0:0:0:0:
256,216,234571,1,12,0:0:0:0:
160,200,235771,1,0,0:0:0:0:
160,200,235846,1,0,0:0:0:0:
160,200,235921,1,0,0:0:0:0:
160,200,236071,1,12,0:0:0:0:
152,120,236371,1,4,0:0:0:0:
152,120,236521,1,4,0:0:0:0:
328,256,236821,1,4,0:0:0:0:
328,256,236971,1,4,0:0:0:0:
184,200,239371,1,4,0:0:0:0:
320,160,240013,1,8,0:0:0:0:
328,144,240656,1,0,0:0:0:0:
248,224,241085,1,8,0:0:0:0:
208,168,242585,1,0,0:0:0:0:
208,168,242692,1,8,0:0:0:0:
184,200,242799,1,8,0:0:0:0:
320,160,243441,1,8,0:0:0:0:
328,144,244084,1,8,0:0:0:0:
248,224,244513,1,0,0:0:0:0:
224,160,244621,1,8,0:0:0:0:
224,160,244728,1,0,0:0:0:0:
184,200,246228,1,12,0:0:0:0:
320,160,246870,1,8,0:0:0:0:
328,144,247513,1,0,0:0:0:0:
248,224,247942,1,8,0:0:0:0:
200,160,248228,1,8,0:0:0:0:
208,168,248513,1,0,0:0:0:0:
208,168,248799,1,8,0:0:0:0:
208,168,249442,1,0,0:0:0:0:
208,168,249549,1,8,0:0:0:0:
184,200,249656,1,8,0:0:0:0:
320,160,250299,1,8,0:0:0:0:
328,144,250941,1,0,0:0:0:0:
248,224,251371,1,12,0:0:0:0:
208,184,251585,1,8,0:0:0:0:
224,184,253085,1,8,0:0:0:0:
224,184,253299,1,8,0:0:0:0:
224,184,253513,1,8,0:0:0:0:
224,184,253728,1,0,0:0:0:0:
224,184,253835,1,0,0:0:0:0:
224,184,253942,1,8,0:0:0:0:
224,184,254049,1,0,0:0:0:0:
224,184,254156,1,8,0:0:0:0:
224,184,254263,1,8,0:0:0:0:
224,184,254371,1,0,0:0:0:0:
224,184,254585,1,8,0:0:0:0:
224,184,254692,1,0,0:0:0:0:
224,184,254799,1,8,0:0:0:0:
240,184,254906,1,8,0:0:0:0:
240,184,255121,1,8,0:0:0:0:
240,184,255228,1,8,0:0:0:0:
240,184,255335,1,0,0:0:0:0:
104,208,255442,1,8,0:0:0:0:
216,264,255656,1,0,0:0:0:0:
216,264,255763,1,8,0:0:0:0:
216,264,255871,1,8,0:0:0:0:
216,264,255978,1,8,0:0:0:0:
216,264,256085,1,0,0:0:0:0:
208,240,256192,1,0,0:0:0:0:
208,240,256299,1,8,0:0:0:0:
208,240,256406,1,8,0:0:0:0:
208,240,256513,1,0,0:0:0:0:
176,160,256728,1,8,0:0:0:0:
176,160,256835,1,0,0:0:0:0:
176,160,256942,1,0,0:0:0:0:
176,168,257156,1,0,0:0:0:0:
176,168,257263,1,0,0:0:0:0:
176,168,257371,1,8,0:0:0:0:
176,168,257478,1,8,0:0:0:0:
176,168,257585,1,8,0:0:0:0:
176,168,257692,1,8,0:0:0:0:
176,168,257799,1,0,0:0:0:0:
176,168,258013,1,0,0:0:0:0:
176,168,258121,1,8,0:0:0:0:
176,168,258228,1,0,0:0:0:0:
176,168,258335,1,8,0:0:0:0:
176,168,258442,1,8,0:0:0:0:
176,168,258549,1,8,0:0:0:0:
176,168,258656,1,0,0:0:0:0:
176,168,258871,1,8,0:0:0:0:
176,168,258979,1,8,0:0:0:0:
176,168,259086,1,0,0:0:0:0:
176,168,259193,1,8,0:0:0:0:
176,168,259300,1,8,0:0:0:0:
176,168,259407,1,8,0:0:0:0:
176,168,259514,1,0,0:0:0:0:
176,168,259621,1,8,0:0:0:0:
176,168,259728,1,8,0:0:0:0:
176,168,259835,1,0,0:0:0:0:
176,168,259942,1,8,0:0:0:0:
216,200,260156,1,8,0:0:0:0:
240,272,260371,1,8,0:0:0:0:
176,168,260585,1,8,0:0:0:0:
176,168,260693,1,8,0:0:0:0:
176,168,260800,1,0,0:0:0:0:
176,168,260907,1,8,0:0:0:0:
176,168,261014,1,8,0:0:0:0:
176,168,261121,1,8,0:0:0:0:
176,168,261228,1,0,0:0:0:0:
176,168,261442,1,8,0:0:0:0:
176,168,261657,1,0,0:0:0:0:
176,168,261764,1,8,0:0:0:0:
176,168,261871,1,8,0:0:0:0:
176,168,261978,1,8,0:0:0:0:
176,168,262085,1,0,0:0:0:0:
56,200,262299,1,8,0:0:0:0:
56,208,262353,1,0,0:0:0:0:
56,208,262406,1,0,0:0:0:0:
176,168,262513,1,8,0:0:0:0:
176,168,262621,1,0,0:0:0:0:
176,168,262728,1,8,0:0:0:0:
176,168,262835,1,8,0:0:0:0:
176,168,262942,1,0,0:0:0:0:
176,168,263049,1,0,0:0:0:0:
176,168,263156,1,0,0:0:0:0:
264,232,263263,1,0,0:0:0:0:
264,232,263371,1,8,0:0:0:0:
184,272,263585,1,0,0:0:0:0:
184,272,263692,1,0,0:0:0:0:
184,272,263799,1,8,0:0:0:0:
376,280,264013,1,0,0:0:0:0:
128,256,264121,1,0,0:0:0:0:
376,280,264228,1,8,0:0:0:0:
144,152,264335,1,0,0:0:0:0:
392,336,264442,1,0,0:0:0:0:
392,336,264549,1,0,0:0:0:0:
392,336,264656,1,8,0:0:0:0:
256,320,264871,1,8,0:0:0:0:
248,168,265085,1,4,0:0:0:0:
248,168,265299,1,4,0:0:0:0:
248,168,265513,1,4,0:0:0:0:
248,168,265728,1,4,0:0:0:0:
248,168,265942,1,4,0:0:0:0:
248,168,266156,1,4,0:0:0:0:
248,168,266371,1,4,0:0:0:0:
248,168,266585,1,4,0:0:0:0:
248,168,266799,1,12,0:0:0:0:
144,160,267013,1,0,0:0:0:0:
192,232,267121,1,0,0:0:0:0:
192,232,267228,1,8,0:0:0:0:
192,232,267442,1,8,0:0:0:0:
192,232,267656,1,0,0:0:0:0:
192,232,267871,1,0,0:0:0:0:
120,136,267978,1,0,0:0:0:0:
192,232,268085,1,8,0:0:0:0:
120,136,268299,1,0,0:0:0:0:
192,232,268513,1,8,0:0:0:0:
192,232,268727,1,0,0:0:0:0:
184,136,268835,1,0,0:0:0:0:
192,232,268941,1,8,0:0:0:0:
192,232,269156,1,8,0:0:0:0:
192,232,269371,1,0,0:0:0:0:
160,112,269585,1,0,0:0:0:0:
192,232,269692,1,0,0:0:0:0:
160,184,269799,1,8,0:0:0:0:
152,112,269906,1,0,0:0:0:0:
208,168,270013,1,0,0:0:0:0:
248,168,270228,1,8,0:0:0:0:
144,160,270442,1,0,0:0:0:0:
192,232,270550,1,0,0:0:0:0:
192,232,270657,1,8,0:0:0:0:
192,232,270871,1,8,0:0:0:0:
192,232,271085,1,0,0:0:0:0:
192,232,271300,1,0,0:0:0:0:
120,136,271407,1,0,0:0:0:0:
192,232,271514,1,8,0:0:0:0:
120,136,271728,1,0,0:0:0:0:
192,232,271942,1,8,0:0:0:0:
192,232,272156,1,0,0:0:0:0:
184,136,272264,1,0,0:0:0:0:
192,232,272370,1,8,0:0:0:0:
192,232,272585,1,8,0:0:0:0:
192,232,272799,1,0,0:0:0:0:
160,112,273014,1,0,0:0:0:0:
192,232,273121,1,0,0:0:0:0:
160,184,273228,1,12,0:0:0:0:
208,168,273442,1,0,0:0:0:0:
248,168,273656,1,12,0:0:0:0:
144,160,273870,1,0,0:0:0:0:
192,232,273978,1,0,0:0:0:0:
192,232,274085,1,8,0:0:0:0:
240,64,274192,1,0,0:0:0:0:
192,232,274299,1,8,0:0:0:0:
192,232,274513,1,0,0:0:0:0:
192,232,274728,1,0,0:0:0:0:
120,136,274835,1,0,0:0:0:0:
192,232,274942,1,8,0:0:0:0:
240,64,275049,1,0,0:0:0:0:
120,136,275156,1,0,0:0:0:0:
192,232,275370,1,8,0:0:0:0:
192,232,275584,1,0,0:0:0:0:
184,136,275692,1,0,0:0:0:0:
192,232,275798,1,8,0:0:0:0:
232,80,275906,1,0,0:0:0:0:
192,232,276013,1,8,0:0:0:0:
192,232,276228,1,0,0:0:0:0:
160,112,276442,1,0,0:0:0:0:
192,232,276549,1,0,0:0:0:0:
208,80,276656,1,8,0:0:0:0:
232,80,276763,1,8,0:0:0:0:
208,168,276870,1,0,0:0:0:0:
248,168,277085,1,8,0:0:0:0:
144,160,277299,1,0,0:0:0:0:
192,232,277407,1,0,0:0:0:0:
192,232,277514,1,8,0:0:0:0:
232,56,277621,1,0,0:0:0:0:
192,232,277728,1,8,0:0:0:0:
208,40,277835,1,8,0:0:0:0:
232,56,277942,1,0,0:0:0:0:
192,232,278157,1,0,0:0:0:0:
120,136,278264,1,0,0:0:0:0:
192,232,278371,1,8,0:0:0:0:
176,48,278478,1,0,0:0:0:0:
120,136,278585,1,0,0:0:0:0:
176,48,278692,1,0,0:0:0:0:
192,232,278799,1,8,0:0:0:0:
208,152,279013,1,0,0:0:0:0:
208,152,279121,1,8,0:0:0:0:
168,200,279228,1,0,0:0:0:0:
168,200,279335,1,0,0:0:0:0:
168,200,279442,1,8,0:0:0:0:
176,200,279549,1,0,0:0:0:0:
272,56,279603,1,0,0:0:0:0:
176,200,279656,1,0,0:0:0:0:
96,120,279763,1,8,0:0:0:0:
104,120,279871,1,0,0:0:0:0:
104,120,279978,1,8,0:0:0:0:
128,112,280085,1,0,0:0:0:0:
128,112,280192,1,0,0:0:0:0:
128,112,280299,1,8,0:0:0:0:
128,104,280513,1,0,0:0:0:0:
128,112,280621,1,0,0:0:0:0:
240,224,280728,1,0,0:0:0:0:
240,224,280942,1,8,0:0:0:0:
240,224,281156,1,0,0:0:0:0:
240,224,281263,1,0,0:0:0:0:
240,224,281371,1,8,0:0:0:0:
240,232,281585,1,0,0:0:0:0:
240,232,281799,1,8,0:0:0:0:
240,232,282013,1,0,0:0:0:0:
128,104,282228,1,0,0:0:0:0:
232,88,282335,1,0,0:0:0:0:
240,224,282443,1,0,0:0:0:0:
304,96,282549,1,0,0:0:0:0:
240,224,282657,1,8,0:0:0:0:
240,224,282871,1,0,0:0:0:0:
240,224,282978,1,0,0:0:0:0:
240,224,283086,1,8,0:0:0:0:
240,232,283300,1,0,0:0:0:0:
240,232,283514,1,8,0:0:0:0:
232,160,283621,1,0,0:0:0:0:
240,232,283728,1,8,0:0:0:0:
320,56,283942,1,0,0:0:0:0:
128,104,284049,1,8,0:0:0:0:
240,224,284157,1,8,0:0:0:0:
240,224,284371,1,8,0:0:0:0:
240,224,284585,1,0,0:0:0:0:
240,224,284692,1,0,0:0:0:0:
240,224,284800,1,8,0:0:0:0:
240,232,285014,1,0,0:0:0:0:
240,232,285228,1,8,0:0:0:0:
240,232,285442,1,0,0:0:0:0:
128,104,285656,1,0,0:0:0:0:
208,112,285763,1,0,0:0:0:0:
240,224,285871,1,0,0:0:0:0:
240,224,286085,1,8,0:0:0:0:
240,224,286299,1,0,0:0:0:0:
240,224,286406,1,0,0:0:0:0:
240,224,286514,1,8,0:0:0:0:
240,232,286728,1,0,0:0:0:0:
240,152,286835,1,0,0:0:0:0:
240,232,286942,1,12,0:0:0:0:
240,232,287156,1,12,0:0:0:0:
128,104,287371,1,0,0:0:0:0:
208,16,287478,1,8,0:0:0:0:
240,224,287586,1,0,0:0:0:0:
240,224,287800,1,8,0:0:0:0:
240,224,288014,1,0,0:0:0:0:
240,224,288121,1,0,0:0:0:0:
240,224,288229,1,8,0:0:0:0:
240,232,288443,1,0,0:0:0:0:
240,232,288657,1,8,0:0:0:0:
240,232,288871,1,0,0:0:0:0:
128,104,289086,1,0,0:0:0:0:
248,96,289192,1,8,0:0:0:0:
240,224,289299,1,0,0:0:0:0:
240,224,289513,1,8,0:0:0:0:
240,224,289729,1,0,0:0:0:0:
240,224,289836,1,0,0:0:0:0:
240,224,289942,1,8,0:0:0:0:
240,232,290156,1,0,0:0:0:0:
240,232,290372,1,8,0:0:0:0:
232,160,290479,1,0,0:0:0:0:
240,232,290586,1,8,0:0:0:0:
128,104,290799,1,0,0:0:0:0:
208,48,290906,1,8,0:0:0:0:
240,224,291013,1,0,0:0:0:0:
240,224,291229,1,8,0:0:0:0:
240,224,291443,1,0,0:0:0:0:
240,224,291550,1,0,0:0:0:0:
240,224,291656,1,8,0:0:0:0:
240,232,291872,1,0,0:0:0:0:
240,232,292086,1,8,0:0:0:0:
240,232,292299,1,0,0:0:0:0:
128,104,292514,1,8,0:0:0:0:
224,160,292621,1,8,0:0:0:0:
240,224,292729,1,8,0:0:0:0:
176,184,292835,1,8,0:0:0:0:
240,224,292943,1,8,0:0:0:0:
224,112,293049,1,8,0:0:0:0:
240,224,293157,1,0,0:0:0:0:
240,224,293372,1,8,0:0:0:0:
240,224,293478,1,8,0:0:0:0:
240,232,293586,1,0,0:0:0:0:
240,152,293693,1,0,0:0:0:0:
240,232,293800,1,8,0:0:0:0:
176,104,293906,1,0,0:0:0:0:
240,232,294014,1,8,0:0:0:0:
128,104,294228,1,0,0:0:0:0:
272,48,294335,1,0,0:0:0:0:
240,224,294443,1,0,0:0:0:0:
240,224,294657,1,8,0:0:0:0:
240,224,294871,1,8,0:0:0:0:
240,224,294978,1,0,0:0:0:0:
240,224,295086,1,8,0:0:0:0:
240,232,295300,1,8,0:0:0:0:
240,232,295514,1,8,0:0:0:0:
240,232,295728,1,0,0:0:0:0:
128,104,295943,1,0,0:0:0:0:
232,88,296049,1,0,0:0:0:0:
240,224,296156,1,0,0:0:0:0:
232,88,296263,1,0,0:0:0:0:
240,224,296372,1,8,0:0:0:0:
240,224,296586,1,0,0:0:0:0:
240,224,296693,1,0,0:0:0:0:
240,224,296799,1,8,0:0:0:0:
240,232,297013,1,0,0:0:0:0:
240,232,297229,1,8,0:0:0:0:
232,160,297336,1,0,0:0:0:0:
240,232,297443,1,8,0:0:0:0:
128,104,297657,1,0,0:0:0:0:
296,32,297763,1,8,0:0:0:0:
240,224,297872,1,8,0:0:0:0:
240,224,298086,1,8,0:0:0:0:
240,224,298300,1,0,0:0:0:0:
240,224,298407,1,0,0:0:0:0:
240,224,298513,1,8,0:0:0:0:
240,232,298729,1,0,0:0:0:0:
240,232,298943,1,8,0:0:0:0:
240,232,299157,1,0,0:0:0:0:
128,104,299371,1,0,0:0:0:0:
208,56,299478,1,0,0:0:0:0:
240,224,299586,1,0,0:0:0:0:
240,224,299800,1,8,0:0:0:0:
240,224,300014,1,0,0:0:0:0:
240,224,300121,1,0,0:0:0:0:
240,224,300229,1,0,0:0:0:0:
240,232,300443,1,0,0:0:0:0:
240,152,300550,1,0,0:0:0:0:
240,232,300657,1,8,0:0:0:0:
240,232,300871,1,0,0:0:0:0:
176,184,300978,1,0,0:0:0:0:
128,104,301086,1,12,0:0:0:0:
240,224,301299,1,0,0:0:0:0:
240,224,301513,1,8,0:0:0:0:
240,224,301729,1,0,0:0:0:0:
168,136,301836,1,8,0:0:0:0:
240,224,301942,1,8,0:0:0:0:
240,232,302156,1,0,0:0:0:0:
240,232,302372,1,8,0:0:0:0:
256,160,302478,1,8,0:0:0:0:
240,232,302586,1,8,0:0:0:0:
128,104,302799,1,0,0:0:0:0:
240,224,303013,1,8,0:0:0:0:
72,144,303121,1,8,0:0:0:0:
240,224,303228,1,8,0:0:0:0:
240,224,303442,1,0,0:0:0:0:
240,224,303549,1,0,0:0:0:0:
240,224,303656,1,8,0:0:0:0:
240,232,303871,1,0,0:0:0:0:
240,232,304085,1,8,0:0:0:0:
232,160,304192,1,0,0:0:0:0:
240,232,304299,1,0,0:0:0:0:
128,104,304513,1,8,0:0:0:0:
240,224,304728,1,0,0:0:0:0:
240,224,304942,1,8,0:0:0:0:
240,224,305156,1,0,0:0:0:0:
240,224,305263,1,0,0:0:0:0:
240,224,305371,1,8,0:0:0:0:
240,232,305585,1,0,0:0:0:0:
240,232,305799,1,8,0:0:0:0:
240,232,306013,1,0,0:0:0:0:
128,104,306229,1,8,0:0:0:0:
240,224,306442,1,8,0:0:0:0:
224,160,306513,1,8,0:0:0:0:
176,184,306585,1,8,0:0:0:0:
240,224,306656,1,8,0:0:0:0:
240,224,306763,1,0,0:0:0:0:
152,72,306978,1,0,0:0:0:0:
240,224,307085,1,8,0:0:0:0:
240,232,307299,1,0,0:0:0:0:
240,232,307513,1,8,0:0:0:0:
176,104,307621,1,0,0:0:0:0:
240,232,307728,1,0,0:0:0:0:
128,104,307942,1,0,0:0:0:0:
240,56,308049,1,0,0:0:0:0:
240,224,308157,1,0,0:0:0:0:
240,224,308371,1,8,0:0:0:0:
240,224,308585,1,8,0:0:0:0:
240,224,308692,1,0,0:0:0:0:
240,224,308800,1,8,0:0:0:0:
240,232,309014,1,8,0:0:0:0:
240,232,309228,1,8,0:0:0:0:
240,232,309442,1,0,0:0:0:0:
128,104,309657,1,0,0:0:0:0:
328,136,309763,1,0,0:0:0:0:
240,224,309870,1,0,0:0:0:0:
328,136,309978,1,0,0:0:0:0:
240,224,310086,1,8,0:0:0:0:
240,224,310300,1,0,0:0:0:0:
240,224,310407,1,0,0:0:0:0:
240,224,310513,1,8,0:0:0:0:
240,232,310727,1,0,0:0:0:0:
240,232,310943,1,8,0:0:0:0:
232,160,311050,1,0,0:0:0:0:
240,232,311157,1,8,0:0:0:0:
128,104,311371,1,0,0:0:0:0:
200,80,311478,1,8,0:0:0:0:
240,224,311586,1,8,0:0:0:0:
240,224,311800,1,8,0:0:0:0:
240,224,312014,1,0,0:0:0:0:
240,224,312121,1,0,0:0:0:0:
240,224,312227,1,8,0:0:0:0:
240,232,312443,1,0,0:0:0:0:
240,232,312657,1,8,0:0:0:0:
240,232,312871,1,8,0:0:0:0:
128,104,313085,1,0,0:0:0:0:
288,104,313192,1,0,0:0:0:0:
240,224,313300,1,0,0:0:0:0:
240,224,313514,1,8,0:0:0:0:
240,224,313728,1,0,0:0:0:0:
240,224,313835,1,0,0:0:0:0:
240,224,313943,1,8,0:0:0:0:
240,232,314157,1,0,0:0:0:0:
240,152,314264,1,0,0:0:0:0:
240,232,314371,1,8,0:0:0:0:
240,232,314585,1,0,0:0:0:0:
128,104,314800,1,12,0:0:0:0:
240,224,315013,1,0,0:0:0:0:
240,224,315227,1,8,0:0:0:0:
240,224,315443,1,8,0:0:0:0:
168,136,315549,1,8,0:0:0:0:
240,224,315656,1,8,0:0:0:0:
240,232,315870,1,0,0:0:0:0:
240,232,316086,1,8,0:0:0:0:
256,160,316192,1,8,0:0:0:0:
240,232,316300,1,0,0:0:0:0:
128,104,316513,1,0,0:0:0:0:
240,224,316727,1,8,0:0:0:0:
72,144,316835,1,8,0:0:0:0:
240,224,316942,1,8,0:0:0:0:
240,224,317156,1,0,0:0:0:0:
240,224,317263,1,0,0:0:0:0:
240,224,317370,1,8,0:0:0:0:
240,232,317585,1,0,0:0:0:0:
240,232,317799,1,8,0:0:0:0:
232,160,317906,1,8,0:0:0:0:
240,232,318013,1,0,0:0:0:0:
128,104,318227,1,8,0:0:0:0:
240,224,318442,1,0,0:0:0:0:
240,224,318656,1,8,0:0:0:0:
240,224,318870,1,0,0:0:0:0:
240,224,318977,1,0,0:0:0:0:
240,224,319085,1,8,0:0:0:0:
240,232,319299,1,0,0:0:0:0:
240,232,319513,1,8,0:0:0:0:
240,232,319727,1,0,0:0:0:0:
128,104,319943,1,8,0:0:0:0:
176,184,320049,1,8,0:0:0:0:
240,224,320263,1,8,0:0:0:0:
224,160,320370,1,0,0:0:0:0:
240,224,320477,1,0,0:0:0:0:
104,120,320585,1,8,0:0:0:0:
240,224,320692,1,8,0:0:0:0:
152,72,320799,1,0,0:0:0:0:
224,152,320906,1,8,0:0:0:0:
240,232,321013,1,8,0:0:0:0:
40,160,321121,1,0,0:0:0:0:
240,232,321227,5,8,0:0:0:0:
240,232,321442,1,0,0:0:0:0:
224,216,321656,5,12,0:0:0:0:
224,216,322256,1,12,0:0:0:0:
224,216,322706,1,12,0:0:0:0:
224,216,323156,1,12,0:0:0:0:
224,216,323456,1,4,0:0:0:0:
224,216,323606,1,4,0:0:0:0:
224,216,323756,1,12,0:0:0:0:
224,216,324056,5,12,0:0:0:0:
224,216,324656,1,12,0:0:0:0:
224,216,325106,1,12,0:0:0:0:
224,216,325556,1,12,0:0:0:0:
224,216,325856,1,4,0:0:0:0:
224,216,326006,1,4,0:0:0:0:
224,216,326156,1,12,0:0:0:0:
232,144,326456,1,0,0:0:0:0:
232,144,326531,1,0,0:0:0:0:
232,144,326606,1,0,0:0:0:0:
232,144,326681,1,0,0:0:0:0:
232,144,326756,1,8,0:0:0:0:
232,144,326831,1,8,0:0:0:0:
232,144,326906,1,8,0:0:0:0:
232,144,326981,1,8,0:0:0:0:
232,144,327056,1,0,0:0:0:0:
232,144,327131,1,0,0:0:0:0:
232,144,327206,1,8,0:0:0:0:
232,144,327281,1,0,0:0:0:0:
232,144,327356,1,8,0:0:0:0:
232,144,327431,1,8,0:0:0:0:
232,144,327506,1,0,0:0:0:0:
232,144,327581,1,8,0:0:0:0:
168,224,327656,1,0,0:0:0:0:
176,224,327731,1,0,0:0:0:0:
168,224,327806,1,8,0:0:0:0:
280,208,327881,1,8,0:0:0:0:
280,208,327956,1,8,0:0:0:0:
280,208,328031,1,8,0:0:0:0:
280,208,328106,1,0,0:0:0:0:
280,208,328181,1,0,0:0:0:0:
272,288,328256,1,8,0:0:0:0:
272,288,328331,1,8,0:0:0:0:
272,288,328406,1,8,0:0:0:0:
272,288,328481,1,8,0:0:0:0:
272,288,328556,1,0,0:0:0:0:
272,288,328631,1,0,0:0:0:0:
272,288,328706,1,0,0:0:0:0:
168,192,328856,1,4,0:0:0:0:
168,192,329006,1,8,0:0:0:0:
168,192,329156,1,0,0:0:0:0:
168,192,329231,1,0,0:0:0:0:
168,192,329306,1,8,0:0:0:0:
168,192,329456,1,0,0:0:0:0:
168,192,329606,1,8,0:0:0:0:
168,192,329756,1,0,0:0:0:0:
168,192,329831,1,0,0:0:0:0:
168,192,329906,1,8,0:0:0:0:
168,192,330056,1,0,0:0:0:0:
168,192,330206,1,8,0:0:0:0:
168,192,330356,1,0,0:0:0:0:
168,192,330431,1,0,0:0:0:0:
168,192,330506,1,8,0:0:0:0:
168,192,330656,1,0,0:0:0:0:
168,192,330806,1,8,0:0:0:0:
168,192,330956,1,0,0:0:0:0:
168,192,331031,1,0,0:0:0:0:
168,192,331106,1,8,0:0:0:0:
168,192,331256,1,0,0:0:0:0:
168,192,331406,1,8,0:0:0:0:
168,192,331556,1,0,0:0:0:0:
168,192,331631,1,0,0:0:0:0:
168,192,331706,1,8,0:0:0:0:
168,192,331856,1,0,0:0:0:0:
168,192,332006,1,8,0:0:0:0:
168,192,332156,1,0,0:0:0:0:
168,192,332231,1,0,0:0:0:0:
168,192,332306,1,8,0:0:0:0:
280,232,332456,1,4,0:0:0:0:
280,232,332756,1,4,0:0:0:0:
280,232,333056,1,4,0:0:0:0:
280,232,333356,1,4,0:0:0:0:
176,208,333656,1,8,0:0:0:0:
176,208,333731,1,8,0:0:0:0:
176,208,333806,1,8,0:0:0:0:
176,208,333881,1,8,0:0:0:0:
176,208,333956,1,0,0:0:0:0:
176,208,334031,1,0,0:0:0:0:
176,208,334106,1,8,0:0:0:0:
176,208,334181,1,8,0:0:0:0:
176,208,334256,1,0,0:0:0:0:
176,208,334331,1,8,0:0:0:0:
176,208,334406,1,0,0:0:0:0:
176,208,334481,1,0,0:0:0:0:
176,208,334556,1,8,0:0:0:0:
176,208,334631,1,8,0:0:0:0:
176,208,334706,1,0,0:0:0:0:
176,208,334856,1,4,0:0:0:0:
248,272,335006,1,8,0:0:0:0:
168,112,335081,1,8,0:0:0:0:
248,272,335156,1,0,0:0:0:0:
248,272,335231,1,8,0:0:0:0:
248,272,335306,1,0,0:0:0:0:
176,112,335381,1,0,0:0:0:0:
272,200,335456,1,8,0:0:0:0:
272,200,335606,1,8,0:0:0:0:
272,200,335681,1,8,0:0:0:0:
272,200,335756,1,0,0:0:0:0:
112,136,335906,1,8,0:0:0:0:
232,272,336056,1,0,0:0:0:0:
232,272,336131,1,0,0:0:0:0:
232,272,336206,1,8,0:0:0:0:
232,272,336281,1,0,0:0:0:0:
232,272,336356,1,8,0:0:0:0:
232,272,336431,1,8,0:0:0:0:
232,272,336506,1,0,0:0:0:0:
232,272,336581,1,0,0:0:0:0:
256,216,336656,1,8,0:0:0:0:
256,216,336731,1,8,0:0:0:0:
256,216,336806,1,8,0:0:0:0:
256,216,336881,1,8,0:0:0:0:
256,216,336956,1,0,0:0:0:0:
256,208,337106,1,8,0:0:0:0:
192,200,337256,1,0,0:0:0:0:
192,200,337331,1,0,0:0:0:0:
192,200,337406,1,8,0:0:0:0:
192,200,337556,1,0,0:0:0:0:
192,40,337631,1,0,0:0:0:0:
192,200,337706,1,8,0:0:0:0:
192,40,337781,1,0,0:0:0:0:
192,200,337856,1,8,0:0:0:0:
272,144,338006,1,8,0:0:0:0:
144,112,338081,1,8,0:0:0:0:
272,144,338156,1,0,0:0:0:0:
144,264,338231,1,0,0:0:0:0:
144,112,338306,1,8,0:0:0:0:
224,72,338381,1,0,0:0:0:0:
272,272,338456,1,0,0:0:0:0:
272,280,338606,1,8,0:0:0:0:
208,280,338756,1,0,0:0:0:0:
48,200,338831,1,0,0:0:0:0:
48,200,338906,1,0,0:0:0:0:
168,176,339056,2,0,L|208:176,6,34.999997997284
320,232,339656,1,0,0:0:0:0:
320,232,339731,1,0,0:0:0:0:
320,232,339806,1,8,0:0:0:0:
320,232,339881,1,8,0:0:0:0:
320,232,339956,1,0,0:0:0:0:
320,232,340031,1,8,0:0:0:0:
320,232,340106,1,0,0:0:0:0:
320,232,340181,1,0,0:0:0:0:
320,232,340256,1,8,0:0:0:0:
320,232,340331,1,0,0:0:0:0:
320,232,340406,1,8,0:0:0:0:
320,232,340481,1,8,0:0:0:0:
320,232,340556,1,0,0:0:0:0:
320,232,340631,1,8,0:0:0:0:
320,232,340706,1,0,0:0:0:0:
320,232,340781,1,0,0:0:0:0:
320,232,340856,1,8,0:0:0:0:
320,232,340931,1,8,0:0:0:0:
320,232,341006,1,0,0:0:0:0:
320,232,341081,1,0,0:0:0:0:
320,232,341156,1,8,0:0:0:0:
320,232,341231,1,0,0:0:0:0:
320,232,341306,1,8,0:0:0:0:
320,232,341381,1,0,0:0:0:0:
320,232,341456,1,8,0:0:0:0:
320,208,341531,1,8,0:0:0:0:
320,208,341606,1,0,0:0:0:0:
320,208,341681,1,0,0:0:0:0:
320,208,341756,1,8,0:0:0:0:
320,208,341831,1,8,0:0:0:0:
320,208,341906,1,8,0:0:0:0:
248,200,342056,1,4,0:0:0:0:
184,264,342206,1,0,0:0:0:0:
184,264,342281,1,0,0:0:0:0:
184,264,342356,1,8,0:0:0:0:
184,264,342431,1,0,0:0:0:0:
184,208,342506,1,8,0:0:0:0:
112,104,342581,1,8,0:0:0:0:
184,208,342656,1,0,0:0:0:0:
184,208,342731,1,0,0:0:0:0:
192,208,342806,1,8,0:0:0:0:
192,208,342881,1,0,0:0:0:0:
192,208,342956,1,8,0:0:0:0:
192,208,343031,1,8,0:0:0:0:
192,208,343106,1,0,0:0:0:0:
192,208,343256,1,12,0:0:0:0:
200,208,343556,1,0,0:0:0:0:
200,208,343706,1,0,0:0:0:0:
200,208,343856,1,0,0:0:0:0:
200,208,344006,1,0,0:0:0:0:
200,208,344156,1,0,0:0:0:0:
200,208,344306,1,0,0:0:0:0:
272,224,344456,1,4,0:0:0:0:
272,224,344606,1,8,0:0:0:0:
224,112,344681,1,0,0:0:0:0:
272,224,344756,1,0,0:0:0:0:
272,224,344831,1,0,0:0:0:0:
272,224,344906,1,8,0:0:0:0:
208,280,345056,1,8,0:0:0:0:
208,280,345131,1,0,0:0:0:0:
208,280,345206,1,8,0:0:0:0:
208,280,345281,1,8,0:0:0:0:
208,280,345356,1,0,0:0:0:0:
208,280,345431,1,8,0:0:0:0:
208,280,345506,1,0,0:0:0:0:
216,280,345581,1,0,0:0:0:0:
224,272,345656,1,8,0:0:0:0:
224,272,345731,1,8,0:0:0:0:
224,272,345806,1,8,0:0:0:0:
224,272,345881,1,0,0:0:0:0:
224,272,345956,1,8,0:0:0:0:
224,272,346031,1,8,0:0:0:0:
224,272,346106,1,0,0:0:0:0:
224,272,346181,1,0,0:0:0:0:
232,272,346256,1,8,0:0:0:0:
232,272,346331,1,0,0:0:0:0:
232,272,346406,1,0,0:0:0:0:
232,272,346481,1,0,0:0:0:0:
232,272,346556,1,8,0:0:0:0:
232,272,346631,1,8,0:0:0:0:
184,152,346706,1,8,0:0:0:0:
184,152,346856,1,8,0:0:0:0:
120,224,346893,1,8,0:0:0:0:
112,208,347006,1,8,0:0:0:0:
104,216,347043,1,8,0:0:0:0:
184,152,347156,1,0,0:0:0:0:
120,224,347193,1,0,0:0:0:0:
112,208,347306,1,8,0:0:0:0:
232,216,347343,1,8,0:0:0:0:
232,216,347456,1,8,0:0:0:0:
368,304,347493,1,8,0:0:0:0:
232,216,347606,1,8,0:0:0:0:
184,152,347643,1,8,0:0:0:0:
368,304,347756,1,0,0:0:0:0:
120,224,347793,1,0,0:0:0:0:
112,208,347906,1,8,0:0:0:0:
232,216,347943,1,8,0:0:0:0:
232,216,348056,1,8,0:0:0:0:
368,304,348093,1,8,0:0:0:0:
232,216,348206,1,8,0:0:0:0:
368,304,348243,1,8,0:0:0:0:
184,152,348356,1,0,0:0:0:0:
120,224,348393,1,0,0:0:0:0:
112,208,348506,1,8,0:0:0:0:
232,216,348543,1,8,0:0:0:0:
232,216,348656,1,8,0:0:0:0:
232,216,348731,1,8,0:0:0:0:
368,304,348806,1,8,0:0:0:0:
368,304,348881,1,0,0:0:0:0:
264,312,348956,1,8,0:0:0:0:
264,312,349031,1,8,0:0:0:0:
264,312,349106,1,0,0:0:0:0:
264,312,349181,1,0,0:0:0:0:
264,312,349256,1,8,0:0:0:0:
280,288,349331,1,0,0:0:0:0:
280,288,349406,1,8,0:0:0:0:
280,288,349481,1,8,0:0:0:0:
280,288,349556,1,0,0:0:0:0:
280,288,349631,1,8,0:0:0:0:
280,288,349706,1,0,0:0:0:0:
280,288,349781,1,0,0:0:0:0:
280,272,349856,1,8,0:0:0:0:
280,272,349931,1,8,0:0:0:0:
96,176,350006,1,0,0:0:0:0:
104,184,350081,1,0,0:0:0:0:
192,288,350156,1,8,0:0:0:0:
192,288,350231,1,8,0:0:0:0:
192,288,350306,1,8,0:0:0:0:
192,288,350381,1,0,0:0:0:0:
256,232,350456,1,8,0:0:0:0:
256,232,350531,1,0,0:0:0:0:
256,232,350606,1,8,0:0:0:0:
256,232,350681,1,8,0:0:0:0:
256,232,350756,1,0,0:0:0:0:
256,232,350831,1,0,0:0:0:0:
256,232,350906,1,8,0:0:0:0:
256,232,350981,1,8,0:0:0:0:
256,232,351056,1,8,0:0:0:0:
256,232,351131,1,0,0:0:0:0:
256,232,351206,1,8,0:0:0:0:
256,232,351281,1,8,0:0:0:0:
256,232,351356,1,0,0:0:0:0:
160,120,351431,1,0,0:0:0:0:
160,120,351506,1,8,0:0:0:0:
160,120,351581,1,0,0:0:0:0:
272,304,351656,1,8,0:0:0:0:
272,304,351731,1,0,0:0:0:0:
272,304,351806,1,0,0:0:0:0:
272,304,351881,1,8,0:0:0:0:
272,304,351956,1,0,0:0:0:0:
272,304,352031,1,0,0:0:0:0:
272,304,352106,1,8,0:0:0:0:
272,304,352181,1,8,0:0:0:0:
176,216,352256,1,0,0:0:0:0:
176,216,352331,1,8,0:0:0:0:
176,216,352406,1,0,0:0:0:0:
176,216,352481,1,0,0:0:0:0:
176,216,352556,1,8,0:0:0:0:
176,216,352631,1,8,0:0:0:0:
176,216,352706,1,0,0:0:0:0:
192,280,352781,1,0,0:0:0:0:
176,216,352856,1,8,0:0:0:0:
192,280,352931,1,8,0:0:0:0:
192,280,353006,1,8,0:0:0:0:
192,280,353081,1,0,0:0:0:0:
192,280,353156,1,8,0:0:0:0:
200,280,353231,1,8,0:0:0:0:
200,280,353306,1,0,0:0:0:0:
200,280,353381,1,8,0:0:0:0:
192,280,353456,1,0,0:0:0:0:
200,280,353531,1,0,0:0:0:0:
200,272,353606,1,8,0:0:0:0:
200,272,353681,1,8,0:0:0:0:
200,272,353756,1,0,0:0:0:0:
200,272,353831,1,8,0:0:0:0:
200,272,353906,1,0,0:0:0:0:
176,208,354056,1,12,0:0:0:0:
248,272,354206,1,8,0:0:0:0:
248,272,354281,1,8,0:0:0:0:
248,272,354356,1,8,0:0:0:0:
248,272,354506,1,0,0:0:0:0:
200,128,354581,1,0,0:0:0:0:
272,200,354656,1,8,0:0:0:0:
176,96,354731,1,8,0:0:0:0:
272,200,354806,1,0,0:0:0:0:
272,200,354881,1,0,0:0:0:0:
272,200,354956,1,8,0:0:0:0:
112,136,355106,1,0,0:0:0:0:
232,272,355256,1,8,0:0:0:0:
224,96,355331,1,0,0:0:0:0:
232,272,355406,1,8,0:0:0:0:
24,160,355481,1,8,0:0:0:0:
232,272,355556,1,0,0:0:0:0:
232,272,355631,1,0,0:0:0:0:
232,272,355706,1,8,0:0:0:0:
256,216,355856,1,8,0:0:0:0:
256,216,356006,1,0,0:0:0:0:
256,216,356081,1,0,0:0:0:0:
256,216,356156,1,8,0:0:0:0:
256,216,356231,1,8,0:0:0:0:
256,208,356306,1,8,0:0:0:0:
192,200,356456,1,8,0:0:0:0:
192,200,356531,1,0,0:0:0:0:
192,200,356606,1,0,0:0:0:0:
96,184,356681,1,8,0:0:0:0:
192,200,356756,1,8,0:0:0:0:
96,184,356831,1,0,0:0:0:0:
192,200,356906,1,0,0:0:0:0:
192,200,356981,1,8,0:0:0:0:
16,104,357056,1,8,0:0:0:0:
16,104,357131,1,0,0:0:0:0:
272,144,357206,1,0,0:0:0:0:
144,112,357281,1,8,0:0:0:0:
272,144,357356,1,8,0:0:0:0:
144,264,357431,1,0,0:0:0:0:
144,112,357506,1,8,0:0:0:0:
272,272,357656,1,0,0:0:0:0:
272,280,357731,1,0,0:0:0:0:
224,192,357806,1,0,0:0:0:0:
8,136,357881,1,0,0:0:0:0:
208,280,357956,1,8,0:0:0:0:
160,160,358106,1,0,0:0:0:0:
48,200,358256,1,8,0:0:0:0:
160,160,358331,1,8,0:0:0:0:
160,160,358406,1,8,0:0:0:0:
160,160,358481,1,8,0:0:0:0:
160,160,358556,1,8,0:0:0:0:
160,256,358706,1,0,0:0:0:0:
320,232,358856,1,0,0:0:0:0:
320,232,358931,1,0,0:0:0:0:
320,232,359006,1,8,0:0:0:0:
320,232,359081,1,0,0:0:0:0:
320,232,359156,1,8,0:0:0:0:
320,232,359231,1,0,0:0:0:0:
320,232,359306,1,8,0:0:0:0:
320,232,359381,1,8,0:0:0:0:
320,232,359456,1,0,0:0:0:0:
320,232,359531,1,0,0:0:0:0:
320,232,359606,1,8,0:0:0:0:
320,232,359681,1,0,0:0:0:0:
320,232,359756,1,8,0:0:0:0:
320,232,359831,1,0,0:0:0:0:
320,232,359906,1,8,0:0:0:0:
320,232,359981,1,8,0:0:0:0:
320,232,360056,1,0,0:0:0:0:
320,232,360131,1,0,0:0:0:0:
320,232,360206,1,8,0:0:0:0:
320,232,360281,1,0,0:0:0:0:
320,232,360356,1,8,0:0:0:0:
320,232,360431,1,8,0:0:0:0:
320,232,360506,1,8,0:0:0:0:
320,232,360581,1,0,0:0:0:0:
320,232,360656,1,8,0:0:0:0:
320,208,360731,1,8,0:0:0:0:
320,208,360806,1,0,0:0:0:0:
320,208,360881,1,0,0:0:0:0:
320,208,360956,1,8,0:0:0:0:
320,208,361031,1,0,0:0:0:0:
320,208,361106,1,8,0:0:0:0:
248,200,361256,1,8,0:0:0:0:
184,264,361406,1,0,0:0:0:0:
184,264,361481,1,0,0:0:0:0:
184,264,361556,1,8,0:0:0:0:
192,104,361631,1,0,0:0:0:0:
184,208,361706,1,8,0:0:0:0:
184,72,361781,1,0,0:0:0:0:
184,208,361856,1,0,0:0:0:0:
184,208,361931,1,0,0:0:0:0:
192,208,362006,1,8,0:0:0:0:
192,208,362081,1,0,0:0:0:0:
192,208,362156,1,8,0:0:0:0:
192,208,362231,1,8,0:0:0:0:
192,208,362306,1,0,0:0:0:0:
192,208,362456,1,8,0:0:0:0:
216,232,362531,1,8,0:0:0:0:
216,224,362606,1,8,0:0:0:0:
216,224,362681,1,8,0:0:0:0:
200,208,362756,1,0,0:0:0:0:
304,288,362831,1,0,0:0:0:0:
200,208,362906,1,8,0:0:0:0:
48,160,362981,1,0,0:0:0:0:
320,136,363056,1,8,0:0:0:0:
320,136,363131,1,8,0:0:0:0:
200,208,363206,1,0,0:0:0:0:
312,160,363281,1,0,0:0:0:0:
312,160,363356,1,8,0:0:0:0:
312,160,363431,1,8,0:0:0:0:
200,208,363506,1,0,0:0:0:0:
272,224,363656,1,12,0:0:0:0:
56,160,363806,1,0,0:0:0:0:
184,304,363881,1,0,0:0:0:0:
184,304,363956,1,8,0:0:0:0:
160,128,364031,1,0,0:0:0:0:
160,128,364106,1,0,0:0:0:0:
160,128,364181,1,0,0:0:0:0:
184,304,364256,1,8,0:0:0:0:
160,128,364331,1,0,0:0:0:0:
160,128,364406,1,0,0:0:0:0:
160,128,364481,1,0,0:0:0:0:
184,304,364556,1,8,0:0:0:0:
160,128,364631,1,0,0:0:0:0:
160,128,364706,1,0,0:0:0:0:
160,128,364781,1,0,0:0:0:0:
184,304,364856,1,8,0:0:0:0:
160,128,364931,1,8,0:0:0:0:
160,128,365006,1,0,0:0:0:0:
160,128,365081,1,8,0:0:0:0:
264,160,365156,1,8,0:0:0:0:
264,160,365231,1,8,0:0:0:0:
264,160,365306,1,0,0:0:0:0:
264,160,365381,1,0,0:0:0:0:
184,304,365456,1,8,0:0:0:0:
160,128,365531,1,0,0:0:0:0:
160,128,365606,1,8,0:0:0:0:
160,128,365681,1,8,0:0:0:0:
48,136,365756,1,8,0:0:0:0:
160,128,365831,1,0,0:0:0:0:
184,304,365906,1,8,0:0:0:0:
160,128,365981,1,0,0:0:0:0:
160,128,366056,1,8,0:0:0:0:
184,304,366206,1,8,0:0:0:0:
160,128,366281,1,8,0:0:0:0:
32,160,366356,1,0,0:0:0:0:
160,128,366431,1,0,0:0:0:0:
184,304,366506,1,8,0:0:0:0:
160,128,366656,1,8,0:0:0:0:
160,128,366731,1,8,0:0:0:0:
160,128,366806,1,0,0:0:0:0:
184,304,366881,1,0,0:0:0:0:
160,128,366956,1,8,0:0:0:0:
160,128,367031,1,0,0:0:0:0:
160,128,367106,1,8,0:0:0:0:
160,128,367256,1,8,0:0:0:0:
280,224,367406,1,8,0:0:0:0:
280,224,367481,1,8,0:0:0:0:
256,184,367556,1,0,0:0:0:0:
248,176,367631,1,0,0:0:0:0:
256,184,367706,1,8,0:0:0:0:
288,312,367856,1,8,0:0:0:0:
288,312,367931,1,8,0:0:0:0:
288,312,368006,1,0,0:0:0:0:
288,312,368081,1,8,0:0:0:0:
288,312,368156,1,0,0:0:0:0:
168,96,368231,1,0,0:0:0:0:
288,312,368306,1,8,0:0:0:0:
152,240,368456,1,4,0:0:0:0:
232,128,368606,1,0,0:0:0:0:
232,128,368681,1,0,0:0:0:0:
248,128,368756,1,8,0:0:0:0:
176,64,368831,1,8,0:0:0:0:
144,152,368906,1,0,0:0:0:0:
328,240,369056,1,8,0:0:0:0:
144,152,369206,1,8,0:0:0:0:
160,264,369281,1,0,0:0:0:0:
144,152,369356,1,8,0:0:0:0:
168,272,369431,1,8,0:0:0:0:
144,152,369506,1,0,0:0:0:0:
152,240,369656,1,0,0:0:0:0:
232,128,369806,1,0,0:0:0:0:
232,128,369881,1,0,0:0:0:0:
248,128,369956,1,8,0:0:0:0:
328,240,370031,1,8,0:0:0:0:
248,240,370106,1,0,0:0:0:0:
144,152,370256,1,8,0:0:0:0:
144,152,370406,1,8,0:0:0:0:
144,152,370481,1,8,0:0:0:0:
160,264,370556,1,0,0:0:0:0:
168,272,370631,1,0,0:0:0:0:
144,152,370706,1,0,0:0:0:0:
224,208,370856,1,8,0:0:0:0:
240,176,370931,1,0,0:0:0:0:
232,168,371006,1,0,0:0:0:0:
200,232,371081,1,0,0:0:0:0:
232,168,371156,1,8,0:0:0:0:
232,168,371231,1,0,0:0:0:0:
232,168,371306,1,8,0:0:0:0:
240,168,371381,1,8,0:0:0:0:
240,168,371456,1,0,0:0:0:0:
240,168,371531,1,0,0:0:0:0:
240,168,371606,1,8,0:0:0:0:
240,168,371681,1,0,0:0:0:0:
240,168,371756,1,8,0:0:0:0:
240,168,371831,1,0,0:0:0:0:
152,248,371906,1,0,0:0:0:0:
152,248,371981,1,0,0:0:0:0:
152,240,372056,1,8,0:0:0:0:
152,240,372131,1,8,0:0:0:0:
152,240,372206,1,8,0:0:0:0:
152,240,372281,1,0,0:0:0:0:
152,240,372356,1,8,0:0:0:0:
152,240,372431,1,8,0:0:0:0:
152,240,372506,1,0,0:0:0:0:
152,240,372581,1,0,0:0:0:0:
152,240,372656,1,8,0:0:0:0:
152,240,372731,1,8,0:0:0:0:
152,240,372806,1,0,0:0:0:0:
152,240,372881,1,0,0:0:0:0:
152,240,372956,1,8,0:0:0:0:
152,240,373106,1,0,0:0:0:0:
152,240,373256,1,0,0:0:0:0:
272,256,373331,1,0,0:0:0:0:
272,256,373406,1,8,0:0:0:0:
256,128,373481,1,0,0:0:0:0:
256,128,373556,1,0,0:0:0:0:
248,128,373631,1,0,0:0:0:0:
248,128,373706,1,8,0:0:0:0:
248,128,373781,1,8,0:0:0:0:
248,128,373856,1,0,0:0:0:0:
248,128,373931,1,0,0:0:0:0:
248,128,374006,1,8,0:0:0:0:
256,128,374081,1,0,0:0:0:0:
256,128,374156,1,8,0:0:0:0:
256,128,374231,1,8,0:0:0:0:
256,128,374306,1,0,0:0:0:0:
72,240,374456,2,0,B|104:168|104:168|136:240|136:240|120:216|120:216|80:216,1,209.999978170395
352,216,375056,1,0,0:0:0:0:
352,216,375131,1,0,0:0:0:0:
352,216,375206,1,8,0:0:0:0:
288,328,375356,1,8,0:0:0:0:
288,328,375431,1,8,0:0:0:0:
288,328,375506,1,8,0:0:0:0:
288,328,375656,1,0,0:0:0:0:
192,256,375731,1,0,0:0:0:0:
192,256,375806,1,8,0:0:0:0:
192,256,375881,1,8,0:0:0:0:
192,256,375956,1,8,0:0:0:0:
192,256,376031,1,0,0:0:0:0:
192,256,376106,1,8,0:0:0:0:
264,224,376181,1,0,0:0:0:0:
264,224,376256,1,8,0:0:0:0:
184,104,376331,1,0,0:0:0:0:
264,224,376406,1,8,0:0:0:0:
192,96,376481,1,8,0:0:0:0:
184,104,376556,1,0,0:0:0:0:
192,96,376631,1,0,0:0:0:0:
192,96,376706,1,8,0:0:0:0:
88,184,376856,2,4,B|184:272|184:272|184:176|184:176|88:256,1,349.999963617325
224,128,377756,1,8,0:0:0:0:
208,160,377793,1,8,0:0:0:0:
208,160,377906,1,8,0:0:0:0:
144,120,377943,1,8,0:0:0:0:
320,288,378056,1,0,0:0:0:0:
320,288,378131,1,0,0:0:0:0:
320,216,378206,1,8,0:0:0:0:
320,288,378281,1,8,0:0:0:0:
320,216,378356,1,8,0:0:0:0:
320,216,378431,1,0,0:0:0:0:
320,216,378506,1,8,0:0:0:0:
272,192,378581,1,8,0:0:0:0:
272,192,378656,1,0,0:0:0:0:
160,208,378731,1,0,0:0:0:0:
272,192,378806,1,8,0:0:0:0:
272,192,378881,1,0,0:0:0:0:
272,192,378956,1,8,0:0:0:0:
144,120,379031,1,8,0:0:0:0:
144,120,379106,1,8,0:0:0:0:
144,120,379181,1,8,0:0:0:0:
320,288,379256,1,0,0:0:0:0:
320,288,379331,1,0,0:0:0:0:
320,216,379406,1,8,0:0:0:0:
320,288,379481,1,8,0:0:0:0:
320,216,379556,1,8,0:0:0:0:
320,216,379631,1,0,0:0:0:0:
320,216,379706,1,8,0:0:0:0:
272,192,379781,1,0,0:0:0:0:
272,192,379856,1,8,0:0:0:0:
160,208,379931,1,8,0:0:0:0:
272,192,380006,1,8,0:0:0:0:
272,192,380081,1,0,0:0:0:0:
272,192,380156,1,8,0:0:0:0:
144,120,380231,1,8,0:0:0:0:
144,120,380306,1,0,0:0:0:0:
144,120,380381,1,0,0:0:0:0:
240,264,380456,1,8,0:0:0:0:
240,264,380531,1,0,0:0:0:0:
240,264,380606,1,8,0:0:0:0:
240,264,380681,1,0,0:0:0:0:
240,264,380756,1,8,0:0:0:0:
240,264,380831,1,0,0:0:0:0:
240,264,380906,1,8,0:0:0:0:
240,264,380981,1,8,0:0:0:0:
240,264,381056,1,0,0:0:0:0:
240,264,381131,1,8,0:0:0:0:
240,264,381206,1,0,0:0:0:0:
240,264,381281,1,8,0:0:0:0:
240,264,381356,1,0,0:0:0:0:
240,264,381431,1,0,0:0:0:0:
240,264,381506,1,8,0:0:0:0:
184,184,381581,1,0,0:0:0:0:
184,184,381656,1,8,0:0:0:0:
184,184,381731,1,8,0:0:0:0:
248,176,381806,1,0,0:0:0:0:
248,176,381881,1,0,0:0:0:0:
248,176,381956,1,8,0:0:0:0:
248,176,382031,1,8,0:0:0:0:
248,176,382106,1,0,0:0:0:0:
248,176,382181,1,0,0:0:0:0:
248,176,382256,1,8,0:0:0:0:
248,176,382331,1,8,0:0:0:0:
248,176,382406,1,0,0:0:0:0:
248,176,382481,1,0,0:0:0:0:
248,176,382556,1,8,0:0:0:0:
248,176,382706,1,0,0:0:0:0:
160,208,382856,1,0,0:0:0:0:
248,248,382931,1,0,0:0:0:0:
248,248,383006,1,8,0:0:0:0:
240,240,383081,1,0,0:0:0:0:
232,248,383156,1,0,0:0:0:0:
232,248,383231,1,0,0:0:0:0:
248,248,383306,1,8,0:0:0:0:
240,240,383381,1,0,0:0:0:0:
232,248,383456,1,8,0:0:0:0:
232,248,383531,1,8,0:0:0:0:
248,248,383606,1,8,0:0:0:0:
240,240,383681,1,0,0:0:0:0:
232,248,383756,1,8,0:0:0:0:
232,248,383831,1,8,0:0:0:0:
248,248,383906,1,8,0:0:0:0:
160,208,383981,1,0,0:0:0:0:
240,240,384056,1,8,0:0:0:0:
248,248,384131,1,0,0:0:0:0:
248,248,384206,1,8,0:0:0:0:
240,240,384281,1,8,0:0:0:0:
232,248,384356,1,0,0:0:0:0:
232,248,384431,1,0,0:0:0:0:
248,248,384506,1,8,0:0:0:0:
240,240,384581,1,0,0:0:0:0:
232,248,384656,1,8,0:0:0:0:
232,248,384731,1,8,0:0:0:0:
248,248,384806,1,8,0:0:0:0:
240,240,384881,1,0,0:0:0:0:
232,248,384956,1,8,0:0:0:0:
232,248,385031,1,8,0:0:0:0:
248,248,385106,1,8,0:0:0:0:
240,240,385181,1,8,0:0:0:0:
88,176,385256,1,0,0:0:0:0:
224,160,385406,1,8,0:0:0:0:
224,160,385456,1,8,0:0:0:0:
224,160,385506,1,8,0:0:0:0:
224,160,385556,1,0,0:0:0:0:
184,240,385706,1,8,0:0:0:0:
144,128,385781,1,0,0:0:0:0:
184,240,385856,1,8,0:0:0:0:
184,240,385931,1,8,0:0:0:0:
184,240,386006,1,0,0:0:0:0:
184,112,386081,1,0,0:0:0:0:
184,240,386156,1,8,0:0:0:0:
192,176,386306,1,8,0:0:0:0:
264,240,386456,1,8,0:0:0:0:
264,240,386531,1,0,0:0:0:0:
264,240,386606,1,0,0:0:0:0:
264,240,386681,1,8,0:0:0:0:
264,240,386756,1,8,0:0:0:0:
264,240,386831,1,0,0:0:0:0:
264,240,386906,1,8,0:0:0:0:
272,224,386981,1,0,0:0:0:0:
272,232,387056,1,8,0:0:0:0:
272,232,387131,1,8,0:0:0:0:
272,232,387206,1,8,0:0:0:0:
272,232,387281,1,8,0:0:0:0:
272,232,387356,1,0,0:0:0:0:
272,232,387506,1,8,0:0:0:0:
200,136,387656,1,8,0:0:0:0:
192,128,387731,1,0,0:0:0:0:
192,128,387806,1,8,0:0:0:0:
184,128,387881,1,0,0:0:0:0:
192,224,387956,1,0,0:0:0:0:
192,224,388031,1,0,0:0:0:0:
192,224,388106,1,8,0:0:0:0:
192,224,388181,1,0,0:0:0:0:
248,256,388256,1,0,0:0:0:0:
248,256,388331,1,0,0:0:0:0:
248,256,388406,1,8,0:0:0:0:
248,256,388481,1,0,0:0:0:0:
256,248,388556,1,8,0:0:0:0:
256,248,388631,1,8,0:0:0:0:
256,248,388706,1,8,0:0:0:0:
256,248,388781,1,0,0:0:0:0:
176,248,388856,1,8,0:0:0:0:
176,248,389006,1,8,0:0:0:0:
176,248,389156,1,8,0:0:0:0:
176,248,389231,1,8,0:0:0:0:
168,248,389306,1,0,0:0:0:0:
240,168,389381,1,0,0:0:0:0:
192,144,389456,1,8,0:0:0:0:
192,144,389606,1,8,0:0:0:0:
192,144,389756,1,8,0:0:0:0:
192,144,389831,1,8,0:0:0:0:
192,144,389906,1,0,0:0:0:0:
192,144,390056,1,12,0:0:0:0:
216,168,391256,1,4,0:0:0:0:
208,248,392456,1,4,0:0:0:0:
208,248,392606,1,8,0:0:0:0:
208,248,392681,1,0,0:0:0:0:
144,128,392756,1,0,0:0:0:0:
208,248,392831,1,0,0:0:0:0:
208,248,392906,1,8,0:0:0:0:
144,128,392981,1,0,0:0:0:0:
208,224,393056,1,0,0:0:0:0:
168,96,393131,1,0,0:0:0:0:
200,216,393206,1,8,0:0:0:0:
192,208,393281,1,8,0:0:0:0:
248,80,393356,1,0,0:0:0:0:
200,216,393431,1,0,0:0:0:0:
200,216,393506,1,8,0:0:0:0:
176,72,393581,1,0,0:0:0:0:
200,208,393656,1,8,0:0:0:0:
176,160,393731,1,8,0:0:0:0:
168,160,393806,1,8,0:0:0:0:
176,72,393881,1,8,0:0:0:0:
192,184,393956,1,0,0:0:0:0:
176,72,394031,1,0,0:0:0:0:
192,184,394106,1,8,0:0:0:0:
192,184,394181,1,8,0:0:0:0:
224,128,394256,1,8,0:0:0:0:
160,40,394331,1,8,0:0:0:0:
192,184,394406,1,0,0:0:0:0:
288,64,394481,1,0,0:0:0:0:
224,128,394556,1,8,0:0:0:0:
224,128,394631,1,8,0:0:0:0:
224,128,394706,1,0,0:0:0:0:
256,40,394781,1,0,0:0:0:0:
232,224,394856,1,8,0:0:0:0:
232,216,394931,1,8,0:0:0:0:
232,208,395006,1,8,0:0:0:0:
232,208,395081,1,8,0:0:0:0:
232,208,395156,1,0,0:0:0:0:
232,208,395231,1,0,0:0:0:0:
232,208,395306,1,8,0:0:0:0:
232,208,395381,1,0,0:0:0:0:
232,208,395456,1,0,0:0:0:0:
232,208,395531,1,0,0:0:0:0:
232,208,395606,1,8,0:0:0:0:
232,208,395681,1,0,0:0:0:0:
232,208,395756,1,8,0:0:0:0:
232,208,395831,1,8,0:0:0:0:
232,208,395906,1,0,0:0:0:0:
112,184,396056,2,0,L|176:184,10,34.9999963617325
256,88,396956,1,0,0:0:0:0:
256,88,397106,1,8,0:0:0:0:
208,256,397256,1,8,0:0:0:0:
208,256,397331,1,8,0:0:0:0:
208,256,397406,1,0,0:0:0:0:
224,176,397481,1,0,0:0:0:0:
256,88,397556,1,8,0:0:0:0:
192,152,397631,1,0,0:0:0:0:
208,256,397706,1,8,0:0:0:0:
208,256,397781,1,8,0:0:0:0:
208,256,397856,1,0,0:0:0:0:
176,128,397931,1,0,0:0:0:0:
224,176,398006,1,8,0:0:0:0:
152,48,398081,1,0,0:0:0:0:
120,168,398156,1,8,0:0:0:0:
120,168,398231,1,8,0:0:0:0:
104,160,398306,1,0,0:0:0:0:
144,64,398381,1,0,0:0:0:0:
200,216,398456,1,8,0:0:0:0:
208,296,398531,1,8,0:0:0:0:
192,216,398606,1,0,0:0:0:0:
208,296,398681,1,8,0:0:0:0:
208,296,398756,1,0,0:0:0:0:
216,272,398831,1,0,0:0:0:0:
216,272,398906,1,8,0:0:0:0:
216,272,398981,1,0,0:0:0:0:
208,256,399056,1,8,0:0:0:0:
208,256,399131,1,8,0:0:0:0:
208,256,399206,1,0,0:0:0:0:
208,256,399281,1,8,0:0:0:0:
208,256,399356,1,0,0:0:0:0:
208,256,399431,1,0,0:0:0:0:
224,152,399506,1,8,0:0:0:0:
224,152,399581,1,8,0:0:0:0:
160,184,399656,1,0,0:0:0:0:
208,40,399731,1,0,0:0:0:0:
240,256,399806,1,8,0:0:0:0:
240,256,399881,1,0,0:0:0:0:
240,256,399956,1,0,0:0:0:0:
144,80,400031,1,0,0:0:0:0:
240,248,400106,1,8,0:0:0:0:
240,248,400181,1,8,0:0:0:0:
240,248,400256,1,0,0:0:0:0:
240,248,400331,1,0,0:0:0:0:
240,248,400406,1,8,0:0:0:0:
240,248,400481,1,0,0:0:0:0:
240,248,400556,1,8,0:0:0:0:
48,88,400631,1,8,0:0:0:0:
240,248,400706,1,0,0:0:0:0:
96,72,400781,1,0,0:0:0:0:
240,248,400856,1,8,0:0:0:0:
240,248,400931,1,8,0:0:0:0:
240,248,401006,1,8,0:0:0:0:
240,240,401081,1,8,0:0:0:0:
240,248,401156,1,0,0:0:0:0:
240,248,401231,1,0,0:0:0:0:
240,248,401306,1,0,0:0:0:0:
240,240,401381,1,0,0:0:0:0:
240,248,401456,1,8,0:0:0:0:
240,248,401531,1,8,0:0:0:0:
240,248,401606,1,8,0:0:0:0:
240,240,401681,1,8,0:0:0:0:
240,248,401756,1,0,0:0:0:0:
240,248,401831,1,0,0:0:0:0:
240,248,401906,1,0,0:0:0:0:
240,240,401981,1,0,0:0:0:0:
160,192,402056,1,8,0:0:0:0:
160,192,402131,1,0,0:0:0:0:
160,192,402206,1,8,0:0:0:0:
152,184,402281,1,8,0:0:0:0:
240,200,402356,1,0,0:0:0:0:
240,192,402431,1,0,0:0:0:0:
240,192,402506,1,8,0:0:0:0:
240,192,402581,1,0,0:0:0:0:
240,192,402656,1,8,0:0:0:0:
240,192,402731,1,8,0:0:0:0:
240,192,402806,1,8,0:0:0:0:
240,184,402881,1,0,0:0:0:0:
144,144,402956,1,0,0:0:0:0:
144,144,403031,1,0,0:0:0:0:
240,184,403106,1,8,0:0:0:0:
144,144,403181,1,0,0:0:0:0:
160,232,403256,1,8,0:0:0:0:
160,224,403331,1,8,0:0:0:0:
160,224,403406,1,8,0:0:0:0:
160,224,403481,1,0,0:0:0:0:
160,224,403556,1,8,0:0:0:0:
160,224,403631,1,8,0:0:0:0:
160,224,403706,1,0,0:0:0:0:
160,224,403781,1,0,0:0:0:0:
160,224,403856,1,8,0:0:0:0:
160,224,403931,1,8,0:0:0:0:
152,216,404006,1,0,0:0:0:0:
208,144,404081,1,0,0:0:0:0:
200,144,404156,1,8,0:0:0:0:
200,144,404231,1,0,0:0:0:0:
200,144,404306,1,8,0:0:0:0:
200,144,404381,1,0,0:0:0:0:
248,224,404456,1,8,0:0:0:0:
248,224,404531,1,8,0:0:0:0:
248,216,404606,1,8,0:0:0:0:
248,216,404681,1,0,0:0:0:0:
248,216,404756,1,8,0:0:0:0:
248,216,404831,1,0,0:0:0:0:
248,216,404906,1,8,0:0:0:0:
248,216,404981,1,8,0:0:0:0:
160,104,405056,1,8,0:0:0:0:
160,104,405131,1,0,0:0:0:0:
160,104,405206,1,8,0:0:0:0:
200,224,405281,1,0,0:0:0:0:
192,224,405356,1,0,0:0:0:0:
192,224,405431,1,0,0:0:0:0:
192,224,405506,1,8,0:0:0:0:
192,224,405581,1,0,0:0:0:0:
216,144,405656,1,8,0:0:0:0:
216,144,405731,1,8,0:0:0:0:
192,184,405806,1,8,0:0:0:0:
192,184,405881,1,0,0:0:0:0:
192,184,405956,1,8,0:0:0:0:
192,184,406031,1,8,0:0:0:0:
192,184,406106,1,8,0:0:0:0:
192,184,406181,1,8,0:0:0:0:
152,208,406256,1,0,0:0:0:0:
152,208,406331,1,0,0:0:0:0:
152,208,406406,1,8,0:0:0:0:
152,208,406481,1,0,0:0:0:0:
152,208,406556,1,8,0:0:0:0:
152,216,406631,1,8,0:0:0:0:
152,208,406706,1,0,0:0:0:0:
152,216,406781,1,0,0:0:0:0:
200,144,406856,1,8,0:0:0:0:
200,144,406931,1,0,0:0:0:0:
200,144,407006,1,0,0:0:0:0:
200,144,407081,1,0,0:0:0:0:
208,144,407156,1,8,0:0:0:0:
208,144,407231,1,0,0:0:0:0:
208,144,407306,1,8,0:0:0:0:
208,144,407381,1,0,0:0:0:0:
208,144,407456,1,0,0:0:0:0:
208,144,407531,1,0,0:0:0:0:
208,144,407606,1,8,0:0:0:0:
208,144,407681,1,0,0:0:0:0:
208,144,407756,1,8,0:0:0:0:
208,144,407831,1,8,0:0:0:0:
208,144,407906,1,0,0:0:0:0:
208,144,407981,1,0,0:0:0:0:
232,192,408056,1,8,0:0:0:0:
232,192,408131,1,8,0:0:0:0:
232,192,408206,1,8,0:0:0:0:
232,192,408281,1,0,0:0:0:0:
232,192,408356,1,8,0:0:0:0:
232,192,408431,1,8,0:0:0:0:
232,192,408506,1,0,0:0:0:0:
232,192,408581,1,0,0:0:0:0:
240,184,408656,1,8,0:0:0:0:
240,184,408731,1,8,0:0:0:0:
240,184,408806,1,8,0:0:0:0:
240,184,408881,1,0,0:0:0:0:
240,184,408956,1,8,0:0:0:0:
240,184,409031,1,8,0:0:0:0:
240,184,409106,1,8,0:0:0:0:
240,184,409181,1,8,0:0:0:0:
184,160,409256,1,0,0:0:0:0:
184,160,409406,1,0,0:0:0:0:
184,160,409481,1,0,0:0:0:0:
184,160,409556,1,8,0:0:0:0:
112,232,409706,1,0,0:0:0:0:
112,232,409781,1,0,0:0:0:0:
112,232,409856,1,8,0:0:0:0:
112,224,409931,1,0,0:0:0:0:
112,224,410006,1,0,0:0:0:0:
112,224,410081,1,0,0:0:0:0:
120,224,410156,1,8,0:0:0:0:
120,224,410306,1,0,0:0:0:0:
152,152,410456,1,8,0:0:0:0:
152,152,410531,1,8,0:0:0:0:
152,152,410606,1,8,0:0:0:0:
152,152,410681,1,8,0:0:0:0:
152,152,410756,1,0,0:0:0:0:
152,152,410831,1,0,0:0:0:0:
152,152,410906,1,0,0:0:0:0:
152,152,410981,1,0,0:0:0:0:
152,152,411056,1,8,0:0:0:0:
152,152,411131,1,8,0:0:0:0:
152,152,411206,1,0,0:0:0:0:
152,152,411281,1,0,0:0:0:0:
152,152,411356,1,8,0:0:0:0:
152,152,411431,1,8,0:0:0:0:
152,152,411506,1,8,0:0:0:0:
272,248,411656,1,4,0:0:0:0:
272,248,411806,1,8,0:0:0:0:
272,248,411956,1,0,0:0:0:0:
272,248,412031,1,0,0:0:0:0:
272,248,412106,1,8,0:0:0:0:
352,192,412256,1,0,0:0:0:0:
352,192,412406,1,8,0:0:0:0:
352,192,412481,1,8,0:0:0:0:
352,192,412556,1,0,0:0:0:0:
352,192,412631,1,8,0:0:0:0:
352,192,412706,1,8,0:0:0:0:
168,200,412856,1,8,0:0:0:0:
176,200,413006,1,0,0:0:0:0:
168,200,413081,1,8,0:0:0:0:
176,192,413231,1,0,0:0:0:0:
176,192,413306,1,8,0:0:0:0:
168,192,413456,1,8,0:0:0:0:
168,192,413606,1,0,0:0:0:0:
168,184,413681,1,8,0:0:0:0:
168,184,413756,1,0,0:0:0:0:
168,184,413831,1,0,0:0:0:0:
168,184,413906,1,8,0:0:0:0:
240,240,414056,1,0,0:0:0:0:
240,240,414206,1,0,0:0:0:0:
240,240,414356,1,8,0:0:0:0:
240,240,414431,1,8,0:0:0:0:
232,240,414506,1,0,0:0:0:0:
256,160,414656,1,0,0:0:0:0:
256,160,414806,1,8,0:0:0:0:
256,160,414881,1,8,0:0:0:0:
248,160,414956,1,0,0:0:0:0:
184,56,415031,1,0,0:0:0:0:
160,192,415106,1,8,0:0:0:0:
160,192,415181,1,8,0:0:0:0:
160,192,415256,1,0,0:0:0:0:
192,296,415406,1,0,0:0:0:0:
192,296,415556,1,8,0:0:0:0:
192,296,415631,1,8,0:0:0:0:
192,296,415706,1,0,0:0:0:0:
232,248,415856,1,0,0:0:0:0:
232,248,416006,1,8,0:0:0:0:
232,248,416081,1,8,0:0:0:0:
232,248,416156,1,0,0:0:0:0:
192,152,416231,1,0,0:0:0:0:
232,248,416306,1,0,0:0:0:0:
144,160,416456,1,4,0:0:0:0:
144,160,416606,1,8,0:0:0:0:
184,116,416756,1,0,0:0:0:0:
184,116,416831,1,0,0:0:0:0:
180,124,416906,1,8,0:0:0:0:
180,124,416981,1,0,0:0:0:0:
180,124,417056,1,0,0:0:0:0:
180,124,417206,1,8,0:0:0:0:
180,124,417356,1,8,0:0:0:0:
180,124,417431,1,0,0:0:0:0:
180,124,417506,1,8,0:0:0:0:
184,116,417581,1,8,0:0:0:0:
184,116,417656,1,0,0:0:0:0:
192,112,417806,1,8,0:0:0:0:
192,112,417881,1,8,0:0:0:0:
192,112,417956,1,0,0:0:0:0:
184,136,418031,1,0,0:0:0:0:
196,112,418106,1,8,0:0:0:0:
192,112,418256,1,0,0:0:0:0:
208,48,418331,1,0,0:0:0:0:
192,112,418406,1,8,0:0:0:0:
176,108,418556,1,0,0:0:0:0:
176,108,418631,1,0,0:0:0:0:
176,108,418706,1,8,0:0:0:0:
176,152,418781,1,8,0:0:0:0:
232,240,418856,1,0,0:0:0:0:
232,240,419006,1,8,0:0:0:0:
16,120,419081,1,0,0:0:0:0:
232,240,419156,1,0,0:0:0:0:
232,240,419231,1,0,0:0:0:0:
232,240,419306,1,8,0:0:0:0:
144,208,419381,1,8,0:0:0:0:
144,208,419456,1,0,0:0:0:0:
144,208,419606,1,8,0:0:0:0:
144,208,419756,1,0,0:0:0:0:
144,208,419831,1,0,0:0:0:0:
144,208,419906,1,8,0:0:0:0:
216,196,420056,1,8,0:0:0:0:
216,196,420131,1,8,0:0:0:0:
216,196,420206,1,8,0:0:0:0:
216,196,420281,1,8,0:0:0:0:
216,196,420356,1,0,0:0:0:0:
216,196,420431,1,0,0:0:0:0:
216,196,420506,1,0,0:0:0:0:
216,196,420581,1,0,0:0:0:0:
216,196,420656,1,8,0:0:0:0:
216,196,420731,1,8,0:0:0:0:
216,196,420806,1,8,0:0:0:0:
216,196,420881,1,8,0:0:0:0:
216,196,420956,1,0,0:0:0:0:
216,196,421031,1,0,0:0:0:0:
216,196,421106,1,0,0:0:0:0:
216,196,421181,1,0,0:0:0:0:
216,196,421256,1,8,0:0:0:0:
156,252,421406,1,0,0:0:0:0:
156,252,421481,1,0,0:0:0:0:
156,252,421556,1,0,0:0:0:0:
156,252,421706,1,8,0:0:0:0:
152,216,421856,1,0,0:0:0:0:
184,120,421931,1,8,0:0:0:0:
156,216,422006,1,0,0:0:0:0:
192,136,422081,1,0,0:0:0:0:
156,216,422156,1,8,0:0:0:0:
152,216,422306,1,0,0:0:0:0:
168,92,422456,1,8,0:0:0:0:
260,200,422606,1,0,0:0:0:0:
192,88,422681,1,0,0:0:0:0:
260,200,422756,1,0,0:0:0:0:
260,200,422906,1,8,0:0:0:0:
260,200,423056,1,0,0:0:0:0:
260,200,423131,1,8,0:0:0:0:
260,200,423206,1,0,0:0:0:0:
260,200,423281,1,0,0:0:0:0:
260,200,423356,1,8,0:0:0:0:
208,80,423431,1,8,0:0:0:0:
260,200,423506,1,0,0:0:0:0:
208,80,423581,1,0,0:0:0:0:
168,92,423656,1,8,0:0:0:0:
260,200,423806,1,0,0:0:0:0:
200,208,423881,1,0,0:0:0:0:
260,200,423956,1,8,0:0:0:0:
260,200,424031,1,0,0:0:0:0:
260,200,424106,1,8,0:0:0:0:
260,200,424181,1,8,0:0:0:0:
260,200,424256,1,0,0:0:0:0:
260,200,424406,1,8,0:0:0:0:
208,136,424481,1,8,0:0:0:0:
248,96,424556,1,0,0:0:0:0:
204,296,424631,1,0,0:0:0:0:
260,200,424706,1,8,0:0:0:0:
136,168,424856,1,0,0:0:0:0:
288,296,425006,1,0,0:0:0:0:
288,296,425156,1,8,0:0:0:0:
288,296,425231,1,8,0:0:0:0:
288,296,425306,1,0,0:0:0:0:
280,288,425456,1,0,0:0:0:0:
280,288,425606,1,8,0:0:0:0:
280,288,425681,1,8,0:0:0:0:
280,288,425756,1,0,0:0:0:0:
288,280,425906,1,8,0:0:0:0:
144,160,426056,1,4,0:0:0:0:
144,160,426206,1,8,0:0:0:0:
184,116,426356,1,0,0:0:0:0:
184,116,426431,1,0,0:0:0:0:
180,124,426506,1,8,0:0:0:0:
192,56,426581,1,8,0:0:0:0:
180,124,426656,1,0,0:0:0:0:
180,124,426806,1,8,0:0:0:0:
180,124,426956,1,8,0:0:0:0:
180,124,427031,1,0,0:0:0:0:
180,124,427106,1,8,0:0:0:0:
184,116,427181,1,8,0:0:0:0:
184,116,427256,1,0,0:0:0:0:
192,112,427406,1,8,0:0:0:0:
192,112,427556,1,0,0:0:0:0:
192,112,427631,1,0,0:0:0:0:
196,112,427706,1,8,0:0:0:0:
192,112,427856,1,0,0:0:0:0:
192,112,428006,1,8,0:0:0:0:
208,48,428081,1,8,0:0:0:0:
176,108,428156,1,0,0:0:0:0:
176,108,428231,1,0,0:0:0:0:
176,108,428306,1,8,0:0:0:0:
232,240,428456,1,0,0:0:0:0:
232,240,428606,1,8,0:0:0:0:
184,176,428756,1,0,0:0:0:0:
232,240,428831,1,0,0:0:0:0:
232,240,428906,1,8,0:0:0:0:
144,208,429056,1,0,0:0:0:0:
192,112,429131,1,0,0:0:0:0:
144,208,429206,1,8,0:0:0:0:
144,208,429281,1,0,0:0:0:0:
144,208,429356,1,8,0:0:0:0:
144,208,429431,1,8,0:0:0:0:
144,208,429506,1,0,0:0:0:0:
136,168,429656,1,8,0:0:0:0:
288,296,429806,1,8,0:0:0:0:
288,296,429956,1,8,0:0:0:0:
288,296,430031,1,8,0:0:0:0:
288,296,430106,1,0,0:0:0:0:
304,112,430181,1,0,0:0:0:0:
280,288,430256,1,8,0:0:0:0:
280,288,430406,1,8,0:0:0:0:
288,280,430556,1,0,0:0:0:0:
280,288,430631,1,8,0:0:0:0:
280,288,430706,1,0,0:0:0:0:
288,280,430856,1,4,0:0:0:0:
288,280,431006,1,4,0:0:0:0:
292,224,433256,5,12,0:0:0:0:
268,224,435656,1,4,0:0:0:0:
88,264,439256,6,4,B|88:104|88:104|208:128|208:248|88:272,1,419.99995634079,0|0,0:0|0:0,0:0:0:0:
304,304,440456,1,12,0:0:0:0:
304,304,440606,1,0,0:0:0:0:
304,304,440681,1,0,0:0:0:0:
304,304,440756,1,8,0:0:0:0:
304,304,440831,1,0,0:0:0:0:
232,160,440906,1,0,0:0:0:0:
304,304,440981,1,0,0:0:0:0:
304,304,441056,1,8,0:0:0:0:
136,208,441131,1,0,0:0:0:0:
304,304,441206,1,8,0:0:0:0:
304,304,441281,1,0,0:0:0:0:
304,304,441356,1,8,0:0:0:0:
152,140,441431,1,8,0:0:0:0:
304,304,441506,1,0,0:0:0:0:
304,304,441581,1,0,0:0:0:0:
304,304,441656,1,8,0:0:0:0:
128,204,441731,1,0,0:0:0:0:
136,208,441806,1,0,0:0:0:0:
304,304,441881,1,0,0:0:0:0:
304,304,441956,1,8,0:0:0:0:
128,204,442031,1,0,0:0:0:0:
304,304,442106,1,0,0:0:0:0:
304,304,442181,1,0,0:0:0:0:
304,304,442256,1,8,0:0:0:0:
128,204,442331,1,0,0:0:0:0:
304,304,442406,1,0,0:0:0:0:
304,304,442481,1,0,0:0:0:0:
304,304,442556,1,8,0:0:0:0:
304,304,442631,1,8,0:0:0:0:
64,144,442706,1,8,0:0:0:0:
304,304,442781,1,0,0:0:0:0:
304,304,442856,1,8,0:0:0:0:
128,204,442931,1,0,0:0:0:0:
304,304,443006,1,0,0:0:0:0:
304,304,443081,1,0,0:0:0:0:
304,304,443156,1,8,0:0:0:0:
128,204,443231,1,0,0:0:0:0:
304,304,443306,1,8,0:0:0:0:
304,304,443381,1,0,0:0:0:0:
304,304,443456,1,8,0:0:0:0:
128,204,443531,1,0,0:0:0:0:
304,304,443606,1,0,0:0:0:0:
304,304,443681,1,0,0:0:0:0:
304,304,443756,1,8,0:0:0:0:
304,304,443831,1,8,0:0:0:0:
144,180,443906,1,0,0:0:0:0:
304,304,443981,1,0,0:0:0:0:
304,304,444056,1,8,0:0:0:0:
304,304,444131,1,0,0:0:0:0:
304,304,444206,1,0,0:0:0:0:
128,204,444281,1,0,0:0:0:0:
304,304,444356,1,8,0:0:0:0:
128,204,444431,1,0,0:0:0:0:
304,304,444506,1,0,0:0:0:0:
304,304,444581,1,0,0:0:0:0:
304,304,444656,1,8,0:0:0:0:
128,204,444731,1,0,0:0:0:0:
304,304,444806,1,8,0:0:0:0:
304,304,444881,1,0,0:0:0:0:
304,304,444956,1,8,0:0:0:0:
128,204,445031,1,8,0:0:0:0:
64,144,445106,1,0,0:0:0:0:
304,304,445181,1,0,0:0:0:0:
304,304,445256,1,8,0:0:0:0:
128,204,445331,1,0,0:0:0:0:
304,304,445406,1,0,0:0:0:0:
304,304,445481,1,0,0:0:0:0:
304,304,445556,1,8,0:0:0:0:
128,204,445631,1,0,0:0:0:0:
304,304,445706,1,0,0:0:0:0:
304,304,445781,1,0,0:0:0:0:
304,304,445856,1,8,0:0:0:0:
128,204,445931,1,0,0:0:0:0:
304,304,446006,1,8,0:0:0:0:
304,304,446081,1,0,0:0:0:0:
304,304,446156,1,8,0:0:0:0:
304,304,446231,1,8,0:0:0:0:
304,304,446306,1,0,0:0:0:0:
304,304,446381,1,0,0:0:0:0:
304,304,446456,1,8,0:0:0:0:
152,140,446531,1,0,0:0:0:0:
304,304,446606,1,0,0:0:0:0:
128,204,446681,1,0,0:0:0:0:
304,304,446756,1,8,0:0:0:0:
128,204,446831,1,0,0:0:0:0:
128,204,446906,1,0,0:0:0:0:
304,304,446981,1,0,0:0:0:0:
304,304,447056,1,8,0:0:0:0:
128,204,447131,1,0,0:0:0:0:
304,304,447206,5,0,0:0:0:0:
304,304,447281,1,0,0:0:0:0:
304,304,447356,1,8,0:0:0:0:
304,304,447431,1,8,0:0:0:0:
64,144,447506,1,8,0:0:0:0:
304,304,447581,1,0,0:0:0:0:
304,304,447656,1,8,0:0:0:0:
128,204,447731,1,0,0:0:0:0:
304,304,447806,1,0,0:0:0:0:
304,304,447881,1,0,0:0:0:0:
304,304,447956,1,8,0:0:0:0:
304,304,448031,1,0,0:0:0:0:
264,88,448106,1,8,0:0:0:0:
304,304,448181,1,0,0:0:0:0:
304,304,448256,1,8,0:0:0:0:
304,304,448331,1,8,0:0:0:0:
236,180,448406,1,0,0:0:0:0:
304,304,448481,1,0,0:0:0:0:
304,304,448556,1,8,0:0:0:0:
304,304,448631,1,8,0:0:0:0:
144,180,448706,1,0,0:0:0:0:
304,304,448781,1,0,0:0:0:0:
304,304,448856,1,8,0:0:0:0:
120,80,448931,1,0,0:0:0:0:
304,304,449006,1,0,0:0:0:0:
304,304,449081,1,0,0:0:0:0:
304,304,449156,1,8,0:0:0:0:
304,304,449231,1,8,0:0:0:0:
304,304,449306,1,0,0:0:0:0:
304,304,449381,1,8,0:0:0:0:
304,304,449456,1,0,0:0:0:0:
232,208,449531,1,0,0:0:0:0:
304,304,449606,1,8,0:0:0:0:
232,208,449681,1,0,0:0:0:0:
304,304,449756,1,8,0:0:0:0:
64,144,449831,1,8,0:0:0:0:
304,304,449906,1,8,0:0:0:0:
304,304,449981,1,8,0:0:0:0:
240,184,450056,1,0,0:0:0:0:
188,292,450206,1,8,0:0:0:0:
188,292,450356,1,0,0:0:0:0:
188,292,450431,1,0,0:0:0:0:
188,292,450506,1,8,0:0:0:0:
188,292,450656,1,0,0:0:0:0:
188,292,450806,1,8,0:0:0:0:
84,144,450881,1,0,0:0:0:0:
228,112,450956,1,0,0:0:0:0:
188,284,451031,1,0,0:0:0:0:
188,284,451106,1,8,0:0:0:0:
188,284,451181,1,8,0:0:0:0:
188,292,451256,1,0,0:0:0:0:
188,292,451406,1,8,0:0:0:0:
188,284,451556,1,0,0:0:0:0:
188,284,451631,1,0,0:0:0:0:
188,284,451706,1,8,0:0:0:0:
188,284,451856,1,0,0:0:0:0:
188,292,451931,1,0,0:0:0:0:
188,284,452006,1,8,0:0:0:0:
188,284,452081,1,0,0:0:0:0:
180,112,452231,1,0,0:0:0:0:
320,312,452306,1,8,0:0:0:0:
188,292,452456,1,0,0:0:0:0:
188,292,452606,1,8,0:0:0:0:
188,284,452756,1,0,0:0:0:0:
188,284,452831,1,0,0:0:0:0:
188,284,452906,1,8,0:0:0:0:
188,284,453056,1,0,0:0:0:0:
252,160,453131,1,0,0:0:0:0:
188,284,453206,1,8,0:0:0:0:
188,292,453281,1,0,0:0:0:0:
188,292,453356,1,0,0:0:0:0:
320,312,453506,1,8,0:0:0:0:
196,136,453581,1,8,0:0:0:0:
188,292,453656,1,0,0:0:0:0:
188,292,453806,1,8,0:0:0:0:
188,284,453956,1,0,0:0:0:0:
188,284,454031,1,0,0:0:0:0:
188,284,454106,1,8,0:0:0:0:
228,160,454181,1,8,0:0:0:0:
188,284,454256,1,0,0:0:0:0:
188,284,454406,1,8,0:0:0:0:
188,292,454481,1,0,0:0:0:0:
220,104,454631,1,0,0:0:0:0:
320,312,454706,1,8,0:0:0:0:
176,204,454856,1,0,0:0:0:0:
176,204,455006,1,8,0:0:0:0:
180,184,455081,1,0,0:0:0:0:
196,176,455156,1,0,0:0:0:0:
300,204,455231,1,0,0:0:0:0:
300,204,455306,1,8,0:0:0:0:
296,200,455456,1,0,0:0:0:0:
228,136,455531,1,0,0:0:0:0:
296,204,455606,1,8,0:0:0:0:
252,144,455681,1,8,0:0:0:0:
260,132,455756,1,0,0:0:0:0:
260,132,455831,1,0,0:0:0:0:
216,124,455906,1,8,0:0:0:0:
36,208,456056,1,0,0:0:0:0:
176,204,456206,1,8,0:0:0:0:
300,204,456281,1,8,0:0:0:0:
196,176,456356,1,0,0:0:0:0:
300,204,456431,1,0,0:0:0:0:
300,204,456506,1,8,0:0:0:0:
212,168,456581,1,0,0:0:0:0:
296,200,456656,1,0,0:0:0:0:
296,204,456806,5,8,0:0:0:0:
260,132,456956,1,0,0:0:0:0:
260,132,457031,1,0,0:0:0:0:
216,124,457106,1,8,0:0:0:0:
292,304,457256,5,8,0:0:0:0:
292,304,457331,1,0,0:0:0:0:
292,304,457406,1,0,0:0:0:0:
292,304,457481,1,0,0:0:0:0:
320,356,457556,1,8,0:0:0:0:
320,356,457631,1,0,0:0:0:0:
320,356,457706,1,8,0:0:0:0:
396,332,457781,1,0,0:0:0:0:
396,332,457856,1,8,0:0:0:0:
396,332,457931,1,8,0:0:0:0:
396,332,458006,1,0,0:0:0:0:
396,332,458081,1,0,0:0:0:0:
396,332,458156,1,8,0:0:0:0:
388,328,458231,1,8,0:0:0:0:
388,328,458306,1,8,0:0:0:0:
388,328,458381,1,8,0:0:0:0:
252,224,458456,1,0,0:0:0:0:
252,224,458531,1,0,0:0:0:0:
252,224,458606,1,0,0:0:0:0:
252,224,458681,1,0,0:0:0:0:
252,224,458756,1,8,0:0:0:0:
164,152,458831,1,0,0:0:0:0:
164,152,458906,1,0,0:0:0:0:
152,152,458981,1,0,0:0:0:0:
152,152,459056,1,8,0:0:0:0:
148,152,459131,1,0,0:0:0:0:
148,152,459206,1,0,0:0:0:0:
148,152,459281,1,0,0:0:0:0:
224,304,459356,1,8,0:0:0:0:
236,320,459431,1,8,0:0:0:0:
236,320,459506,1,0,0:0:0:0:
320,160,459656,1,4,0:0:0:0:
148,296,459806,1,8,0:0:0:0:
148,296,459956,1,0,0:0:0:0:
148,296,460031,1,0,0:0:0:0:
148,296,460106,1,8,0:0:0:0:
252,168,460181,1,8,0:0:0:0:
148,296,460256,1,0,0:0:0:0:
148,296,460406,1,8,0:0:0:0:
148,296,460556,1,0,0:0:0:0:
148,296,460631,1,0,0:0:0:0:
148,296,460706,1,8,0:0:0:0:
184,80,460781,1,0,0:0:0:0:
148,296,460856,1,0,0:0:0:0:
148,296,461006,1,8,0:0:0:0:
148,296,461156,1,0,0:0:0:0:
148,296,461231,1,0,0:0:0:0:
148,296,461306,1,8,0:0:0:0:
148,296,461456,1,0,0:0:0:0:
148,296,461606,1,8,0:0:0:0:
148,296,461756,1,0,0:0:0:0:
148,296,461906,1,8,0:0:0:0:
148,296,461981,1,0,0:0:0:0:
260,376,462056,1,0,0:0:0:0:
260,376,462206,1,8,0:0:0:0:
260,376,462356,1,8,0:0:0:0:
260,376,462431,1,0,0:0:0:0:
260,376,462506,1,8,0:0:0:0:
228,96,462581,1,8,0:0:0:0:
260,376,462656,1,0,0:0:0:0:
228,224,462806,1,8,0:0:0:0:
244,216,462956,1,0,0:0:0:0:
236,224,463031,1,0,0:0:0:0:
236,224,463106,1,8,0:0:0:0:
148,296,463256,1,0,0:0:0:0:
148,296,463406,1,8,0:0:0:0:
148,296,463556,1,0,0:0:0:0:
148,296,463631,1,0,0:0:0:0:
148,296,463706,1,8,0:0:0:0:
148,296,463856,1,0,0:0:0:0:
148,296,464006,1,8,0:0:0:0:
148,296,464156,1,0,0:0:0:0:
148,296,464231,1,0,0:0:0:0:
148,296,464306,1,8,0:0:0:0:
260,280,464456,1,4,0:0:0:0:
260,288,464606,1,8,0:0:0:0:
220,112,464681,1,0,0:0:0:0:
124,192,464756,1,0,0:0:0:0:
124,192,464831,1,0,0:0:0:0:
124,192,464906,1,8,0:0:0:0:
124,192,465056,1,0,0:0:0:0:
220,112,465131,1,0,0:0:0:0:
124,192,465206,1,8,0:0:0:0:
124,192,465356,1,0,0:0:0:0:
124,192,465431,1,0,0:0:0:0:
268,184,465506,1,8,0:0:0:0:
228,160,465581,1,8,0:0:0:0:
124,192,465656,1,0,0:0:0:0:
236,280,465806,1,8,0:0:0:0:
236,280,465881,1,0,0:0:0:0:
228,272,465956,1,0,0:0:0:0:
204,96,466031,1,0,0:0:0:0:
220,264,466106,1,8,0:0:0:0:
220,264,466256,1,0,0:0:0:0:
220,264,466331,1,0,0:0:0:0:
196,328,466406,5,8,0:0:0:0:
208,32,466481,1,0,0:0:0:0:
220,264,466556,1,8,0:0:0:0:
276,104,466631,1,8,0:0:0:0:
220,264,466706,1,0,0:0:0:0:
288,240,466856,5,8,0:0:0:0:
288,240,466931,1,0,0:0:0:0:
288,240,467006,1,0,0:0:0:0:
288,240,467081,1,0,0:0:0:0:
288,240,467156,1,0,0:0:0:0:
288,240,467231,1,0,0:0:0:0:
288,240,467306,1,8,0:0:0:0:
288,240,467381,1,0,0:0:0:0:
288,240,467456,1,0,0:0:0:0:
288,240,467531,1,0,0:0:0:0:
288,240,467606,1,0,0:0:0:0:
288,240,467681,1,0,0:0:0:0:
288,240,467756,1,8,0:0:0:0:
288,240,467831,1,0,0:0:0:0:
288,240,467906,1,0,0:0:0:0:
288,240,467981,1,0,0:0:0:0:
288,240,468056,1,8,0:0:0:0:
232,48,468131,1,0,0:0:0:0:
320,328,468206,1,0,0:0:0:0:
232,48,468281,1,0,0:0:0:0:
320,328,468356,1,0,0:0:0:0:
312,328,468431,1,0,0:0:0:0:
320,328,468506,1,8,0:0:0:0:
192,64,468581,1,0,0:0:0:0:
312,328,468656,1,8,0:0:0:0:
192,64,468731,1,8,0:0:0:0:
208,208,468806,1,0,0:0:0:0:
208,208,468881,1,0,0:0:0:0:
208,216,468956,1,8,0:0:0:0:
208,208,469031,1,8,0:0:0:0:
208,216,469106,1,8,0:0:0:0:
300,112,469256,1,4,0:0:0:0:
128,248,469406,1,0,0:0:0:0:
168,56,469481,1,0,0:0:0:0:
128,248,469556,1,8,0:0:0:0:
128,248,469631,1,0,0:0:0:0:
128,248,469706,1,8,0:0:0:0:
232,120,469781,1,0,0:0:0:0:
128,248,469856,1,0,0:0:0:0:
184,40,469931,1,0,0:0:0:0:
128,248,470006,1,8,0:0:0:0:
184,40,470081,1,0,0:0:0:0:
128,248,470156,1,8,0:0:0:0:
192,32,470231,1,8,0:0:0:0:
128,248,470306,1,0,0:0:0:0:
128,248,470381,1,0,0:0:0:0:
128,248,470456,1,8,0:0:0:0:
128,248,470606,1,8,0:0:0:0:
128,248,470756,1,0,0:0:0:0:
128,248,470831,1,0,0:0:0:0:
128,248,470906,1,8,0:0:0:0:
128,248,471056,1,0,0:0:0:0:
128,248,471206,1,8,0:0:0:0:
128,248,471356,1,0,0:0:0:0:
128,248,471431,1,0,0:0:0:0:
128,248,471506,1,8,0:0:0:0:
128,248,471581,1,0,0:0:0:0:
240,328,471656,1,8,0:0:0:0:
240,328,471806,1,0,0:0:0:0:
192,56,471881,1,0,0:0:0:0:
240,328,471956,1,8,0:0:0:0:
240,328,472031,1,0,0:0:0:0:
240,328,472106,1,8,0:0:0:0:
208,48,472181,1,0,0:0:0:0:
240,328,472256,1,0,0:0:0:0:
240,80,472331,1,0,0:0:0:0:
208,176,472406,1,8,0:0:0:0:
240,80,472481,1,0,0:0:0:0:
216,176,472556,1,8,0:0:0:0:
216,176,472631,1,8,0:0:0:0:
224,168,472706,1,0,0:0:0:0:
128,248,472856,1,0,0:0:0:0:
128,248,473006,1,8,0:0:0:0:
128,248,473156,1,0,0:0:0:0:
128,248,473231,1,0,0:0:0:0:
128,248,473306,1,8,0:0:0:0:
128,248,473456,1,0,0:0:0:0:
128,248,473606,1,8,0:0:0:0:
128,248,473756,1,0,0:0:0:0:
128,248,473831,1,0,0:0:0:0:
128,248,473906,1,8,0:0:0:0:
240,232,474056,1,4,0:0:0:0:
240,240,474206,1,0,0:0:0:0:
208,64,474281,1,0,0:0:0:0:
104,144,474356,1,8,0:0:0:0:
104,144,474431,1,8,0:0:0:0:
104,144,474506,1,0,0:0:0:0:
304,128,474581,1,0,0:0:0:0:
104,144,474656,1,8,0:0:0:0:
304,128,474731,1,0,0:0:0:0:
104,144,474806,1,0,0:0:0:0:
184,24,474881,1,0,0:0:0:0:
248,136,474956,1,8,0:0:0:0:
104,144,475031,1,8,0:0:0:0:
192,144,475106,1,0,0:0:0:0:
200,8,475181,1,0,0:0:0:0:
104,144,475256,1,8,0:0:0:0:
128,48,475331,1,8,0:0:0:0:
224,248,475406,1,8,0:0:0:0:
224,248,475481,1,0,0:0:0:0:
224,248,475556,1,8,0:0:0:0:
224,248,475631,1,8,0:0:0:0:
224,248,475706,1,0,0:0:0:0:
224,248,475781,1,0,0:0:0:0:
224,248,475856,1,8,0:0:0:0:
224,248,475931,1,0,0:0:0:0:
224,248,476006,5,0,0:0:0:0:
224,248,476081,1,0,0:0:0:0:
224,248,476156,1,8,0:0:0:0:
224,248,476231,1,8,0:0:0:0:
224,248,476306,1,0,0:0:0:0:
224,248,476456,5,4,0:0:0:0:
104,136,476756,1,4,0:0:0:0:
256,216,477656,1,12,0:0:0:0:
136,192,478856,1,8,0:0:0:0:
128,192,478931,1,0,0:0:0:0:
128,184,479006,1,0,0:0:0:0:
128,192,479081,1,0,0:0:0:0:
136,192,479156,1,8,0:0:0:0:
128,192,479231,1,0,0:0:0:0:
128,192,479306,1,8,0:0:0:0:
136,192,479381,1,8,0:0:0:0:
128,192,479456,1,0,0:0:0:0:
128,184,479531,1,0,0:0:0:0:
128,184,479606,1,8,0:0:0:0:
136,192,479681,1,0,0:0:0:0:
128,192,479756,1,8,0:0:0:0:
128,192,479831,1,8,0:0:0:0:
128,184,479906,1,0,0:0:0:0:
128,192,479981,1,0,0:0:0:0:
136,192,480056,1,8,0:0:0:0:
128,192,480131,1,0,0:0:0:0:
128,184,480206,1,0,0:0:0:0:
128,192,480281,1,0,0:0:0:0:
136,192,480356,1,8,0:0:0:0:
128,192,480431,1,0,0:0:0:0:
128,192,480506,1,8,0:0:0:0:
136,192,480581,1,8,0:0:0:0:
128,192,480656,1,0,0:0:0:0:
128,184,480731,1,0,0:0:0:0:
128,184,480806,1,8,0:0:0:0:
128,192,480881,1,0,0:0:0:0:
136,192,480956,1,8,0:0:0:0:
128,192,481031,1,8,0:0:0:0:
128,184,481106,1,0,0:0:0:0:
128,192,481256,1,4,0:0:0:0:
168,128,481406,1,4,0:0:0:0:
168,120,481556,1,4,0:0:0:0:
240,160,481706,1,0,0:0:0:0:
240,160,481781,1,8,0:0:0:0:
240,160,481856,1,0,0:0:0:0:
240,160,481931,1,0,0:0:0:0:
256,192,482006,1,8,0:0:0:0:
256,184,482081,1,0,0:0:0:0:
256,184,482156,1,8,0:0:0:0:
256,184,482231,1,8,0:0:0:0:
256,184,482306,1,0,0:0:0:0:
256,120,482456,1,12,0:0:0:0:
256,192,482606,12,0,483506,0:0:0:0:
208,232,483656,5,8,0:0:0:0:
208,232,483731,1,8,0:0:0:0:
216,224,483806,1,8,0:0:0:0:
208,232,483881,1,8,0:0:0:0:
216,224,483956,1,8,0:0:0:0:
216,224,484256,1,8,0:0:0:0:
216,224,484331,1,8,0:0:0:0:
216,224,484406,1,8,0:0:0:0:
216,224,484481,1,8,0:0:0:0:
216,224,484556,1,8,0:0:0:0:
224,224,484856,1,8,0:0:0:0:
224,224,484931,1,8,0:0:0:0:
224,224,485006,1,8,0:0:0:0:
224,224,485081,1,8,0:0:0:0:
224,224,485156,1,8,0:0:0:0:
224,224,485306,1,8,0:0:0:0:
224,224,485606,1,8,0:0:0:0:
224,224,486056,1,12,0:0:0:0:
224,224,486256,1,4,0:0:0:0:
224,224,486456,1,4,0:0:0:0:
224,224,486656,1,12,0:0:0:0:
184,168,486856,1,4,0:0:0:0:
184,168,487056,1,4,0:0:0:0:
184,168,487256,1,12,0:0:0:0:
144,216,487856,1,4,0:0:0:0:
144,216,488006,1,4,0:0:0:0:
144,216,488156,1,4,0:0:0:0:
